999
DXF file: td-1002-970.dxf
999
Pro/ENGINEER 2003060 by Parametric Technology Corporation
0
SECTION
2
HEADER
9
$ACADVER
1
AC1014
9
$HANDSEED
5
       4EC
9
$EXTMAX
10
420.0000000000
20
297.0000000000
9
$EXTMIN
10
0.0000000000
20
0.0000000000
9
$LIMMIN
10
0.0000000000
20
0.0000000000
9
$LIMMAX
10
420.0000000000
20
297.0000000000
9
$VIEWCTR
10
210.0000000000
20
148.5000000000
9
$VIEWSIZE
40
297.0000000000
9
$CLAYER
8
0
9
$LTSCALE
40
23.1000000000
9
$CELTYPE
6
BYLAYER
9
$DIMSCALE
40
1
9
$DIMASZ
40
5.0000000000
9
$DIMEXO
40
2.6250000000
9
$DIMDLI
40
15.9600000000
9
$DIMEXE
40
7.5600000000
9
$DIMCEN
40
3.7800000000
9
$DIMLFAC
40
1.0000000000
9
$DIMTXT
40
4.0000000000
9
$DIMTOL
70
1
9
$DIMLIM
70
0
9
$DIMTFAC
40
1.0000000000
9
$DIMTP
40
0.0100000000
9
$DIMTM
40
0.0100000000
0
ENDSEC
0
SECTION
2
CLASSES
0
ENDSEC
0
SECTION
2
TABLES
0
TABLE
2
VPORT
5
8
100
AcDbSymbolTable
70
2
0
VPORT
5
1F4
100
AcDbSymbolTableRecord
100
AcDbViewportTableRecord
2
*ACTIVE
70
0
10
0.0
20
0.0
11
1.0
21
1.0
12
210.0000000000
22
148.5000000000
13
0.0
23
0.0
14
1.0
24
1.0
15
0.0
25
0.0
16
0.0
26
0.0
36
1.0
17
0.0
27
0.0
37
0.0
40
297.0000000000
41
1.4141414141
42
50.0
43
0.0
44
0.0
50
0.0
51
0.0
71
0
72
100
73
1
74
1
75
0
76
0
77
0
78
0
0
ENDTAB
0
TABLE
2
LTYPE
5
5
100
AcDbSymbolTable
70
6
0
LTYPE
5
14
100
AcDbSymbolTableRecord
100
AcDbLinetypeTableRecord
2
BYBLOCK
70
0
3

72
65
73
0
40
0.0
0
LTYPE
5
15
100
AcDbSymbolTableRecord
100
AcDbLinetypeTableRecord
2
BYLAYER
70
0
3

72
65
73
0
40
0.0
0
LTYPE
5
16
100
AcDbSymbolTableRecord
100
AcDbLinetypeTableRecord
2
CONTINUOUS
70
64
3
Solid line
72
65
73
0
40
0
0
LTYPE
5
1F5
100
AcDbSymbolTableRecord
100
AcDbLinetypeTableRecord
2
CENTER
70
64
3
____ _ ____ _ ____ _ ____ _ ____ _ ____ _ ____
72
65
73
4
40
0.6
49
0.375
74
0
49
-0.075
74
0
49
0.075
74
0
49
-0.075
74
0
0
LTYPE
5
1F6
100
AcDbSymbolTableRecord
100
AcDbLinetypeTableRecord
2
HIDDEN
70
64
3
- - - - - - - - - - - - - - - - - - - -
72
65
73
2
40
0.2
49
0.1
74
0
49
-0.1
74
0
0
LTYPE
5
1F7
100
AcDbSymbolTableRecord
100
AcDbLinetypeTableRecord
2
PHANTOM
70
64
3
_____ _ _ _____ _ _ _____ _ _ _____
72
65
73
6
40
0.8
49
0.45
74
0
49
-0.05
74
0
49
0.1
74
0
49
-0.05
74
0
49
0.1
74
0
49
-0.05
74
0
0
LTYPE
5
1F8
100
AcDbSymbolTableRecord
100
AcDbLinetypeTableRecord
2
DOT
70
64
3
. . . . . . . . . . . . . . . . . . . .
72
65
73
2
40
0.2
49
0.1
74
0
49
-0.1
74
0
0
LTYPE
5
1F9
100
AcDbSymbolTableRecord
100
AcDbLinetypeTableRecord
2
DASHED
70
64
3
- - - - - - - - - - - - - - - - - - - -
72
65
73
2
40
0.2
49
0.1
74
0
49
-0.1
74
0
0
ENDTAB
0
TABLE
2
LAYER
5
2
100
AcDbSymbolTable
70
36
0
LAYER
5
10
100
AcDbSymbolTableRecord
100
AcDbLayerTableRecord
2
0
70
0
62
7
6
CONTINUOUS
0
LAYER
5
1FA
100
AcDbSymbolTableRecord
100
AcDbLayerTableRecord
2
DEFAULT_1
70
0
62
7
6
CENTER
0
LAYER
5
1FB
100
AcDbSymbolTableRecord
100
AcDbLayerTableRecord
2
DEFAULT_2
70
0
62
7
6
HIDDEN
0
LAYER
5
1FC
100
AcDbSymbolTableRecord
100
AcDbLayerTableRecord
2
DEFAULT_3
70
0
62
7
6
PHANTOM
0
LAYER
5
1FD
100
AcDbSymbolTableRecord
100
AcDbLayerTableRecord
2
AXIS
70
0
62
7
6
CONTINUOUS
0
LAYER
5
1FE
100
AcDbSymbolTableRecord
100
AcDbLayerTableRecord
2
CSYS
70
0
62
7
6
CONTINUOUS
0
LAYER
5
1FF
100
AcDbSymbolTableRecord
100
AcDbLayerTableRecord
2
CURVES
70
0
62
7
6
CONTINUOUS
0
LAYER
5
200
100
AcDbSymbolTableRecord
100
AcDbLayerTableRecord
2
DTMS
70
0
62
7
6
CONTINUOUS
0
LAYER
5
201
100
AcDbSymbolTableRecord
100
AcDbLayerTableRecord
2
GEOM
70
0
62
7
6
CONTINUOUS
0
LAYER
5
202
100
AcDbSymbolTableRecord
100
AcDbLayerTableRecord
2
PLANES
70
0
62
7
6
CONTINUOUS
0
LAYER
5
203
100
AcDbSymbolTableRecord
100
AcDbLayerTableRecord
2
POINTS
70
0
62
7
6
CONTINUOUS
0
LAYER
5
204
100
AcDbSymbolTableRecord
100
AcDbLayerTableRecord
2
SKELETON
70
0
62
7
6
CONTINUOUS
0
ENDTAB
0
TABLE
2
STYLE
5
3
100
AcDbSymbolTable
70
1
0
STYLE
5
11
100
AcDbSymbolTableRecord
100
AcDbTextStyleTableRecord
2
STANDARD
70
0
40
0.0
41
0.8000000000
50
0.0
71
0
42
0.2
3
txt
4

0
STYLE
5
205
100
AcDbSymbolTableRecord
100
AcDbTextStyleTableRecord
2
TEXTSTYLE_1
70
0
40
0.0
41
0.8000000000
50
0.0
71
0
42
0.2
3
txt
4

0
STYLE
5
206
100
AcDbSymbolTableRecord
100
AcDbTextStyleTableRecord
2
TEXTSTYLE_2
70
0
40
0.0
41
0.8000000000
50
0.0
71
0
42
0.2
3
cgtime.ttf
4

0
ENDTAB
0
TABLE
2
VIEW
5
6
100
AcDbSymbolTable
70
0
0
ENDTAB
0
TABLE
2
UCS
5
7
100
AcDbSymbolTable
70
0
0
ENDTAB
0
TABLE
2
APPID
5
9
100
AcDbSymbolTable
70
1
0
APPID
5
207
100
AcDbSymbolTableRecord
100
AcDbRegAppTableRecord
2
ACAD
70
0
0
ENDTAB
0
TABLE
2
DIMSTYLE
5
A
100
AcDbSymbolTable
70
1
0
DIMSTYLE
105
208
100
AcDbSymbolTableRecord
100
AcDbDimStyleTableRecord
2
STANDARD
70
0
3

4

5

6

7

40
1.0
41
5.0000000000
42
0.0625
43
0.38
44
0.18
45
0.0
46
0.0
47
0.0100000000
48
0.0100000000
140
4.0000000000
141
0.09
142
0.0
143
25.4
144
1.0000000000
145
0.0
146
1.0000000000
147
0.09
71
1
72
0
73
0
74
0
75
0
76
0
77
1
78
8
170
0
171
2
172
0
173
0
174
0
175
0
176
0
177
0
178
0
270
2
271
2
272
2
273
2
274
2
340
11
275
0
280
0
281
0
282
0
283
1
284
8
285
0
286
0
287
3
288
0
0
DIMSTYLE
105
209
100
AcDbSymbolTableRecord
100
AcDbDimStyleTableRecord
2
DIMSTYLE_1
70
0
3

4

5

6

7

40
1.0
41
5.0000000000
42
0.0625
43
0.38
44
0.18
45
0.0
46
0.0
47
0.2000000000
48
0.2000000000
140
4.0000000000
141
0.09
142
0.0
143
25.4
144
1.0000000000
145
0.0
146
1.0000000000
147
0.09
71
0
72
0
73
0
74
0
75
0
76
0
77
1
78
8
170
0
171
2
172
0
173
0
174
0
175
0
176
0
177
0
178
0
270
2
271
2
272
2
273
2
274
2
340
11
275
0
280
0
281
0
282
0
283
1
284
8
285
0
286
0
287
3
288
0
0
DIMSTYLE
105
20A
100
AcDbSymbolTableRecord
100
AcDbDimStyleTableRecord
2
DIMSTYLE_2
70
0
3

4

5

6

7

40
1.0
41
5.0000000000
42
0.0625
43
0.38
44
0.18
45
0.0
46
0.0
47
0.3000000000
48
0.3000000000
140
4.0000000000
141
0.09
142
0.0
143
25.4
144
1.0000000000
145
0.0
146
1.0000000000
147
0.09
71
0
72
0
73
0
74
0
75
0
76
0
77
1
78
8
170
0
171
2
172
0
173
0
174
0
175
0
176
0
177
0
178
0
270
2
271
2
272
2
273
2
274
2
340
11
275
0
280
0
281
0
282
0
283
1
284
8
285
0
286
0
287
3
288
0
0
DIMSTYLE
105
20B
100
AcDbSymbolTableRecord
100
AcDbDimStyleTableRecord
2
DIMSTYLE_3
70
0
3

4

5

6

7

40
1.0
41
5.0000000000
42
0.0625
43
0.38
44
0.18
45
0.0
46
0.0
47
0.5000000000
48
0.5000000000
140
4.0000000000
141
0.09
142
0.0
143
25.4
144
1.0000000000
145
0.0
146
1.0000000000
147
0.09
71
0
72
0
73
0
74
0
75
0
76
0
77
1
78
8
170
0
171
2
172
0
173
0
174
0
175
0
176
0
177
0
178
0
270
2
271
1
272
1
273
2
274
2
340
11
275
0
280
0
281
0
282
0
283
1
284
8
285
0
286
0
287
3
288
0
0
ENDTAB
0
TABLE
2
BLOCK_RECORD
5
1
100
AcDbSymbolTable
70
0
0
BLOCK_RECORD
5
1B
100
AcDbSymbolTableRecord
100
AcDbBlockTableRecord
2
*MODEL_SPACE
0
BLOCK_RECORD
5
1C
100
AcDbSymbolTableRecord
100
AcDbBlockTableRecord
2
*PAPER_SPACE
0
BLOCK_RECORD
5
20C
100
AcDbSymbolTableRecord
100
AcDbBlockTableRecord
2
COPYRIGHT_BL0
0
BLOCK_RECORD
5
20D
100
AcDbSymbolTableRecord
100
AcDbBlockTableRecord
2
MICRO_U_BL1
0
BLOCK_RECORD
5
20E
100
AcDbSymbolTableRecord
100
AcDbBlockTableRecord
2
PROJECTION_BL2
0
BLOCK_RECORD
5
20F
100
AcDbSymbolTableRecord
100
AcDbBlockTableRecord
2
SURFACE_FINISH_BL3
0
BLOCK_RECORD
5
210
100
AcDbSymbolTableRecord
100
AcDbBlockTableRecord
2
*D0
0
BLOCK_RECORD
5
211
100
AcDbSymbolTableRecord
100
AcDbBlockTableRecord
2
*D1
0
BLOCK_RECORD
5
212
100
AcDbSymbolTableRecord
100
AcDbBlockTableRecord
2
*D2
0
BLOCK_RECORD
5
213
100
AcDbSymbolTableRecord
100
AcDbBlockTableRecord
2
*D3
0
BLOCK_RECORD
5
214
100
AcDbSymbolTableRecord
100
AcDbBlockTableRecord
2
*D4
0
BLOCK_RECORD
5
215
100
AcDbSymbolTableRecord
100
AcDbBlockTableRecord
2
*D5
0
BLOCK_RECORD
5
216
100
AcDbSymbolTableRecord
100
AcDbBlockTableRecord
2
*D6
0
BLOCK_RECORD
5
217
100
AcDbSymbolTableRecord
100
AcDbBlockTableRecord
2
*D7
0
BLOCK_RECORD
5
218
100
AcDbSymbolTableRecord
100
AcDbBlockTableRecord
2
COPYRIGHT_BL4
0
BLOCK_RECORD
5
219
100
AcDbSymbolTableRecord
100
AcDbBlockTableRecord
2
MICRO_U_BL5
0
BLOCK_RECORD
5
21A
100
AcDbSymbolTableRecord
100
AcDbBlockTableRecord
2
SURFACE_FINISH_BL6
0
BLOCK_RECORD
5
21B
100
AcDbSymbolTableRecord
100
AcDbBlockTableRecord
2
PROJECTION_BL7
0
ENDTAB
0
ENDSEC
0
SECTION
2
BLOCKS
0
BLOCK
5
1E
100
AcDbEntity
8
0
100
AcDbBlockBegin
2
*MODEL_SPACE
70
0
10
0.0
20
0.0
30
0.0
3
*MODEL_SPACE
1

0
ENDBLK
5
1F
100
AcDbEntity
8
0
100
AcDbBlockEnd
0
BLOCK
5
20
100
AcDbEntity
8
0
100
AcDbBlockBegin
2
*PAPER_SPACE
70
0
10
0.0
20
0.0
30
0.0
3
*PAPER_SPACE
1

0
ENDBLK
5
21
100
AcDbEntity
8
0
100
AcDbBlockEnd
0
BLOCK
5
21C
100
AcDbEntity
8
0
100
AcDbBlockBegin
62
7
6
BYLAYER
2
COPYRIGHT_BL0
70
64
10
0.0000000000
20
0.0000000000
3
COPYRIGHT_BL0
1

0
TEXT
5
21D
100
AcDbEntity
8
0
100
AcDbText
62
7
6
BYLAYER
10
409.9593803245
20
9.9568590072
7
TEXTSTYLE_1
40
0.1000000000
1
C
41
0.8000000000
72
0
100
AcDbText
0
CIRCLE
5
21E
100
AcDbEntity
8
0
100
AcDbCircle
62
7
6
BYLAYER
10
409.9943527832
20
10.0069663115
40
0.0753936874
0
ENDBLK
5
21F
100
AcDbEntity
8
0
100
AcDbBlockEnd
0
BLOCK
5
220
100
AcDbEntity
8
0
100
AcDbBlockBegin
62
7
6
BYLAYER
2
MICRO_U_BL1
70
64
10
0.0000000000
20
0.0000000000
3
MICRO_U_BL1
1

0
TEXT
5
221
100
AcDbEntity
8
0
100
AcDbText
62
7
6
BYLAYER
10
409.9173172813
20
9.9658183152
7
STANDARD
40
0.1000000000
1
um
41
0.8000000000
72
0
100
AcDbText
0
ARC
5
222
100
AcDbEntity
8
0
100
AcDbCircle
62
7
6
BYLAYER
10
409.8795565990
20
9.9804558390
40
0.0627552936
100
AcDbArc
50
303.7730668774
51
1.5957171757
0
ENDBLK
5
223
100
AcDbEntity
8
0
100
AcDbBlockEnd
0
BLOCK
5
224
100
AcDbEntity
8
0
100
AcDbBlockBegin
62
7
6
BYLAYER
2
PROJECTION_BL2
70
64
10
0.0000000000
20
0.0000000000
3
PROJECTION_BL2
1

0
LINE
5
225
100
AcDbEntity
8
0
100
AcDbLine
62
7
6
BYLAYER
10
409.6178469936
20
9.9332236616
11
409.6178469936
21
10.0582236616
0
LINE
5
226
100
AcDbEntity
8
0
100
AcDbLine
62
7
6
BYLAYER
10
409.6178469936
20
10.0582236616
11
409.7928469936
21
10.1207236616
0
LINE
5
227
100
AcDbEntity
8
0
100
AcDbLine
62
7
6
BYLAYER
10
409.7928469936
20
10.1207236616
11
409.7928469936
21
9.8707236616
0
LINE
5
228
100
AcDbEntity
8
0
100
AcDbLine
62
7
6
BYLAYER
10
409.7928469936
20
9.8707236616
11
409.6178469936
21
9.9332236616
0
ARC
5
229
100
AcDbEntity
8
0
100
AcDbCircle
62
7
6
BYLAYER
10
409.2678469936
20
9.9957236616
40
0.0625000000
100
AcDbArc
50
180.0000000000
51
360.0000000000
0
ARC
5
22A
100
AcDbEntity
8
0
100
AcDbCircle
62
7
6
BYLAYER
10
409.2678469936
20
9.9957236616
40
0.0625000000
100
AcDbArc
50
0.0000000000
51
180.0000000000
0
ARC
5
22B
100
AcDbEntity
8
0
100
AcDbCircle
62
7
6
BYLAYER
10
409.2678469936
20
9.9957236616
40
0.1250000000
100
AcDbArc
50
180.0000000000
51
360.0000000000
0
ARC
5
22C
100
AcDbEntity
8
0
100
AcDbCircle
62
7
6
BYLAYER
10
409.2678469936
20
9.9957236616
40
0.1250000000
100
AcDbArc
50
0.0000000000
51
180.0000000000
0
LINE
5
22D
100
AcDbEntity
8
0
100
AcDbLine
62
7
6
BYLAYER
10
409.0671219936
20
9.9957236616
11
409.4456219936
21
9.9957236616
0
LINE
5
22E
100
AcDbEntity
8
0
100
AcDbLine
62
7
6
BYLAYER
10
409.5241469936
20
9.9957236616
11
409.8669219936
21
9.9957236616
0
LINE
5
22F
100
AcDbEntity
8
0
100
AcDbLine
62
7
6
BYLAYER
10
409.2678469936
20
10.1398736616
11
409.2678469936
21
9.8515736616
0
TEXT
5
230
100
AcDbEntity
8
0
100
AcDbText
62
7
6
BYLAYER
10
409.2283663134
20
9.9568432128
7
STANDARD
40
0.1000000000
1
l
41
0.8000000000
72
0
100
AcDbText
0
ENDBLK
5
231
100
AcDbEntity
8
0
100
AcDbBlockEnd
0
BLOCK
5
232
100
AcDbEntity
8
0
100
AcDbBlockBegin
62
7
6
BYLAYER
2
SURFACE_FINISH_BL3
70
64
10
0.0000000000
20
0.0000000000
3
SURFACE_FINISH_BL3
1

0
LINE
5
233
100
AcDbEntity
8
0
100
AcDbLine
62
7
6
BYLAYER
10
409.9768652881
20
9.9666906703
11
410.0571314064
21
10.1057156653
0
LINE
5
234
100
AcDbEntity
8
0
100
AcDbLine
62
7
6
BYLAYER
10
409.9768652881
20
9.9666906703
11
409.9405459599
21
10.0295975921
0
LINE
5
235
100
AcDbEntity
8
0
100
AcDbLine
62
7
6
BYLAYER
10
409.9405459599
20
10.0295975921
11
410.0131846164
21
10.0295975921
0
TEXT
5
236
100
AcDbEntity
8
0
100
AcDbText
62
7
6
BYLAYER
10
409.9369531437
20
9.9795701528
7
STANDARD
40
0.1000000000
1
-
41
0.8000000000
72
0
100
AcDbText
0
ENDBLK
5
237
100
AcDbEntity
8
0
100
AcDbBlockEnd
0
BLOCK
5
238
100
AcDbEntity
8
0
100
AcDbBlockBegin
62
7
6
BYLAYER
2
*D0
70
65
10
0.0000000000
20
0.0000000000
3
*D0
1

0
TEXT
5
239
100
AcDbEntity
8
0
100
AcDbText
62
7
6
BYLAYER
10
117.8482579082
20
156.5481582727
7
STANDARD
40
4.0000000000
1
27.8
50
90.0000000000
41
0.8000000000
72
0
100
AcDbText
0
LINE
5
23A
100
AcDbEntity
8
0
100
AcDbLine
62
7
6
BYLAYER
10
134.8338426986
20
176.3010521459
11
115.8482579082
21
176.3010521459
0
LINE
5
23B
100
AcDbEntity
8
0
100
AcDbLine
62
7
6
BYLAYER
10
134.8338426986
20
148.5010521459
11
115.8482579082
21
148.5010521459
0
LINE
5
23C
100
AcDbEntity
8
0
100
AcDbLine
62
7
6
BYLAYER
10
118.8482579082
20
176.3010521459
11
118.8482579082
21
162.4010521459
0
LINE
5
23D
100
AcDbEntity
8
0
100
AcDbLine
62
7
6
BYLAYER
10
118.8482579082
20
148.5010521459
11
118.8482579082
21
162.4010521459
0
SOLID
5
23E
100
AcDbEntity
8
0
100
AcDbTrace
62
7
6
BYLAYER
10
119.6482579082
20
171.3010521459
11
118.8482579082
21
176.3010521459
12
118.0482579082
22
171.3010521459
13
118.0482579082
23
171.3010521459
0
SOLID
5
23F
100
AcDbEntity
8
0
100
AcDbTrace
62
7
6
BYLAYER
10
118.0482579082
20
153.5010521459
11
118.8482579082
21
148.5010521459
12
119.6482579082
22
153.5010521459
13
119.6482579082
23
153.5010521459
0
ENDBLK
5
240
100
AcDbEntity
8
0
100
AcDbBlockEnd
0
BLOCK
5
241
100
AcDbEntity
8
0
100
AcDbBlockBegin
62
7
6
BYLAYER
2
*D1
70
65
10
0.0000000000
20
0.0000000000
3
*D1
1

0
TEXT
5
242
100
AcDbEntity
8
0
100
AcDbText
62
7
6
BYLAYER
10
153.9773301792
20
189.1181420232
7
STANDARD
40
4.0000000000
1
40
41
0.8000000000
72
0
100
AcDbText
0
LINE
5
243
100
AcDbEntity
8
0
100
AcDbLine
62
7
6
BYLAYER
10
176.8338426986
20
178.3010521459
11
176.8338426986
21
191.1181420232
0
LINE
5
244
100
AcDbEntity
8
0
100
AcDbLine
62
7
6
BYLAYER
10
136.8338426986
20
178.3010521459
11
136.8338426986
21
191.1181420232
0
LINE
5
245
100
AcDbEntity
8
0
100
AcDbLine
62
7
6
BYLAYER
10
176.8338426986
20
188.1181420232
11
156.8338426986
21
188.1181420232
0
LINE
5
246
100
AcDbEntity
8
0
100
AcDbLine
62
7
6
BYLAYER
10
136.8338426986
20
188.1181420232
11
156.8338426986
21
188.1181420232
0
SOLID
5
247
100
AcDbEntity
8
0
100
AcDbTrace
62
7
6
BYLAYER
10
171.8338426986
20
187.3181420232
11
176.8338426986
21
188.1181420232
12
171.8338426986
22
188.9181420232
13
171.8338426986
23
188.9181420232
0
SOLID
5
248
100
AcDbEntity
8
0
100
AcDbTrace
62
7
6
BYLAYER
10
141.8338426986
20
188.9181420232
11
136.8338426986
21
188.1181420232
12
141.8338426986
22
187.3181420232
13
141.8338426986
23
187.3181420232
0
ENDBLK
5
249
100
AcDbEntity
8
0
100
AcDbBlockEnd
0
BLOCK
5
24A
100
AcDbEntity
8
0
100
AcDbBlockBegin
62
7
6
BYLAYER
2
*D2
70
65
10
0.0000000000
20
0.0000000000
3
*D2
1

0
TEXT
5
24B
100
AcDbEntity
8
0
100
AcDbText
62
7
6
BYLAYER
10
256.4605474519
20
178.4443163208
7
STANDARD
40
4.0000000000
1
19.7%%d
50
-79.8163807429
41
0.7733333333
72
0
100
AcDbText
0
LINE
5
24C
100
AcDbEntity
8
0
100
AcDbLine
62
7
6
BYLAYER
10
224.5760758337
20
162.5864768740
11
253.3687165874
21
152.2606823259
0
LINE
5
24D
100
AcDbEntity
8
0
100
AcDbLine
62
7
6
BYLAYER
10
222.3528055086
20
164.1010521459
11
255.4276503670
21
164.1010521459
0
ARC
5
24E
100
AcDbEntity
8
0
100
AcDbCircle
62
7
6
BYLAYER
10
220.3528055086
20
164.1010521459
40
32.0748448584
100
AcDbArc
50
340.2708376688
51
10.1836192571
0
SOLID
5
24F
100
AcDbEntity
8
0
100
AcDbTrace
62
7
6
BYLAYER
10
250.5448200417
20
153.2734055354
11
251.0893214149
21
158.3076401599
12
252.6328828516
22
157.8864298907
13
252.6328828516
23
157.8864298907
0
SOLID
5
250
100
AcDbEntity
8
0
100
AcDbTrace
62
7
6
BYLAYER
10
252.4276503670
20
164.1010521459
11
252.8359025421
21
159.0539410751
12
251.2407601337
22
159.1785231644
13
251.2407601337
23
159.1785231644
0
ENDBLK
5
251
100
AcDbEntity
8
0
100
AcDbBlockEnd
0
BLOCK
5
252
100
AcDbEntity
8
0
100
AcDbBlockBegin
62
7
6
BYLAYER
2
*D3
70
65
10
0.0000000000
20
0.0000000000
3
*D3
1

0
TEXT
5
253
100
AcDbEntity
8
0
100
AcDbText
62
7
6
BYLAYER
10
289.6901900409
20
113.2689712729
7
STANDARD
40
4.0000000000
1
19.8%%d
50
51.8878322061
41
0.7733333333
72
0
100
AcDbText
0
LINE
5
254
100
AcDbEntity
8
0
100
AcDbLine
62
7
6
BYLAYER
10
273.6350527368
20
136.4937488455
11
307.3943470336
21
124.3867823473
0
LINE
5
255
100
AcDbEntity
8
0
100
AcDbLine
62
7
6
BYLAYER
10
275.4477691352
20
137.1752397570
11
309.6169861141
21
137.2338828820
0
ARC
5
256
100
AcDbEntity
8
0
100
AcDbCircle
62
7
6
BYLAYER
10
271.7524550397
20
137.1688976519
40
34.8645868400
100
AcDbArc
50
321.8878322061
51
0.0983341310
0
SOLID
5
257
100
AcDbEntity
8
0
100
AcDbTrace
62
7
6
BYLAYER
10
304.5704504879
20
125.3995055569
11
305.1463380867
21
130.4302464043
12
306.6872425583
22
129.9994176572
13
306.6872425583
23
129.9994176572
0
SOLID
5
258
100
AcDbEntity
8
0
100
AcDbTrace
62
7
6
BYLAYER
10
306.6169905324
20
137.2287341214
11
307.0653688251
21
132.1850294407
12
305.4692860771
22
132.2969216267
13
305.4692860771
23
132.2969216267
0
ENDBLK
5
259
100
AcDbEntity
8
0
100
AcDbBlockEnd
0
BLOCK
5
25A
100
AcDbEntity
8
0
100
AcDbBlockBegin
62
7
6
BYLAYER
2
*D4
70
65
10
0.0000000000
20
0.0000000000
3
*D4
1

0
TEXT
5
25B
100
AcDbEntity
8
0
100
AcDbText
62
7
6
BYLAYER
10
327.8264728815
20
131.2380683978
7
STANDARD
40
4.0000000000
1
60.3%%d
50
60.4989481994
41
0.7733333333
72
0
100
AcDbText
0
LINE
5
25C
100
AcDbEntity
8
0
100
AcDbLine
62
7
6
BYLAYER
10
321.9238989771
20
139.7456266432
11
330.6021999031
21
124.6182663881
0
LINE
5
25D
100
AcDbEntity
8
0
100
AcDbLine
62
7
6
BYLAYER
10
320.7663646953
20
145.2530298524
11
342.5515957459
21
145.2904188868
0
ARC
5
25E
100
AcDbEntity
8
0
100
AcDbCircle
62
7
6
BYLAYER
10
318.7663676408
20
145.2495973454
40
20.7852631352
100
AcDbArc
50
299.8421362825
51
329.9702352067
0
ARC
5
25F
100
AcDbEntity
8
0
100
AcDbCircle
62
7
6
BYLAYER
10
318.7663676408
20
145.2495973454
40
20.7852631352
100
AcDbArc
50
329.9702352067
51
0.0983341310
0
SOLID
5
260
100
AcDbEntity
8
0
100
AcDbTrace
62
7
6
BYLAYER
10
329.1093639154
20
127.2204655953
11
332.6380173199
21
130.8520775171
12
333.5949681396
22
129.5697962964
13
333.5949681396
23
129.5697962964
0
SOLID
5
261
100
AcDbEntity
8
0
100
AcDbTrace
62
7
6
BYLAYER
10
339.5516001642
20
145.2852701262
11
339.7545655343
21
140.2257439569
12
338.1657977875
22
140.4149978779
13
338.1657977875
23
140.4149978779
0
ENDBLK
5
262
100
AcDbEntity
8
0
100
AcDbBlockEnd
0
BLOCK
5
263
100
AcDbEntity
8
0
100
AcDbBlockBegin
62
7
6
BYLAYER
2
*D5
70
65
10
0.0000000000
20
0.0000000000
3
*D5
1

0
TEXT
5
264
100
AcDbEntity
8
0
100
AcDbText
62
7
6
BYLAYER
10
339.4161109601
20
125.8142091654
7
STANDARD
40
4.0000000000
1
59.9%%d
50
67.3335753880
41
0.7733333333
72
0
100
AcDbText
0
LINE
5
265
100
AcDbEntity
8
0
100
AcDbLine
62
7
6
BYLAYER
10
329.3854517226
20
117.0394133438
11
333.5409135483
21
109.9011055093
0
LINE
5
266
100
AcDbEntity
8
0
100
AcDbLine
62
7
6
BYLAYER
10
314.9690934949
20
145.2430802507
11
353.8592823218
21
145.3098257721
0
ARC
5
267
100
AcDbEntity
8
0
100
AcDbCircle
62
7
6
BYLAYER
10
312.9690964405
20
145.2396477437
40
37.8902461030
100
AcDbArc
50
300.2052006263
51
330.1517673786
0
ARC
5
268
100
AcDbEntity
8
0
100
AcDbCircle
62
7
6
BYLAYER
10
312.9690964405
20
145.2396477437
40
37.8902461030
100
AcDbArc
50
330.1517673786
51
0.0983341310
0
SOLID
5
269
100
AcDbEntity
8
0
100
AcDbTrace
62
7
6
BYLAYER
10
332.0316183690
20
112.4937929301
11
335.7303224791
21
115.9520566427
12
336.6246972232
22
114.6253713684
13
336.6246972232
23
114.6253713684
0
SOLID
5
26A
100
AcDbEntity
8
0
100
AcDbTrace
62
7
6
BYLAYER
10
350.8592867401
20
145.3046770116
11
351.3365375605
21
140.2636223943
12
349.7398402910
22
140.3663736949
13
349.7398402910
23
140.3663736949
0
ENDBLK
5
26B
100
AcDbEntity
8
0
100
AcDbBlockEnd
0
BLOCK
5
26C
100
AcDbEntity
8
0
100
AcDbBlockBegin
62
7
6
BYLAYER
2
*D6
70
65
10
0.0000000000
20
0.0000000000
3
*D6
1

0
TEXT
5
26D
100
AcDbEntity
8
0
100
AcDbText
62
7
6
BYLAYER
10
352.4420090886
20
93.4494306501
7
STANDARD
40
4.0000000000
1
62.5%%d
50
58.3916649104
41
0.7733333333
72
0
100
AcDbText
0
LINE
5
26E
100
AcDbEntity
8
0
100
AcDbLine
62
7
6
BYLAYER
10
327.4368785566
20
116.8088693992
11
348.7186338050
21
80.2507859435
0
LINE
5
26F
100
AcDbEntity
8
0
100
AcDbLine
62
7
6
BYLAYER
10
361.1436981259
20
120.1930355048
11
370.6817525253
21
120.6479723833
0
ARC
5
270
100
AcDbEntity
8
0
100
AcDbCircle
62
7
6
BYLAYER
10
326.4306817704
20
118.5373276797
40
41.3013779020
100
AcDbArc
50
300.2052006263
51
331.4679848131
0
ARC
5
271
100
AcDbEntity
8
0
100
AcDbCircle
62
7
6
BYLAYER
10
326.4306817704
20
118.5373276797
40
41.3013779020
100
AcDbArc
50
331.4679848131
51
2.7307690000
0
SOLID
5
272
100
AcDbEntity
8
0
100
AcDbTrace
62
7
6
BYLAYER
10
347.2093386257
20
82.8434733642
11
350.9268330940
21
86.2815302104
12
351.8139649915
22
84.9499908770
13
351.8139649915
23
84.9499908770
0
SOLID
5
273
100
AcDbEntity
8
0
100
AcDbTrace
62
7
6
BYLAYER
10
367.6851592239
20
120.5050437790
11
368.4207459589
21
115.4951623278
12
366.8208784616
22
115.5157533722
13
366.8208784616
23
115.5157533722
0
ENDBLK
5
274
100
AcDbEntity
8
0
100
AcDbBlockEnd
0
BLOCK
5
275
100
AcDbEntity
8
0
100
AcDbBlockBegin
62
7
6
BYLAYER
2
*D7
70
65
10
0.0000000000
20
0.0000000000
3
*D7
1

0
TEXT
5
276
100
AcDbEntity
8
0
100
AcDbText
62
7
6
BYLAYER
10
338.6482791701
20
102.9381064759
7
STANDARD
40
4.0000000000
1
61.2%%d
50
47.2034226066
41
0.7733333333
72
0
100
AcDbText
0
LINE
5
277
100
AcDbEntity
8
0
100
AcDbLine
62
7
6
BYLAYER
10
331.6877942247
20
119.1086640272
11
344.1293473313
21
97.4214861359
0
LINE
5
278
100
AcDbEntity
8
0
100
AcDbLine
62
7
6
BYLAYER
10
339.4490718833
20
120.9963088035
11
357.6909760635
21
121.3147224254
0
ARC
5
279
100
AcDbEntity
8
0
100
AcDbCircle
62
7
6
BYLAYER
10
330.6925702328
20
120.8434634987
40
24.0025184450
100
AcDbArc
50
299.8421362825
51
330.4210681412
0
ARC
5
27A
100
AcDbEntity
8
0
100
AcDbCircle
62
7
6
BYLAYER
10
330.6925702328
20
120.8434634987
40
24.0025184450
100
AcDbArc
50
330.4210681412
51
1.0000000000
0
SOLID
5
27B
100
AcDbEntity
8
0
100
AcDbTrace
62
7
6
BYLAYER
10
342.6365113435
20
100.0236853431
11
346.2232517282
21
103.5979395887
12
347.1594064191
22
102.3003979151
13
347.1594064191
23
102.3003979151
0
SOLID
5
27C
100
AcDbEntity
8
0
100
AcDbTrace
62
7
6
BYLAYER
10
354.6914329780
20
121.2623652061
11
355.0554586501
21
116.2118716351
12
353.4614687348
22
116.3504218065
13
353.4614687348
23
116.3504218065
0
ENDBLK
5
27D
100
AcDbEntity
8
0
100
AcDbBlockEnd
0
BLOCK
5
27E
100
AcDbEntity
8
0
100
AcDbBlockBegin
62
7
6
BYLAYER
2
COPYRIGHT_BL4
70
64
10
0.0000000000
20
0.0000000000
3
COPYRIGHT_BL4
1

0
CIRCLE
5
27F
100
AcDbEntity
8
0
100
AcDbCircle
62
7
6
BYLAYER
10
368.4166666667
20
59.2552477502
40
2.6387790604
0
ENDBLK
5
280
100
AcDbEntity
8
0
100
AcDbBlockEnd
0
BLOCK
5
281
100
AcDbEntity
8
0
100
AcDbBlockBegin
62
7
6
BYLAYER
2
MICRO_U_BL5
70
64
10
0.0000000000
20
0.0000000000
3
MICRO_U_BL5
1

0
ARC
5
282
100
AcDbEntity
8
0
100
AcDbCircle
62
7
6
BYLAYER
10
115.8029987548
20
24.2743672858
40
1.1407767248
100
AcDbArc
50
303.7730668774
51
1.5957171757
0
ENDBLK
5
283
100
AcDbEntity
8
0
100
AcDbBlockEnd
0
BLOCK
5
284
100
AcDbEntity
8
0
100
AcDbBlockBegin
62
7
6
BYLAYER
2
SURFACE_FINISH_BL6
70
64
10
0.0000000000
20
0.0000000000
3
SURFACE_FINISH_BL6
1

0
LINE
5
285
100
AcDbEntity
8
0
100
AcDbLine
62
7
6
BYLAYER
10
97.0309676193
20
12.0901401771
11
99.8402817594
21
16.9560150021
0
LINE
5
286
100
AcDbEntity
8
0
100
AcDbLine
62
7
6
BYLAYER
10
97.0309676193
20
12.0901401771
11
95.7597911309
21
14.2918824404
0
LINE
5
287
100
AcDbEntity
8
0
100
AcDbLine
62
7
6
BYLAYER
10
95.7597911309
20
14.2918824404
11
98.3021441078
21
14.2918824404
0
ENDBLK
5
288
100
AcDbEntity
8
0
100
AcDbBlockEnd
0
BLOCK
5
289
100
AcDbEntity
8
0
100
AcDbBlockBegin
62
7
6
BYLAYER
2
PROJECTION_BL7
70
64
10
0.0000000000
20
0.0000000000
3
PROJECTION_BL7
1

0
LINE
5
28A
100
AcDbEntity
8
0
100
AcDbLine
62
7
6
BYLAYER
10
304.4288585399
20
278.0624994947
11
304.4288585399
21
282.4374994947
0
LINE
5
28B
100
AcDbEntity
8
0
100
AcDbLine
62
7
6
BYLAYER
10
304.4288585399
20
282.4374994947
11
310.5538585399
21
284.6249994947
0
LINE
5
28C
100
AcDbEntity
8
0
100
AcDbLine
62
7
6
BYLAYER
10
310.5538585399
20
284.6249994947
11
310.5538585399
21
275.8749994947
0
LINE
5
28D
100
AcDbEntity
8
0
100
AcDbLine
62
7
6
BYLAYER
10
310.5538585399
20
275.8749994947
11
304.4288585399
21
278.0624994947
0
ARC
5
28E
100
AcDbEntity
8
0
100
AcDbCircle
62
7
6
BYLAYER
10
292.1788585399
20
280.2499994947
40
2.1875000000
100
AcDbArc
50
180.0000000000
51
360.0000000000
0
ARC
5
28F
100
AcDbEntity
8
0
100
AcDbCircle
62
7
6
BYLAYER
10
292.1788585399
20
280.2499994947
40
2.1875000000
100
AcDbArc
50
0.0000000000
51
180.0000000000
0
ARC
5
290
100
AcDbEntity
8
0
100
AcDbCircle
62
7
6
BYLAYER
10
292.1788585399
20
280.2499994947
40
4.3750000000
100
AcDbArc
50
180.0000000000
51
360.0000000000
0
ARC
5
291
100
AcDbEntity
8
0
100
AcDbCircle
62
7
6
BYLAYER
10
292.1788585399
20
280.2499994947
40
4.3750000000
100
AcDbArc
50
0.0000000000
51
180.0000000000
0
LINE
5
292
100
AcDbEntity
8
0
100
AcDbLine
62
7
6
BYLAYER
10
285.1534835399
20
280.2499994947
11
298.4009835399
21
280.2499994947
0
LINE
5
293
100
AcDbEntity
8
0
100
AcDbLine
62
7
6
BYLAYER
10
301.1493585399
20
280.2499994947
11
313.1464835399
21
280.2499994947
0
LINE
5
294
100
AcDbEntity
8
0
100
AcDbLine
62
7
6
BYLAYER
10
292.1788585399
20
285.2952494947
11
292.1788585399
21
275.2047494947
0
ENDBLK
5
295
100
AcDbEntity
8
0
100
AcDbBlockEnd
0
ENDSEC
0
SECTION
2
ENTITIES
0
INSERT
5
296
100
AcDbEntity
8
0
100
AcDbBlockReference
62
7
6
BYLAYER
2
COPYRIGHT_BL0
10
0.0000000000
20
0.0000000000
0
INSERT
5
297
100
AcDbEntity
8
0
100
AcDbBlockReference
62
7
6
BYLAYER
2
MICRO_U_BL1
10
0.0000000000
20
0.0000000000
0
INSERT
5
298
100
AcDbEntity
8
0
100
AcDbBlockReference
62
7
6
BYLAYER
2
PROJECTION_BL2
10
0.0000000000
20
0.0000000000
0
INSERT
5
299
100
AcDbEntity
8
0
100
AcDbBlockReference
62
7
6
BYLAYER
2
SURFACE_FINISH_BL3
10
0.0000000000
20
0.0000000000
0
DIMENSION
5
29A
100
AcDbEntity
8
0
100
AcDbDimension
62
7
6
BYLAYER
2
*D0
10
118.8482579082
20
148.5010521459
11
115.8482579082
21
162.9481582727
70
160
3
DIMSTYLE_1
100
AcDbAlignedDimension
13
134.8338426986
23
176.3010521459
14
134.8338426986
24
148.5010521459
50
270.000000
100
AcDbRotatedDimension
0
DIMENSION
5
29B
100
AcDbEntity
8
0
100
AcDbDimension
62
7
6
BYLAYER
2
*D1
10
136.8338426986
20
188.1181420232
11
157.1773301792
21
191.1181420232
70
160
3
DIMSTYLE_2
100
AcDbAlignedDimension
13
176.8338426986
23
178.3010521459
14
136.8338426986
24
178.3010521459
50
180.000000
100
AcDbRotatedDimension
0
DIMENSION
5
29C
100
AcDbEntity
8
0
100
AcDbDimension
62
7
6
BYLAYER
2
*D2
10
222.3528055086
20
164.1010521459
11
259.7963191118
21
171.1864191131
70
162
3
DIMSTYLE_3
100
AcDb2LineAngularDimension
13
224.5760758337
23
162.5864768740
14
253.3687165874
24
152.2606823259
15
255.4276503670
25
164.1010521459
16
251.9534372650
26
158.6059866059
0
DIMENSION
5
29D
100
AcDbEntity
8
0
100
AcDbDimension
62
7
6
BYLAYER
2
*D3
10
275.4477691352
20
137.1752397570
11
292.8896184970
21
120.5879945683
70
162
3
DIMSTYLE_3
100
AcDb2LineAngularDimension
13
273.6350527368
23
136.4937488455
14
307.3943470336
24
124.3867823473
15
309.6169861141
25
137.2338828820
16
306.1066965646
26
131.2253713606
0
DIMENSION
5
29E
100
AcDbEntity
8
0
100
AcDbDimension
62
7
6
BYLAYER
2
*D4
10
320.7663646953
20
145.2530298524
11
329.8939786589
21
138.9536282806
70
162
3
DIMSTYLE_3
100
AcDb2LineAngularDimension
13
321.9238989771
23
139.7456266432
14
330.6021999031
24
124.6182663881
15
342.5515957459
25
145.2904188868
16
336.7615322055
26
134.8476160010
0
DIMENSION
5
29F
100
AcDbEntity
8
0
100
AcDbDimension
62
7
6
BYLAYER
2
*D5
10
314.9690934949
20
145.2430802507
11
340.5507416595
21
133.7209820609
70
162
3
DIMSTYLE_3
100
AcDb2LineAngularDimension
13
329.3854517226
23
117.0394133438
14
333.5409135483
24
109.9011055093
15
353.8592823218
25
145.3098257721
16
345.8330795540
26
126.3815098807
0
DIMENSION
5
2A0
100
AcDbEntity
8
0
100
AcDbDimension
62
7
6
BYLAYER
2
*D6
10
361.1436981259
20
120.1930355048
11
354.7918235187
21
101.0837489948
70
162
3
DIMSTYLE_3
100
AcDb2LineAngularDimension
13
327.4368785566
23
116.8088693992
14
348.7186338050
24
80.2507859435
15
370.6817525253
25
120.6479723833
16
362.7160219172
26
98.8097351495
0
DIMENSION
5
2A1
100
AcDbEntity
8
0
100
AcDbDimension
62
7
6
BYLAYER
2
*D7
10
339.4490718833
20
120.9963088035
11
342.4347453955
21
109.9713929032
70
162
3
DIMSTYLE_3
100
AcDb2LineAngularDimension
13
331.6877942247
23
119.1086640272
14
344.1293473313
24
97.4214861359
15
357.6909760635
25
121.3147224254
16
351.5669964007
26
108.9952896365
0
LINE
5
2A2
100
AcDbEntity
8
0
100
AcDbLine
62
7
6
BYLAYER
10
209.0000000000
20
82.0000000000
11
410.0000000000
21
82.0000000000
0
LINE
5
2A3
100
AcDbEntity
8
0
100
AcDbLine
62
7
6
BYLAYER
10
209.0000000000
20
82.0000000000
11
209.0000000000
21
10.0000000000
0
LINE
5
2A4
100
AcDbEntity
8
0
100
AcDbLine
62
7
6
BYLAYER
10
209.0000000000
20
73.0000000000
11
410.0000000000
21
73.0000000000
0
LINE
5
2A5
100
AcDbEntity
8
0
100
AcDbLine
62
7
6
BYLAYER
10
209.0000000000
20
64.0000000000
11
410.0000000000
21
64.0000000000
0
LINE
5
2A6
100
AcDbEntity
8
0
100
AcDbLine
62
7
6
BYLAYER
10
209.0000000000
20
55.0000000000
11
410.0000000000
21
55.0000000000
0
LINE
5
2A7
100
AcDbEntity
8
0
100
AcDbLine
62
7
6
BYLAYER
10
209.0000000000
20
46.0000000000
11
410.0000000000
21
46.0000000000
0
LINE
5
2A8
100
AcDbEntity
8
0
100
AcDbLine
62
7
6
BYLAYER
10
209.0000000000
20
21.0000000000
11
410.0000000000
21
21.0000000000
0
LINE
5
2A9
100
AcDbEntity
8
0
100
AcDbLine
62
7
6
BYLAYER
10
209.0000000000
20
10.0000000000
11
410.0000000000
21
10.0000000000
0
LINE
5
2AA
100
AcDbEntity
8
0
100
AcDbLine
62
7
6
BYLAYER
10
224.0000000000
20
82.0000000000
11
224.0000000000
21
64.0000000000
0
LINE
5
2AB
100
AcDbEntity
8
0
100
AcDbLine
62
7
6
BYLAYER
10
224.0000000000
20
21.0000000000
11
224.0000000000
21
10.0000000000
0
LINE
5
2AC
100
AcDbEntity
8
0
100
AcDbLine
62
7
6
BYLAYER
10
253.5000000000
20
82.0000000000
11
253.5000000000
21
64.0000000000
0
LINE
5
2AD
100
AcDbEntity
8
0
100
AcDbLine
62
7
6
BYLAYER
10
283.0000000000
20
82.0000000000
11
283.0000000000
21
64.0000000000
0
LINE
5
2AE
100
AcDbEntity
8
0
100
AcDbLine
62
7
6
BYLAYER
10
315.5000000000
20
82.0000000000
11
315.5000000000
21
64.0000000000
0
LINE
5
2AF
100
AcDbEntity
8
0
100
AcDbLine
62
7
6
BYLAYER
10
344.0000000000
20
21.0000000000
11
344.0000000000
21
10.0000000000
0
LINE
5
2B0
100
AcDbEntity
8
0
100
AcDbLine
62
7
6
BYLAYER
10
348.0000000000
20
82.0000000000
11
348.0000000000
21
64.0000000000
0
LINE
5
2B1
100
AcDbEntity
8
0
100
AcDbLine
62
7
6
BYLAYER
10
365.0000000000
20
64.0000000000
11
365.0000000000
21
55.0000000000
0
LINE
5
2B2
100
AcDbEntity
8
0
100
AcDbLine
62
7
6
BYLAYER
10
380.5000000000
20
82.0000000000
11
380.5000000000
21
64.0000000000
0
LINE
5
2B3
100
AcDbEntity
8
0
100
AcDbLine
62
7
6
BYLAYER
10
410.0000000000
20
82.0000000000
11
410.0000000000
21
10.0000000000
0
TEXT
5
2B4
100
AcDbEntity
8
0
100
AcDbText
62
7
6
BYLAYER
10
215.3000000000
20
76.0000000000
7
STANDARD
40
3.0000000000
1
D
41
0.8000000000
72
1
11
216.5000000000
21
76.0000000000
100
AcDbText
0
TEXT
5
2B5
100
AcDbEntity
8
0
100
AcDbText
62
7
6
BYLAYER
10
227.9500000000
20
76.0000000000
7
STANDARD
40
3.0000000000
1
29/MAY/03
41
0.8000000000
72
1
11
238.7500000000
21
76.0000000000
100
AcDbText
0
TEXT
5
2B6
100
AcDbEntity
8
0
100
AcDbText
62
7
6
BYLAYER
10
259.8500000000
20
76.0000000000
7
STANDARD
40
3.0000000000
1
------
41
0.8000000000
72
1
11
267.0500000000
21
76.0000000000
100
AcDbText
0
TEXT
5
2B7
100
AcDbEntity
8
0
100
AcDbText
62
7
6
BYLAYER
10
274.2500000000
20
76.0000000000
7
STANDARD
40
3.0000000000
1
.
41
0.8000000000
72
1
11
275.4500000000
21
76.0000000000
100
AcDbText
0
TEXT
5
2B8
100
AcDbEntity
8
0
100
AcDbText
62
7
6
BYLAYER
10
289.6500000000
20
76.0000000000
7
STANDARD
40
3.0000000000
1
J NOVISS
41
0.8000000000
72
1
11
299.2500000000
21
76.0000000000
100
AcDbText
0
TEXT
5
2B9
100
AcDbEntity
8
0
100
AcDbText
62
7
6
BYLAYER
10
329.3500000000
20
76.0000000000
7
STANDARD
40
3.0000000000
1
IW
41
0.8000000000
72
1
11
331.7500000000
21
76.0000000000
100
AcDbText
0
TEXT
5
2BA
100
AcDbEntity
8
0
100
AcDbText
62
7
6
BYLAYER
10
361.8500000000
20
76.0000000000
7
STANDARD
40
3.0000000000
1
DG
41
0.8000000000
72
1
11
364.2500000000
21
76.0000000000
100
AcDbText
0
TEXT
5
2BB
100
AcDbEntity
8
0
100
AcDbText
62
7
6
BYLAYER
10
391.6500000000
20
76.0000000000
7
STANDARD
40
3.0000000000
1
REL
41
0.8000000000
72
1
11
395.2500000000
21
76.0000000000
100
AcDbText
0
TEXT
5
2BC
100
AcDbEntity
8
0
100
AcDbText
62
7
6
BYLAYER
10
210.5000000000
20
67.0000000000
7
STANDARD
40
3.0000000000
1
ISSUE
41
0.8000000000
72
1
11
216.5000000000
21
67.0000000000
100
AcDbText
0
TEXT
5
2BD
100
AcDbEntity
8
0
100
AcDbText
62
7
6
BYLAYER
10
227.9500000000
20
67.0000000000
7
STANDARD
40
3.0000000000
1
DATE APPD
41
0.8000000000
72
1
11
238.7500000000
21
67.0000000000
100
AcDbText
0
TEXT
5
2BE
100
AcDbEntity
8
0
100
AcDbText
62
7
6
BYLAYER
10
258.6500000000
20
67.0000000000
7
STANDARD
40
3.0000000000
1
MOD. No.
41
0.8000000000
72
1
11
268.2500000000
21
67.0000000000
100
AcDbText
0
TEXT
5
2BF
100
AcDbEntity
8
0
100
AcDbText
62
7
6
BYLAYER
10
290.8500000000
20
67.0000000000
7
STANDARD
40
3.0000000000
1
DRN. BY
41
0.8000000000
72
1
11
299.2500000000
21
67.0000000000
100
AcDbText
0
TEXT
5
2C0
100
AcDbEntity
8
0
100
AcDbText
62
7
6
BYLAYER
10
322.1500000000
20
67.0000000000
7
STANDARD
40
3.0000000000
1
CHKD BY.
41
0.8000000000
72
1
11
331.7500000000
21
67.0000000000
100
AcDbText
0
TEXT
5
2C1
100
AcDbEntity
8
0
100
AcDbText
62
7
6
BYLAYER
10
354.6500000000
20
67.0000000000
7
STANDARD
40
3.0000000000
1
APPD BY.
41
0.8000000000
72
1
11
364.2500000000
21
67.0000000000
100
AcDbText
0
TEXT
5
2C2
100
AcDbEntity
8
0
100
AcDbText
62
7
6
BYLAYER
10
388.0500000000
20
67.0000000000
7
STANDARD
40
3.0000000000
1
STATUS
41
0.8000000000
72
1
11
395.2500000000
21
67.0000000000
100
AcDbText
0
TEXT
5
2C3
100
AcDbEntity
8
0
100
AcDbText
62
7
6
BYLAYER
10
210.4000000000
20
57.5000000000
7
STANDARD
40
4.0000000000
1
USED ON
41
0.8000000000
72
0
100
AcDbText
0
TEXT
5
2C4
100
AcDbEntity
8
0
100
AcDbText
62
7
6
BYLAYER
10
254.9000000000
20
57.5000000000
7
STANDARD
40
4.0000000000
1
 
41
0.8000000000
72
0
100
AcDbText
0
INSERT
5
2C5
100
AcDbEntity
8
0
100
AcDbBlockReference
62
7
6
BYLAYER
2
COPYRIGHT_BL4
10
0.0000000000
20
0.0000000000
0
TEXT
5
2C6
100
AcDbEntity
8
0
100
AcDbText
62
7
6
BYLAYER
10
371.0554457271
20
57.3835313102
7
TEXTSTYLE_1
40
5.0000000000
1
 CLRC
41
0.7800000000
72
1
11
380.8054457271
21
57.3835313102
100
AcDbText
0
TEXT
5
2C7
100
AcDbEntity
8
0
100
AcDbText
62
7
6
BYLAYER
10
390.5554457271
20
57.3835313102
7
TEXTSTYLE_1
40
5.0000000000
1
 
41
0.8000000000
72
1
11
392.5554457271
21
57.3835313102
100
AcDbText
0
TEXT
5
2C8
100
AcDbEntity
8
0
100
AcDbText
62
7
6
BYLAYER
10
394.5554457271
20
57.3835313102
7
TEXTSTYLE_1
40
5.0000000000
1
2002
41
0.7333333333
72
1
11
401.8887790604
21
57.3835313102
100
AcDbText
0
TEXT
5
2C9
100
AcDbEntity
8
0
100
AcDbText
62
7
6
BYLAYER
10
367.1926306113
20
57.5014920980
7
TEXTSTYLE_1
40
3.5000000000
1
C
41
0.8000000000
72
0
100
AcDbText
0
TEXT
5
2CA
100
AcDbEntity
8
0
100
AcDbText
62
7
6
BYLAYER
10
210.4000000000
20
48.5000000000
7
TEXTSTYLE_1
40
3.0000000000
1
CENTRAL LABORATORY OF THE RESEARCH COUNCILS
41
0.7620155039
72
0
100
AcDbText
0
TEXT
5
2CB
100
AcDbEntity
8
0
100
AcDbText
62
7
6
BYLAYER
10
308.7000000000
20
48.5000000000
7
STANDARD
40
4.0000000000
1
 
41
0.8000000000
72
0
100
AcDbText
0
TEXT
5
2CC
100
AcDbEntity
8
0
100
AcDbText
62
7
6
BYLAYER
10
311.9000000000
20
48.5000000000
7
STANDARD
40
2.0000000000
1
RUTHERFORD APPLETON LABORATORY, CHILTON, OXON OX110QX
41
0.8000000000
72
0
100
AcDbText
0
TEXT
5
2CD
100
AcDbEntity
8
0
100
AcDbText
62
7
6
BYLAYER
10
210.4000000000
20
41.5000000000
7
STANDARD
40
3.0000000000
1
TITLE
41
0.8000000000
72
0
100
AcDbText
0
TEXT
5
2CE
100
AcDbEntity
8
0
100
AcDbText
62
7
6
BYLAYER
10
271.0000000000
20
36.5000000000
7
TEXTSTYLE_1
40
6.0000000000
1
POWER TAPE W9
41
0.9871794872
72
1
11
309.5000000000
21
36.5000000000
100
AcDbText
0
TEXT
5
2CF
100
AcDbEntity
8
0
100
AcDbText
62
7
6
BYLAYER
10
270.2500000000
20
27.5000000000
7
TEXTSTYLE_1
40
6.0000000000
1
WHEELS 2,3,4,5,6
41
0.8177083333
72
1
11
309.5000000000
21
27.5000000000
100
AcDbText
0
TEXT
5
2D0
100
AcDbEntity
8
0
100
AcDbText
62
7
6
BYLAYER
10
210.4000000000
20
24.2500000000
7
STANDARD
40
4.0000000000
1
ATLAS_ID
41
0.8000000000
72
0
100
AcDbText
0
TEXT
5
2D1
100
AcDbEntity
8
0
100
AcDbText
62
7
6
BYLAYER
10
389.4000000000
20
24.2500000000
7
STANDARD
40
4.0000000000
1
TDL008
41
0.8000000000
72
2
11
408.6000000000
21
24.2500000000
100
AcDbText
0
TEXT
5
2D2
100
AcDbEntity
8
0
100
AcDbText
62
7
6
BYLAYER
10
211.1333333333
20
12.0000000000
7
TEXTSTYLE_1
40
7.0000000000
1
A3
41
0.7666666667
72
1
11
216.5000000000
21
12.0000000000
100
AcDbText
0
TEXT
5
2D3
100
AcDbEntity
8
0
100
AcDbText
62
7
6
BYLAYER
10
225.4000000000
20
12.0000000000
7
TEXTSTYLE_1
40
5.0000000000
1
 
41
1.0000000000
72
0
100
AcDbText
0
TEXT
5
2D4
100
AcDbEntity
8
0
100
AcDbText
62
7
6
BYLAYER
10
230.4000000000
20
12.0000000000
7
TEXTSTYLE_1
40
7.0000000000
1
TD-1002-970
41
0.7992424242
72
0
100
AcDbText
0
TEXT
5
2D5
100
AcDbEntity
8
0
100
AcDbText
62
7
6
BYLAYER
10
345.4000000000
20
16.7500000000
7
STANDARD
40
2.5000000000
1
SHEET
41
0.8000000000
72
0
100
AcDbText
0
TEXT
5
2D6
100
AcDbEntity
8
0
100
AcDbText
62
7
6
BYLAYER
10
366.7666666667
20
12.0000000000
7
STANDARD
40
3.0000000000
1
 
41
0.8000000000
72
1
11
367.9666666667
21
12.0000000000
100
AcDbText
0
TEXT
5
2D7
100
AcDbEntity
8
0
100
AcDbText
62
7
6
BYLAYER
10
369.1666666667
20
12.0000000000
7
TEXTSTYLE_1
40
7.0000000000
1
1
41
0.3333333333
72
1
11
370.3333333333
21
12.0000000000
100
AcDbText
0
TEXT
5
2D8
100
AcDbEntity
8
0
100
AcDbText
62
7
6
BYLAYER
10
371.5000000000
20
12.0000000000
7
STANDARD
40
4.0000000000
1
 OF 
41
0.8000000000
72
1
11
377.9000000000
21
12.0000000000
100
AcDbText
0
TEXT
5
2D9
100
AcDbEntity
8
0
100
AcDbText
62
7
6
BYLAYER
10
384.3000000000
20
12.0000000000
7
TEXTSTYLE_1
40
7.0000000000
1
1
41
0.3333333333
72
1
11
385.4666666667
21
12.0000000000
100
AcDbText
0
TEXT
5
2DA
100
AcDbEntity
8
0
100
AcDbText
62
7
6
BYLAYER
10
386.6333333333
20
12.0000000000
7
STANDARD
40
4.0000000000
1
     
41
0.8000000000
72
1
11
394.6333333333
21
12.0000000000
100
AcDbText
0
TEXT
5
2DB
100
AcDbEntity
8
0
100
AcDbText
62
7
6
BYLAYER
10
402.6333333333
20
12.0000000000
7
TEXTSTYLE_1
40
7.0000000000
1
D
41
0.8000000000
72
1
11
405.4333333333
21
12.0000000000
100
AcDbText
0
LINE
5
2DC
100
AcDbEntity
8
0
100
AcDbLine
62
7
6
BYLAYER
10
20.0371621622
20
45.9172297297
11
209.0371621622
21
45.9172297297
0
LINE
5
2DD
100
AcDbEntity
8
0
100
AcDbLine
62
7
6
BYLAYER
10
20.0371621622
20
45.9172297297
11
20.0371621622
21
9.9172297297
0
LINE
5
2DE
100
AcDbEntity
8
0
100
AcDbLine
62
7
6
BYLAYER
10
20.0371621622
20
27.9172297297
11
209.0371621622
21
27.9172297297
0
LINE
5
2DF
100
AcDbEntity
8
0
100
AcDbLine
62
7
6
BYLAYER
10
20.0371621622
20
9.9172297297
11
209.0371621622
21
9.9172297297
0
LINE
5
2E0
100
AcDbEntity
8
0
100
AcDbLine
62
7
6
BYLAYER
10
83.0371621622
20
45.9172297297
11
83.0371621622
21
9.9172297297
0
LINE
5
2E1
100
AcDbEntity
8
0
100
AcDbLine
62
7
6
BYLAYER
10
146.0371621622
20
45.9172297297
11
146.0371621622
21
9.9172297297
0
LINE
5
2E2
100
AcDbEntity
8
0
100
AcDbLine
62
7
6
BYLAYER
10
209.0371621622
20
45.9172297297
11
209.0371621622
21
9.9172297297
0
TEXT
5
2E3
100
AcDbEntity
8
0
100
AcDbText
62
7
6
BYLAYER
10
21.4371621622
20
41.6672297297
7
STANDARD
40
2.5000000000
1
TOLERANCES UNLESS STATED
41
0.8000000000
72
0
100
AcDbText
0
TEXT
5
2E4
100
AcDbEntity
8
0
100
AcDbText
62
7
6
BYLAYER
10
84.4371621622
20
41.6672297297
7
STANDARD
40
2.5000000000
1
FINISH
41
0.8000000000
72
0
100
AcDbText
0
TEXT
5
2E5
100
AcDbEntity
8
0
100
AcDbText
62
7
6
BYLAYER
10
147.4371621622
20
41.6672297297
7
STANDARD
40
2.5000000000
1
ORIGINAL SCALE
41
0.8000000000
72
0
100
AcDbText
0
TEXT
5
2E6
100
AcDbEntity
8
0
100
AcDbText
62
7
6
BYLAYER
10
44.9871621622
20
34.1672297297
7
STANDARD
40
3.0000000000
1
%%p
41
1.1666666667
72
1
11
46.7371621622
21
34.1672297297
100
AcDbText
0
TEXT
5
2E7
100
AcDbEntity
8
0
100
AcDbText
62
7
6
BYLAYER
10
48.4871621622
20
34.1672297297
7
STANDARD
40
3.0000000000
1
 
41
0.8000000000
72
1
11
49.6871621622
21
34.1672297297
100
AcDbText
0
TEXT
5
2E8
100
AcDbEntity
8
0
100
AcDbText
62
7
6
BYLAYER
10
50.8871621622
20
34.1672297297
7
STANDARD
40
3.0000000000
1
 mm
41
0.8000000000
72
1
11
54.4871621622
21
34.1672297297
100
AcDbText
0
TEXT
5
2E9
100
AcDbEntity
8
0
100
AcDbText
62
7
6
BYLAYER
10
46.3871621622
20
29.6672297297
7
STANDARD
40
3.0000000000
1
%%p
41
1.1666666667
72
1
11
48.1371621622
21
29.6672297297
100
AcDbText
0
TEXT
5
2EA
100
AcDbEntity
8
0
100
AcDbText
62
7
6
BYLAYER
10
49.8871621622
20
29.6672297297
7
STANDARD
40
3.0000000000
1
 
41
0.8000000000
72
1
11
51.0871621622
21
29.6672297297
100
AcDbText
0
TEXT
5
2EB
100
AcDbEntity
8
0
100
AcDbText
62
7
6
BYLAYER
10
52.2871621622
20
29.6672297297
7
STANDARD
40
3.0000000000
1
 %%d
41
0.7333333333
72
1
11
54.4871621622
21
29.6672297297
100
AcDbText
0
TEXT
5
2EC
100
AcDbEntity
8
0
100
AcDbText
62
7
6
BYLAYER
10
102.5371621622
20
34.1672297297
7
STANDARD
40
3.0000000000
1
SEE NOTE 3
41
0.8000000000
72
1
11
114.5371621622
21
34.1672297297
100
AcDbText
0
TEXT
5
2ED
100
AcDbEntity
8
0
100
AcDbText
62
7
6
BYLAYER
10
95.3371621622
20
29.6672297297
7
STANDARD
40
3.0000000000
1
REMOVE ALL BURRS
41
0.8000000000
72
1
11
114.5371621622
21
29.6672297297
100
AcDbText
0
TEXT
5
2EE
100
AcDbEntity
8
0
100
AcDbText
62
7
6
BYLAYER
10
173.9371621622
20
34.1672297297
7
STANDARD
40
3.0000000000
1
1:1
41
0.8000000000
72
1
11
177.5371621622
21
34.1672297297
100
AcDbText
0
TEXT
5
2EF
100
AcDbEntity
8
0
100
AcDbText
62
7
6
BYLAYER
10
163.1371621622
20
29.6672297297
7
STANDARD
40
3.0000000000
1
DO NOT SCALE
41
0.8000000000
72
1
11
177.5371621622
21
29.6672297297
100
AcDbText
0
TEXT
5
2F0
100
AcDbEntity
8
0
100
AcDbText
62
7
6
BYLAYER
10
21.4371621622
20
23.6672297297
7
STANDARD
40
2.5000000000
1
MATERIAL 
41
0.8000000000
72
0
100
AcDbText
0
TEXT
5
2F1
100
AcDbEntity
8
0
100
AcDbText
62
7
6
BYLAYER
10
39.4371621622
20
23.6672297297
7
STANDARD
40
2.5000000000
1
& SPEC.
41
0.8000000000
72
0
100
AcDbText
0
INSERT
5
2F2
100
AcDbEntity
8
0
100
AcDbBlockReference
62
7
6
BYLAYER
2
MICRO_U_BL5
10
0.0000000000
20
0.0000000000
0
TEXT
5
2F3
100
AcDbEntity
8
0
100
AcDbText
62
7
6
BYLAYER
10
84.4371621622
20
24.0083581219
7
STANDARD
40
2.5000000000
1
SURFACE TEXTURE 
41
0.8000000000
72
0
100
AcDbText
0
TEXT
5
2F4
100
AcDbEntity
8
0
100
AcDbText
62
7
6
BYLAYER
10
116.4894190556
20
24.0082838118
7
STANDARD
40
1.8178175258
1
um
41
0.8000000000
72
0
100
AcDbText
0
TEXT
5
2F5
100
AcDbEntity
8
0
100
AcDbText
62
7
6
BYLAYER
10
43.1371621622
20
16.1672297297
7
STANDARD
40
3.0000000000
1
-------
41
0.8000000000
72
1
11
51.5371621622
21
16.1672297297
100
AcDbText
0
TEXT
5
2F6
100
AcDbEntity
8
0
100
AcDbText
62
7
6
BYLAYER
10
39.5371621622
20
11.6672297297
7
STANDARD
40
3.0000000000
1
SEE NOTE 3
41
0.8000000000
72
1
11
51.5371621622
21
11.6672297297
100
AcDbText
0
INSERT
5
2F7
100
AcDbEntity
8
0
100
AcDbBlockReference
62
7
6
BYLAYER
2
SURFACE_FINISH_BL6
10
0.0000000000
20
0.0000000000
0
TEXT
5
2F8
100
AcDbEntity
8
0
100
AcDbText
62
7
6
BYLAYER
10
102.5371621622
20
18.5810150021
7
STANDARD
40
3.0000000000
1
SEE NOTE 3
41
0.8000000000
72
1
11
114.5371621622
21
18.5810150021
100
AcDbText
0
TEXT
5
2F9
100
AcDbEntity
8
0
100
AcDbText
62
7
6
BYLAYER
10
99.8402817594
20
11.6672297297
7
STANDARD
40
3.0000000000
1
 UNLESS STATED
41
0.8000000000
72
1
11
116.6402817594
21
11.6672297297
100
AcDbText
0
TEXT
5
2FA
100
AcDbEntity
8
0
100
AcDbText
62
7
6
BYLAYER
10
95.6340425649
20
12.5409220665
7
STANDARD
40
3.5000000000
1
-
41
0.8000000000
72
0
100
AcDbText
0
LINE
5
2FB
100
AcDbEntity
8
0
100
AcDbLine
62
7
6
BYLAYER
10
10.0000000000
20
10.0000000000
11
10.0000000000
21
116.2000000000
0
LINE
5
2FC
100
AcDbEntity
8
0
100
AcDbLine
62
7
6
BYLAYER
10
10.0000000000
20
10.0000000000
11
20.0000000000
21
10.0000000000
0
LINE
5
2FD
100
AcDbEntity
8
0
100
AcDbLine
62
7
6
BYLAYER
10
20.0000000000
20
10.0000000000
11
20.0000000000
21
116.2000000000
0
LINE
5
2FE
100
AcDbEntity
8
0
100
AcDbLine
62
7
6
BYLAYER
10
10.0000000000
20
25.0000000000
11
20.0000000000
21
25.0000000000
0
LINE
5
2FF
100
AcDbEntity
8
0
100
AcDbLine
62
7
6
BYLAYER
10
10.0000000000
20
78.2000000000
11
20.0000000000
21
78.2000000000
0
LINE
5
300
100
AcDbEntity
8
0
100
AcDbLine
62
7
6
BYLAYER
10
10.0000000000
20
106.2000000000
11
20.0000000000
21
106.2000000000
0
LINE
5
301
100
AcDbEntity
8
0
100
AcDbLine
62
7
6
BYLAYER
10
10.0000000000
20
116.2000000000
11
20.0000000000
21
116.2000000000
0
TEXT
5
302
100
AcDbEntity
8
0
100
AcDbText
62
7
6
BYLAYER
10
17.5000000000
20
12.5000000000
7
STANDARD
40
5.0000000000
1
A3
50
90.0000000000
41
1.0000000000
72
1
11
17.5000000000
21
17.5000000000
100
AcDbText
0
TEXT
5
303
100
AcDbEntity
8
0
100
AcDbText
62
7
6
BYLAYER
10
17.5000000000
20
26.4000000000
7
TEXTSTYLE_1
40
5.0000000000
1
 
50
90.0000000000
41
1.0000000000
72
0
100
AcDbText
0
TEXT
5
304
100
AcDbEntity
8
0
100
AcDbText
62
7
6
BYLAYER
10
17.5000000000
20
31.4000000000
7
TEXTSTYLE_1
40
5.0000000000
1
TD-1002-970
50
90.0000000000
41
0.7992424242
72
0
100
AcDbText
0
TEXT
5
305
100
AcDbEntity
8
0
100
AcDbText
62
7
6
BYLAYER
10
16.5000000000
20
79.6000000000
7
TEXTSTYLE_1
40
3.0000000000
1
Sheet 
50
90.0000000000
41
0.6666666667
72
0
100
AcDbText
0
TEXT
5
306
100
AcDbEntity
8
0
100
AcDbText
62
7
6
BYLAYER
10
16.5000000000
20
91.6000000000
7
TEXTSTYLE_1
40
3.0000000000
1
1
50
90.0000000000
41
0.3333333333
72
0
100
AcDbText
0
TEXT
5
307
100
AcDbEntity
8
0
100
AcDbText
62
7
6
BYLAYER
10
16.5000000000
20
92.6000000000
7
TEXTSTYLE_1
40
3.0000000000
1
 OF 
50
90.0000000000
41
0.7833333333
72
0
100
AcDbText
0
TEXT
5
308
100
AcDbEntity
8
0
100
AcDbText
62
7
6
BYLAYER
10
16.5000000000
20
102.0000000000
7
TEXTSTYLE_1
40
3.0000000000
1
1
50
90.0000000000
41
0.3333333333
72
0
100
AcDbText
0
TEXT
5
309
100
AcDbEntity
8
0
100
AcDbText
62
7
6
BYLAYER
10
17.5000000000
20
109.2000000000
7
TEXTSTYLE_1
40
5.0000000000
1
D
50
90.0000000000
41
0.8000000000
72
1
11
17.5000000000
21
111.2000000000
100
AcDbText
0
LINE
5
30A
100
AcDbEntity
8
0
100
AcDbLine
62
7
6
BYLAYER
10
10.0000000000
20
287.0000000000
11
116.2000000000
21
287.0000000000
0
LINE
5
30B
100
AcDbEntity
8
0
100
AcDbLine
62
7
6
BYLAYER
10
10.0000000000
20
287.0000000000
11
10.0000000000
21
277.0000000000
0
LINE
5
30C
100
AcDbEntity
8
0
100
AcDbLine
62
7
6
BYLAYER
10
10.0000000000
20
277.0000000000
11
116.2000000000
21
277.0000000000
0
LINE
5
30D
100
AcDbEntity
8
0
100
AcDbLine
62
7
6
BYLAYER
10
25.0000000000
20
287.0000000000
11
25.0000000000
21
277.0000000000
0
LINE
5
30E
100
AcDbEntity
8
0
100
AcDbLine
62
7
6
BYLAYER
10
78.2000000000
20
287.0000000000
11
78.2000000000
21
277.0000000000
0
LINE
5
30F
100
AcDbEntity
8
0
100
AcDbLine
62
7
6
BYLAYER
10
106.2000000000
20
287.0000000000
11
106.2000000000
21
277.0000000000
0
LINE
5
310
100
AcDbEntity
8
0
100
AcDbLine
62
7
6
BYLAYER
10
116.2000000000
20
287.0000000000
11
116.2000000000
21
277.0000000000
0
TEXT
5
311
100
AcDbEntity
8
0
100
AcDbText
62
7
6
BYLAYER
10
12.5000000000
20
279.5000000000
7
STANDARD
40
5.0000000000
1
A3
41
1.0000000000
72
1
11
17.5000000000
21
279.5000000000
100
AcDbText
0
TEXT
5
312
100
AcDbEntity
8
0
100
AcDbText
62
7
6
BYLAYER
10
26.4000000000
20
279.5000000000
7
TEXTSTYLE_1
40
5.0000000000
1
 
41
1.0000000000
72
0
100
AcDbText
0
TEXT
5
313
100
AcDbEntity
8
0
100
AcDbText
62
7
6
BYLAYER
10
31.4000000000
20
279.5000000000
7
TEXTSTYLE_1
40
5.0000000000
1
TD-1002-970
41
0.7992424242
72
0
100
AcDbText
0
TEXT
5
314
100
AcDbEntity
8
0
100
AcDbText
62
7
6
BYLAYER
10
79.6000000000
20
280.5000000000
7
TEXTSTYLE_1
40
3.0000000000
1
Sheet 
41
0.6666666667
72
0
100
AcDbText
0
TEXT
5
315
100
AcDbEntity
8
0
100
AcDbText
62
7
6
BYLAYER
10
91.6000000000
20
280.5000000000
7
TEXTSTYLE_1
40
3.0000000000
1
1
41
0.3333333333
72
0
100
AcDbText
0
TEXT
5
316
100
AcDbEntity
8
0
100
AcDbText
62
7
6
BYLAYER
10
92.6000000000
20
280.5000000000
7
TEXTSTYLE_1
40
3.0000000000
1
 OF 
41
0.7833333333
72
0
100
AcDbText
0
TEXT
5
317
100
AcDbEntity
8
0
100
AcDbText
62
7
6
BYLAYER
10
102.0000000000
20
280.5000000000
7
TEXTSTYLE_1
40
3.0000000000
1
1
41
0.3333333333
72
0
100
AcDbText
0
TEXT
5
318
100
AcDbEntity
8
0
100
AcDbText
62
7
6
BYLAYER
10
109.2000000000
20
279.5000000000
7
TEXTSTYLE_1
40
5.0000000000
1
D
41
0.8000000000
72
1
11
111.2000000000
21
279.5000000000
100
AcDbText
0
LINE
5
319
100
AcDbEntity
8
0
100
AcDbLine
62
7
6
BYLAYER
10
331.0000000000
20
287.0000000000
11
410.0000000000
21
287.0000000000
0
LINE
5
31A
100
AcDbEntity
8
0
100
AcDbLine
62
7
6
BYLAYER
10
331.0000000000
20
287.0000000000
11
331.0000000000
21
277.0000000000
0
LINE
5
31B
100
AcDbEntity
8
0
100
AcDbLine
62
7
6
BYLAYER
10
331.0000000000
20
277.0000000000
11
410.0000000000
21
277.0000000000
0
LINE
5
31C
100
AcDbEntity
8
0
100
AcDbLine
62
7
6
BYLAYER
10
410.0000000000
20
287.0000000000
11
410.0000000000
21
277.0000000000
0
TEXT
5
31D
100
AcDbEntity
8
0
100
AcDbText
62
7
6
BYLAYER
10
336.5000000000
20
280.7500000000
7
STANDARD
40
2.5000000000
1
THIS DRAWING CONFORMS TO B.S. 8888
41
0.8000000000
72
1
11
370.5000000000
21
280.7500000000
100
AcDbText
0
LINE
5
31E
100
AcDbEntity
8
0
100
AcDbLine
62
7
6
BYLAYER
10
236.4999835399
20
286.9999994947
11
330.9999835399
21
286.9999994947
0
LINE
5
31F
100
AcDbEntity
8
0
100
AcDbLine
62
7
6
BYLAYER
10
236.4999835399
20
286.9999994947
11
236.4999835399
21
273.4999994947
0
LINE
5
320
100
AcDbEntity
8
0
100
AcDbLine
62
7
6
BYLAYER
10
236.4999835399
20
273.4999994947
11
330.9999835399
21
273.4999994947
0
LINE
5
321
100
AcDbEntity
8
0
100
AcDbLine
62
7
6
BYLAYER
10
330.9999835399
20
286.9999994947
11
330.9999835399
21
273.4999994947
0
INSERT
5
322
100
AcDbEntity
8
0
100
AcDbBlockReference
62
7
6
BYLAYER
2
PROJECTION_BL7
10
0.0000000000
20
0.0000000000
0
TEXT
5
323
100
AcDbEntity
8
0
100
AcDbText
62
7
6
BYLAYER
10
254.3534835399
20
278.9781218886
7
STANDARD
40
3.5000000000
1
PROJECTION 
41
0.8000000000
72
1
11
269.7534835399
21
278.9781218886
100
AcDbText
0
TEXT
5
324
100
AcDbEntity
8
0
100
AcDbText
62
7
6
BYLAYER
10
290.7970347322
20
278.8891837883
7
STANDARD
40
3.5000000000
1
l
41
0.8000000000
72
0
100
AcDbText
0
LINE
5
325
100
AcDbEntity
8
0
100
AcDbLine
62
7
6
BYLAYER
10
159.0509538372
20
70.9185125895
11
209.0509538372
21
70.9185125895
0
LINE
5
326
100
AcDbEntity
8
0
100
AcDbLine
62
7
6
BYLAYER
10
159.0509538372
20
70.9185125895
11
159.0509538372
21
45.9185125895
0
LINE
5
327
100
AcDbEntity
8
0
100
AcDbLine
62
7
6
BYLAYER
10
159.0509538372
20
45.9185125895
11
209.0509538372
21
45.9185125895
0
LINE
5
328
100
AcDbEntity
8
0
100
AcDbLine
62
7
6
BYLAYER
10
209.0509538372
20
70.9185125895
11
209.0509538372
21
45.9185125895
0
CIRCLE
5
329
100
AcDbEntity
8
0
100
AcDbCircle
62
7
6
BYLAYER
10
279.3982504348
20
167.3976677004
40
0.8000000000
0
POLYLINE
5
32A
100
AcDbEntity
8
0
100
AcDb2dPolyline
62
7
6
BYLAYER
66
1
70
0
0
VERTEX
5
32B
100
AcDbEntity
8
0
100
AcDbVertex
62
7
6
BYLAYER
100
AcDb2dVertex
10
312.4148364258
20
177.0679467773
0
VERTEX
5
32C
100
AcDbEntity
8
0
100
AcDbVertex
62
7
6
BYLAYER
100
AcDb2dVertex
10
311.4148498535
20
177.4012884521
0
VERTEX
5
32D
100
AcDbEntity
8
0
100
AcDbVertex
62
7
6
BYLAYER
100
AcDb2dVertex
10
310.4148376465
20
177.0679467773
0
VERTEX
5
32E
100
AcDbEntity
8
0
100
AcDbVertex
62
7
6
BYLAYER
100
AcDb2dVertex
10
309.7481799316
20
176.4012890625
0
VERTEX
5
32F
100
AcDbEntity
8
0
100
AcDbVertex
62
7
6
BYLAYER
100
AcDb2dVertex
10
309.4148510742
20
175.4012896729
0
VERTEX
5
330
100
AcDbEntity
8
0
100
AcDbVertex
62
7
6
BYLAYER
100
AcDb2dVertex
10
309.7481799316
20
174.4012902832
0
VERTEX
5
331
100
AcDbEntity
8
0
100
AcDbVertex
62
7
6
BYLAYER
100
AcDb2dVertex
10
310.4148376465
20
173.7346197510
0
VERTEX
5
332
100
AcDbEntity
8
0
100
AcDbVertex
62
7
6
BYLAYER
100
AcDb2dVertex
10
311.4148498535
20
173.4012908936
0
VERTEX
5
333
100
AcDbEntity
8
0
100
AcDbVertex
62
7
6
BYLAYER
100
AcDb2dVertex
10
312.4148364258
20
173.7346197510
0
SEQEND
5
334
100
AcDbEntity
8
0
0
POLYLINE
5
335
100
AcDbEntity
8
0
100
AcDb2dPolyline
62
7
6
BYLAYER
66
1
70
0
0
VERTEX
5
336
100
AcDbEntity
8
0
100
AcDbVertex
62
7
6
BYLAYER
100
AcDb2dVertex
10
311.0815209961
20
178.5679522705
0
VERTEX
5
337
100
AcDbEntity
8
0
100
AcDbVertex
62
7
6
BYLAYER
100
AcDb2dVertex
10
311.0815209961
20
172.4012786865
0
VERTEX
5
338
100
AcDbEntity
8
0
100
AcDbVertex
62
7
6
BYLAYER
100
AcDb2dVertex
10
313.7481774902
20
172.4012786865
0
SEQEND
5
339
100
AcDbEntity
8
0
0
TEXT
5
33A
100
AcDbEntity
8
0
100
AcDbText
62
7
6
BYLAYER
10
293.4148456339
20
173.4012846938
7
STANDARD
40
4.0000000000
1
PIPE 
41
0.8000000000
72
0
100
AcDbText
0
TEXT
5
33B
100
AcDbEntity
8
0
100
AcDbText
62
7
6
BYLAYER
10
116.4747356052
20
206.2102673325
7
STANDARD
40
4.0000000000
1
3D-VIEW
41
0.8000000000
72
0
100
AcDbText
0
TEXT
5
33C
100
AcDbEntity
8
0
100
AcDbText
62
7
6
BYLAYER
10
200.2540839268
20
119.1986478597
7
STANDARD
40
4.0000000000
1
DEVELOPED VIEW
41
0.8000000000
72
0
100
AcDbText
0
TEXT
5
33D
100
AcDbEntity
8
0
100
AcDbText
62
7
6
BYLAYER
10
226.5334900118
20
252.8527467685
7
STANDARD
40
3.5000000000
1
NOTES -
41
0.8000000000
72
0
100
AcDbText
0
TEXT
5
33E
100
AcDbEntity
8
0
100
AcDbText
62
7
6
BYLAYER
10
226.5334900118
20
247.6027467685
7
STANDARD
40
3.5000000000
1
 
41
0.8000000000
72
0
100
AcDbText
0
TEXT
5
33F
100
AcDbEntity
8
0
100
AcDbText
62
7
6
BYLAYER
10
226.5334900118
20
242.3527467685
7
STANDARD
40
3.5000000000
1
1 - ALL OUTER MODULE TAPE ENDS SET FOR HIGH MODULES
41
0.8000000000
72
0
100
AcDbText
0
TEXT
5
340
100
AcDbEntity
8
0
100
AcDbText
62
7
6
BYLAYER
10
226.5334900118
20
237.1027467685
7
STANDARD
40
3.5000000000
1
2 - TAPE DESIGN SET TO ZERO MODULE ROTATION
41
0.8000000000
72
0
100
AcDbText
0
TEXT
5
341
100
AcDbEntity
8
0
100
AcDbText
62
7
6
BYLAYER
10
226.5334900118
20
231.8527467685
7
STANDARD
40
3.5000000000
1
3 - FOR TAPE SPECIFICATIONS REFER TO DOCUMENT ATL-IS-ER-0034
41
0.8000000000
72
0
100
AcDbText
0
TEXT
5
342
100
AcDbEntity
8
0
100
AcDbText
62
7
6
BYLAYER
10
226.5334900118
20
226.6027467685
7
STANDARD
40
3.5000000000
1
4 - ALL TWISTED PAIR WIRES TO LIE ONE WIRE DEEP 4mm EITHER SIDE
41
0.8000000000
72
0
100
AcDbText
0
TEXT
5
343
100
AcDbEntity
8
0
100
AcDbText
62
7
6
BYLAYER
10
226.5334900118
20
221.3527467685
7
STANDARD
40
3.5000000000
1
    OF PIPE CENTER LINES 
41
0.8000000000
72
0
100
AcDbText
0
TEXT
5
344
100
AcDbEntity
8
0
100
AcDbText
62
7
6
BYLAYER
10
226.5334900118
20
216.1027467685
7
STANDARD
40
3.5000000000
1
5 - ANY CUTS  BETWEEN TAPE LEGS MUST NOT BE SHORTENED
41
0.8000000000
72
0
100
AcDbText
0
TEXT
5
345
100
AcDbEntity
8
0
100
AcDbText
62
7
6
BYLAYER
10
226.5334900118
20
210.8527467685
7
STANDARD
40
3.5000000000
1
6 - TAPE ENDS TO INCLUDE TEXT AS SHOWN ON 3D-VIEW
41
0.8000000000
72
0
100
AcDbText
0
TEXT
5
346
100
AcDbEntity
8
0
100
AcDbText
62
7
6
BYLAYER
10
226.5334900118
20
205.6027467685
7
STANDARD
40
3.5000000000
1
7 - TEXT 'TD-1002-970 (W9)' TO BE LOCATED VISIBLY ON TAPE
41
0.8000000000
72
0
100
AcDbText
0
TEXT
5
347
100
AcDbEntity
8
0
100
AcDbText
62
7
6
BYLAYER
10
226.5334900118
20
200.3527467685
7
STANDARD
40
3.5000000000
1
8 - FOR CONNECTOR POSITIONS REFER TO DRAWING TD-1010-345
41
0.8000000000
72
0
100
AcDbText
0
CIRCLE
5
348
100
AcDbEntity
8
0
100
AcDbCircle
62
7
6
BYLAYER
10
190.5709355874
20
261.1527474835
40
0.8000000000
0
TEXT
5
349
100
AcDbEntity
8
0
100
AcDbText
62
7
6
BYLAYER
10
206.1849296384
20
253.1250122106
7
TEXTSTYLE_2
40
4.0000000000
1
I7
41
0.6070038911
72
0
100
AcDbText
0
CIRCLE
5
34A
100
AcDbEntity
8
0
100
AcDbCircle
62
7
6
BYLAYER
10
169.9693127639
20
250.3601794189
40
0.8000000000
0
TEXT
5
34B
100
AcDbEntity
8
0
100
AcDbText
62
7
6
BYLAYER
10
149.6665568221
20
254.7553119403
7
TEXTSTYLE_2
40
4.0000000000
1
09
41
0.7276264591
72
0
100
AcDbText
0
CIRCLE
5
34C
100
AcDbEntity
8
0
100
AcDbCircle
62
7
6
BYLAYER
10
72.0458608409
20
197.7266364492
40
0.8000000000
0
TEXT
5
34D
100
AcDbEntity
8
0
100
AcDbText
62
7
6
BYLAYER
10
87.2892820212
20
190.1185594772
7
TEXTSTYLE_2
40
4.0000000000
1
M8
41
1.0233463035
72
0
100
AcDbText
0
LINE
5
34E
100
AcDbEntity
8
0
100
AcDbLine
62
7
6
BYLAYER
10
0.0000000000
20
297.0000000000
11
0.0000000000
21
0.0000000000
0
LINE
5
34F
100
AcDbEntity
8
0
100
AcDbLine
62
7
6
BYLAYER
10
10.0000000000
20
10.0000000000
11
10.0000000000
21
287.0000000000
0
LINE
5
350
100
AcDbEntity
8
0
100
AcDbLine
62
7
6
BYLAYER
10
10.0010000000
20
106.2230000000
11
10.0010000000
21
276.9990000000
0
LINE
5
351
100
AcDbEntity
8
0
100
AcDbLine
62
7
6
BYLAYER
10
0.0000000000
20
0.0000000000
11
420.0000000000
21
0.0000000000
0
LINE
5
352
100
AcDbEntity
8
0
100
AcDbLine
62
7
6
BYLAYER
10
160.0381492713
20
3.8460928114
11
260.0381492713
21
3.8460928114
0
LINE
5
353
100
AcDbEntity
8
0
100
AcDbLine
62
7
6
BYLAYER
10
160.0381492713
20
3.8460928114
11
160.0381492713
21
8.8460928114
0
LINE
5
354
100
AcDbEntity
8
0
100
AcDbLine
62
7
6
BYLAYER
10
286.4148456339
20
175.4012846938
11
293.4148456339
21
175.4012846938
0
LINE
5
355
100
AcDbEntity
8
0
100
AcDbLine
62
7
6
BYLAYER
10
279.9256256010
20
167.9992285319
11
286.4148456339
21
175.4012846938
0
LINE
5
356
100
AcDbEntity
8
0
100
AcDbLine
62
7
6
BYLAYER
10
260.0381492713
20
3.8460928114
11
260.0381492713
21
8.8460928114
0
LINE
5
357
100
AcDbEntity
8
DEFAULT_1
100
AcDbLine
62
7
6
BYLAYER
10
260.9484200564
20
134.0284034637
11
261.1320935963
21
147.2169349483
0
LINE
5
358
100
AcDbEntity
8
0
100
AcDbLine
62
7
6
BYLAYER
10
106.2230000000
20
286.9990000000
11
237.9920000000
21
286.9990000000
0
LINE
5
359
100
AcDbEntity
8
0
100
AcDbLine
62
7
6
BYLAYER
10
10.0000000000
20
287.0000000000
11
410.0000000000
21
287.0000000000
0
LINE
5
35A
100
AcDbEntity
8
0
100
AcDbLine
62
7
6
BYLAYER
10
0.0000000000
20
297.0000000000
11
420.0000000000
21
297.0000000000
0
LINE
5
35B
100
AcDbEntity
8
0
100
AcDbLine
62
7
6
BYLAYER
10
401.4430414976
20
21.0017763982
11
401.4430414976
21
10.0350776605
0
LINE
5
35C
100
AcDbEntity
8
0
100
AcDbLine
62
7
6
BYLAYER
10
410.0000000000
20
287.0000000000
11
410.0000000000
21
10.0000000000
0
LINE
5
35D
100
AcDbEntity
8
0
100
AcDbLine
62
7
6
BYLAYER
10
420.0000000000
20
297.0000000000
11
420.0000000000
21
0.0000000000
0
LINE
5
35E
100
AcDbEntity
8
0
100
AcDbLine
62
7
6
BYLAYER
10
27.5769119527
20
194.8049922214
11
29.9959489052
21
158.3987943509
0
LINE
5
35F
100
AcDbEntity
8
0
100
AcDbLine
62
7
6
BYLAYER
10
44.2558211307
20
195.3297605117
11
44.2407021498
21
195.5572992484
0
LINE
5
360
100
AcDbEntity
8
0
100
AcDbLine
62
7
6
BYLAYER
10
45.4249182576
20
187.0511120748
11
47.8439552101
21
150.6449142043
0
LINE
5
361
100
AcDbEntity
8
0
100
AcDbLine
62
7
6
BYLAYER
10
45.6159941418
20
187.1276886418
11
48.0350310943
21
150.7214907714
0
LINE
5
362
100
AcDbEntity
8
0
100
AcDbLine
62
7
6
BYLAYER
10
52.7688879326
20
207.6564493075
11
52.7961020983
21
207.2468795815
0
LINE
5
363
100
AcDbEntity
8
0
100
AcDbLine
62
7
6
BYLAYER
10
54.9560706463
20
199.6180482653
11
54.9409516653
21
199.8455870019
0
LINE
5
364
100
AcDbEntity
8
0
100
AcDbLine
62
7
6
BYLAYER
10
57.9050048549
20
205.4251168912
11
57.9322190206
21
205.0155471652
0
LINE
5
365
100
AcDbEntity
8
0
100
AcDbLine
62
7
6
BYLAYER
10
58.0960807391
20
205.5016934582
11
58.1232949048
21
205.0921237322
0
LINE
5
366
100
AcDbEntity
8
0
100
AcDbLine
62
7
6
BYLAYER
10
61.2633049976
20
210.9757689252
11
61.2481860167
21
211.2033076619
0
LINE
5
367
100
AcDbEntity
8
0
100
AcDbLine
62
7
6
BYLAYER
10
62.6796015163
20
193.4051268692
11
62.6644825353
21
193.6326656059
0
LINE
5
368
100
AcDbEntity
8
0
100
AcDbLine
62
7
6
BYLAYER
10
62.8452019435
20
193.4647350892
11
62.8300829625
21
193.6922738259
0
LINE
5
369
100
AcDbEntity
8
0
100
AcDbLine
62
7
6
BYLAYER
10
64.7858821519
20
212.3874953012
11
64.7707631709
21
212.6150340379
0
LINE
5
36A
100
AcDbEntity
8
0
100
AcDbLine
62
7
6
BYLAYER
10
66.6487688888
20
212.9357744285
11
66.6336499079
21
213.1633131652
0
LINE
5
36B
100
AcDbEntity
8
0
100
AcDbLine
62
7
6
BYLAYER
10
70.9433331897
20
193.4160825447
11
70.9282142088
21
193.6436212814
0
LINE
5
36C
100
AcDbEntity
8
0
100
AcDbLine
62
7
6
BYLAYER
10
56.6662835001
20
197.9914506866
11
57.2557137803
21
201.7808186371
0
LINE
5
36D
100
AcDbEntity
8
0
100
AcDbLine
62
7
6
BYLAYER
10
59.0851844907
20
196.6242000301
11
59.8548799438
21
201.5724685185
0
LINE
5
36E
100
AcDbEntity
8
0
100
AcDbLine
62
7
6
BYLAYER
10
59.2574756774
20
196.6838987426
11
60.0271711305
21
201.6321672309
0
LINE
5
36F
100
AcDbEntity
8
0
100
AcDbLine
62
7
6
BYLAYER
10
60.8099474152
20
194.7023997728
11
62.0158514999
21
198.1000592828
0
LINE
5
370
100
AcDbEntity
8
0
100
AcDbLine
62
7
6
BYLAYER
10
81.7713053420
20
197.3136337545
11
81.7561863611
21
197.5411724912
0
LINE
5
371
100
AcDbEntity
8
0
100
AcDbLine
62
7
6
BYLAYER
10
116.5389846639
20
223.2835314109
11
116.5238656829
21
223.5110701476
0
LINE
5
372
100
AcDbEntity
8
0
100
AcDbLine
62
7
6
BYLAYER
10
119.4199535391
20
224.1328104768
11
119.4048345582
21
224.3603492135
0
LINE
5
373
100
AcDbEntity
8
0
100
AcDbLine
62
7
6
BYLAYER
10
148.2793982843
20
238.6332096132
11
148.2642793033
21
238.8607483499
0
LINE
5
374
100
AcDbEntity
8
0
100
AcDbLine
62
7
6
BYLAYER
10
29.9959489052
20
158.3987943509
11
47.8439552101
21
150.6449142043
0
LINE
5
375
100
AcDbEntity
8
0
100
AcDbLine
62
7
6
BYLAYER
10
149.3887126159
20
236.1793833046
11
149.3735936349
21
236.4069220413
0
LINE
5
376
100
AcDbEntity
8
0
100
AcDbLine
62
7
6
BYLAYER
10
152.3253107567
20
239.1501858133
11
152.3101917757
21
239.3777245500
0
LINE
5
377
100
AcDbEntity
8
0
100
AcDbLine
62
7
6
BYLAYER
10
152.8955876192
20
236.9213640605
11
152.8804686382
21
237.1489027972
0
LINE
5
378
100
AcDbEntity
8
0
100
AcDbLine
62
7
6
BYLAYER
10
159.8158577602
20
250.6214564744
11
159.8309767412
21
250.3939177377
0
LINE
5
379
100
AcDbEntity
8
0
100
AcDbLine
62
7
6
BYLAYER
10
168.5137634649
20
235.4757830509
11
168.4986444839
21
235.7033217876
0
LINE
5
37A
100
AcDbEntity
8
0
100
AcDbLine
62
7
6
BYLAYER
10
170.3879744049
20
237.4250680074
11
170.3728554239
21
237.6526067441
0
LINE
5
37B
100
AcDbEntity
8
0
100
AcDbLine
62
7
6
BYLAYER
10
169.8458055913
20
246.7141600568
11
169.8609245723
21
246.4866213201
0
LINE
5
37C
100
AcDbEntity
8
0
100
AcDbLine
62
7
6
BYLAYER
10
56.6662835001
20
197.9914506866
11
59.0851844907
21
196.6242000301
0
LINE
5
37D
100
AcDbEntity
8
0
100
AcDbLine
62
7
6
BYLAYER
10
57.7342647679
20
202.7711172034
11
59.8548799438
21
201.5724685185
0
LINE
5
37E
100
AcDbEntity
8
0
100
AcDbLine
62
7
6
BYLAYER
10
72.7073068650
20
197.2766484970
11
80.2892820212
21
192.1185594772
0
LINE
5
37F
100
AcDbEntity
8
0
100
AcDbLine
62
7
6
BYLAYER
10
174.5036561304
20
236.3078881182
11
174.4885371494
21
236.5354268549
0
LINE
5
380
100
AcDbEntity
8
0
100
AcDbLine
62
7
6
BYLAYER
10
176.2724595076
20
238.3191599034
11
176.2654112820
21
238.4252348010
0
LINE
5
381
100
AcDbEntity
8
0
100
AcDbLine
62
7
6
BYLAYER
10
178.7439219659
20
239.2155532934
11
178.7288029849
21
239.4430920301
0
LINE
5
382
100
AcDbEntity
8
0
100
AcDbLine
62
7
6
BYLAYER
10
179.7392563174
20
251.0239921480
11
179.7543752984
21
250.7964534113
0
LINE
5
383
100
AcDbEntity
8
0
100
AcDbLine
62
7
6
BYLAYER
10
181.1464845501
20
239.2016686496
11
181.1313655692
21
239.4292073863
0
LINE
5
384
100
AcDbEntity
8
0
100
AcDbLine
62
7
6
BYLAYER
10
182.2756056929
20
252.5562409938
11
182.7690892312
21
245.1293766282
0
LINE
5
385
100
AcDbEntity
8
0
100
AcDbLine
62
7
6
BYLAYER
10
183.4954642129
20
252.0810292673
11
183.9889477512
21
244.6541649017
0
LINE
5
386
100
AcDbEntity
8
0
100
AcDbLine
62
7
6
BYLAYER
10
183.6786762634
20
252.1608409727
11
184.1721598017
21
244.7339766071
0
LINE
5
387
100
AcDbEntity
8
0
100
AcDbLine
62
7
6
BYLAYER
10
184.1577323902
20
257.2657756240
11
184.1426134092
21
257.4933143607
0
LINE
5
388
100
AcDbEntity
8
0
100
AcDbLine
62
7
6
BYLAYER
10
184.8511876321
20
257.7860925633
11
184.8663066130
21
257.5585538266
0
LINE
5
389
100
AcDbEntity
8
0
100
AcDbLine
62
7
6
BYLAYER
10
194.0047359256
20
258.0304866548
11
194.0198549065
21
257.8029479181
0
LINE
5
38A
100
AcDbEntity
8
0
100
AcDbLine
62
7
6
BYLAYER
10
179.7392563174
20
251.0239921480
11
180.0985522099
21
254.8238876338
0
LINE
5
38B
100
AcDbEntity
8
0
100
AcDbLine
62
7
6
BYLAYER
10
179.7543752984
20
250.7964534113
11
179.7755654095
21
251.0205589726
0
LINE
5
38C
100
AcDbEntity
8
0
100
AcDbLine
62
7
6
BYLAYER
10
184.3069505397
20
262.0787053499
11
183.6717272473
21
258.2784434857
0
LINE
5
38D
100
AcDbEntity
8
0
100
AcDbLine
62
7
6
BYLAYER
10
169.7093084864
20
254.9312885656
11
159.8158577602
21
250.6214564744
0
LINE
5
38E
100
AcDbEntity
8
0
100
AcDbLine
62
7
6
BYLAYER
10
59.6346462487
20
214.8463664542
11
56.1120690944
21
213.4346400782
0
LINE
5
38F
100
AcDbEntity
8
0
100
AcDbLine
62
7
6
BYLAYER
10
27.5769119527
20
194.8049922214
11
32.4562230289
21
192.6852264259
0
LINE
5
390
100
AcDbEntity
8
0
100
AcDbLine
62
7
6
BYLAYER
10
32.4562230289
20
192.6852264259
11
40.5456071815
21
189.1708778703
0
LINE
5
391
100
AcDbEntity
8
0
100
AcDbLine
62
7
6
BYLAYER
10
40.5456071815
20
189.1708778703
11
45.4249182576
21
187.0511120748
0
LINE
5
392
100
AcDbEntity
8
0
100
AcDbLine
62
7
6
BYLAYER
10
27.7679878369
20
194.8815687884
11
32.5145463400
21
192.8194759634
0
LINE
5
393
100
AcDbEntity
8
0
100
AcDbLine
62
7
6
BYLAYER
10
40.7366830657
20
189.2474544373
11
45.6159941418
21
187.1276886418
0
LINE
5
394
100
AcDbEntity
8
0
100
AcDbLine
62
7
6
BYLAYER
10
36.1513179972
20
199.0716478040
11
44.2407021498
21
195.5572992484
0
LINE
5
395
100
AcDbEntity
8
0
100
AcDbLine
62
7
6
BYLAYER
10
46.8515675127
20
203.3599355576
11
49.0344172047
21
202.4116192807
0
LINE
5
396
100
AcDbEntity
8
0
100
AcDbLine
62
7
6
BYLAYER
10
49.0344172047
20
202.4116192807
11
49.8048347430
21
202.0769194182
0
LINE
5
397
100
AcDbEntity
8
0
100
AcDbLine
62
7
6
BYLAYER
10
49.8048347430
20
202.0769194182
11
54.9409516653
21
199.8455870019
0
LINE
5
398
100
AcDbEntity
8
0
100
AcDbLine
62
7
6
BYLAYER
10
52.7961020983
20
207.2468795815
11
57.9322190206
21
205.0155471652
0
LINE
5
399
100
AcDbEntity
8
0
100
AcDbLine
62
7
6
BYLAYER
10
52.7688879326
20
207.6564493075
11
57.9050048549
21
205.4251168912
0
LINE
5
39A
100
AcDbEntity
8
0
100
AcDbLine
62
7
6
BYLAYER
10
60.1451558938
20
193.5196410578
11
58.1738591913
21
194.3957959117
0
LINE
5
39B
100
AcDbEntity
8
0
100
AcDbLine
62
7
6
BYLAYER
10
60.6443469879
20
194.6427915529
11
62.6644825353
21
193.6326656059
0
LINE
5
39C
100
AcDbEntity
8
0
100
AcDbLine
62
7
6
BYLAYER
10
81.7561863611
20
197.5411724912
11
72.8438236522
21
201.9976104926
0
LINE
5
39D
100
AcDbEntity
8
0
100
AcDbLine
62
7
6
BYLAYER
10
179.7883442060
20
251.1557068885
11
180.4717412159
21
245.3519376015
0
LINE
5
39E
100
AcDbEntity
8
0
100
AcDbLine
62
7
6
BYLAYER
10
180.8764031917
20
251.4395850471
11
181.6512016006
21
244.8595866791
0
LINE
5
39F
100
AcDbEntity
8
0
100
AcDbLine
62
7
6
BYLAYER
10
181.0634279735
20
251.5306636427
11
181.8382263825
21
244.9506652747
0
LINE
5
3A0
100
AcDbEntity
8
0
100
AcDbLine
62
7
6
BYLAYER
10
200.7815777928
20
260.8306330858
11
200.7966967737
21
260.6030943491
0
LINE
5
3A1
100
AcDbEntity
8
0
100
AcDbLine
62
7
6
BYLAYER
10
181.0634279735
20
251.5306636427
11
180.8764031917
21
251.4395850471
0
LINE
5
3A2
100
AcDbEntity
8
0
100
AcDbLine
62
7
6
BYLAYER
10
181.8382263825
20
244.9506652747
11
181.6512016006
21
244.8595866791
0
LINE
5
3A3
100
AcDbEntity
8
0
100
AcDbLine
62
7
6
BYLAYER
10
169.8458055913
20
246.7141600568
11
179.7392563174
21
251.0239921480
0
LINE
5
3A4
100
AcDbEntity
8
0
100
AcDbLine
62
7
6
BYLAYER
10
169.8609245723
20
246.4866213201
11
179.7543752984
21
250.7964534113
0
LINE
5
3A5
100
AcDbEntity
8
0
100
AcDbLine
62
7
6
BYLAYER
10
183.6786762634
20
252.1608409727
11
183.4954642129
21
252.0810292673
0
LINE
5
3A6
100
AcDbEntity
8
0
100
AcDbLine
62
7
6
BYLAYER
10
184.1721598017
20
244.7339766071
11
183.9889477512
21
244.6541649017
0
LINE
5
3A7
100
AcDbEntity
8
0
100
AcDbLine
62
7
6
BYLAYER
10
179.9115070492
20
239.9044191128
11
173.2686786294
21
237.0106385814
0
LINE
5
3A8
100
AcDbEntity
8
0
100
AcDbLine
62
7
6
BYLAYER
10
181.1313655692
20
239.4292073863
11
174.4885371494
21
236.5354268549
0
LINE
5
3A9
100
AcDbEntity
8
0
100
AcDbLine
62
7
6
BYLAYER
10
181.1464845501
20
239.2016686496
11
174.5036561304
21
236.3078881182
0
LINE
5
3AA
100
AcDbEntity
8
0
100
AcDbLine
62
7
6
BYLAYER
10
191.0837924069
20
264.8788517808
11
184.3069505397
21
262.0787053499
0
LINE
5
3AB
100
AcDbEntity
8
0
100
AcDbLine
62
7
6
BYLAYER
10
183.6717272473
20
258.2784434857
11
182.9631530244
21
257.9856652831
0
LINE
5
3AC
100
AcDbEntity
8
0
100
AcDbLine
62
7
6
BYLAYER
10
184.8511876321
20
257.7860925633
11
184.1426134092
21
257.4933143607
0
LINE
5
3AD
100
AcDbEntity
8
0
100
AcDbLine
62
7
6
BYLAYER
10
184.8663066130
20
257.5585538266
11
184.1577323902
21
257.2657756240
0
LINE
5
3AE
100
AcDbEntity
8
0
100
AcDbLine
62
7
6
BYLAYER
10
194.0047359256
20
258.0304866548
11
200.7815777928
21
260.8306330858
0
LINE
5
3AF
100
AcDbEntity
8
0
100
AcDbLine
62
7
6
BYLAYER
10
194.0198549065
20
257.8029479181
11
200.7966967737
21
260.6030943491
0
LINE
5
3B0
100
AcDbEntity
8
0
100
AcDbLine
62
7
6
BYLAYER
10
177.5493426002
20
239.9354429525
11
175.0859508972
21
238.9175857234
0
LINE
5
3B1
100
AcDbEntity
8
0
100
AcDbLine
62
7
6
BYLAYER
10
178.7288029849
20
239.4430920301
11
176.2654112820
21
238.4252348010
0
LINE
5
3B2
100
AcDbEntity
8
0
100
AcDbLine
62
7
6
BYLAYER
10
144.2269903679
20
238.6340455777
11
114.2582312912
21
226.5874727499
0
LINE
5
3B3
100
AcDbEntity
8
0
100
AcDbLine
62
7
6
BYLAYER
10
147.1062935683
20
239.3618511456
11
144.7416506946
21
238.4113332240
0
LINE
5
3B4
100
AcDbEntity
8
0
100
AcDbLine
62
7
6
BYLAYER
10
148.2642793033
20
238.8607483499
11
145.8996364297
21
237.9102304283
0
LINE
5
3B5
100
AcDbEntity
8
0
100
AcDbLine
62
7
6
BYLAYER
10
148.2793982843
20
238.6332096132
11
146.1795142278
21
237.7891170650
0
LINE
5
3B6
100
AcDbEntity
8
0
100
AcDbLine
62
7
6
BYLAYER
10
149.3735936349
20
236.4069220413
11
119.4048345582
21
224.3603492135
0
LINE
5
3B7
100
AcDbEntity
8
0
100
AcDbLine
62
7
6
BYLAYER
10
149.3887126159
20
236.1793833046
11
119.4199535391
21
224.1328104768
0
LINE
5
3B8
100
AcDbEntity
8
0
100
AcDbLine
62
7
6
BYLAYER
10
64.7707631709
20
212.6150340379
11
61.2481860167
21
211.2033076619
0
LINE
5
3B9
100
AcDbEntity
8
0
100
AcDbLine
62
7
6
BYLAYER
10
64.7858821519
20
212.3874953012
11
61.2633049976
21
210.9757689252
0
LINE
5
3BA
100
AcDbEntity
8
0
100
AcDbLine
62
7
6
BYLAYER
10
46.8515675127
20
203.3599355576
11
36.1513179972
21
199.0716478040
0
LINE
5
3BB
100
AcDbEntity
8
0
100
AcDbLine
62
7
6
BYLAYER
10
27.7679878369
20
194.8815687884
11
27.5769119527
21
194.8049922214
0
LINE
5
3BC
100
AcDbEntity
8
0
100
AcDbLine
62
7
6
BYLAYER
10
58.0960807391
20
205.5016934582
11
57.9050048549
21
205.4251168912
0
LINE
5
3BD
100
AcDbEntity
8
0
100
AcDbLine
62
7
6
BYLAYER
10
58.1232949048
20
205.0921237322
11
57.9322190206
21
205.0155471652
0
LINE
5
3BE
100
AcDbEntity
8
0
100
AcDbLine
62
7
6
BYLAYER
10
54.9409516653
20
199.8455870019
11
44.2407021498
21
195.5572992484
0
LINE
5
3BF
100
AcDbEntity
8
0
100
AcDbLine
62
7
6
BYLAYER
10
54.9560706463
20
199.6180482653
11
44.2558211307
21
195.3297605117
0
LINE
5
3C0
100
AcDbEntity
8
0
100
AcDbLine
62
7
6
BYLAYER
10
40.7366830657
20
189.2474544373
11
40.5456071815
21
189.1708778703
0
LINE
5
3C1
100
AcDbEntity
8
0
100
AcDbLine
62
7
6
BYLAYER
10
45.6159941418
20
187.1276886418
11
45.4249182576
21
187.0511120748
0
LINE
5
3C2
100
AcDbEntity
8
0
100
AcDbLine
62
7
6
BYLAYER
10
62.0158514999
20
198.1000592828
11
72.8438236522
21
201.9976104926
0
LINE
5
3C3
100
AcDbEntity
8
0
100
AcDbLine
62
7
6
BYLAYER
10
59.8548799438
20
201.5724685185
11
60.0271711305
21
201.6321672309
0
LINE
5
3C4
100
AcDbEntity
8
0
100
AcDbLine
62
7
6
BYLAYER
10
56.1120690944
20
213.4346400782
11
61.2481860167
21
211.2033076619
0
LINE
5
3C5
100
AcDbEntity
8
0
100
AcDbLine
62
7
6
BYLAYER
10
60.8099474152
20
194.7023997728
11
60.6443469879
21
194.6427915529
0
LINE
5
3C6
100
AcDbEntity
8
0
100
AcDbLine
62
7
6
BYLAYER
10
62.8300829625
20
193.6922738259
11
62.6644825353
21
193.6326656059
0
LINE
5
3C7
100
AcDbEntity
8
0
100
AcDbLine
62
7
6
BYLAYER
10
62.8452019435
20
193.4647350892
11
62.6796015163
21
193.4051268692
0
LINE
5
3C8
100
AcDbEntity
8
0
100
AcDbLine
62
7
6
BYLAYER
10
81.7561863611
20
197.5411724912
11
70.9282142088
21
193.6436212814
0
LINE
5
3C9
100
AcDbEntity
8
0
100
AcDbLine
62
7
6
BYLAYER
10
81.7713053420
20
197.3136337545
11
70.9433331897
21
193.4160825447
0
LINE
5
3CA
100
AcDbEntity
8
0
100
AcDbLine
62
7
6
BYLAYER
10
59.0851844907
20
196.6242000301
11
59.2574756774
21
196.6838987426
0
LINE
5
3CB
100
AcDbEntity
8
0
100
AcDbLine
62
7
6
BYLAYER
10
169.3611935249
20
250.8799784100
11
162.4875684953
21
256.7553119403
0
LINE
5
3CC
100
AcDbEntity
8
0
100
AcDbLine
62
7
6
BYLAYER
10
48.0350310943
20
150.7214907714
11
47.8439552101
21
150.6449142043
0
LINE
5
3CD
100
AcDbEntity
8
0
100
AcDbLine
62
7
6
BYLAYER
10
144.2269903679
20
238.6340455777
11
144.7416506946
21
238.4113332240
0
LINE
5
3CE
100
AcDbEntity
8
0
100
AcDbLine
62
7
6
BYLAYER
10
145.8996364297
20
237.9102304283
11
147.7009475732
21
237.1307371906
0
LINE
5
3CF
100
AcDbEntity
8
0
100
AcDbLine
62
7
6
BYLAYER
10
148.8589333082
20
236.6296343949
11
149.3735936349
21
236.4069220413
0
LINE
5
3D0
100
AcDbEntity
8
0
100
AcDbLine
62
7
6
BYLAYER
10
80.2892820212
20
192.1185594772
11
87.2892820212
21
192.1185594772
0
LINE
5
3D1
100
AcDbEntity
8
0
100
AcDbLine
62
7
6
BYLAYER
10
70.9433331897
20
193.4160825447
11
62.8452019435
21
193.4647350892
0
LINE
5
3D2
100
AcDbEntity
8
0
100
AcDbLine
62
7
6
BYLAYER
10
70.9282142088
20
193.6436212814
11
62.8300829625
21
193.6922738259
0
LINE
5
3D3
100
AcDbEntity
8
0
100
AcDbLine
62
7
6
BYLAYER
10
179.9115070492
20
239.9044191128
11
181.1313655692
21
239.4292073863
0
LINE
5
3D4
100
AcDbEntity
8
0
100
AcDbLine
62
7
6
BYLAYER
10
159.8309767412
20
250.3939177377
11
169.8609245723
21
246.4866213201
0
LINE
5
3D5
100
AcDbEntity
8
0
100
AcDbLine
62
7
6
BYLAYER
10
159.8158577602
20
250.6214564744
11
169.8458055913
21
246.7141600568
0
LINE
5
3D6
100
AcDbEntity
8
0
100
AcDbLine
62
7
6
BYLAYER
10
182.7690892312
20
245.1293766282
11
183.9889477512
21
244.6541649017
0
LINE
5
3D7
100
AcDbEntity
8
0
100
AcDbLine
62
7
6
BYLAYER
10
182.2756056929
20
252.5562409938
11
183.4954642129
21
252.0810292673
0
LINE
5
3D8
100
AcDbEntity
8
0
100
AcDbLine
62
7
6
BYLAYER
10
177.5493426002
20
239.9354429525
11
178.7288029849
21
239.4430920301
0
LINE
5
3D9
100
AcDbEntity
8
0
100
AcDbLine
62
7
6
BYLAYER
10
180.4717412159
20
245.3519376015
11
181.6512016006
21
244.8595866791
0
LINE
5
3DA
100
AcDbEntity
8
0
100
AcDbLine
62
7
6
BYLAYER
10
179.8554822653
20
251.8657556640
11
180.8764031917
21
251.4395850471
0
LINE
5
3DB
100
AcDbEntity
8
0
100
AcDbLine
62
7
6
BYLAYER
10
191.2263947765
20
260.6940828442
11
199.1849296384
21
255.1250122106
0
LINE
5
3DC
100
AcDbEntity
8
0
100
AcDbLine
62
7
6
BYLAYER
10
168.5137634649
20
235.4757830509
11
152.8955876192
21
236.9213640605
0
LINE
5
3DD
100
AcDbEntity
8
0
100
AcDbLine
62
7
6
BYLAYER
10
168.4986444839
20
235.7033217876
11
152.8804686382
21
237.1489027972
0
LINE
5
3DE
100
AcDbEntity
8
0
100
AcDbLine
62
7
6
BYLAYER
10
169.1062108449
20
236.4323960770
11
153.4880349992
21
237.8779770866
0
LINE
5
3DF
100
AcDbEntity
8
0
100
AcDbLine
62
7
6
BYLAYER
10
170.3879744049
20
237.4250680074
11
152.3253107567
21
239.1501858133
0
LINE
5
3E0
100
AcDbEntity
8
0
100
AcDbLine
62
7
6
BYLAYER
10
170.3728554239
20
237.6526067441
11
152.3101917757
21
239.3777245500
0
LINE
5
3E1
100
AcDbEntity
8
0
100
AcDbLine
62
7
6
BYLAYER
10
170.9911239450
20
238.3806747008
11
152.9284602968
21
240.1057925066
0
LINE
5
3E2
100
AcDbEntity
8
0
100
AcDbLine
62
7
6
BYLAYER
10
178.8990246652
20
255.2911791648
11
180.0985522099
21
254.8238876338
0
LINE
5
3E3
100
AcDbEntity
8
0
100
AcDbLine
62
7
6
BYLAYER
10
182.0143224665
20
254.9172957727
11
180.7944639465
21
255.3925074991
0
LINE
5
3E4
100
AcDbEntity
8
0
100
AcDbLine
62
7
6
BYLAYER
10
182.9631530244
20
257.9856652831
11
184.1426134092
21
257.4933143607
0
LINE
5
3E5
100
AcDbEntity
8
0
100
AcDbLine
62
7
6
BYLAYER
10
200.7815777928
20
260.8306330858
11
191.0837924069
21
264.8788517808
0
LINE
5
3E6
100
AcDbEntity
8
0
100
AcDbLine
62
7
6
BYLAYER
10
199.1849296384
20
255.1250122106
11
206.1849296384
21
255.1250122106
0
LINE
5
3E7
100
AcDbEntity
8
0
100
AcDbLine
62
7
6
BYLAYER
10
162.4875684953
20
256.7553119403
11
155.4875684953
21
256.7553119403
0
LINE
5
3E8
100
AcDbEntity
8
0
100
AcDbLine
62
7
6
BYLAYER
10
116.5389846639
20
223.2835314109
11
66.6487688888
21
212.9357744285
0
LINE
5
3E9
100
AcDbEntity
8
0
100
AcDbLine
62
7
6
BYLAYER
10
116.5238656829
20
223.5110701476
11
66.6336499079
21
213.1633131652
0
LINE
5
3EA
100
AcDbEntity
8
0
100
AcDbLine
62
7
6
BYLAYER
10
113.7533192202
20
226.4386300270
11
63.8631034452
21
216.0908730446
0
LINE
5
3EB
100
AcDbEntity
8
0
100
AcDbLine
62
7
6
BYLAYER
10
178.8990246652
20
255.2911791648
11
169.7093084864
21
254.9312885656
0
LINE
5
3EC
100
AcDbEntity
8
0
100
AcDbLine
62
7
6
BYLAYER
10
184.8663066130
20
257.5585538266
11
194.0198549065
21
257.8029479181
0
LINE
5
3ED
100
AcDbEntity
8
0
100
AcDbLine
62
7
6
BYLAYER
10
184.8511876321
20
257.7860925633
11
194.0047359256
21
258.0304866548
0
LINE
5
3EE
100
AcDbEntity
8
0
100
AcDbLine
62
7
6
BYLAYER
10
136.8338426986
20
176.3010521459
11
136.8338426986
21
148.5010521459
0
LINE
5
3EF
100
AcDbEntity
8
0
100
AcDbLine
62
7
6
BYLAYER
10
176.8338426986
20
176.3010521459
11
176.8338426986
21
168.7010521459
0
LINE
5
3F0
100
AcDbEntity
8
0
100
AcDbLine
62
7
6
BYLAYER
10
176.8338426986
20
168.7010521459
11
176.8338426986
21
156.1010521459
0
LINE
5
3F1
100
AcDbEntity
8
0
100
AcDbLine
62
7
6
BYLAYER
10
176.8338426986
20
156.1010521459
11
176.8338426986
21
148.5010521459
0
LINE
5
3F2
100
AcDbEntity
8
0
100
AcDbLine
62
7
6
BYLAYER
10
184.8128243325
20
168.7010521459
11
184.8128243325
21
156.1010521459
0
LINE
5
3F3
100
AcDbEntity
8
0
100
AcDbLine
62
7
6
BYLAYER
10
230.8330506973
20
170.4662907124
11
237.2019760710
21
175.6229868937
0
LINE
5
3F4
100
AcDbEntity
8
0
100
AcDbLine
62
7
6
BYLAYER
10
198.8128243325
20
168.7010521459
11
198.8128243325
21
165.3010521459
0
LINE
5
3F5
100
AcDbEntity
8
0
100
AcDbLine
62
7
6
BYLAYER
10
198.8128243325
20
165.3010521459
11
198.8128243325
21
164.1010521459
0
LINE
5
3F6
100
AcDbEntity
8
0
100
AcDbLine
62
7
6
BYLAYER
10
198.8128243325
20
164.1010521459
11
198.8128243325
21
156.1010521459
0
LINE
5
3F7
100
AcDbEntity
8
0
100
AcDbLine
62
7
6
BYLAYER
10
205.6137087214
20
164.1010521459
11
205.6137087214
21
156.1010521459
0
LINE
5
3F8
100
AcDbEntity
8
0
100
AcDbLine
62
7
6
BYLAYER
10
206.0637087214
20
164.1010521459
11
206.0637087214
21
156.1010521459
0
LINE
5
3F9
100
AcDbEntity
8
0
100
AcDbLine
62
7
6
BYLAYER
10
208.1597191066
20
168.6799428394
11
208.1597191066
21
165.2879234453
0
LINE
5
3FA
100
AcDbEntity
8
0
100
AcDbLine
62
7
6
BYLAYER
10
213.2572921920
20
164.1010521459
11
213.2572921920
21
156.1010521459
0
LINE
5
3FB
100
AcDbEntity
8
0
100
AcDbLine
62
7
6
BYLAYER
10
216.4535401576
20
169.3587020068
11
216.4535401576
21
169.3415830033
0
LINE
5
3FC
100
AcDbEntity
8
0
100
AcDbLine
62
7
6
BYLAYER
10
221.9806717109
20
170.2462315342
11
221.9806717109
21
170.2291125307
0
LINE
5
3FD
100
AcDbEntity
8
0
100
AcDbLine
62
7
6
BYLAYER
10
230.6276928147
20
170.4876008259
11
230.6276928147
21
170.4704818224
0
LINE
5
3FE
100
AcDbEntity
8
0
100
AcDbLine
62
7
6
BYLAYER
10
230.8330506973
20
170.4662907124
11
230.8330506973
21
170.4491717089
0
LINE
5
3FF
100
AcDbEntity
8
0
100
AcDbLine
62
7
6
BYLAYER
10
237.2019760710
20
175.6229868937
11
237.2019760710
21
175.6058678901
0
LINE
5
400
100
AcDbEntity
8
0
100
AcDbLine
62
7
6
BYLAYER
10
230.6276928147
20
170.4704818224
11
230.2759403259
21
167.0966641151
0
LINE
5
401
100
AcDbEntity
8
0
100
AcDbLine
62
7
6
BYLAYER
10
249.0776854145
20
159.3279920137
11
250.6295346298
21
174.2124818985
0
LINE
5
402
100
AcDbEntity
8
0
100
AcDbLine
62
7
6
BYLAYER
10
216.4535401576
20
169.3415830033
11
216.9938322921
21
165.9926654526
0
LINE
5
403
100
AcDbEntity
8
0
100
AcDbLine
62
7
6
BYLAYER
10
250.6295346298
20
174.2296009020
11
250.6295346298
21
174.2124818985
0
LINE
5
404
100
AcDbEntity
8
0
100
AcDbLine
62
7
6
BYLAYER
10
221.9806717109
20
170.2291125307
11
222.5209638454
21
166.8801949800
0
LINE
5
405
100
AcDbEntity
8
0
100
AcDbLine
62
7
6
BYLAYER
10
312.7011978310
20
145.2391879611
11
312.7025708338
21
144.4391891393
0
LINE
5
406
100
AcDbEntity
8
0
100
AcDbLine
62
7
6
BYLAYER
10
312.7056600901
20
142.6391917903
11
312.7104656000
21
139.8391959140
0
LINE
5
407
100
AcDbEntity
8
0
100
AcDbLine
62
7
6
BYLAYER
10
312.7135548563
20
138.0391985650
11
312.7149278591
21
137.2391997432
0
LINE
5
408
100
AcDbEntity
8
0
100
AcDbLine
62
7
6
BYLAYER
10
360.7147434679
20
121.9596049311
11
366.9119519685
21
128.7776000029
0
LINE
5
409
100
AcDbEntity
8
0
100
AcDbLine
62
7
6
BYLAYER
10
366.6533762700
20
129.7724260257
11
360.2678068933
21
123.1599753653
0
LINE
5
40A
100
AcDbEntity
8
0
100
AcDbLine
62
7
6
BYLAYER
10
338.9769719761
20
120.9377948183
11
339.0627291387
21
119.1398388375
0
LINE
5
40B
100
AcDbEntity
8
0
100
AcDbLine
62
7
6
BYLAYER
10
345.7701335106
20
121.2618084562
11
345.8558906731
21
119.4638524753
0
LINE
5
40C
100
AcDbEntity
8
0
100
AcDbLine
62
7
6
BYLAYER
10
353.9208672904
20
121.6505742598
11
354.0066244530
21
119.8526182789
0
LINE
5
40D
100
AcDbEntity
8
0
100
AcDbLine
62
7
6
BYLAYER
10
337.4179621614
20
122.7611298419
11
337.4493764930
21
120.9614039906
0
LINE
5
40E
100
AcDbEntity
8
0
100
AcDbLine
62
7
6
BYLAYER
10
344.4735104673
20
122.8842848957
11
344.5049247988
21
121.0845590444
0
LINE
5
40F
100
AcDbEntity
8
0
100
AcDbLine
62
7
6
BYLAYER
10
351.8639743523
20
123.0132859227
11
351.8953886839
21
121.2135600714
0
LINE
5
410
100
AcDbEntity
8
0
100
AcDbLine
62
7
6
BYLAYER
10
235.6501268557
20
160.7213780053
11
230.4812982085
21
167.0753540016
0
LINE
5
411
100
AcDbEntity
8
0
100
AcDbLine
62
7
6
BYLAYER
10
360.7140288249
20
121.9745878976
11
360.7997859874
21
120.1766319168
0
LINE
5
412
100
AcDbEntity
8
0
100
AcDbLine
62
7
6
BYLAYER
10
380.3966218249
20
129.4207787221
11
381.1017362726
21
114.6375851018
0
LINE
5
413
100
AcDbEntity
8
0
100
AcDbLine
62
7
6
BYLAYER
10
359.3269266342
20
123.1435522393
11
359.3583409658
21
121.3438263880
0
LINE
5
414
100
AcDbEntity
8
0
100
AcDbLine
62
7
6
BYLAYER
10
375.9103011417
20
115.1317517953
11
375.6520055264
21
129.9294976836
0
LINE
5
415
100
AcDbEntity
8
0
100
AcDbLine
62
7
6
BYLAYER
10
324.6285786358
20
121.6330045176
11
316.2639309707
21
136.0019080150
0
LINE
5
416
100
AcDbEntity
8
0
100
AcDbLine
62
7
6
BYLAYER
10
326.1841910883
20
122.5385816252
11
317.8195434232
21
136.9074851226
0
LINE
5
417
100
AcDbEntity
8
0
100
AcDbLine
62
7
6
BYLAYER
10
328.9577342604
20
123.8674988440
11
319.3673554610
21
140.5847245220
0
LINE
5
418
100
AcDbEntity
8
0
100
AcDbLine
62
7
6
BYLAYER
10
330.5190537847
20
124.7632004366
11
320.9286749853
21
141.4804261147
0
LINE
5
419
100
AcDbEntity
8
0
100
AcDbLine
62
7
6
BYLAYER
10
270.1566527108
20
137.7411941331
11
219.9928829110
21
155.7312348919
0
LINE
5
41A
100
AcDbEntity
8
0
100
AcDbLine
62
7
6
BYLAYER
10
367.6170664163
20
113.9944063826
11
360.7990713444
21
120.1916148833
0
LINE
5
41B
100
AcDbEntity
8
0
100
AcDbLine
62
7
6
BYLAYER
10
360.2992212249
20
121.3602495140
11
366.9116718853
21
114.9746801374
0
LINE
5
41C
100
AcDbEntity
8
0
100
AcDbLine
62
7
6
BYLAYER
10
381.1017362726
20
114.6375851018
11
367.6170664163
21
113.9944063826
0
LINE
5
41D
100
AcDbEntity
8
0
100
AcDbLine
62
7
6
BYLAYER
10
360.8150409058
20
120.1773595311
11
330.0086234850
21
118.7079848774
0
LINE
5
41E
100
AcDbEntity
8
0
100
AcDbLine
62
7
6
BYLAYER
10
360.7140288249
20
121.9745878976
11
329.9228663225
21
120.5059408583
0
LINE
5
41F
100
AcDbEntity
8
0
100
AcDbLine
62
7
6
BYLAYER
10
366.9116718853
20
114.9746801374
11
375.9103011417
21
115.1317517953
0
LINE
5
420
100
AcDbEntity
8
0
100
AcDbLine
62
7
6
BYLAYER
10
360.2992212249
20
121.3602495140
11
334.1783618991
21
120.9043082185
0
LINE
5
421
100
AcDbEntity
8
0
100
AcDbLine
62
7
6
BYLAYER
10
360.2678068933
20
123.1599753653
11
334.1469475675
21
122.7040340698
0
LINE
5
422
100
AcDbEntity
8
0
100
AcDbLine
62
7
6
BYLAYER
10
272.8572479363
20
145.2715849216
11
222.6934781365
21
163.2616256804
0
LINE
5
423
100
AcDbEntity
8
0
100
AcDbLine
62
7
6
BYLAYER
10
366.9119519685
20
128.7776000029
11
380.3966218249
21
129.4207787221
0
LINE
5
424
100
AcDbEntity
8
0
100
AcDbLine
62
7
6
BYLAYER
10
375.6520055264
20
129.9294976836
11
366.6533762700
21
129.7724260257
0
LINE
5
425
100
AcDbEntity
8
0
100
AcDbLine
62
7
6
BYLAYER
10
312.7149278591
20
137.2391997432
11
273.4477720808
21
137.1718072500
0
LINE
5
426
100
AcDbEntity
8
0
100
AcDbLine
62
7
6
BYLAYER
10
315.8039799052
20
142.6445093004
11
312.7056600901
21
142.6391917903
0
LINE
5
427
100
AcDbEntity
8
0
100
AcDbLine
62
7
6
BYLAYER
10
315.8008906489
20
144.4445066494
11
312.7025708338
21
144.4391891393
0
LINE
5
428
100
AcDbEntity
8
0
100
AcDbLine
62
7
6
BYLAYER
10
312.7011978310
20
145.2391879611
11
273.4340420527
21
145.1717954679
0
LINE
5
429
100
AcDbEntity
8
0
100
AcDbLine
62
7
6
BYLAYER
10
176.8338426986
20
148.5010521459
11
136.8338426986
21
148.5010521459
0
LINE
5
42A
100
AcDbEntity
8
0
100
AcDbLine
62
7
6
BYLAYER
10
249.0776854145
20
159.3279920137
11
235.6501268557
21
160.7213780053
0
LINE
5
42B
100
AcDbEntity
8
0
100
AcDbLine
62
7
6
BYLAYER
10
230.4812982085
20
167.0753540016
11
230.2759403259
21
167.0966641151
0
LINE
5
42C
100
AcDbEntity
8
0
100
AcDbLine
62
7
6
BYLAYER
10
230.8330506973
20
170.4662907124
11
230.6276928147
21
170.4876008259
0
LINE
5
42D
100
AcDbEntity
8
0
100
AcDbLine
62
7
6
BYLAYER
10
217.8661641709
20
156.1010521459
11
176.8338426986
21
156.1010521459
0
LINE
5
42E
100
AcDbEntity
8
0
100
AcDbLine
62
7
6
BYLAYER
10
217.8661641709
20
164.1010521459
11
198.8128243325
21
164.1010521459
0
LINE
5
42F
100
AcDbEntity
8
0
100
AcDbLine
62
7
6
BYLAYER
10
200.8125322901
20
165.3010520950
11
198.8128243325
21
165.3010521459
0
LINE
5
430
100
AcDbEntity
8
0
100
AcDbLine
62
7
6
BYLAYER
10
200.8078183187
20
168.7010562833
11
176.8338426986
21
168.7010521459
0
LINE
5
431
100
AcDbEntity
8
0
100
AcDbLine
62
7
6
BYLAYER
10
176.8338426986
20
176.3010521459
11
136.8338426986
21
176.3010521459
0
LINE
5
432
100
AcDbEntity
8
0
100
AcDbLine
62
7
6
BYLAYER
10
200.8125322901
20
165.3010520950
11
200.8172597420
21
165.3010496297
0
LINE
5
433
100
AcDbEntity
8
0
100
AcDbLine
62
7
6
BYLAYER
10
237.2019760710
20
175.6229868937
11
250.6295346298
21
174.2296009020
0
LINE
5
434
100
AcDbEntity
8
0
100
AcDbLine
62
7
6
BYLAYER
10
222.5209638454
20
166.8801949800
11
216.9938322921
21
165.9926654526
0
LINE
5
435
100
AcDbEntity
8
0
100
AcDbLine
62
7
6
BYLAYER
10
221.9806717109
20
170.2462315342
11
216.4535401576
21
169.3587020068
0
ARC
5
436
100
AcDbEntity
8
DEFAULT_1
100
AcDbCircle
62
7
6
BYLAYER
10
281.7300961535
20
146.9300714677
40
20.6000000000
100
AcDbArc
50
86.9536920000
51
179.2021068939
0
ARC
5
437
100
AcDbEntity
8
0
100
AcDbCircle
62
7
6
BYLAYER
10
273.4311244217
20
146.8717929642
40
1.7000000000
100
AcDbArc
50
250.2708376688
51
270.0983341310
0
ARC
5
438
100
AcDbEntity
8
0
100
AcDbCircle
62
7
6
BYLAYER
10
217.8661641709
20
149.8010521459
40
14.3000000000
100
AcDbArc
50
70.2708376688
51
90.0000000000
0
ARC
5
439
100
AcDbEntity
8
0
100
AcDbCircle
62
7
6
BYLAYER
10
329.7275305633
20
124.6012850369
40
4.1000000000
100
AcDbArc
50
210.2052006263
51
272.7307690000
0
ARC
5
43A
100
AcDbEntity
8
0
100
AcDbCircle
62
7
6
BYLAYER
10
312.7205914957
20
133.9392046033
40
5.9000000000
100
AcDbArc
50
30.2052006263
51
90.0983341310
0
ARC
5
43B
100
AcDbEntity
8
0
100
AcDbCircle
62
7
6
BYLAYER
10
334.0753927011
20
126.8034096199
40
4.1000000000
100
AcDbArc
50
209.8421362825
51
271.0000000000
0
ARC
5
43C
100
AcDbEntity
8
0
100
AcDbCircle
62
7
6
BYLAYER
10
315.8110165446
20
138.5445153387
40
5.9000000000
100
AcDbArc
50
29.8421362825
51
90.0983341310
0
ARC
5
43D
100
AcDbEntity
8
0
100
AcDbCircle
62
7
6
BYLAYER
10
217.8661641709
20
149.8010521459
40
6.3000000000
100
AcDbArc
50
70.2708376688
51
90.0000000000
0
ARC
5
43E
100
AcDbEntity
8
0
100
AcDbCircle
62
7
6
BYLAYER
10
273.4311244217
20
146.8717929642
40
9.7000000000
100
AcDbArc
50
250.2708376688
51
270.0983341310
0
ARC
5
43F
100
AcDbEntity
8
0
100
AcDbCircle
62
7
6
BYLAYER
10
334.0753927011
20
126.8034096199
40
5.9000000000
100
AcDbArc
50
209.8421362825
51
271.0000000000
0
ARC
5
440
100
AcDbEntity
8
0
100
AcDbCircle
62
7
6
BYLAYER
10
315.8110165446
20
138.5445153387
40
4.1000000000
100
AcDbArc
50
29.8421362825
51
90.0983341310
0
ARC
5
441
100
AcDbEntity
8
0
100
AcDbCircle
62
7
6
BYLAYER
10
329.7275305633
20
124.6012850369
40
5.9000000000
100
AcDbArc
50
210.2052006263
51
272.7307690000
0
ARC
5
442
100
AcDbEntity
8
0
100
AcDbCircle
62
7
6
BYLAYER
10
312.7205914957
20
133.9392046033
40
4.1000000000
100
AcDbArc
50
30.2052006263
51
90.0983341310
0
SPLINE
5
443
100
AcDbEntity
8
0
100
AcDbSpline
62
7
6
BYLAYER
70
0
71
3
72
8
73
4
74
2
42
0.0000001000
43
0.0000001000
44
0.0000000001
40
0.0000000000
40
0.0000000000
40
0.0000000000
40
0.0000000000
40
1.0000000000
40
1.0000000000
40
1.0000000000
40
1.0000000000
10
60.5452630695
20
193.6195385749
30
0.0000000000
10
60.5063482850
20
193.6365095887
30
0.0000000000
10
60.4679241205
20
193.6546642244
30
0.0000000000
10
60.4300822332
20
193.6739769742
30
0.0000000000
11
60.5452630695
21
193.6195385749
31
0.0000000000
11
60.4300822332
21
193.6739769742
31
0.0000000000
0
SPLINE
5
444
100
AcDbEntity
8
0
100
AcDbSpline
62
7
6
BYLAYER
70
0
71
3
72
9
73
5
74
3
42
0.0000001000
43
0.0000001000
44
0.0000000001
40
0.0000000000
40
0.0000000000
40
0.0000000000
40
0.0000000000
40
0.4965429330
40
1.0000000000
40
1.0000000000
40
1.0000000000
40
1.0000000000
10
60.4300822332
20
193.6739769742
30
0.0000000000
10
60.2765757101
20
193.7523196067
30
0.0000000000
10
59.9867217676
20
193.9484755507
30
0.0000000000
10
59.7605447867
20
194.2150195697
30
0.0000000000
10
59.6635260347
20
194.3603433738
30
0.0000000000
11
60.4300822332
21
193.6739769742
31
0.0000000000
11
60.0044257225
21
193.9644738259
31
0.0000000000
11
59.6635260347
21
194.3603433738
31
0.0000000000
0
SPLINE
5
445
100
AcDbEntity
8
0
100
AcDbSpline
62
7
6
BYLAYER
70
0
71
3
72
10
73
6
74
4
42
0.0000001000
43
0.0000001000
44
0.0000000001
40
0.0000000000
40
0.0000000000
40
0.0000000000
40
0.0000000000
40
0.1176173659
40
0.7383822464
40
1.0000000000
40
1.0000000000
40
1.0000000000
40
1.0000000000
10
59.6635260347
20
194.3603433738
30
0.0000000000
10
59.6389561044
20
194.3971465244
30
0.0000000000
10
59.4914951527
20
194.6326719862
30
0.0000000000
10
59.3500907317
20
194.9839307148
30
0.0000000000
10
59.2777175477
20
195.3072554158
30
0.0000000000
10
59.2605570173
20
195.4038956257
30
0.0000000000
11
59.6635260347
21
194.3603433738
31
0.0000000000
11
59.5930701519
21
194.4727853653
31
0.0000000000
11
59.3252396814
21
195.1167064383
31
0.0000000000
11
59.2605570173
21
195.4038956257
31
0.0000000000
0
SPLINE
5
446
100
AcDbEntity
8
0
100
AcDbSpline
62
7
6
BYLAYER
70
0
71
3
72
9
73
5
74
3
42
0.0000001000
43
0.0000001000
44
0.0000000001
40
0.0000000000
40
0.0000000000
40
0.0000000000
40
0.0000000000
40
0.3603908000
40
1.0000000000
40
1.0000000000
40
1.0000000000
40
1.0000000000
10
59.2605570173
20
195.4038956257
30
0.0000000000
10
59.2335515107
20
195.5559782115
30
0.0000000000
10
59.1881484040
20
195.9833153989
30
0.0000000000
10
59.2154187057
20
196.4135201315
30
0.0000000000
10
59.2574756774
20
196.6838987426
30
0.0000000000
11
59.2605570173
21
195.4038956257
31
0.0000000000
11
59.2102647202
21
195.8643674344
31
0.0000000000
11
59.2574756774
21
196.6838987426
31
0.0000000000
0
SPLINE
5
447
100
AcDbEntity
8
0
100
AcDbSpline
62
7
6
BYLAYER
70
0
71
3
72
8
73
4
74
2
42
0.0000001000
43
0.0000001000
44
0.0000000001
40
0.0000000000
40
0.0000000000
40
0.0000000000
40
0.0000000000
40
1.0000000000
40
1.0000000000
40
1.0000000000
40
1.0000000000
10
181.2369169959
20
254.8504100732
30
0.0000000000
10
181.3426155985
20
254.7661396591
30
0.0000000000
10
181.4406806423
20
254.6720912708
30
0.0000000000
10
181.5296949572
20
254.5707619781
30
0.0000000000
11
181.2369169959
21
254.8504100732
31
0.0000000000
11
181.5296949572
21
254.5707619781
31
0.0000000000
0
SPLINE
5
448
100
AcDbEntity
8
0
100
AcDbSpline
62
7
6
BYLAYER
70
0
71
3
72
8
73
4
74
2
42
0.0000001000
43
0.0000001000
44
0.0000000001
40
0.0000000000
40
0.0000000000
40
0.0000000000
40
0.0000000000
40
1.0000000000
40
1.0000000000
40
1.0000000000
40
1.0000000000
10
181.5296949572
20
254.5707619781
30
0.0000000000
10
181.5515457146
20
254.5458882058
30
0.0000000000
10
181.5728510951
20
254.5205757022
30
0.0000000000
10
181.5936199497
20
254.4948519877
30
0.0000000000
11
181.5296949572
21
254.5707619781
31
0.0000000000
11
181.5936199497
21
254.4948519877
31
0.0000000000
0
SPLINE
5
449
100
AcDbEntity
8
0
100
AcDbSpline
62
7
6
BYLAYER
70
0
71
3
72
8
73
4
74
2
42
0.0000001000
43
0.0000001000
44
0.0000000001
40
0.0000000000
40
0.0000000000
40
0.0000000000
40
0.0000000000
40
1.0000000000
40
1.0000000000
40
1.0000000000
40
1.0000000000
10
181.5936199497
20
254.4948519877
30
0.0000000000
10
181.7884312123
20
254.2535642811
30
0.0000000000
10
181.9360368628
20
253.9760966467
30
0.0000000000
10
182.0437417059
20
253.6851612452
30
0.0000000000
11
181.5936199497
21
254.4948519877
31
0.0000000000
11
182.0437417059
21
253.6851612452
31
0.0000000000
0
SPLINE
5
44A
100
AcDbEntity
8
0
100
AcDbSpline
62
7
6
BYLAYER
70
0
71
3
72
8
73
4
74
2
42
0.0000001000
43
0.0000001000
44
0.0000000001
40
0.0000000000
40
0.0000000000
40
0.0000000000
40
0.0000000000
40
1.0000000000
40
1.0000000000
40
1.0000000000
40
1.0000000000
10
182.0437417059
20
253.6851612452
30
0.0000000000
10
182.1778866135
20
253.3228051854
30
0.0000000000
10
182.2501359460
20
252.9395574384
30
0.0000000000
10
182.2756056929
20
252.5562409938
30
0.0000000000
11
182.0437417059
21
253.6851612452
31
0.0000000000
11
182.2756056929
21
252.5562409938
31
0.0000000000
0
SPLINE
5
44B
100
AcDbEntity
8
0
100
AcDbSpline
62
7
6
BYLAYER
70
0
71
3
72
11
73
7
74
5
42
0.0000001000
43
0.0000001000
44
0.0000000001
40
0.0000000000
40
0.0000000000
40
0.0000000000
40
0.0000000000
40
0.2282315290
40
0.4773521034
40
0.7386191788
40
1.0000000000
40
1.0000000000
40
1.0000000000
40
1.0000000000
10
36.1513179972
20
199.0716478040
30
0.0000000000
10
35.7101205941
20
198.8948312337
30
0.0000000000
10
34.8490018109
20
198.3636634503
30
0.0000000000
10
33.7887641507
20
197.2300078095
30
0.0000000000
10
32.9805964115
20
195.8245880260
30
0.0000000000
10
32.6542895826
20
194.7774837417
30
0.0000000000
10
32.5545008737
20
194.2405128959
30
0.0000000000
11
36.1513179972
21
199.0716478040
31
0.0000000000
11
34.9268978806
21
198.3408478243
31
0.0000000000
11
33.8534115112
21
197.2138490234
31
0.0000000000
11
33.0359392142
21
195.8009698963
31
0.0000000000
11
32.5545008737
21
194.2405128959
31
0.0000000000
0
SPLINE
5
44C
100
AcDbEntity
8
0
100
AcDbSpline
62
7
6
BYLAYER
70
0
71
3
72
8
73
4
74
2
42
0.0000001000
43
0.0000001000
44
0.0000000001
40
0.0000000000
40
0.0000000000
40
0.0000000000
40
0.0000000000
40
1.0000000000
40
1.0000000000
40
1.0000000000
40
1.0000000000
10
32.5545008737
20
194.2405128959
30
0.0000000000
10
32.4687326513
20
193.7789873840
30
0.0000000000
10
32.4298005295
20
193.3076331492
30
0.0000000000
10
32.4480753473
20
192.8398482336
30
0.0000000000
11
32.5545008737
21
194.2405128959
31
0.0000000000
11
32.4480753473
21
192.8398482336
31
0.0000000000
0
SPLINE
5
44D
100
AcDbEntity
8
0
100
AcDbSpline
62
7
6
BYLAYER
70
0
71
3
72
8
73
4
74
2
42
0.0000001000
43
0.0000001000
44
0.0000000001
40
0.0000000000
40
0.0000000000
40
0.0000000000
40
0.0000000000
40
1.0000000000
40
1.0000000000
40
1.0000000000
40
1.0000000000
10
32.4480753473
20
192.8398482336
30
0.0000000000
10
32.4500907992
20
192.7882582269
30
0.0000000000
10
32.4528020559
20
192.7367116336
30
0.0000000000
10
32.4562230289
20
192.6852264259
30
0.0000000000
11
32.4480753473
21
192.8398482336
31
0.0000000000
11
32.4562230289
21
192.6852264259
31
0.0000000000
0
SPLINE
5
44E
100
AcDbEntity
8
0
100
AcDbSpline
62
7
6
BYLAYER
70
0
71
3
72
8
73
4
74
2
42
0.0000001000
43
0.0000001000
44
0.0000000001
40
0.0000000000
40
0.0000000000
40
0.0000000000
40
0.0000000000
40
1.0000000000
40
1.0000000000
40
1.0000000000
40
1.0000000000
10
180.1127002788
20
254.5897624128
30
0.0000000000
10
180.4223410512
20
254.7246495997
30
0.0000000000
10
180.7584869663
20
254.8126011472
30
0.0000000000
10
181.0988820956
20
254.8223415921
30
0.0000000000
11
180.1127002788
21
254.5897624128
31
0.0000000000
11
181.0988820956
21
254.8223415921
31
0.0000000000
0
SPLINE
5
44F
100
AcDbEntity
8
0
100
AcDbSpline
62
7
6
BYLAYER
70
0
71
3
72
8
73
4
74
2
42
0.0000001000
43
0.0000001000
44
0.0000000001
40
0.0000000000
40
0.0000000000
40
0.0000000000
40
0.0000000000
40
1.0000000000
40
1.0000000000
40
1.0000000000
40
1.0000000000
10
181.0988820956
20
254.8223415921
30
0.0000000000
10
181.3027082828
20
254.8281741013
30
0.0000000000
10
181.5080580383
20
254.8059637898
30
0.0000000000
10
181.7052608154
20
254.7545741714
30
0.0000000000
11
181.0988820956
21
254.8223415921
31
0.0000000000
11
181.7052608154
21
254.7545741714
31
0.0000000000
0
SPLINE
5
450
100
AcDbEntity
8
0
100
AcDbSpline
62
7
6
BYLAYER
70
0
71
3
72
8
73
4
74
2
42
0.0000001000
43
0.0000001000
44
0.0000000001
40
0.0000000000
40
0.0000000000
40
0.0000000000
40
0.0000000000
40
1.0000000000
40
1.0000000000
40
1.0000000000
40
1.0000000000
10
181.7052608154
20
254.7545741714
30
0.0000000000
10
181.7796901767
20
254.7351784178
30
0.0000000000
10
181.8529590007
20
254.7116260712
30
0.0000000000
10
181.9245473575
20
254.6838560292
30
0.0000000000
11
181.7052608154
21
254.7545741714
31
0.0000000000
11
181.9245473575
21
254.6838560292
31
0.0000000000
0
SPLINE
5
451
100
AcDbEntity
8
0
100
AcDbSpline
62
7
6
BYLAYER
70
0
71
3
72
9
73
5
74
3
42
0.0000001000
43
0.0000001000
44
0.0000000001
40
0.0000000000
40
0.0000000000
40
0.0000000000
40
0.0000000000
40
0.4765554744
40
1.0000000000
40
1.0000000000
40
1.0000000000
40
1.0000000000
10
182.9631530244
20
257.9856652831
30
0.0000000000
10
182.5534412185
20
257.8163750630
30
0.0000000000
10
181.7560790421
20
257.3036937440
30
0.0000000000
10
181.1324506437
20
256.6017385779
30
0.0000000000
10
180.8519830144
20
256.2023252098
30
0.0000000000
11
182.9631530244
21
257.9856652831
31
0.0000000000
11
181.8329224285
21
257.2847478248
31
0.0000000000
11
180.8519830144
21
256.2023252098
31
0.0000000000
0
SPLINE
5
452
100
AcDbEntity
8
0
100
AcDbSpline
62
7
6
BYLAYER
70
0
71
3
72
8
73
4
74
2
42
0.0000001000
43
0.0000001000
44
0.0000000001
40
0.0000000000
40
0.0000000000
40
0.0000000000
40
0.0000000000
40
1.0000000000
40
1.0000000000
40
1.0000000000
40
1.0000000000
10
180.8519830144
20
256.2023252098
30
0.0000000000
10
180.6878904346
20
255.9686413077
30
0.0000000000
10
180.5395326409
20
255.7240109309
30
0.0000000000
10
180.4074497227
20
255.4708642322
30
0.0000000000
11
180.8519830144
21
256.2023252098
31
0.0000000000
11
180.4074497227
21
255.4708642322
31
0.0000000000
0
SPLINE
5
453
100
AcDbEntity
8
0
100
AcDbSpline
62
7
6
BYLAYER
70
0
71
3
72
9
73
5
74
3
42
0.0000001000
43
0.0000001000
44
0.0000000001
40
0.0000000000
40
0.0000000000
40
0.0000000000
40
0.0000000000
40
0.7380512212
40
1.0000000000
40
1.0000000000
40
1.0000000000
40
1.0000000000
10
52.6442213812
20
205.7667737043
30
0.0000000000
10
51.2201463951
20
205.1737245851
30
0.0000000000
10
49.3029744167
20
204.3401209694
30
0.0000000000
10
47.3640777106
20
203.5589742721
30
0.0000000000
10
46.8536893448
20
203.3607715234
30
0.0000000000
11
52.6442213812
21
205.7667737043
31
0.0000000000
11
48.3783702702
21
203.9718145638
31
0.0000000000
11
46.8536893448
21
203.3607715234
31
0.0000000000
0
SPLINE
5
454
100
AcDbEntity
8
0
100
AcDbSpline
62
7
6
BYLAYER
70
0
71
3
72
8
73
4
74
2
42
0.0000001000
43
0.0000001000
44
0.0000000001
40
0.0000000000
40
0.0000000000
40
0.0000000000
40
0.0000000000
40
1.0000000000
40
1.0000000000
40
1.0000000000
40
1.0000000000
10
52.7961020983
20
207.2468795815
30
0.0000000000
10
52.8239822200
20
206.8272873028
30
0.0000000000
10
52.7936325566
20
206.4026585498
30
0.0000000000
10
52.7165438430
20
205.9878381534
30
0.0000000000
11
52.7961020983
21
207.2468795815
31
0.0000000000
11
52.7165438430
21
205.9878381534
31
0.0000000000
0
SPLINE
5
455
100
AcDbEntity
8
0
100
AcDbSpline
62
7
6
BYLAYER
70
0
71
3
72
10
73
6
74
4
42
0.0000001000
43
0.0000001000
44
0.0000000001
40
0.0000000000
40
0.0000000000
40
0.0000000000
40
0.0000000000
40
0.3834489937
40
0.7667311207
40
1.0000000000
40
1.0000000000
40
1.0000000000
40
1.0000000000
10
52.7165438430
20
205.9878381534
30
0.0000000000
10
52.6357625072
20
205.5531474687
30
0.0000000000
10
52.3716093600
20
204.7054916195
30
0.0000000000
10
51.7937658764
20
203.7006103005
30
0.0000000000
10
51.3287201632
20
203.1612322975
30
0.0000000000
10
51.1370546205
20
202.9728651379
30
0.0000000000
11
52.7165438430
21
205.9878381534
31
0.0000000000
11
52.3268080435
21
204.7246110578
31
0.0000000000
11
51.6650447555
21
203.5808517644
31
0.0000000000
11
51.1370546205
21
202.9728651379
31
0.0000000000
0
SPLINE
5
456
100
AcDbEntity
8
0
100
AcDbSpline
62
7
6
BYLAYER
70
0
71
3
72
8
73
4
74
2
42
0.0000001000
43
0.0000001000
44
0.0000000001
40
0.0000000000
40
0.0000000000
40
0.0000000000
40
0.0000000000
40
1.0000000000
40
1.0000000000
40
1.0000000000
40
1.0000000000
10
51.1370546205
20
202.9728651379
30
0.0000000000
10
51.0284371804
20
202.8661169013
30
0.0000000000
10
50.9147718986
20
202.7644119486
30
0.0000000000
10
50.7960319802
20
202.6685194018
30
0.0000000000
11
51.1370546205
21
202.9728651379
31
0.0000000000
11
50.7960319802
21
202.6685194018
31
0.0000000000
0
SPLINE
5
457
100
AcDbEntity
8
0
100
AcDbSpline
62
7
6
BYLAYER
70
0
71
3
72
8
73
4
74
2
42
0.0000001000
43
0.0000001000
44
0.0000000001
40
0.0000000000
40
0.0000000000
40
0.0000000000
40
0.0000000000
40
1.0000000000
40
1.0000000000
40
1.0000000000
40
1.0000000000
10
50.7960319802
20
202.6685194018
30
0.0000000000
10
50.4952900748
20
202.4256448265
30
0.0000000000
10
50.1619945455
20
202.2200566418
30
0.0000000000
10
49.8048347430
20
202.0769194182
30
0.0000000000
11
50.7960319802
21
202.6685194018
31
0.0000000000
11
49.8048347430
21
202.0769194182
31
0.0000000000
0
SPLINE
5
458
100
AcDbEntity
8
0
100
AcDbSpline
62
7
6
BYLAYER
70
0
71
3
72
9
73
5
74
3
42
0.0000001000
43
0.0000001000
44
0.0000000001
40
0.0000000000
40
0.0000000000
40
0.0000000000
40
0.0000000000
40
0.6410232133
40
1.0000000000
40
1.0000000000
40
1.0000000000
40
1.0000000000
10
60.0271711305
20
201.6321672309
30
0.0000000000
10
60.0774086744
20
201.9551376404
30
0.0000000000
10
60.1129155173
20
202.4672516160
30
0.0000000000
10
60.0659886766
20
202.9771353664
30
0.0000000000
10
60.0368567665
20
203.1581550626
30
0.0000000000
11
60.0271711305
21
201.6321672309
31
0.0000000000
11
60.0890572079
21
202.6107751093
31
0.0000000000
11
60.0368567665
21
203.1581550626
31
0.0000000000
0
SPLINE
5
459
100
AcDbEntity
8
0
100
AcDbSpline
62
7
6
BYLAYER
70
0
71
3
72
11
73
7
74
5
42
0.0000001000
43
0.0000001000
44
0.0000000001
40
0.0000000000
40
0.0000000000
40
0.0000000000
40
0.0000000000
40
0.1398914754
40
0.4687529143
40
0.7718213195
40
1.0000000000
40
1.0000000000
40
1.0000000000
40
1.0000000000
10
60.0368567665
20
203.1581550626
30
0.0000000000
10
60.0184800952
20
203.2723439180
30
0.0000000000
10
59.9405208925
20
203.6522826164
30
0.0000000000
10
59.7140537120
20
204.2550062847
30
0.0000000000
10
59.2785043988
20
204.8316793489
30
0.0000000000
10
58.9135356240
20
205.0856922588
30
0.0000000000
10
58.7457269579
20
205.1733115002
30
0.0000000000
11
60.0368567665
21
203.1581550626
31
0.0000000000
11
59.9666423439
21
203.4978800486
31
0.0000000000
11
59.6700374603
21
204.2562464771
31
0.0000000000
11
59.2093534790
21
204.8486388232
31
0.0000000000
11
58.7457269579
21
205.1733115002
31
0.0000000000
0
SPLINE
5
45A
100
AcDbEntity
8
0
100
AcDbSpline
62
7
6
BYLAYER
70
0
71
3
72
8
73
4
74
2
42
0.0000001000
43
0.0000001000
44
0.0000000001
40
0.0000000000
40
0.0000000000
40
0.0000000000
40
0.0000000000
40
1.0000000000
40
1.0000000000
40
1.0000000000
40
1.0000000000
10
58.7457269579
20
205.1733115002
30
0.0000000000
10
58.7263259491
20
205.1834414996
30
0.0000000000
10
58.7067772525
20
205.1932843429
30
0.0000000000
10
58.6870911485
20
205.2028359589
30
0.0000000000
11
58.7457269579
21
205.1733115002
31
0.0000000000
11
58.6870911485
21
205.2028359589
31
0.0000000000
0
SPLINE
5
45B
100
AcDbEntity
8
0
100
AcDbSpline
62
7
6
BYLAYER
70
0
71
3
72
8
73
4
74
2
42
0.0000001000
43
0.0000001000
44
0.0000000001
40
0.0000000000
40
0.0000000000
40
0.0000000000
40
0.0000000000
40
1.0000000000
40
1.0000000000
40
1.0000000000
40
1.0000000000
10
60.6443469879
20
194.6427915529
30
0.0000000000
10
60.5572758669
20
194.6114501209
30
0.0000000000
10
60.4690762235
20
194.5828605042
30
0.0000000000
10
60.3799577234
20
194.5572849835
30
0.0000000000
11
60.6443469879
21
194.6427915529
31
0.0000000000
11
60.3799577234
21
194.5572849835
31
0.0000000000
0
SPLINE
5
45C
100
AcDbEntity
8
0
100
AcDbSpline
62
7
6
BYLAYER
70
0
71
3
72
9
73
5
74
3
42
0.0000001000
43
0.0000001000
44
0.0000000001
40
0.0000000000
40
0.0000000000
40
0.0000000000
40
0.0000000000
40
0.7723963540
40
1.0000000000
40
1.0000000000
40
1.0000000000
40
1.0000000000
10
60.3799577234
20
194.5572849835
30
0.0000000000
10
60.1897756659
20
194.5027059102
30
0.0000000000
10
59.9381346143
20
194.4498152490
30
0.0000000000
10
59.6828949611
20
194.4242052349
30
0.0000000000
10
59.6246963193
20
194.4198633339
30
0.0000000000
11
60.3799577234
21
194.5572849835
31
0.0000000000
11
59.7988954925
21
194.4372763309
31
0.0000000000
11
59.6246963193
21
194.4198633339
31
0.0000000000
0
SPLINE
5
45D
100
AcDbEntity
8
0
100
AcDbSpline
62
7
6
BYLAYER
70
0
71
3
72
8
73
4
74
2
42
0.0000001000
43
0.0000001000
44
0.0000000001
40
0.0000000000
40
0.0000000000
40
0.0000000000
40
0.0000000000
40
1.0000000000
40
1.0000000000
40
1.0000000000
40
1.0000000000
10
182.7690892312
20
245.1293766282
30
0.0000000000
10
182.7970199955
20
244.7090221852
30
0.0000000000
10
182.7689338613
20
244.2838965231
30
0.0000000000
10
182.6960739940
20
243.8676434381
30
0.0000000000
11
182.7690892312
21
245.1293766282
31
0.0000000000
11
182.6960739940
21
243.8676434381
31
0.0000000000
0
SPLINE
5
45E
100
AcDbEntity
8
0
100
AcDbSpline
62
7
6
BYLAYER
70
0
71
3
72
9
73
5
74
3
42
0.0000001000
43
0.0000001000
44
0.0000000001
40
0.0000000000
40
0.0000000000
40
0.0000000000
40
0.0000000000
40
0.5012300708
40
1.0000000000
40
1.0000000000
40
1.0000000000
40
1.0000000000
10
182.6960739940
20
243.8676434381
30
0.0000000000
10
182.6197457953
20
243.4315755542
30
0.0000000000
10
182.3694294143
20
242.5810071073
30
0.0000000000
10
181.9460184438
20
241.8008516087
30
0.0000000000
10
181.6931388884
20
241.4406780915
30
0.0000000000
11
182.6960739940
21
243.8676434381
31
0.0000000000
11
182.3253267726
21
242.5966045449
31
0.0000000000
11
181.6931388884
21
241.4406780915
31
0.0000000000
0
SPLINE
5
45F
100
AcDbEntity
8
0
100
AcDbSpline
62
7
6
BYLAYER
70
0
71
3
72
8
73
4
74
2
42
0.0000001000
43
0.0000001000
44
0.0000000001
40
0.0000000000
40
0.0000000000
40
0.0000000000
40
0.0000000000
40
1.0000000000
40
1.0000000000
40
1.0000000000
40
1.0000000000
10
181.6931388884
20
241.4406780915
30
0.0000000000
10
181.4539963687
20
241.1000700804
30
0.0000000000
10
181.1775658522
20
240.7853473868
30
0.0000000000
10
180.8613932960
20
240.5130142128
30
0.0000000000
11
181.6931388884
21
241.4406780915
31
0.0000000000
11
180.8613932960
21
240.5130142128
31
0.0000000000
0
SPLINE
5
460
100
AcDbEntity
8
0
100
AcDbSpline
62
7
6
BYLAYER
70
0
71
3
72
8
73
4
74
2
42
0.0000001000
43
0.0000001000
44
0.0000000001
40
0.0000000000
40
0.0000000000
40
0.0000000000
40
0.0000000000
40
1.0000000000
40
1.0000000000
40
1.0000000000
40
1.0000000000
10
180.8613932960
20
240.5130142128
30
0.0000000000
10
180.7712532893
20
240.4353727046
30
0.0000000000
10
180.6778830263
20
240.3611766414
30
0.0000000000
10
180.5814913205
20
240.2912656452
30
0.0000000000
11
180.8613932960
21
240.5130142128
31
0.0000000000
11
180.5814913205
21
240.2912656452
31
0.0000000000
0
SPLINE
5
461
100
AcDbEntity
8
0
100
AcDbSpline
62
7
6
BYLAYER
70
0
71
3
72
8
73
4
74
2
42
0.0000001000
43
0.0000001000
44
0.0000000001
40
0.0000000000
40
0.0000000000
40
0.0000000000
40
0.0000000000
40
1.0000000000
40
1.0000000000
40
1.0000000000
40
1.0000000000
10
180.5814913205
20
240.2912656452
30
0.0000000000
10
180.5515376027
20
240.2695408066
30
0.0000000000
10
180.5212921177
20
240.2482297578
30
0.0000000000
10
180.4907611314
20
240.2273576938
30
0.0000000000
11
180.5814913205
21
240.2912656452
31
0.0000000000
11
180.4907611314
21
240.2273576938
31
0.0000000000
0
SPLINE
5
462
100
AcDbEntity
8
0
100
AcDbSpline
62
7
6
BYLAYER
70
0
71
3
72
8
73
4
74
2
42
0.0000001000
43
0.0000001000
44
0.0000000001
40
0.0000000000
40
0.0000000000
40
0.0000000000
40
0.0000000000
40
1.0000000000
40
1.0000000000
40
1.0000000000
40
1.0000000000
10
180.4907611314
20
240.2273576938
30
0.0000000000
10
180.3075101490
20
240.1020808297
30
0.0000000000
10
180.1139738205
20
239.9926186513
30
0.0000000000
10
179.9115070492
20
239.9044191128
30
0.0000000000
11
180.4907611314
21
240.2273576938
31
0.0000000000
11
179.9115070492
21
239.9044191128
31
0.0000000000
0
SPLINE
5
463
100
AcDbEntity
8
0
100
AcDbSpline
62
7
6
BYLAYER
70
0
71
3
72
8
73
4
74
2
42
0.0000001000
43
0.0000001000
44
0.0000000001
40
0.0000000000
40
0.0000000000
40
0.0000000000
40
0.0000000000
40
1.0000000000
40
1.0000000000
40
1.0000000000
40
1.0000000000
10
152.9284602968
20
240.1057925067
30
0.0000000000
10
152.7341265652
20
240.1243528135
30
0.0000000000
10
152.5392864280
20
240.1383097953
30
0.0000000000
10
152.3441652315
20
240.1478731338
30
0.0000000000
11
152.9284602968
21
240.1057925067
31
0.0000000000
11
152.3441652315
21
240.1478731338
31
0.0000000000
0
SPLINE
5
464
100
AcDbEntity
8
0
100
AcDbSpline
62
7
6
BYLAYER
70
0
71
3
72
8
73
4
74
2
42
0.0000001000
43
0.0000001000
44
0.0000000001
40
0.0000000000
40
0.0000000000
40
0.0000000000
40
0.0000000000
40
1.0000000000
40
1.0000000000
40
1.0000000000
40
1.0000000000
10
152.3441652315
20
240.1478731338
30
0.0000000000
10
151.8654436990
20
240.1713363766
30
0.0000000000
10
151.3850303428
20
240.1683522902
30
0.0000000000
10
150.9062531816
20
240.1420175536
30
0.0000000000
11
152.3441652315
21
240.1478731338
31
0.0000000000
11
150.9062531816
21
240.1420175536
31
0.0000000000
0
SPLINE
5
465
100
AcDbEntity
8
0
100
AcDbSpline
62
7
6
BYLAYER
70
0
71
3
72
8
73
4
74
2
42
0.0000001000
43
0.0000001000
44
0.0000000001
40
0.0000000000
40
0.0000000000
40
0.0000000000
40
0.0000000000
40
1.0000000000
40
1.0000000000
40
1.0000000000
40
1.0000000000
10
150.9062531816
20
240.1420175536
30
0.0000000000
10
150.2267845128
20
240.1046439488
30
0.0000000000
10
149.5506112360
20
240.0202407751
30
0.0000000000
10
148.8835182004
20
239.8835577250
30
0.0000000000
11
150.9062531816
21
240.1420175536
31
0.0000000000
11
148.8835182004
21
239.8835577250
31
0.0000000000
0
SPLINE
5
466
100
AcDbEntity
8
0
100
AcDbSpline
62
7
6
BYLAYER
70
0
71
3
72
8
73
4
74
2
42
0.0000001000
43
0.0000001000
44
0.0000000001
40
0.0000000000
40
0.0000000000
40
0.0000000000
40
0.0000000000
40
1.0000000000
40
1.0000000000
40
1.0000000000
40
1.0000000000
10
148.8835182004
20
239.8835577250
30
0.0000000000
10
148.5789443435
20
239.8211525108
30
0.0000000000
10
148.2762633087
20
239.7478492920
30
0.0000000000
10
147.9777726263
20
239.6611264202
30
0.0000000000
11
148.8835182004
21
239.8835577250
31
0.0000000000
11
147.9777726263
21
239.6611264202
31
0.0000000000
0
SPLINE
5
467
100
AcDbEntity
8
0
100
AcDbSpline
62
7
6
BYLAYER
70
0
71
3
72
8
73
4
74
2
42
0.0000001000
43
0.0000001000
44
0.0000000001
40
0.0000000000
40
0.0000000000
40
0.0000000000
40
0.0000000000
40
1.0000000000
40
1.0000000000
40
1.0000000000
40
1.0000000000
10
147.9777726263
20
239.6611264202
30
0.0000000000
10
147.6824355038
20
239.5753197772
30
0.0000000000
10
147.3912006590
20
239.4763755411
30
0.0000000000
10
147.1062935683
20
239.3618511456
30
0.0000000000
11
147.9777726263
21
239.6611264202
31
0.0000000000
11
147.1062935683
21
239.3618511456
31
0.0000000000
0
SPLINE
5
468
100
AcDbEntity
8
0
100
AcDbSpline
62
7
6
BYLAYER
70
0
71
3
72
10
73
6
74
4
42
0.0000001000
43
0.0000001000
44
0.0000000001
40
0.0000000000
40
0.0000000000
40
0.0000000000
40
0.0000000000
40
0.3120238662
40
0.6571747074
40
1.0000000000
40
1.0000000000
40
1.0000000000
40
1.0000000000
10
175.0859508972
20
238.9175857234
30
0.0000000000
10
174.6858507013
20
238.7522669573
30
0.0000000000
10
173.8032051080
20
238.5000463176
30
0.0000000000
10
172.4234999540
20
238.3235615473
30
0.0000000000
10
171.4646132700
20
238.3354529726
30
0.0000000000
10
170.9911239450
20
238.3806747008
30
0.0000000000
11
175.0859508972
21
238.9175857234
31
0.0000000000
11
173.8422733927
21
238.5434728851
31
0.0000000000
11
172.4178543736
21
238.3567039981
31
0.0000000000
11
170.9911239450
21
238.3806747008
31
0.0000000000
0
SPLINE
5
469
100
AcDbEntity
8
0
100
AcDbSpline
62
7
6
BYLAYER
70
0
71
3
72
8
73
4
74
2
42
0.0000001000
43
0.0000001000
44
0.0000000001
40
0.0000000000
40
0.0000000000
40
0.0000000000
40
0.0000000000
40
1.0000000000
40
1.0000000000
40
1.0000000000
40
1.0000000000
10
153.4880349992
20
237.8779770866
30
0.0000000000
10
153.3023873088
20
237.8951601929
30
0.0000000000
10
153.1163061620
20
237.9081210798
30
0.0000000000
10
152.9299911138
20
237.9170806677
30
0.0000000000
11
153.4880349992
21
237.8779770866
31
0.0000000000
11
152.9299911138
21
237.9170806677
31
0.0000000000
0
SPLINE
5
46A
100
AcDbEntity
8
0
100
AcDbSpline
62
7
6
BYLAYER
70
0
71
3
72
10
73
6
74
4
42
0.0000001000
43
0.0000001000
44
0.0000000001
40
0.0000000000
40
0.0000000000
40
0.0000000000
40
0.0000000000
40
0.2373109968
40
0.6249348593
40
1.0000000000
40
1.0000000000
40
1.0000000000
40
1.0000000000
10
152.9299911138
20
237.9170806677
30
0.0000000000
10
152.6164958073
20
237.9321561474
30
0.0000000000
10
151.7891932838
20
237.9420238007
30
0.0000000000
10
150.4685717730
20
237.8437831444
30
0.0000000000
10
149.4749496365
20
237.6622029132
30
0.0000000000
10
148.9932262057
20
237.5426228692
30
0.0000000000
11
152.9299911138
21
237.9170806677
31
0.0000000000
11
151.9884691803
21
237.9293744221
31
0.0000000000
11
150.4554997011
21
237.8150007516
31
0.0000000000
11
148.9932262057
21
237.5426228692
31
0.0000000000
0
SPLINE
5
46B
100
AcDbEntity
8
0
100
AcDbSpline
62
7
6
BYLAYER
70
0
71
3
72
8
73
4
74
2
42
0.0000001000
43
0.0000001000
44
0.0000000001
40
0.0000000000
40
0.0000000000
40
0.0000000000
40
0.0000000000
40
1.0000000000
40
1.0000000000
40
1.0000000000
40
1.0000000000
10
148.9932262057
20
237.5426228692
30
0.0000000000
10
148.8444636003
20
237.5056949605
30
0.0000000000
10
148.6963596817
20
237.4658789111
30
0.0000000000
10
148.5492365367
20
237.4228166974
30
0.0000000000
11
148.9932262057
21
237.5426228692
31
0.0000000000
11
148.5492365367
21
237.4228166974
31
0.0000000000
0
SPLINE
5
46C
100
AcDbEntity
8
0
100
AcDbSpline
62
7
6
BYLAYER
70
0
71
3
72
8
73
4
74
2
42
0.0000001000
43
0.0000001000
44
0.0000000001
40
0.0000000000
40
0.0000000000
40
0.0000000000
40
0.0000000000
40
1.0000000000
40
1.0000000000
40
1.0000000000
40
1.0000000000
10
148.5492365367
20
237.4228166974
30
0.0000000000
10
148.2619339089
20
237.3387246455
30
0.0000000000
10
147.9783714047
20
237.2422535328
30
0.0000000000
10
147.7009475732
20
237.1307371906
30
0.0000000000
11
148.5492365367
21
237.4228166974
31
0.0000000000
11
147.7009475732
21
237.1307371906
31
0.0000000000
0
SPLINE
5
46D
100
AcDbEntity
8
0
100
AcDbSpline
62
7
6
BYLAYER
70
0
71
3
72
8
73
4
74
2
42
0.0000001000
43
0.0000001000
44
0.0000000001
40
0.0000000000
40
0.0000000000
40
0.0000000000
40
0.0000000000
40
1.0000000000
40
1.0000000000
40
1.0000000000
40
1.0000000000
10
173.2686786294
20
237.0106385814
30
0.0000000000
10
172.8678306793
20
236.8360192896
30
0.0000000000
10
172.4457454138
20
236.7099944971
30
0.0000000000
10
172.0178323314
20
236.6157685727
30
0.0000000000
11
173.2686786294
21
237.0106385814
31
0.0000000000
11
172.0178323314
21
236.6157685727
31
0.0000000000
0
SPLINE
5
46E
100
AcDbEntity
8
0
100
AcDbSpline
62
7
6
BYLAYER
70
0
71
3
72
9
73
5
74
3
42
0.0000001000
43
0.0000001000
44
0.0000000001
40
0.0000000000
40
0.0000000000
40
0.0000000000
40
0.0000000000
40
0.5006407649
40
1.0000000000
40
1.0000000000
40
1.0000000000
40
1.0000000000
10
172.0178323314
20
236.6157685727
30
0.0000000000
10
171.5400013273
20
236.5105507845
30
0.0000000000
10
170.5710474552
20
236.3795841401
30
0.0000000000
10
169.5911243271
20
236.3875136446
30
0.0000000000
10
169.1062108449
20
236.4323960770
30
0.0000000000
11
172.0178323314
21
236.6157685727
31
0.0000000000
11
170.5670563648
21
236.4142293965
31
0.0000000000
11
169.1062108449
21
236.4323960770
31
0.0000000000
0
SPLINE
5
46F
100
AcDbEntity
8
0
100
AcDbSpline
62
7
6
BYLAYER
70
0
71
3
72
10
73
6
74
4
42
0.0000001000
43
0.0000001000
44
0.0000000001
40
0.0000000000
40
0.0000000000
40
0.0000000000
40
0.0000000000
40
0.3493128342
40
0.6837350723
40
1.0000000000
40
1.0000000000
40
1.0000000000
40
1.0000000000
10
63.8631034452
20
216.0908730446
30
0.0000000000
10
63.3599953498
20
215.9865231189
30
0.0000000000
10
62.3801248700
20
215.7574217283
30
0.0000000000
10
60.9677558512
20
215.3439298065
30
0.0000000000
10
60.0664637749
20
215.0194238962
30
0.0000000000
10
59.6346462487
20
214.8463664542
30
0.0000000000
11
63.8631034452
21
216.0908730446
31
0.0000000000
11
62.3624871425
21
215.7384376946
31
0.0000000000
11
60.9467912704
21
215.3217744151
31
0.0000000000
11
59.6346462487
21
214.8463664542
31
0.0000000000
0
SPLINE
5
470
100
AcDbEntity
8
0
100
AcDbSpline
62
7
6
BYLAYER
70
0
71
3
72
10
73
6
74
4
42
0.0000001000
43
0.0000001000
44
0.0000000001
40
0.0000000000
40
0.0000000000
40
0.0000000000
40
0.0000000000
40
0.3161469120
40
0.6505794642
40
1.0000000000
40
1.0000000000
40
1.0000000000
40
1.0000000000
10
114.2582312912
20
226.5874727499
30
0.0000000000
10
114.2067022235
20
226.5667595578
30
0.0000000000
10
114.0991123989
20
226.5279272641
30
0.0000000000
10
113.9304599619
20
226.4784754311
30
0.0000000000
10
113.8134214138
20
226.4510958559
30
0.0000000000
10
113.7533192202
20
226.4386300270
30
0.0000000000
11
114.2582312912
21
226.5874727499
31
0.0000000000
11
114.1016329372
21
226.5305914190
31
0.0000000000
11
113.9325799374
21
226.4807563878
31
0.0000000000
11
113.7533192202
21
226.4386300270
31
0.0000000000
0
SPLINE
5
471
100
AcDbEntity
8
0
100
AcDbSpline
62
7
6
BYLAYER
70
0
71
3
72
12
73
8
74
6
42
0.0000001000
43
0.0000001000
44
0.0000000001
40
0.0000000000
40
0.0000000000
40
0.0000000000
40
0.0000000000
40
0.1826681170
40
0.3820550572
40
0.5911636098
40
0.8003632004
40
1.0000000000
40
1.0000000000
40
1.0000000000
40
1.0000000000
10
56.1120690944
20
213.4346400782
30
0.0000000000
10
55.7128904916
20
213.2746631812
30
0.0000000000
10
54.9337830211
20
212.7940828058
30
0.0000000000
10
53.9745203761
20
211.7683943688
30
0.0000000000
10
53.2433209930
20
210.4968240885
30
0.0000000000
10
52.8071930308
20
209.0973086101
30
0.0000000000
10
52.7377277966
20
208.1254053837
30
0.0000000000
10
52.7688879326
20
207.6564493075
30
0.0000000000
11
56.1120690944
21
213.4346400782
31
0.0000000000
11
55.0042604175
21
212.7734400965
31
0.0000000000
11
54.0330108452
21
211.7537745148
31
0.0000000000
11
53.2933930526
21
210.4754553045
31
0.0000000000
11
52.8578059827
21
209.0636132565
31
0.0000000000
11
52.7688879326
21
207.6564493075
31
0.0000000000
0
SPLINE
5
472
100
AcDbEntity
8
0
100
AcDbSpline
62
7
6
BYLAYER
70
0
71
3
72
10
73
6
74
4
42
0.0000001000
43
0.0000001000
44
0.0000000001
40
0.0000000000
40
0.0000000000
40
0.0000000000
40
0.0000000000
40
0.3206737460
40
0.6597146180
40
1.0000000000
40
1.0000000000
40
1.0000000000
40
1.0000000000
10
180.4717412159
20
245.3519376015
30
0.0000000000
10
180.5221558938
20
244.9237894601
30
0.0000000000
10
180.4959586805
20
244.0252290957
30
0.0000000000
10
180.1372955780
20
242.7184260570
30
0.0000000000
10
179.7017856158
20
241.9063148538
30
0.0000000000
10
179.4382841881
20
241.5310630181
30
0.0000000000
11
180.4717412159
21
245.3519376015
31
0.0000000000
11
180.4469718697
21
244.0588565073
31
0.0000000000
11
180.0899523440
21
242.7388917722
31
0.0000000000
11
179.4382841881
21
241.5310630181
31
0.0000000000
0
SPLINE
5
473
100
AcDbEntity
8
0
100
AcDbSpline
62
7
6
BYLAYER
70
0
71
3
72
8
73
4
74
2
42
0.0000001000
43
0.0000001000
44
0.0000000001
40
0.0000000000
40
0.0000000000
40
0.0000000000
40
0.0000000000
40
1.0000000000
40
1.0000000000
40
1.0000000000
40
1.0000000000
10
179.4382841881
20
241.5310630181
30
0.0000000000
10
179.1873394672
20
241.1736931624
30
0.0000000000
10
178.8952661614
20
240.8449358986
30
0.0000000000
10
178.5606015544
20
240.5625796257
30
0.0000000000
11
179.4382841881
21
241.5310630181
31
0.0000000000
11
178.5606015544
21
240.5625796257
31
0.0000000000
0
SPLINE
5
474
100
AcDbEntity
8
0
100
AcDbSpline
62
7
6
BYLAYER
70
0
71
3
72
8
73
4
74
2
42
0.0000001000
43
0.0000001000
44
0.0000000001
40
0.0000000000
40
0.0000000000
40
0.0000000000
40
0.0000000000
40
1.0000000000
40
1.0000000000
40
1.0000000000
40
1.0000000000
10
178.5606015544
20
240.5625796257
30
0.0000000000
10
178.4466900681
20
240.4664725918
30
0.0000000000
10
178.3278441588
20
240.3757413531
30
0.0000000000
10
178.2045188277
20
240.2918842532
30
0.0000000000
11
178.5606015544
21
240.5625796257
31
0.0000000000
11
178.2045188277
21
240.2918842532
31
0.0000000000
0
SPLINE
5
475
100
AcDbEntity
8
0
100
AcDbSpline
62
7
6
BYLAYER
70
0
71
3
72
8
73
4
74
2
42
0.0000001000
43
0.0000001000
44
0.0000000001
40
0.0000000000
40
0.0000000000
40
0.0000000000
40
0.0000000000
40
1.0000000000
40
1.0000000000
40
1.0000000000
40
1.0000000000
10
178.2045188277
20
240.2918842532
30
0.0000000000
10
178.1746795935
20
240.2715945721
30
0.0000000000
10
178.1445781232
20
240.2517073198
30
0.0000000000
10
178.1142208615
20
240.2322437199
30
0.0000000000
11
178.2045188277
21
240.2918842532
31
0.0000000000
11
178.1142208615
21
240.2322437199
31
0.0000000000
0
SPLINE
5
476
100
AcDbEntity
8
0
100
AcDbSpline
62
7
6
BYLAYER
70
0
71
3
72
8
73
4
74
2
42
0.0000001000
43
0.0000001000
44
0.0000000001
40
0.0000000000
40
0.0000000000
40
0.0000000000
40
0.0000000000
40
1.0000000000
40
1.0000000000
40
1.0000000000
40
1.0000000000
10
178.1142208615
20
240.2322437199
30
0.0000000000
10
177.9344519325
20
240.1169846245
30
0.0000000000
10
177.7457130569
20
240.0165819320
30
0.0000000000
10
177.5493426002
20
239.9354429525
30
0.0000000000
11
178.1142208615
21
240.2322437199
31
0.0000000000
11
177.5493426002
21
239.9354429525
31
0.0000000000
0
SPLINE
5
477
100
AcDbEntity
8
0
100
AcDbSpline
62
7
6
BYLAYER
70
0
71
3
72
8
73
4
74
2
42
0.0000001000
43
0.0000001000
44
0.0000000001
40
0.0000000000
40
0.0000000000
40
0.0000000000
40
0.0000000000
40
1.0000000000
40
1.0000000000
40
1.0000000000
40
1.0000000000
10
66.6336499079
20
213.1633131652
30
0.0000000000
10
66.4120008868
20
213.1173408203
30
0.0000000000
10
66.1914545388
20
213.0657753572
30
0.0000000000
10
65.9725392290
20
213.0080444445
30
0.0000000000
11
66.6336499079
21
213.1633131652
31
0.0000000000
11
65.9725392290
21
213.0080444445
31
0.0000000000
0
SPLINE
5
478
100
AcDbEntity
8
0
100
AcDbSpline
62
7
6
BYLAYER
70
0
71
3
72
8
73
4
74
2
42
0.0000001000
43
0.0000001000
44
0.0000000001
40
0.0000000000
40
0.0000000000
40
0.0000000000
40
0.0000000000
40
1.0000000000
40
1.0000000000
40
1.0000000000
40
1.0000000000
10
65.9725392290
20
213.0080444445
30
0.0000000000
10
65.7629558966
20
212.9527744998
30
0.0000000000
10
65.5548675098
20
212.8918535466
30
0.0000000000
10
65.3488410476
20
212.8244795032
30
0.0000000000
11
65.9725392290
21
213.0080444445
31
0.0000000000
11
65.3488410476
21
212.8244795032
31
0.0000000000
0
SPLINE
5
479
100
AcDbEntity
8
0
100
AcDbSpline
62
7
6
BYLAYER
70
0
71
3
72
8
73
4
74
2
42
0.0000001000
43
0.0000001000
44
0.0000000001
40
0.0000000000
40
0.0000000000
40
0.0000000000
40
0.0000000000
40
1.0000000000
40
1.0000000000
40
1.0000000000
40
1.0000000000
10
65.3488410476
20
212.8244795032
30
0.0000000000
10
65.1540007029
20
212.7607635043
30
0.0000000000
10
64.9610044587
20
212.6912761277
30
0.0000000000
10
64.7707631709
20
212.6150340379
30
0.0000000000
11
65.3488410476
21
212.8244795032
31
0.0000000000
11
64.7707631709
21
212.6150340379
31
0.0000000000
0
SPLINE
5
47A
100
AcDbEntity
8
0
100
AcDbSpline
62
7
6
BYLAYER
70
0
71
3
72
8
73
4
74
2
42
0.0000001000
43
0.0000001000
44
0.0000000001
40
0.0000000000
40
0.0000000000
40
0.0000000000
40
0.0000000000
40
1.0000000000
40
1.0000000000
40
1.0000000000
40
1.0000000000
10
44.2407021498
20
195.5572992484
30
0.0000000000
10
44.2089207224
20
195.5445623579
30
0.0000000000
10
44.1772922626
20
195.5314251630
30
0.0000000000
10
44.1458207826
20
195.5178992830
30
0.0000000000
11
44.2407021498
21
195.5572992484
31
0.0000000000
11
44.1458207826
21
195.5178992830
31
0.0000000000
0
SPLINE
5
47B
100
AcDbEntity
8
0
100
AcDbSpline
62
7
6
BYLAYER
70
0
71
3
72
12
73
8
74
6
42
0.0000001000
43
0.0000001000
44
0.0000000001
40
0.0000000000
40
0.0000000000
40
0.0000000000
40
0.0000000000
40
0.1717699315
40
0.3738154684
40
0.5857122443
40
0.7977012721
40
1.0000000000
40
1.0000000000
40
1.0000000000
40
1.0000000000
10
44.1458207826
20
195.5178992830
30
0.0000000000
10
43.7403976236
20
195.3436556506
30
0.0000000000
10
42.9147866843
20
194.8240814429
30
0.0000000000
10
41.8781483032
20
193.7156592538
30
0.0000000000
10
41.0699805641
20
192.3102394703
30
0.0000000000
10
40.5879443953
20
190.7634065732
30
0.0000000000
10
40.5111670311
20
189.6891977439
30
0.0000000000
10
40.5456071815
20
189.1708778703
30
0.0000000000
11
44.1458207826
21
195.5178992830
31
0.0000000000
11
43.0162820332
21
194.8264992686
31
0.0000000000
11
41.9427956638
21
193.6995004678
31
0.0000000000
11
41.1253233668
21
192.2866213406
31
0.0000000000
11
40.6438850263
21
190.7261643403
31
0.0000000000
11
40.5456071815
21
189.1708778703
31
0.0000000000
0
SPLINE
5
47C
100
AcDbEntity
8
0
100
AcDbSpline
62
7
6
BYLAYER
70
0
71
3
72
8
73
4
74
2
42
0.0000001000
43
0.0000001000
44
0.0000000001
40
0.0000000000
40
0.0000000000
40
0.0000000000
40
0.0000000000
40
1.0000000000
40
1.0000000000
40
1.0000000000
40
1.0000000000
10
119.4048345582
20
224.3603492135
30
0.0000000000
10
119.1108157605
20
224.2421621758
30
0.0000000000
10
118.8124955984
20
224.1344897618
30
0.0000000000
10
118.5113027737
20
224.0357910314
30
0.0000000000
11
119.4048345582
21
224.3603492135
31
0.0000000000
11
118.5113027737
21
224.0357910314
31
0.0000000000
0
SPLINE
5
47D
100
AcDbEntity
8
0
100
AcDbSpline
62
7
6
BYLAYER
70
0
71
3
72
8
73
4
74
2
42
0.0000001000
43
0.0000001000
44
0.0000000001
40
0.0000000000
40
0.0000000000
40
0.0000000000
40
0.0000000000
40
1.0000000000
40
1.0000000000
40
1.0000000000
40
1.0000000000
10
118.5113027737
20
224.0357910314
30
0.0000000000
10
118.1926892390
20
223.9313836591
30
0.0000000000
10
117.8708611274
20
223.8370180496
30
0.0000000000
10
117.5467062453
20
223.7514382063
30
0.0000000000
11
118.5113027737
21
224.0357910314
31
0.0000000000
11
117.5467062453
21
223.7514382063
31
0.0000000000
0
SPLINE
5
47E
100
AcDbEntity
8
0
100
AcDbSpline
62
7
6
BYLAYER
70
0
71
3
72
8
73
4
74
2
42
0.0000001000
43
0.0000001000
44
0.0000000001
40
0.0000000000
40
0.0000000000
40
0.0000000000
40
0.0000000000
40
1.0000000000
40
1.0000000000
40
1.0000000000
40
1.0000000000
10
117.5467062453
20
223.7514382063
30
0.0000000000
10
117.2080239855
20
223.6620230029
30
0.0000000000
10
116.8668017282
20
223.5821987006
30
0.0000000000
10
116.5238656829
20
223.5110701476
30
0.0000000000
11
117.5467062453
21
223.7514382063
31
0.0000000000
11
116.5238656829
21
223.5110701476
31
0.0000000000
0
SPLINE
5
47F
100
AcDbEntity
8
0
100
AcDbSpline
62
7
6
BYLAYER
70
0
71
3
72
9
73
5
74
3
42
0.0000001000
43
0.0000001000
44
0.0000000001
40
0.0000000000
40
0.0000000000
40
0.0000000000
40
0.0000000000
40
0.1616717559
40
1.0000000000
40
1.0000000000
40
1.0000000000
40
1.0000000000
10
58.6870911485
20
205.2028359589
30
0.0000000000
10
58.6579682324
20
205.2169662769
30
0.0000000000
10
58.4759720971
20
205.3004252687
30
0.0000000000
10
58.2837442053
20
205.3589954577
30
0.0000000000
10
58.1193532416
20
205.3921899178
30
0.0000000000
11
58.6870911485
21
205.2028359589
31
0.0000000000
11
58.5988535277
21
205.2433016629
31
0.0000000000
11
58.1193532416
21
205.3921899178
31
0.0000000000
0
SPLINE
5
480
100
AcDbEntity
8
0
100
AcDbSpline
62
7
6
BYLAYER
70
0
71
3
72
12
73
8
74
6
42
0.0000001000
43
0.0000001000
44
0.0000000001
40
0.0000000000
40
0.0000000000
40
0.0000000000
40
0.0000000000
40
0.1996367996
40
0.4088363902
40
0.6179449428
40
0.8173318830
40
1.0000000000
40
1.0000000000
40
1.0000000000
40
1.0000000000
10
57.9322190206
20
205.0155471652
30
0.0000000000
10
57.9600991423
20
204.5959548865
30
0.0000000000
10
57.8979460380
20
203.7263572628
30
0.0000000000
10
57.5077262823
20
202.4741592032
30
0.0000000000
10
56.8534952554
20
201.3364384261
30
0.0000000000
10
55.9952076257
20
200.4187171930
30
0.0000000000
10
55.2981114678
20
199.9887242255
30
0.0000000000
10
54.9409516653
20
199.8455870019
30
0.0000000000
11
57.9322190206
21
205.0155471652
31
0.0000000000
11
57.8526607653
21
203.7565057371
31
0.0000000000
11
57.4629249658
21
202.4932786415
31
0.0000000000
11
56.8011616778
21
201.3495193481
31
0.0000000000
11
55.9321489025
21
200.4371869855
31
0.0000000000
11
54.9409516653
21
199.8455870019
31
0.0000000000
0
SPLINE
5
481
100
AcDbEntity
8
0
100
AcDbSpline
62
7
6
BYLAYER
70
0
71
3
72
8
73
4
74
2
42
0.0000001000
43
0.0000001000
44
0.0000000001
40
0.0000000000
40
0.0000000000
40
0.0000000000
40
0.0000000000
40
1.0000000000
40
1.0000000000
40
1.0000000000
40
1.0000000000
10
51.4626135343
20
203.3689359258
30
0.0000000000
10
51.4269736793
20
203.3554385862
30
0.0000000000
10
51.3913390827
20
203.3419275480
30
0.0000000000
10
51.3557101179
20
203.3284018456
30
0.0000000000
11
51.4626135343
21
203.3689359258
31
0.0000000000
11
51.3557101179
21
203.3284018456
31
0.0000000000
0
SPLINE
5
482
100
AcDbEntity
8
0
100
AcDbSpline
62
7
6
BYLAYER
70
0
71
3
72
9
73
5
74
3
42
0.0000001000
43
0.0000001000
44
0.0000000001
40
0.0000000000
40
0.0000000000
40
0.0000000000
40
0.0000000000
40
0.4453062873
40
1.0000000000
40
1.0000000000
40
1.0000000000
40
1.0000000000
10
51.3557101179
20
203.3284018456
30
0.0000000000
10
51.0917235582
20
203.2281855281
30
0.0000000000
10
50.4995976749
20
203.0013273957
30
0.0000000000
10
49.9097972991
20
202.7684289466
30
0.0000000000
10
49.5836973062
20
202.6366435215
30
0.0000000000
11
51.3557101179
21
203.3284018456
31
0.0000000000
11
50.5648299436
21
203.0249450419
31
0.0000000000
11
49.5836973062
21
202.6366435215
31
0.0000000000
0
SPLINE
5
483
100
AcDbEntity
8
0
100
AcDbSpline
62
7
6
BYLAYER
70
0
71
3
72
8
73
4
74
2
42
0.0000001000
43
0.0000001000
44
0.0000000001
40
0.0000000000
40
0.0000000000
40
0.0000000000
40
0.0000000000
40
1.0000000000
40
1.0000000000
40
1.0000000000
40
1.0000000000
10
49.5836973062
20
202.6366435215
30
0.0000000000
10
49.3995390908
20
202.5622204328
30
0.0000000000
10
49.2157184728
20
202.4869687540
30
0.0000000000
10
49.0322972353
20
202.4107552800
30
0.0000000000
11
49.5836973062
21
202.6366435215
31
0.0000000000
11
49.0322972353
21
202.4107552800
31
0.0000000000
0
SPLINE
5
484
100
AcDbEntity
8
0
100
AcDbSpline
62
7
6
BYLAYER
70
0
71
3
72
8
73
4
74
2
42
0.0000001000
43
0.0000001000
44
0.0000000001
40
0.0000000000
40
0.0000000000
40
0.0000000000
40
0.0000000000
40
1.0000000000
40
1.0000000000
40
1.0000000000
40
1.0000000000
10
152.8804686382
20
237.1489027972
30
0.0000000000
10
152.4163372573
20
237.1918616880
30
0.0000000000
10
151.9481791528
20
237.1972514788
30
0.0000000000
10
151.4822947138
20
237.1708190578
30
0.0000000000
11
152.8804686382
21
237.1489027972
31
0.0000000000
11
151.4822947138
21
237.1708190578
31
0.0000000000
0
SPLINE
5
485
100
AcDbEntity
8
0
100
AcDbSpline
62
7
6
BYLAYER
70
0
71
3
72
8
73
4
74
2
42
0.0000001000
43
0.0000001000
44
0.0000000001
40
0.0000000000
40
0.0000000000
40
0.0000000000
40
0.0000000000
40
1.0000000000
40
1.0000000000
40
1.0000000000
40
1.0000000000
10
151.4822947138
20
237.1708190578
30
0.0000000000
10
151.0131765809
20
237.1442031699
30
0.0000000000
10
150.5463637860
20
237.0853217824
30
0.0000000000
10
150.0858362312
20
236.9905056437
30
0.0000000000
11
151.4822947138
21
237.1708190578
31
0.0000000000
11
150.0858362312
21
236.9905056437
31
0.0000000000
0
SPLINE
5
486
100
AcDbEntity
8
0
100
AcDbSpline
62
7
6
BYLAYER
70
0
71
3
72
8
73
4
74
2
42
0.0000001000
43
0.0000001000
44
0.0000000001
40
0.0000000000
40
0.0000000000
40
0.0000000000
40
0.0000000000
40
1.0000000000
40
1.0000000000
40
1.0000000000
40
1.0000000000
10
150.0858362312
20
236.9905056437
30
0.0000000000
10
149.6675584117
20
236.9043881306
30
0.0000000000
10
149.2544654912
20
236.7886268722
30
0.0000000000
10
148.8589333082
20
236.6296343949
30
0.0000000000
11
150.0858362312
21
236.9905056437
31
0.0000000000
11
148.8589333082
21
236.6296343949
31
0.0000000000
0
SPLINE
5
487
100
AcDbEntity
8
0
100
AcDbSpline
62
7
6
BYLAYER
70
0
71
3
72
8
73
4
74
2
42
0.0000001000
43
0.0000001000
44
0.0000000001
40
0.0000000000
40
0.0000000000
40
0.0000000000
40
0.0000000000
40
1.0000000000
40
1.0000000000
40
1.0000000000
40
1.0000000000
10
174.4885371494
20
236.5354268549
30
0.0000000000
10
174.0644104842
20
236.3506667785
30
0.0000000000
10
173.6232980892
20
236.2044909585
30
0.0000000000
10
173.1756174728
20
236.0855164764
30
0.0000000000
11
174.4885371494
21
236.5354268549
31
0.0000000000
11
173.1756174728
21
236.0855164764
31
0.0000000000
0
SPLINE
5
488
100
AcDbEntity
8
0
100
AcDbSpline
62
7
6
BYLAYER
70
0
71
3
72
9
73
5
74
3
42
0.0000001000
43
0.0000001000
44
0.0000000001
40
0.0000000000
40
0.0000000000
40
0.0000000000
40
0.0000000000
40
0.4900787543
40
1.0000000000
40
1.0000000000
40
1.0000000000
40
1.0000000000
10
173.1756174728
20
236.0855164764
30
0.0000000000
10
172.6784367931
20
235.9533869811
30
0.0000000000
10
171.6474153603
20
235.7522350353
30
0.0000000000
10
170.6004806942
20
235.6671547396
30
0.0000000000
10
170.0656492202
20
235.6534853054
30
0.0000000000
11
173.1756174728
21
236.0855164764
31
0.0000000000
11
171.6640513985
21
235.7841041533
31
0.0000000000
11
170.0656492202
21
235.6534853054
31
0.0000000000
0
SPLINE
5
489
100
AcDbEntity
8
0
100
AcDbSpline
62
7
6
BYLAYER
70
0
71
3
72
8
73
4
74
2
42
0.0000001000
43
0.0000001000
44
0.0000000001
40
0.0000000000
40
0.0000000000
40
0.0000000000
40
0.0000000000
40
1.0000000000
40
1.0000000000
40
1.0000000000
40
1.0000000000
10
170.0656492202
20
235.6534853054
30
0.0000000000
10
169.5428012039
20
235.6401221492
30
0.0000000000
10
169.0190192444
20
235.6551571441
30
0.0000000000
10
168.4986444839
20
235.7033217876
30
0.0000000000
11
170.0656492202
21
235.6534853054
31
0.0000000000
11
168.4986444839
21
235.7033217876
31
0.0000000000
0
SPLINE
5
48A
100
AcDbEntity
8
0
100
AcDbSpline
62
7
6
BYLAYER
70
0
71
3
72
8
73
4
74
2
42
0.0000001000
43
0.0000001000
44
0.0000000001
40
0.0000000000
40
0.0000000000
40
0.0000000000
40
0.0000000000
40
1.0000000000
40
1.0000000000
40
1.0000000000
40
1.0000000000
10
152.3101917757
20
239.3777245500
30
0.0000000000
10
151.8438179902
20
239.4222666915
30
0.0000000000
10
151.3732472090
20
239.4286573271
30
0.0000000000
10
150.9049292042
20
239.4028978877
30
0.0000000000
11
152.3101917757
21
239.3777245500
31
0.0000000000
11
150.9049292042
21
239.4028978877
31
0.0000000000
0
SPLINE
5
48B
100
AcDbEntity
8
0
100
AcDbSpline
62
7
6
BYLAYER
70
0
71
3
72
8
73
4
74
2
42
0.0000001000
43
0.0000001000
44
0.0000000001
40
0.0000000000
40
0.0000000000
40
0.0000000000
40
0.0000000000
40
1.0000000000
40
1.0000000000
40
1.0000000000
40
1.0000000000
10
150.9049292042
20
239.4028978877
30
0.0000000000
10
150.4327560614
20
239.3769263996
30
0.0000000000
10
149.9628729368
20
239.3182733467
30
0.0000000000
10
149.4992998104
20
239.2232902101
30
0.0000000000
11
150.9049292042
21
239.4028978877
31
0.0000000000
11
149.4992998104
21
239.2232902101
31
0.0000000000
0
SPLINE
5
48C
100
AcDbEntity
8
0
100
AcDbSpline
62
7
6
BYLAYER
70
0
71
3
72
8
73
4
74
2
42
0.0000001000
43
0.0000001000
44
0.0000000001
40
0.0000000000
40
0.0000000000
40
0.0000000000
40
0.0000000000
40
1.0000000000
40
1.0000000000
40
1.0000000000
40
1.0000000000
10
149.4992998104
20
239.2232902101
30
0.0000000000
10
149.0782298903
20
239.1370157058
30
0.0000000000
10
148.6623659342
20
239.0207676412
30
0.0000000000
10
148.2642793033
20
238.8607483499
30
0.0000000000
11
149.4992998104
21
239.2232902101
31
0.0000000000
11
148.2642793033
21
238.8607483499
31
0.0000000000
0
SPLINE
5
48D
100
AcDbEntity
8
0
100
AcDbSpline
62
7
6
BYLAYER
70
0
71
3
72
8
73
4
74
2
42
0.0000001000
43
0.0000001000
44
0.0000000001
40
0.0000000000
40
0.0000000000
40
0.0000000000
40
0.0000000000
40
1.0000000000
40
1.0000000000
40
1.0000000000
40
1.0000000000
10
176.2654112820
20
238.4252348010
30
0.0000000000
10
175.6896573415
20
238.1873370644
30
0.0000000000
10
175.0865960055
20
238.0150091028
30
0.0000000000
10
174.4757290193
20
237.8868773019
30
0.0000000000
11
176.2654112820
21
238.4252348010
31
0.0000000000
11
174.4757290193
21
237.8868773019
31
0.0000000000
0
SPLINE
5
48E
100
AcDbEntity
8
0
100
AcDbSpline
62
7
6
BYLAYER
70
0
71
3
72
8
73
4
74
2
42
0.0000001000
43
0.0000001000
44
0.0000000001
40
0.0000000000
40
0.0000000000
40
0.0000000000
40
0.0000000000
40
1.0000000000
40
1.0000000000
40
1.0000000000
40
1.0000000000
10
174.4757290193
20
237.8868773019
30
0.0000000000
10
173.8000074574
20
237.7451419937
30
0.0000000000
10
173.1147348408
20
237.6574854534
30
0.0000000000
10
172.4259553089
20
237.6181123183
30
0.0000000000
11
174.4757290193
21
237.8868773019
31
0.0000000000
11
172.4259553089
21
237.6181123183
31
0.0000000000
0
SPLINE
5
48F
100
AcDbEntity
8
0
100
AcDbSpline
62
7
6
BYLAYER
70
0
71
3
72
8
73
4
74
2
42
0.0000001000
43
0.0000001000
44
0.0000000001
40
0.0000000000
40
0.0000000000
40
0.0000000000
40
0.0000000000
40
1.0000000000
40
1.0000000000
40
1.0000000000
40
1.0000000000
10
172.4259553089
20
237.6181123183
30
0.0000000000
10
171.7418166185
20
237.5790044705
30
0.0000000000
10
171.0542181111
20
237.5875315743
30
0.0000000000
10
170.3728554239
20
237.6526067441
30
0.0000000000
11
172.4259553089
21
237.6181123183
31
0.0000000000
11
170.3728554239
21
237.6526067441
31
0.0000000000
0
SPLINE
5
490
100
AcDbEntity
8
0
100
AcDbSpline
62
7
6
BYLAYER
70
0
71
3
72
9
73
5
74
3
42
0.0000001000
43
0.0000001000
44
0.0000000001
40
0.0000000000
40
0.0000000000
40
0.0000000000
40
0.0000000000
40
0.6402823070
40
1.0000000000
40
1.0000000000
40
1.0000000000
40
1.0000000000
10
62.6644825353
20
193.6326656059
30
0.0000000000
10
62.4201910800
20
193.5447323859
30
0.0000000000
10
62.0231559406
20
193.4451880888
30
0.0000000000
10
61.6160095260
20
193.4222963799
30
0.0000000000
10
61.4698401317
20
193.4254307090
30
0.0000000000
11
62.6644825353
21
193.6326656059
31
0.0000000000
11
61.9076166971
21
193.4486840864
31
0.0000000000
11
61.4698401317
21
193.4254307090
31
0.0000000000
0
SPLINE
5
491
100
AcDbEntity
8
0
100
AcDbSpline
62
7
6
BYLAYER
70
0
71
3
72
9
73
5
74
3
42
0.0000001000
43
0.0000001000
44
0.0000000001
40
0.0000000000
40
0.0000000000
40
0.0000000000
40
0.0000000000
40
0.2942549585
40
1.0000000000
40
1.0000000000
40
1.0000000000
40
1.0000000000
10
61.4698401317
20
193.4254307090
30
0.0000000000
10
61.3766850181
20
193.4274282460
30
0.0000000000
10
61.0605034782
20
193.4499092819
30
0.0000000000
10
60.7504481625
20
193.5300558992
30
0.0000000000
10
60.5452630695
20
193.6195385749
30
0.0000000000
11
61.4698401317
21
193.4254307090
31
0.0000000000
11
61.1911394914
21
193.4456515895
31
0.0000000000
11
60.5452630695
21
193.6195385749
31
0.0000000000
0
SPLINE
5
492
100
AcDbEntity
8
0
100
AcDbSpline
62
7
6
BYLAYER
70
0
71
3
72
8
73
4
74
2
42
0.0000001000
43
0.0000001000
44
0.0000000001
40
0.0000000000
40
0.0000000000
40
0.0000000000
40
0.0000000000
40
1.0000000000
40
1.0000000000
40
1.0000000000
40
1.0000000000
10
61.2481860167
20
211.2033076619
30
0.0000000000
10
61.2163939242
20
211.1905664972
30
0.0000000000
10
61.1847710148
20
211.1773825939
30
0.0000000000
10
61.1533221945
20
211.1637701603
30
0.0000000000
11
61.2481860167
21
211.2033076619
31
0.0000000000
11
61.1533221945
21
211.1637701603
31
0.0000000000
0
SPLINE
5
493
100
AcDbEntity
8
0
100
AcDbSpline
62
7
6
BYLAYER
70
0
71
3
72
12
73
8
74
6
42
0.0000001000
43
0.0000001000
44
0.0000000001
40
0.0000000000
40
0.0000000000
40
0.0000000000
40
0.0000000000
40
0.1706017163
40
0.3729322377
40
0.5851278931
40
0.7974159305
40
1.0000000000
40
1.0000000000
40
1.0000000000
40
1.0000000000
10
61.1533221945
20
211.1637701603
30
0.0000000000
10
60.7899025055
20
211.0064661240
30
0.0000000000
10
60.0462927449
20
210.5375084700
30
0.0000000000
10
59.1106372984
20
209.5370619525
30
0.0000000000
10
58.3794379153
20
208.2654916722
30
0.0000000000
10
57.9433099531
20
206.8659761938
30
0.0000000000
10
57.8738447189
20
205.8940729674
30
0.0000000000
10
57.9050048549
20
205.4251168912
30
0.0000000000
11
61.1533221945
21
211.1637701603
31
0.0000000000
11
60.1403773398
21
210.5421076802
31
0.0000000000
11
59.1691277674
21
209.5224420985
31
0.0000000000
11
58.4295099749
21
208.2441228882
31
0.0000000000
11
57.9939229050
21
206.8322808403
31
0.0000000000
11
57.9050048549
21
205.4251168912
31
0.0000000000
0
SPLINE
5
494
100
AcDbEntity
8
0
100
AcDbSpline
62
7
6
BYLAYER
70
0
71
3
72
8
73
4
74
2
42
0.0000001000
43
0.0000001000
44
0.0000000001
40
0.0000000000
40
0.0000000000
40
0.0000000000
40
0.0000000000
40
1.0000000000
40
1.0000000000
40
1.0000000000
40
1.0000000000
10
183.9889477512
20
244.6541649017
30
0.0000000000
10
184.0168785155
20
244.2338104587
30
0.0000000000
10
183.9887923813
20
243.8086847967
30
0.0000000000
10
183.9159325140
20
243.3924317116
30
0.0000000000
11
183.9889477512
21
244.6541649017
31
0.0000000000
11
183.9159325140
21
243.3924317116
31
0.0000000000
0
SPLINE
5
495
100
AcDbEntity
8
0
100
AcDbSpline
62
7
6
BYLAYER
70
0
71
3
72
11
73
7
74
5
42
0.0000001000
43
0.0000001000
44
0.0000000001
40
0.0000000000
40
0.0000000000
40
0.0000000000
40
0.0000000000
40
0.2639787532
40
0.5266618437
40
0.7750753464
40
1.0000000000
40
1.0000000000
40
1.0000000000
40
1.0000000000
10
183.9159325140
20
243.3924317116
30
0.0000000000
10
183.8396043153
20
242.9563638278
30
0.0000000000
10
183.5892879343
20
242.1057953808
30
0.0000000000
10
182.9661643711
20
240.9576596263
30
0.0000000000
10
182.1471318659
20
240.0251717109
30
0.0000000000
10
181.4761166665
20
239.5793895001
30
0.0000000000
10
181.1313655692
20
239.4292073863
30
0.0000000000
11
183.9159325140
21
243.3924317116
31
0.0000000000
11
183.5451852926
21
242.1213928185
31
0.0000000000
11
182.9129974084
21
240.9654663650
31
0.0000000000
11
182.0812518160
21
240.0378024864
31
0.0000000000
11
181.1313655692
21
239.4292073863
31
0.0000000000
0
SPLINE
5
496
100
AcDbEntity
8
0
100
AcDbSpline
62
7
6
BYLAYER
70
0
71
3
72
8
73
4
74
2
42
0.0000001000
43
0.0000001000
44
0.0000000001
40
0.0000000000
40
0.0000000000
40
0.0000000000
40
0.0000000000
40
1.0000000000
40
1.0000000000
40
1.0000000000
40
1.0000000000
10
181.6512016006
20
244.8595866791
30
0.0000000000
10
181.7016162786
20
244.4314385377
30
0.0000000000
10
181.6888823505
20
243.9946667728
30
0.0000000000
10
181.6264322545
20
243.5665055849
30
0.0000000000
11
181.6512016006
21
244.8595866791
31
0.0000000000
11
181.6264322545
21
243.5665055849
31
0.0000000000
0
SPLINE
5
497
100
AcDbEntity
8
0
100
AcDbSpline
62
7
6
BYLAYER
70
0
71
3
72
9
73
5
74
3
42
0.0000001000
43
0.0000001000
44
0.0000000001
40
0.0000000000
40
0.0000000000
40
0.0000000000
40
0.0000000000
40
0.4990840115
40
1.0000000000
40
1.0000000000
40
1.0000000000
40
1.0000000000
10
181.6264322545
20
243.5665055849
30
0.0000000000
10
181.5604052247
20
243.1138207477
30
0.0000000000
10
181.3167559627
20
242.2260751347
30
0.0000000000
10
180.8812460006
20
241.4139639315
30
0.0000000000
10
180.6177445729
20
241.0387120957
30
0.0000000000
11
181.6264322545
21
243.5665055849
31
0.0000000000
11
181.2694127287
21
242.2465408498
31
0.0000000000
11
180.6177445729
21
241.0387120957
31
0.0000000000
0
SPLINE
5
498
100
AcDbEntity
8
0
100
AcDbSpline
62
7
6
BYLAYER
70
0
71
3
72
8
73
4
74
2
42
0.0000001000
43
0.0000001000
44
0.0000000001
40
0.0000000000
40
0.0000000000
40
0.0000000000
40
0.0000000000
40
1.0000000000
40
1.0000000000
40
1.0000000000
40
1.0000000000
10
180.6177445729
20
241.0387120957
30
0.0000000000
10
180.3667998519
20
240.6813422400
30
0.0000000000
10
180.0747265462
20
240.3525849762
30
0.0000000000
10
179.7400619392
20
240.0702287033
30
0.0000000000
11
180.6177445729
21
241.0387120957
31
0.0000000000
11
179.7400619392
21
240.0702287033
31
0.0000000000
0
SPLINE
5
499
100
AcDbEntity
8
0
100
AcDbSpline
62
7
6
BYLAYER
70
0
71
3
72
8
73
4
74
2
42
0.0000001000
43
0.0000001000
44
0.0000000001
40
0.0000000000
40
0.0000000000
40
0.0000000000
40
0.0000000000
40
1.0000000000
40
1.0000000000
40
1.0000000000
40
1.0000000000
10
179.7400619392
20
240.0702287033
30
0.0000000000
10
179.4353758784
20
239.8131653068
30
0.0000000000
10
179.0953872324
20
239.5945622270
30
0.0000000000
10
178.7288029849
20
239.4430920301
30
0.0000000000
11
179.7400619392
21
240.0702287033
31
0.0000000000
11
178.7288029849
21
239.4430920301
31
0.0000000000
0
SPLINE
5
49A
100
AcDbEntity
8
0
100
AcDbSpline
62
7
6
BYLAYER
70
0
71
3
72
8
73
4
74
2
42
0.0000001000
43
0.0000001000
44
0.0000000001
40
0.0000000000
40
0.0000000000
40
0.0000000000
40
0.0000000000
40
1.0000000000
40
1.0000000000
40
1.0000000000
40
1.0000000000
10
184.1426134092
20
257.4933143607
30
0.0000000000
10
184.1099297851
20
257.4798097025
30
0.0000000000
10
184.0774353161
20
257.4658275771
30
0.0000000000
10
184.0451349421
20
257.4513842525
30
0.0000000000
11
184.1426134092
21
257.4933143607
31
0.0000000000
11
184.0451349421
21
257.4513842525
31
0.0000000000
0
SPLINE
5
49B
100
AcDbEntity
8
0
100
AcDbSpline
62
7
6
BYLAYER
70
0
71
3
72
8
73
4
74
2
42
0.0000001000
43
0.0000001000
44
0.0000000001
40
0.0000000000
40
0.0000000000
40
0.0000000000
40
0.0000000000
40
1.0000000000
40
1.0000000000
40
1.0000000000
40
1.0000000000
10
184.0451349421
20
257.4513842525
30
0.0000000000
10
183.8506495848
20
257.3644188457
30
0.0000000000
10
183.6632009951
20
257.2607330096
30
0.0000000000
10
183.4838675377
20
257.1438778575
30
0.0000000000
11
184.0451349421
21
257.4513842525
31
0.0000000000
11
183.4838675377
21
257.1438778575
31
0.0000000000
0
SPLINE
5
49C
100
AcDbEntity
8
0
100
AcDbSpline
62
7
6
BYLAYER
70
0
71
3
72
8
73
4
74
2
42
0.0000001000
43
0.0000001000
44
0.0000000001
40
0.0000000000
40
0.0000000000
40
0.0000000000
40
0.0000000000
40
1.0000000000
40
1.0000000000
40
1.0000000000
40
1.0000000000
10
183.4838675377
20
257.1438778575
30
0.0000000000
10
183.3196228189
20
257.0368546512
30
0.0000000000
10
183.1621851007
20
256.9187849777
30
0.0000000000
10
183.0123828133
20
256.7923969025
30
0.0000000000
11
183.4838675377
21
257.1438778575
31
0.0000000000
11
183.0123828133
21
256.7923969025
31
0.0000000000
0
SPLINE
5
49D
100
AcDbEntity
8
0
100
AcDbSpline
62
7
6
BYLAYER
70
0
71
3
72
8
73
4
74
2
42
0.0000001000
43
0.0000001000
44
0.0000000001
40
0.0000000000
40
0.0000000000
40
0.0000000000
40
0.0000000000
40
1.0000000000
40
1.0000000000
40
1.0000000000
40
1.0000000000
10
183.0123828133
20
256.7923969025
30
0.0000000000
10
182.6383458996
20
256.4768222444
30
0.0000000000
10
182.3119110284
20
256.1093876555
30
0.0000000000
10
182.0314433992
20
255.7099742874
30
0.0000000000
11
183.0123828133
21
256.7923969025
31
0.0000000000
11
182.0314433992
21
255.7099742874
31
0.0000000000
0
SPLINE
5
49E
100
AcDbEntity
8
0
100
AcDbSpline
62
7
6
BYLAYER
70
0
71
3
72
8
73
4
74
2
42
0.0000001000
43
0.0000001000
44
0.0000000001
40
0.0000000000
40
0.0000000000
40
0.0000000000
40
0.0000000000
40
1.0000000000
40
1.0000000000
40
1.0000000000
40
1.0000000000
10
182.0314433992
20
255.7099742874
30
0.0000000000
10
181.8873465819
20
255.5047663092
30
0.0000000000
10
181.7553834222
20
255.2911171120
30
0.0000000000
10
181.6359196513
20
255.0706723173
30
0.0000000000
11
182.0314433992
21
255.7099742874
31
0.0000000000
11
181.6359196513
21
255.0706723173
31
0.0000000000
0
SPLINE
5
49F
100
AcDbEntity
8
0
100
AcDbSpline
62
7
6
BYLAYER
70
0
71
3
72
8
73
4
74
2
42
0.0000001000
43
0.0000001000
44
0.0000000001
40
0.0000000000
40
0.0000000000
40
0.0000000000
40
0.0000000000
40
1.0000000000
40
1.0000000000
40
1.0000000000
40
1.0000000000
10
181.4819085267
20
254.7683366010
30
0.0000000000
10
181.4616499820
20
254.7259424658
30
0.0000000000
10
181.4418361222
20
254.6833357831
30
0.0000000000
10
181.4224693536
20
254.6405273806
30
0.0000000000
11
181.4819085267
21
254.7683366010
31
0.0000000000
11
181.4224693536
21
254.6405273806
31
0.0000000000
0
SPLINE
5
4A0
100
AcDbEntity
8
0
100
AcDbSpline
62
7
6
BYLAYER
70
0
71
3
72
8
73
4
74
2
42
0.0000001000
43
0.0000001000
44
0.0000000001
40
0.0000000000
40
0.0000000000
40
0.0000000000
40
0.0000000000
40
1.0000000000
40
1.0000000000
40
1.0000000000
40
1.0000000000
10
181.4224693536
20
254.6405273806
30
0.0000000000
10
181.3805828926
20
254.5479413369
30
0.0000000000
10
181.3407877935
20
254.4544117068
30
0.0000000000
10
181.3031084015
20
254.3600480328
30
0.0000000000
11
181.4224693536
21
254.6405273806
31
0.0000000000
11
181.3031084015
21
254.3600480328
31
0.0000000000
0
SPLINE
5
4A1
100
AcDbEntity
8
0
100
AcDbSpline
62
7
6
BYLAYER
70
0
71
3
72
8
73
4
74
2
42
0.0000001000
43
0.0000001000
44
0.0000000001
40
0.0000000000
40
0.0000000000
40
0.0000000000
40
0.0000000000
40
1.0000000000
40
1.0000000000
40
1.0000000000
40
1.0000000000
10
181.3031084015
20
254.3600480328
30
0.0000000000
10
181.1137889983
20
253.8859195113
30
0.0000000000
10
180.9778814942
20
253.3907352058
30
0.0000000000
10
180.9040865785
20
252.8847933289
30
0.0000000000
11
181.3031084015
21
254.3600480328
31
0.0000000000
11
180.9040865785
21
252.8847933289
31
0.0000000000
0
SPLINE
5
4A2
100
AcDbEntity
8
0
100
AcDbSpline
62
7
6
BYLAYER
70
0
71
3
72
8
73
4
74
2
42
0.0000001000
43
0.0000001000
44
0.0000000001
40
0.0000000000
40
0.0000000000
40
0.0000000000
40
0.0000000000
40
1.0000000000
40
1.0000000000
40
1.0000000000
40
1.0000000000
10
180.9040865785
20
252.8847933289
30
0.0000000000
10
180.8342894124
20
252.4062602365
30
0.0000000000
10
180.8200573751
20
251.9181035581
30
0.0000000000
10
180.8764031917
20
251.4395850471
30
0.0000000000
11
180.9040865785
21
252.8847933289
31
0.0000000000
11
180.8764031917
21
251.4395850471
31
0.0000000000
0
SPLINE
5
4A3
100
AcDbEntity
8
0
100
AcDbSpline
62
7
6
BYLAYER
70
0
71
3
72
9
73
5
74
3
42
0.0000001000
43
0.0000001000
44
0.0000000001
40
0.0000000000
40
0.0000000000
40
0.0000000000
40
0.0000000000
40
0.0838314889
40
1.0000000000
40
1.0000000000
40
1.0000000000
40
1.0000000000
10
181.9245473575
20
254.6838560292
30
0.0000000000
10
181.9511533996
20
254.6735352042
30
0.0000000000
10
182.2657598333
20
254.5434719185
30
0.0000000000
10
182.5435396642
20
254.3300657223
30
0.0000000000
10
182.7495534772
20
254.0955502516
30
0.0000000000
11
181.9245473575
21
254.6838560292
31
0.0000000000
11
182.0036424441
21
254.6511426959
31
0.0000000000
11
182.7495534772
21
254.0955502516
31
0.0000000000
0
SPLINE
5
4A4
100
AcDbEntity
8
0
100
AcDbSpline
62
7
6
BYLAYER
70
0
71
3
72
9
73
5
74
3
42
0.0000001000
43
0.0000001000
44
0.0000000001
40
0.0000000000
40
0.0000000000
40
0.0000000000
40
0.0000000000
40
0.6992704263
40
1.0000000000
40
1.0000000000
40
1.0000000000
40
1.0000000000
10
182.7495534772
20
254.0955502516
30
0.0000000000
10
182.9763637147
20
253.8373612067
30
0.0000000000
10
183.2166845322
20
253.4005350332
30
0.0000000000
10
183.3570788561
20
252.9299805513
30
0.0000000000
10
183.3911057296
20
252.7865822968
30
0.0000000000
11
182.7495534772
21
254.0955502516
31
0.0000000000
11
183.2636002259
21
253.2099495187
31
0.0000000000
11
183.3911057296
21
252.7865822968
31
0.0000000000
0
SPLINE
5
4A5
100
AcDbEntity
8
0
100
AcDbSpline
62
7
6
BYLAYER
70
0
71
3
72
8
73
4
74
2
42
0.0000001000
43
0.0000001000
44
0.0000000001
40
0.0000000000
40
0.0000000000
40
0.0000000000
40
0.0000000000
40
1.0000000000
40
1.0000000000
40
1.0000000000
40
1.0000000000
10
183.3911057296
20
252.7865822968
30
0.0000000000
10
183.4461291556
20
252.5546990101
30
0.0000000000
10
183.4797266720
20
252.3178772528
30
0.0000000000
10
183.4954642129
20
252.0810292673
30
0.0000000000
11
183.3911057296
21
252.7865822968
31
0.0000000000
11
183.4954642129
21
252.0810292673
31
0.0000000000
0
SPLINE
5
4A6
100
AcDbEntity
8
0
100
AcDbSpline
62
7
6
BYLAYER
70
0
71
3
72
8
73
4
74
2
42
0.0000001000
43
0.0000001000
44
0.0000000001
40
0.0000000000
40
0.0000000000
40
0.0000000000
40
0.0000000000
40
1.0000000000
40
1.0000000000
40
1.0000000000
40
1.0000000000
10
58.1756347436
20
194.3998672792
30
0.0000000000
10
58.1300246695
20
194.4197581563
30
0.0000000000
10
58.0849896266
20
194.4410362975
30
0.0000000000
10
58.0406370417
20
194.4636718064
30
0.0000000000
11
58.1756347436
21
194.3998672792
31
0.0000000000
11
58.0406370417
21
194.4636718064
31
0.0000000000
0
SPLINE
5
4A7
100
AcDbEntity
8
0
100
AcDbSpline
62
7
6
BYLAYER
70
0
71
3
72
12
73
8
74
6
42
0.0000001000
43
0.0000001000
44
0.0000000001
40
0.0000000000
40
0.0000000000
40
0.0000000000
40
0.0000000000
40
0.1494528114
40
0.3393625314
40
0.5419038609
40
0.7615944512
40
1.0000000000
40
1.0000000000
40
1.0000000000
40
1.0000000000
10
58.0406370417
20
194.4636718064
30
0.0000000000
10
57.8607197177
20
194.5554932907
30
0.0000000000
10
57.4776816245
20
194.8147107369
30
0.0000000000
10
57.0175379560
20
195.3961065349
30
0.0000000000
10
56.7065994259
20
196.1685001555
30
0.0000000000
10
56.5777088540
20
197.0548608351
30
0.0000000000
10
56.6169906255
20
197.6745534290
30
0.0000000000
10
56.6662835001
20
197.9914506866
30
0.0000000000
11
58.0406370417
21
194.4636718064
31
0.0000000000
11
57.5417463182
21
194.8041486483
31
0.0000000000
11
57.0596170120
21
195.3999152001
31
0.0000000000
11
56.7457063027
21
196.1546229091
31
0.0000000000
11
56.6109498966
21
197.0309189973
31
0.0000000000
11
56.6662835001
21
197.9914506866
31
0.0000000000
0
SPLINE
5
4A8
100
AcDbEntity
8
0
100
AcDbSpline
62
7
6
BYLAYER
70
0
71
3
72
9
73
5
74
3
42
0.0000001000
43
0.0000001000
44
0.0000000001
40
0.0000000000
40
0.0000000000
40
0.0000000000
40
0.0000000000
40
0.1975653389
40
1.0000000000
40
1.0000000000
40
1.0000000000
40
1.0000000000
10
58.5764605336
20
204.9788414741
30
0.0000000000
10
58.5486776388
20
204.9923216194
30
0.0000000000
10
58.4065991912
20
205.0574753326
30
0.0000000000
10
58.2579843283
20
205.1067291804
30
0.0000000000
10
58.1363326800
20
205.1367409425
30
0.0000000000
11
58.5764605336
21
204.9788414741
31
0.0000000000
11
58.4922829557
21
205.0174452457
31
0.0000000000
11
58.1363326800
21
205.1367409425
31
0.0000000000
0
SPLINE
5
4A9
100
AcDbEntity
8
0
100
AcDbSpline
62
7
6
BYLAYER
70
0
71
3
72
9
73
5
74
3
42
0.0000001000
43
0.0000001000
44
0.0000000001
40
0.0000000000
40
0.0000000000
40
0.0000000000
40
0.0000000000
40
0.0838330340
40
1.0000000000
40
1.0000000000
40
1.0000000000
40
1.0000000000
10
182.0153507780
20
254.9167768783
30
0.0000000000
10
182.0435224785
20
254.9058483748
30
0.0000000000
10
182.3766360271
20
254.7681300552
30
0.0000000000
10
182.6707562031
20
254.5421727670
30
0.0000000000
10
182.8888884255
20
254.2938631914
30
0.0000000000
11
182.0153507780
21
254.9167768783
31
0.0000000000
11
182.0991002729
21
254.8821375441
31
0.0000000000
11
182.8888884255
21
254.2938631914
31
0.0000000000
0
SPLINE
5
4AA
100
AcDbEntity
8
0
100
AcDbSpline
62
7
6
BYLAYER
70
0
71
3
72
8
73
4
74
2
42
0.0000001000
43
0.0000001000
44
0.0000000001
40
0.0000000000
40
0.0000000000
40
0.0000000000
40
0.0000000000
40
1.0000000000
40
1.0000000000
40
1.0000000000
40
1.0000000000
10
182.8888884255
20
254.2938631914
30
0.0000000000
10
183.1290403865
20
254.0204875715
30
0.0000000000
10
183.3069749171
20
253.6970589868
30
0.0000000000
10
183.4331732183
20
253.3561682977
30
0.0000000000
11
182.8888884255
21
254.2938631914
31
0.0000000000
11
183.4331732183
21
253.3561682977
31
0.0000000000
0
SPLINE
5
4AB
100
AcDbEntity
8
0
100
AcDbSpline
62
7
6
BYLAYER
70
0
71
3
72
8
73
4
74
2
42
0.0000001000
43
0.0000001000
44
0.0000000001
40
0.0000000000
40
0.0000000000
40
0.0000000000
40
0.0000000000
40
1.0000000000
40
1.0000000000
40
1.0000000000
40
1.0000000000
10
183.4331732183
20
253.3561682977
30
0.0000000000
10
183.4971841749
20
253.1832599553
30
0.0000000000
10
183.5478845696
20
253.0058590082
30
0.0000000000
10
183.5867393799
20
252.8259834431
30
0.0000000000
11
183.4331732183
21
253.3561682977
31
0.0000000000
11
183.5867393799
21
252.8259834431
31
0.0000000000
0
SPLINE
5
4AC
100
AcDbEntity
8
0
100
AcDbSpline
62
7
6
BYLAYER
70
0
71
3
72
8
73
4
74
2
42
0.0000001000
43
0.0000001000
44
0.0000000001
40
0.0000000000
40
0.0000000000
40
0.0000000000
40
0.0000000000
40
1.0000000000
40
1.0000000000
40
1.0000000000
40
1.0000000000
10
183.5867393799
20
252.8259834431
30
0.0000000000
10
183.6341006552
20
252.6067278073
30
0.0000000000
10
183.6638618896
20
252.3837954107
30
0.0000000000
10
183.6786762634
20
252.1608409727
30
0.0000000000
11
183.5867393799
21
252.8259834431
31
0.0000000000
11
183.6786762634
21
252.1608409727
31
0.0000000000
0
SPLINE
5
4AD
100
AcDbEntity
8
0
100
AcDbSpline
62
7
6
BYLAYER
70
0
71
3
72
9
73
5
74
3
42
0.0000001000
43
0.0000001000
44
0.0000000001
40
0.0000000000
40
0.0000000000
40
0.0000000000
40
0.0000000000
40
0.7573735984
40
1.0000000000
40
1.0000000000
40
1.0000000000
40
1.0000000000
10
178.8777227778
20
255.2925128759
30
0.0000000000
10
179.2053720310
20
255.4352450030
30
0.0000000000
10
179.6750169183
20
255.5581083306
30
0.0000000000
10
180.1524979006
20
255.5367403750
30
0.0000000000
10
180.2672436351
20
255.5228826401
30
0.0000000000
11
178.8777227778
21
255.2925128759
31
0.0000000000
11
179.9212602074
21
255.5386186901
31
0.0000000000
11
180.2672436351
21
255.5228826401
31
0.0000000000
0
SPLINE
5
4AE
100
AcDbEntity
8
0
100
AcDbSpline
62
7
6
BYLAYER
70
0
71
3
72
8
73
4
74
2
42
0.0000001000
43
0.0000001000
44
0.0000000001
40
0.0000000000
40
0.0000000000
40
0.0000000000
40
0.0000000000
40
1.0000000000
40
1.0000000000
40
1.0000000000
40
1.0000000000
10
180.2672436351
20
255.5228826401
30
0.0000000000
10
180.3302495437
20
255.5152734756
30
0.0000000000
10
180.3929226677
20
255.5050492967
30
0.0000000000
10
180.4550039100
20
255.4921798474
30
0.0000000000
11
180.2672436351
21
255.5228826401
31
0.0000000000
11
180.4550039100
21
255.4921798474
31
0.0000000000
0
SPLINE
5
4AF
100
AcDbEntity
8
0
100
AcDbSpline
62
7
6
BYLAYER
70
0
71
3
72
8
73
4
74
2
42
0.0000001000
43
0.0000001000
44
0.0000000001
40
0.0000000000
40
0.0000000000
40
0.0000000000
40
0.0000000000
40
1.0000000000
40
1.0000000000
40
1.0000000000
40
1.0000000000
10
180.4550039100
20
255.4921798474
30
0.0000000000
10
180.5711365882
20
255.4681055286
30
0.0000000000
10
180.6851980618
20
255.4347744677
30
0.0000000000
10
180.7954922580
20
255.3919886048
30
0.0000000000
11
180.4550039100
21
255.4921798474
31
0.0000000000
11
180.7954922580
21
255.3919886048
31
0.0000000000
0
SPLINE
5
4B0
100
AcDbEntity
8
0
100
AcDbSpline
62
7
6
BYLAYER
70
0
71
3
72
11
73
7
74
5
42
0.0000001000
43
0.0000001000
44
0.0000000001
40
0.0000000000
40
0.0000000000
40
0.0000000000
40
0.0000000000
40
0.2282315290
40
0.4773521034
40
0.7386191788
40
1.0000000000
40
1.0000000000
40
1.0000000000
40
1.0000000000
10
44.2558211307
20
195.3297605117
30
0.0000000000
10
43.8356331278
20
195.1613637780
30
0.0000000000
10
43.0155200009
20
194.6554896986
30
0.0000000000
10
42.0057698483
20
193.5758176597
30
0.0000000000
10
41.2360862872
20
192.2373226278
30
0.0000000000
10
40.9253178787
20
191.2400804523
30
0.0000000000
10
40.8302810131
20
190.7286796468
30
0.0000000000
11
44.2558211307
21
195.3297605117
31
0.0000000000
11
43.0897067340
21
194.6337605310
31
0.0000000000
11
42.0673387631
21
193.5604283397
31
0.0000000000
11
41.2887937184
21
192.2148291710
31
0.0000000000
11
40.8302810131
21
190.7286796468
31
0.0000000000
0
SPLINE
5
4B1
100
AcDbEntity
8
0
100
AcDbSpline
62
7
6
BYLAYER
70
0
71
3
72
8
73
4
74
2
42
0.0000001000
43
0.0000001000
44
0.0000000001
40
0.0000000000
40
0.0000000000
40
0.0000000000
40
0.0000000000
40
1.0000000000
40
1.0000000000
40
1.0000000000
40
1.0000000000
10
40.8302810131
20
190.7286796468
30
0.0000000000
10
40.7395884089
20
190.2406556510
30
0.0000000000
10
40.7038829225
20
189.7410924122
30
0.0000000000
10
40.7366830657
20
189.2474544373
30
0.0000000000
11
40.8302810131
21
190.7286796468
31
0.0000000000
11
40.7366830657
21
189.2474544373
31
0.0000000000
0
SPLINE
5
4B2
100
AcDbEntity
8
0
100
AcDbSpline
62
7
6
BYLAYER
70
0
71
3
72
8
73
4
74
2
42
0.0000001000
43
0.0000001000
44
0.0000000001
40
0.0000000000
40
0.0000000000
40
0.0000000000
40
0.0000000000
40
1.0000000000
40
1.0000000000
40
1.0000000000
40
1.0000000000
10
184.1577323902
20
257.2657756240
30
0.0000000000
10
183.9614106298
20
257.1846567655
30
0.0000000000
10
183.7722928994
20
257.0853534224
30
0.0000000000
10
183.5915721003
20
256.9717938828
30
0.0000000000
11
184.1577323902
21
257.2657756240
31
0.0000000000
11
183.5915721003
21
256.9717938828
31
0.0000000000
0
SPLINE
5
4B3
100
AcDbEntity
8
0
100
AcDbSpline
62
7
6
BYLAYER
70
0
71
3
72
8
73
4
74
2
42
0.0000001000
43
0.0000001000
44
0.0000000001
40
0.0000000000
40
0.0000000000
40
0.0000000000
40
0.0000000000
40
1.0000000000
40
1.0000000000
40
1.0000000000
40
1.0000000000
10
183.5915721003
20
256.9717938828
30
0.0000000000
10
183.4149895550
20
256.8608346980
30
0.0000000000
10
183.2464237879
20
256.7362647354
30
0.0000000000
10
183.0869876151
20
256.6017485583
30
0.0000000000
11
183.5915721003
21
256.9717938828
31
0.0000000000
11
183.0869876151
21
256.6017485583
31
0.0000000000
0
SPLINE
5
4B4
100
AcDbEntity
8
0
100
AcDbSpline
62
7
6
BYLAYER
70
0
71
3
72
8
73
4
74
2
42
0.0000001000
43
0.0000001000
44
0.0000000001
40
0.0000000000
40
0.0000000000
40
0.0000000000
40
0.0000000000
40
1.0000000000
40
1.0000000000
40
1.0000000000
40
1.0000000000
10
183.0869876151
20
256.6017485583
30
0.0000000000
10
182.7326368547
20
256.3027830928
30
0.0000000000
10
182.4233827663
20
255.9546871665
30
0.0000000000
10
182.1576765912
20
255.5762955545
30
0.0000000000
11
183.0869876151
21
256.6017485583
31
0.0000000000
11
182.1576765912
21
255.5762955545
31
0.0000000000
0
SPLINE
5
4B5
100
AcDbEntity
8
0
100
AcDbSpline
62
7
6
BYLAYER
70
0
71
3
72
8
73
4
74
2
42
0.0000001000
43
0.0000001000
44
0.0000000001
40
0.0000000000
40
0.0000000000
40
0.0000000000
40
0.0000000000
40
1.0000000000
40
1.0000000000
40
1.0000000000
40
1.0000000000
10
182.1576765912
20
255.5762955545
30
0.0000000000
10
182.0288473775
20
255.3928301390
30
0.0000000000
10
181.9102556368
20
255.2022426540
30
0.0000000000
10
181.8021925774
20
255.0058434035
30
0.0000000000
11
182.1576765912
21
255.5762955545
31
0.0000000000
11
181.8021925774
21
255.0058434035
31
0.0000000000
0
SPLINE
5
4B6
100
AcDbEntity
8
0
100
AcDbSpline
62
7
6
BYLAYER
70
0
71
3
72
8
73
4
74
2
42
0.0000001000
43
0.0000001000
44
0.0000000001
40
0.0000000000
40
0.0000000000
40
0.0000000000
40
0.0000000000
40
1.0000000000
40
1.0000000000
40
1.0000000000
40
1.0000000000
10
181.6633032738
20
254.7384641553
30
0.0000000000
10
181.6252866324
20
254.6608090572
30
0.0000000000
10
181.5888555576
20
254.5823767816
30
0.0000000000
10
181.5540267563
20
254.5032425019
30
0.0000000000
11
181.6633032738
21
254.7384641553
31
0.0000000000
11
181.5540267563
21
254.5032425019
31
0.0000000000
0
SPLINE
5
4B7
100
AcDbEntity
8
0
100
AcDbSpline
62
7
6
BYLAYER
70
0
71
3
72
8
73
4
74
2
42
0.0000001000
43
0.0000001000
44
0.0000000001
40
0.0000000000
40
0.0000000000
40
0.0000000000
40
0.0000000000
40
1.0000000000
40
1.0000000000
40
1.0000000000
40
1.0000000000
10
181.5540267563
20
254.5032425019
30
0.0000000000
10
181.5240525545
20
254.4351383245
30
0.0000000000
10
181.4952650908
20
254.3665142015
30
0.0000000000
10
181.4676750144
20
254.2974180502
30
0.0000000000
11
181.5540267563
21
254.5032425019
31
0.0000000000
11
181.4676750144
21
254.2974180502
31
0.0000000000
0
SPLINE
5
4B8
100
AcDbEntity
8
0
100
AcDbSpline
62
7
6
BYLAYER
70
0
71
3
72
8
73
4
74
2
42
0.0000001000
43
0.0000001000
44
0.0000000001
40
0.0000000000
40
0.0000000000
40
0.0000000000
40
0.0000000000
40
1.0000000000
40
1.0000000000
40
1.0000000000
40
1.0000000000
10
181.4676750144
20
254.2974180502
30
0.0000000000
10
181.2883197904
20
253.8482436614
30
0.0000000000
10
181.1595653128
20
253.3791216878
30
0.0000000000
10
181.0896543400
20
252.8998083307
30
0.0000000000
11
181.4676750144
21
254.2974180502
31
0.0000000000
11
181.0896543400
21
252.8998083307
31
0.0000000000
0
SPLINE
5
4B9
100
AcDbEntity
8
0
100
AcDbSpline
62
7
6
BYLAYER
70
0
71
3
72
8
73
4
74
2
42
0.0000001000
43
0.0000001000
44
0.0000000001
40
0.0000000000
40
0.0000000000
40
0.0000000000
40
0.0000000000
40
1.0000000000
40
1.0000000000
40
1.0000000000
40
1.0000000000
10
181.0896543400
20
252.8998083307
30
0.0000000000
10
181.0235307090
20
252.4464611906
30
0.0000000000
10
181.0100477263
20
251.9839969689
30
0.0000000000
10
181.0634279735
20
251.5306636427
30
0.0000000000
11
181.0896543400
21
252.8998083307
31
0.0000000000
11
181.0634279735
21
251.5306636427
31
0.0000000000
0
SPLINE
5
4BA
100
AcDbEntity
8
0
100
AcDbSpline
62
7
6
BYLAYER
70
0
71
3
72
8
73
4
74
2
42
0.0000001000
43
0.0000001000
44
0.0000000001
40
0.0000000000
40
0.0000000000
40
0.0000000000
40
0.0000000000
40
1.0000000000
40
1.0000000000
40
1.0000000000
40
1.0000000000
10
66.6487688888
20
212.9357744285
30
0.0000000000
10
66.4271198678
20
212.8898020836
30
0.0000000000
10
66.2065735197
20
212.8382366205
30
0.0000000000
10
65.9876582100
20
212.7805057078
30
0.0000000000
11
66.6487688888
21
212.9357744285
31
0.0000000000
11
65.9876582100
21
212.7805057078
31
0.0000000000
0
SPLINE
5
4BB
100
AcDbEntity
8
0
100
AcDbSpline
62
7
6
BYLAYER
70
0
71
3
72
8
73
4
74
2
42
0.0000001000
43
0.0000001000
44
0.0000000001
40
0.0000000000
40
0.0000000000
40
0.0000000000
40
0.0000000000
40
1.0000000000
40
1.0000000000
40
1.0000000000
40
1.0000000000
10
65.9876582100
20
212.7805057078
30
0.0000000000
10
65.7780748776
20
212.7252357631
30
0.0000000000
10
65.5699864907
20
212.6643148099
30
0.0000000000
10
65.3639600286
20
212.5969407665
30
0.0000000000
11
65.9876582100
21
212.7805057078
31
0.0000000000
11
65.3639600286
21
212.5969407665
31
0.0000000000
0
SPLINE
5
4BC
100
AcDbEntity
8
0
100
AcDbSpline
62
7
6
BYLAYER
70
0
71
3
72
8
73
4
74
2
42
0.0000001000
43
0.0000001000
44
0.0000000001
40
0.0000000000
40
0.0000000000
40
0.0000000000
40
0.0000000000
40
1.0000000000
40
1.0000000000
40
1.0000000000
40
1.0000000000
10
65.3639600286
20
212.5969407665
30
0.0000000000
10
65.1691196839
20
212.5332247676
30
0.0000000000
10
64.9761234397
20
212.4637373911
30
0.0000000000
10
64.7858821519
20
212.3874953012
30
0.0000000000
11
65.3639600286
21
212.5969407665
31
0.0000000000
11
64.7858821519
21
212.3874953012
31
0.0000000000
0
SPLINE
5
4BD
100
AcDbEntity
8
0
100
AcDbSpline
62
7
6
BYLAYER
70
0
71
3
72
8
73
4
74
2
42
0.0000001000
43
0.0000001000
44
0.0000000001
40
0.0000000000
40
0.0000000000
40
0.0000000000
40
0.0000000000
40
1.0000000000
40
1.0000000000
40
1.0000000000
40
1.0000000000
10
119.4199535391
20
224.1328104768
30
0.0000000000
10
119.1259347415
20
224.0146234391
30
0.0000000000
10
118.8276145794
20
223.9069510251
30
0.0000000000
10
118.5264217546
20
223.8082522947
30
0.0000000000
11
119.4199535391
21
224.1328104768
31
0.0000000000
11
118.5264217546
21
223.8082522947
31
0.0000000000
0
SPLINE
5
4BE
100
AcDbEntity
8
0
100
AcDbSpline
62
7
6
BYLAYER
70
0
71
3
72
8
73
4
74
2
42
0.0000001000
43
0.0000001000
44
0.0000000001
40
0.0000000000
40
0.0000000000
40
0.0000000000
40
0.0000000000
40
1.0000000000
40
1.0000000000
40
1.0000000000
40
1.0000000000
10
118.5264217546
20
223.8082522947
30
0.0000000000
10
118.2078082200
20
223.7038449224
30
0.0000000000
10
117.8859801083
20
223.6094793129
30
0.0000000000
10
117.5618252263
20
223.5238994696
30
0.0000000000
11
118.5264217546
21
223.8082522947
31
0.0000000000
11
117.5618252263
21
223.5238994696
31
0.0000000000
0
SPLINE
5
4BF
100
AcDbEntity
8
0
100
AcDbSpline
62
7
6
BYLAYER
70
0
71
3
72
8
73
4
74
2
42
0.0000001000
43
0.0000001000
44
0.0000000001
40
0.0000000000
40
0.0000000000
40
0.0000000000
40
0.0000000000
40
1.0000000000
40
1.0000000000
40
1.0000000000
40
1.0000000000
10
117.5618252263
20
223.5238994696
30
0.0000000000
10
117.2231429665
20
223.4344842662
30
0.0000000000
10
116.8819207091
20
223.3546599639
30
0.0000000000
10
116.5389846639
20
223.2835314109
30
0.0000000000
11
117.5618252263
21
223.5238994696
31
0.0000000000
11
116.5389846639
21
223.2835314109
31
0.0000000000
0
SPLINE
5
4C0
100
AcDbEntity
8
0
100
AcDbSpline
62
7
6
BYLAYER
70
0
71
3
72
12
73
8
74
6
42
0.0000001000
43
0.0000001000
44
0.0000000001
40
0.0000000000
40
0.0000000000
40
0.0000000000
40
0.0000000000
40
0.2027509709
40
0.4152139046
40
0.6275843801
40
0.8300815941
40
1.0000000000
40
1.0000000000
40
1.0000000000
40
1.0000000000
10
58.1232949048
20
205.0921237322
30
0.0000000000
10
58.1528150337
20
204.6478495548
30
0.0000000000
10
58.0870058644
20
203.7270991297
30
0.0000000000
10
57.6738320054
20
202.4012423607
30
0.0000000000
10
56.9811168004
20
201.1965968320
30
0.0000000000
10
56.0959534201
20
200.2501387907
30
0.0000000000
10
55.3933432994
20
199.8064918271
30
0.0000000000
10
55.0509239180
20
199.6576658472
30
0.0000000000
11
58.1232949048
21
205.0921237322
31
0.0000000000
11
58.0390567521
21
203.7590210436
31
0.0000000000
11
57.6263953174
21
202.4214864719
31
0.0000000000
11
56.9257047771
21
201.2104472200
31
0.0000000000
11
56.0055736033
21
200.2444482479
31
0.0000000000
11
55.0509239180
21
199.6576658472
31
0.0000000000
0
SPLINE
5
4C1
100
AcDbEntity
8
0
100
AcDbSpline
62
7
6
BYLAYER
70
0
71
3
72
8
73
4
74
2
42
0.0000001000
43
0.0000001000
44
0.0000000001
40
0.0000000000
40
0.0000000000
40
0.0000000000
40
0.0000000000
40
1.0000000000
40
1.0000000000
40
1.0000000000
40
1.0000000000
10
55.0509239180
20
199.6576658472
30
0.0000000000
10
55.0194884582
20
199.6440030309
30
0.0000000000
10
54.9878688777
20
199.6307918902
30
0.0000000000
10
54.9560706463
20
199.6180482653
30
0.0000000000
11
55.0509239180
21
199.6576658472
31
0.0000000000
11
54.9560706463
21
199.6180482653
31
0.0000000000
0
SPLINE
5
4C2
100
AcDbEntity
8
0
100
AcDbSpline
62
7
6
BYLAYER
70
0
71
3
72
8
73
4
74
2
42
0.0000001000
43
0.0000001000
44
0.0000000001
40
0.0000000000
40
0.0000000000
40
0.0000000000
40
0.0000000000
40
1.0000000000
40
1.0000000000
40
1.0000000000
40
1.0000000000
10
152.8955876192
20
236.9213640605
30
0.0000000000
10
152.4314562383
20
236.9643229513
30
0.0000000000
10
151.9632981338
20
236.9697127421
30
0.0000000000
10
151.4974136948
20
236.9432803211
30
0.0000000000
11
152.8955876192
21
236.9213640605
31
0.0000000000
11
151.4974136948
21
236.9432803211
31
0.0000000000
0
SPLINE
5
4C3
100
AcDbEntity
8
0
100
AcDbSpline
62
7
6
BYLAYER
70
0
71
3
72
8
73
4
74
2
42
0.0000001000
43
0.0000001000
44
0.0000000001
40
0.0000000000
40
0.0000000000
40
0.0000000000
40
0.0000000000
40
1.0000000000
40
1.0000000000
40
1.0000000000
40
1.0000000000
10
151.4974136948
20
236.9432803211
30
0.0000000000
10
151.0282955619
20
236.9166644332
30
0.0000000000
10
150.5614827670
20
236.8577830457
30
0.0000000000
10
150.1009552121
20
236.7629669070
30
0.0000000000
11
151.4974136948
21
236.9432803211
31
0.0000000000
11
150.1009552121
21
236.7629669070
31
0.0000000000
0
SPLINE
5
4C4
100
AcDbEntity
8
0
100
AcDbSpline
62
7
6
BYLAYER
70
0
71
3
72
8
73
4
74
2
42
0.0000001000
43
0.0000001000
44
0.0000000001
40
0.0000000000
40
0.0000000000
40
0.0000000000
40
0.0000000000
40
1.0000000000
40
1.0000000000
40
1.0000000000
40
1.0000000000
10
150.1009552121
20
236.7629669070
30
0.0000000000
10
149.7862479747
20
236.6981731183
30
0.0000000000
10
149.4744758453
20
236.6165983673
30
0.0000000000
10
149.1709099126
20
236.5124555084
30
0.0000000000
11
150.1009552121
21
236.7629669070
31
0.0000000000
11
149.1709099126
21
236.5124555084
31
0.0000000000
0
SPLINE
5
4C5
100
AcDbEntity
8
0
100
AcDbSpline
62
7
6
BYLAYER
70
0
71
3
72
9
73
5
74
3
42
0.0000001000
43
0.0000001000
44
0.0000000001
40
0.0000000000
40
0.0000000000
40
0.0000000000
40
0.0000000000
40
0.3668917787
40
1.0000000000
40
1.0000000000
40
1.0000000000
40
1.0000000000
10
51.1099825396
20
203.0021725886
30
0.0000000000
10
50.9325390473
20
202.9341036570
30
0.0000000000
10
50.4493066729
20
202.7475186375
30
0.0000000000
10
49.9675020037
20
202.5572373179
30
0.0000000000
10
49.6632987364
20
202.4347209863
30
0.0000000000
11
51.1099825396
21
203.0021725886
31
0.0000000000
11
50.5781432593
21
202.7966930802
31
0.0000000000
11
49.6632987364
21
202.4347209863
31
0.0000000000
0
SPLINE
5
4C6
100
AcDbEntity
8
0
100
AcDbSpline
62
7
6
BYLAYER
70
0
71
3
72
8
73
4
74
2
42
0.0000001000
43
0.0000001000
44
0.0000000001
40
0.0000000000
40
0.0000000000
40
0.0000000000
40
0.0000000000
40
1.0000000000
40
1.0000000000
40
1.0000000000
40
1.0000000000
10
49.6632987364
20
202.4347209863
30
0.0000000000
10
49.5468365939
20
202.3878164458
30
0.0000000000
10
49.4304962839
20
202.3406117815
30
0.0000000000
10
49.3142923377
20
202.2930752284
30
0.0000000000
11
49.6632987364
21
202.4347209863
31
0.0000000000
11
49.3142923377
21
202.2930752284
31
0.0000000000
0
SPLINE
5
4C7
100
AcDbEntity
8
0
100
AcDbSpline
62
7
6
BYLAYER
70
0
71
3
72
8
73
4
74
2
42
0.0000001000
43
0.0000001000
44
0.0000000001
40
0.0000000000
40
0.0000000000
40
0.0000000000
40
0.0000000000
40
1.0000000000
40
1.0000000000
40
1.0000000000
40
1.0000000000
10
174.5036561304
20
236.3078881182
30
0.0000000000
10
174.2160351625
20
236.1825933034
30
0.0000000000
10
173.9206027000
20
236.0750428373
30
0.0000000000
10
173.6206076608
20
235.9816867187
30
0.0000000000
11
174.5036561304
21
236.3078881182
31
0.0000000000
11
173.6206076608
21
235.9816867187
31
0.0000000000
0
SPLINE
5
4C8
100
AcDbEntity
8
0
100
AcDbSpline
62
7
6
BYLAYER
70
0
71
3
72
8
73
4
74
2
42
0.0000001000
43
0.0000001000
44
0.0000000001
40
0.0000000000
40
0.0000000000
40
0.0000000000
40
0.0000000000
40
1.0000000000
40
1.0000000000
40
1.0000000000
40
1.0000000000
10
173.6206076608
20
235.9816867187
30
0.0000000000
10
173.4782291954
20
235.9373796497
30
0.0000000000
10
173.3348230198
20
235.8962698255
30
0.0000000000
10
173.1907364538
20
235.8579777397
30
0.0000000000
11
173.6206076608
21
235.9816867187
31
0.0000000000
11
173.1907364538
21
235.8579777397
31
0.0000000000
0
SPLINE
5
4C9
100
AcDbEntity
8
0
100
AcDbSpline
62
7
6
BYLAYER
70
0
71
3
72
9
73
5
74
3
42
0.0000001000
43
0.0000001000
44
0.0000000001
40
0.0000000000
40
0.0000000000
40
0.0000000000
40
0.0000000000
40
0.4900787543
40
1.0000000000
40
1.0000000000
40
1.0000000000
40
1.0000000000
10
173.1907364538
20
235.8579777397
30
0.0000000000
10
172.6935557740
20
235.7258482444
30
0.0000000000
10
171.6625343412
20
235.5246962986
30
0.0000000000
10
170.6155996751
20
235.4396160029
30
0.0000000000
10
170.0807682012
20
235.4259465687
30
0.0000000000
11
173.1907364538
21
235.8579777397
31
0.0000000000
11
171.6791703795
21
235.5565654166
31
0.0000000000
11
170.0807682012
21
235.4259465687
31
0.0000000000
0
SPLINE
5
4CA
100
AcDbEntity
8
0
100
AcDbSpline
62
7
6
BYLAYER
70
0
71
3
72
8
73
4
74
2
42
0.0000001000
43
0.0000001000
44
0.0000000001
40
0.0000000000
40
0.0000000000
40
0.0000000000
40
0.0000000000
40
1.0000000000
40
1.0000000000
40
1.0000000000
40
1.0000000000
10
170.0807682012
20
235.4259465687
30
0.0000000000
10
169.5579201848
20
235.4125834125
30
0.0000000000
10
169.0341382254
20
235.4276184074
30
0.0000000000
10
168.5137634649
20
235.4757830509
30
0.0000000000
11
170.0807682012
21
235.4259465687
31
0.0000000000
11
168.5137634649
21
235.4757830509
31
0.0000000000
0
SPLINE
5
4CB
100
AcDbEntity
8
0
100
AcDbSpline
62
7
6
BYLAYER
70
0
71
3
72
8
73
4
74
2
42
0.0000001000
43
0.0000001000
44
0.0000000001
40
0.0000000000
40
0.0000000000
40
0.0000000000
40
0.0000000000
40
1.0000000000
40
1.0000000000
40
1.0000000000
40
1.0000000000
10
152.3253107567
20
239.1501858133
30
0.0000000000
10
151.8589369711
20
239.1947279549
30
0.0000000000
10
151.3883661900
20
239.2011185904
30
0.0000000000
10
150.9200481851
20
239.1753591510
30
0.0000000000
11
152.3253107567
21
239.1501858133
31
0.0000000000
11
150.9200481851
21
239.1753591510
31
0.0000000000
0
SPLINE
5
4CC
100
AcDbEntity
8
0
100
AcDbSpline
62
7
6
BYLAYER
70
0
71
3
72
8
73
4
74
2
42
0.0000001000
43
0.0000001000
44
0.0000000001
40
0.0000000000
40
0.0000000000
40
0.0000000000
40
0.0000000000
40
1.0000000000
40
1.0000000000
40
1.0000000000
40
1.0000000000
10
150.9200481851
20
239.1753591510
30
0.0000000000
10
150.4478750424
20
239.1493876629
30
0.0000000000
10
149.9779919178
20
239.0907346100
30
0.0000000000
10
149.5144187914
20
238.9957514735
30
0.0000000000
11
150.9200481851
21
239.1753591510
31
0.0000000000
11
149.5144187914
21
238.9957514735
31
0.0000000000
0
SPLINE
5
4CD
100
AcDbEntity
8
0
100
AcDbSpline
62
7
6
BYLAYER
70
0
71
3
72
8
73
4
74
2
42
0.0000001000
43
0.0000001000
44
0.0000000001
40
0.0000000000
40
0.0000000000
40
0.0000000000
40
0.0000000000
40
1.0000000000
40
1.0000000000
40
1.0000000000
40
1.0000000000
10
149.5144187914
20
238.9957514735
30
0.0000000000
10
149.0933488712
20
238.9094769691
30
0.0000000000
10
148.6774849151
20
238.7932289046
30
0.0000000000
10
148.2793982843
20
238.6332096132
30
0.0000000000
11
149.5144187914
21
238.9957514735
31
0.0000000000
11
148.2793982843
21
238.6332096132
31
0.0000000000
0
SPLINE
5
4CE
100
AcDbEntity
8
0
100
AcDbSpline
62
7
6
BYLAYER
70
0
71
3
72
8
73
4
74
2
42
0.0000001000
43
0.0000001000
44
0.0000000001
40
0.0000000000
40
0.0000000000
40
0.0000000000
40
0.0000000000
40
1.0000000000
40
1.0000000000
40
1.0000000000
40
1.0000000000
10
174.4908480003
20
237.6593385653
30
0.0000000000
10
173.8151264384
20
237.5176032570
30
0.0000000000
10
173.1298538218
20
237.4299467167
30
0.0000000000
10
172.4410742899
20
237.3905735816
30
0.0000000000
11
174.4908480003
21
237.6593385653
31
0.0000000000
11
172.4410742899
21
237.3905735816
31
0.0000000000
0
SPLINE
5
4CF
100
AcDbEntity
8
0
100
AcDbSpline
62
7
6
BYLAYER
70
0
71
3
72
8
73
4
74
2
42
0.0000001000
43
0.0000001000
44
0.0000000001
40
0.0000000000
40
0.0000000000
40
0.0000000000
40
0.0000000000
40
1.0000000000
40
1.0000000000
40
1.0000000000
40
1.0000000000
10
172.4410742899
20
237.3905735816
30
0.0000000000
10
171.7569355994
20
237.3514657338
30
0.0000000000
10
171.0693370921
20
237.3599928376
30
0.0000000000
10
170.3879744049
20
237.4250680074
30
0.0000000000
11
172.4410742899
21
237.3905735816
31
0.0000000000
11
170.3879744049
21
237.4250680074
31
0.0000000000
0
SPLINE
5
4D0
100
AcDbEntity
8
0
100
AcDbSpline
62
7
6
BYLAYER
70
0
71
3
72
8
73
4
74
2
42
0.0000001000
43
0.0000001000
44
0.0000000001
40
0.0000000000
40
0.0000000000
40
0.0000000000
40
0.0000000000
40
1.0000000000
40
1.0000000000
40
1.0000000000
40
1.0000000000
10
61.2633049976
20
210.9757689252
30
0.0000000000
10
60.8851357950
20
210.8242118649
30
0.0000000000
10
60.5322346463
20
210.6065302575
30
0.0000000000
10
60.2138020406
20
210.3493689426
30
0.0000000000
11
61.2633049976
21
210.9757689252
31
0.0000000000
11
60.2138020406
21
210.3493689426
31
0.0000000000
0
SPLINE
5
4D1
100
AcDbEntity
8
0
100
AcDbSpline
62
7
6
BYLAYER
70
0
71
3
72
10
73
6
74
4
42
0.0000001000
43
0.0000001000
44
0.0000000001
40
0.0000000000
40
0.0000000000
40
0.0000000000
40
0.0000000000
40
0.3227918525
40
0.6613222345
40
1.0000000000
40
1.0000000000
40
1.0000000000
40
1.0000000000
10
60.2138020406
20
210.3493689426
30
0.0000000000
10
59.8662246746
20
210.0686707638
30
0.0000000000
10
59.2382588435
20
209.3972203584
30
0.0000000000
10
58.5455436384
20
208.1925748297
30
0.0000000000
10
58.2658520708
20
207.2950568718
30
0.0000000000
10
58.1803188918
20
206.8347961468
30
0.0000000000
11
60.2138020406
21
210.3493689426
31
0.0000000000
11
59.2936708668
21
209.3833699704
31
0.0000000000
11
58.5929803265
21
208.1723307185
31
0.0000000000
11
58.1803188918
21
206.8347961468
31
0.0000000000
0
SPLINE
5
4D2
100
AcDbEntity
8
0
100
AcDbSpline
62
7
6
BYLAYER
70
0
71
3
72
8
73
4
74
2
42
0.0000001000
43
0.0000001000
44
0.0000000001
40
0.0000000000
40
0.0000000000
40
0.0000000000
40
0.0000000000
40
1.0000000000
40
1.0000000000
40
1.0000000000
40
1.0000000000
10
58.1803188918
20
206.8347961468
30
0.0000000000
10
58.0986955479
20
206.3955745506
30
0.0000000000
10
58.0665606102
20
205.9459676357
30
0.0000000000
10
58.0960807391
20
205.5016934582
30
0.0000000000
11
58.1803188918
21
206.8347961468
31
0.0000000000
11
58.0960807391
21
205.5016934582
31
0.0000000000
0
SPLINE
5
4D3
100
AcDbEntity
8
0
100
AcDbSpline
62
7
6
BYLAYER
70
0
71
3
72
12
73
8
74
6
42
0.0000001000
43
0.0000001000
44
0.0000000001
40
0.0000000000
40
0.0000000000
40
0.0000000000
40
0.0000000000
40
0.2046259833
40
0.4189927297
40
0.6323073194
40
0.8340341390
40
1.0000000000
40
1.0000000000
40
1.0000000000
40
1.0000000000
10
184.1721598017
20
244.7339766071
30
0.0000000000
10
184.2017335521
20
244.2888954322
30
0.0000000000
10
184.1408414092
20
243.3672017452
30
0.0000000000
10
183.7489905838
20
242.0357029967
30
0.0000000000
10
183.0892126933
20
240.8200298449
30
0.0000000000
10
182.2462128492
20
239.8602545462
30
0.0000000000
10
181.5729141852
20
239.4019732436
30
0.0000000000
10
181.2458370573
20
239.2468631012
30
0.0000000000
11
184.1721598017
21
244.7339766071
31
0.0000000000
11
184.0948495505
21
243.3980238176
31
0.0000000000
11
183.7022936691
21
242.0522179307
31
0.0000000000
11
183.0329182622
21
240.8282958036
31
0.0000000000
11
182.1522464585
21
239.8460634615
31
0.0000000000
11
181.2458370573
21
239.2468631012
31
0.0000000000
0
SPLINE
5
4D4
100
AcDbEntity
8
0
100
AcDbSpline
62
7
6
BYLAYER
70
0
71
3
72
8
73
4
74
2
42
0.0000001000
43
0.0000001000
44
0.0000000001
40
0.0000000000
40
0.0000000000
40
0.0000000000
40
0.0000000000
40
1.0000000000
40
1.0000000000
40
1.0000000000
40
1.0000000000
10
181.2458370573
20
239.2468631012
30
0.0000000000
10
181.2129519701
20
239.2312679704
30
0.0000000000
10
181.1798326676
20
239.2161959153
30
0.0000000000
10
181.1464845501
20
239.2016686496
30
0.0000000000
11
181.2458370573
21
239.2468631012
31
0.0000000000
11
181.1464845501
21
239.2016686496
31
0.0000000000
0
SPLINE
5
4D5
100
AcDbEntity
8
0
100
AcDbSpline
62
7
6
BYLAYER
70
0
71
3
72
9
73
5
74
3
42
0.0000001000
43
0.0000001000
44
0.0000000001
40
0.0000000000
40
0.0000000000
40
0.0000000000
40
0.0000000000
40
0.6402823070
40
1.0000000000
40
1.0000000000
40
1.0000000000
40
1.0000000000
10
62.6796015163
20
193.4051268692
30
0.0000000000
10
62.4218722534
20
193.3123566823
30
0.0000000000
10
62.0029972923
20
193.2073367245
30
0.0000000000
10
61.5734548624
20
193.1831858051
30
0.0000000000
10
61.4192450878
20
193.1864925451
30
0.0000000000
11
62.6796015163
21
193.4051268692
31
0.0000000000
11
61.8811025497
21
193.2110250274
31
0.0000000000
11
61.4192450878
21
193.1864925451
31
0.0000000000
0
SPLINE
5
4D6
100
AcDbEntity
8
0
100
AcDbSpline
62
7
6
BYLAYER
70
0
71
3
72
9
73
5
74
3
42
0.0000001000
43
0.0000001000
44
0.0000000001
40
0.0000000000
40
0.0000000000
40
0.0000000000
40
0.0000000000
40
0.2942549585
40
1.0000000000
40
1.0000000000
40
1.0000000000
40
1.0000000000
10
61.4192450878
20
193.1864925451
30
0.0000000000
10
61.3209657652
20
193.1885999612
30
0.0000000000
10
60.9873919399
20
193.2123176176
30
0.0000000000
10
60.6602813259
20
193.2968728821
30
0.0000000000
10
60.4438095597
20
193.3912777560
30
0.0000000000
11
61.4192450878
21
193.1864925451
31
0.0000000000
11
61.1252138845
21
193.2078257211
31
0.0000000000
11
60.4438095597
21
193.3912777560
31
0.0000000000
0
SPLINE
5
4D7
100
AcDbEntity
8
0
100
AcDbSpline
62
7
6
BYLAYER
70
0
71
3
72
10
73
6
74
4
42
0.0000001000
43
0.0000001000
44
0.0000000001
40
0.0000000000
40
0.0000000000
40
0.0000000000
40
0.0000000000
40
0.3206737460
40
0.6597146180
40
1.0000000000
40
1.0000000000
40
1.0000000000
40
1.0000000000
10
181.8382263825
20
244.9506652747
30
0.0000000000
10
181.8916066298
20
244.4973319485
30
0.0000000000
10
181.8638684039
20
243.5459150921
30
0.0000000000
10
181.4841074718
20
242.1622412865
30
0.0000000000
10
181.0229792765
20
241.3023588360
30
0.0000000000
10
180.7439777649
20
240.9050333629
30
0.0000000000
11
181.8382263825
21
244.9506652747
31
0.0000000000
11
181.8120000160
21
243.5815205867
31
0.0000000000
11
181.4339793417
21
242.1839108672
31
0.0000000000
11
180.7439777649
21
240.9050333629
31
0.0000000000
0
SPLINE
5
4D8
100
AcDbEntity
8
0
100
AcDbSpline
62
7
6
BYLAYER
70
0
71
3
72
8
73
4
74
2
42
0.0000001000
43
0.0000001000
44
0.0000000001
40
0.0000000000
40
0.0000000000
40
0.0000000000
40
0.0000000000
40
1.0000000000
40
1.0000000000
40
1.0000000000
40
1.0000000000
10
180.7439777649
20
240.9050333629
30
0.0000000000
10
180.4782715898
20
240.5266417509
30
0.0000000000
10
180.1690175013
20
240.1785458246
30
0.0000000000
10
179.8146667410
20
239.8795803591
30
0.0000000000
11
180.7439777649
21
240.9050333629
31
0.0000000000
11
179.8146667410
21
239.8795803591
31
0.0000000000
0
SPLINE
5
4D9
100
AcDbEntity
8
0
100
AcDbSpline
62
7
6
BYLAYER
70
0
71
3
72
8
73
4
74
2
42
0.0000001000
43
0.0000001000
44
0.0000000001
40
0.0000000000
40
0.0000000000
40
0.0000000000
40
0.0000000000
40
1.0000000000
40
1.0000000000
40
1.0000000000
40
1.0000000000
10
179.8146667410
20
239.8795803591
30
0.0000000000
10
179.7867053900
20
239.8559893887
30
0.0000000000
10
179.7584632410
20
239.8327043330
30
0.0000000000
10
179.7299462966
20
239.8097449589
30
0.0000000000
11
179.8146667410
21
239.8795803591
31
0.0000000000
11
179.7299462966
21
239.8097449589
31
0.0000000000
0
SPLINE
5
4DA
100
AcDbEntity
8
0
100
AcDbSpline
62
7
6
BYLAYER
70
0
71
3
72
9
73
5
74
3
42
0.0000001000
43
0.0000001000
44
0.0000000001
40
0.0000000000
40
0.0000000000
40
0.0000000000
40
0.0000000000
40
0.6410232133
40
1.0000000000
40
1.0000000000
40
1.0000000000
40
1.0000000000
10
59.8548799438
20
201.5724685185
30
0.0000000000
10
59.9028059274
20
201.8805782179
30
0.0000000000
10
59.9366790079
20
202.3691284950
30
0.0000000000
10
59.8919113935
20
202.8555511655
30
0.0000000000
10
59.8641199185
20
203.0282416738
30
0.0000000000
11
59.8548799438
21
201.5724685185
31
0.0000000000
11
59.9139184815
21
202.5060480985
31
0.0000000000
11
59.8641199185
21
203.0282416738
31
0.0000000000
0
SPLINE
5
4DB
100
AcDbEntity
8
0
100
AcDbSpline
62
7
6
BYLAYER
70
0
71
3
72
10
73
6
74
4
42
0.0000001000
43
0.0000001000
44
0.0000000001
40
0.0000000000
40
0.0000000000
40
0.0000000000
40
0.0000000000
40
0.2636962963
40
0.8836021424
40
1.0000000000
40
1.0000000000
40
1.0000000000
40
1.0000000000
10
59.8641199185
20
203.0282416738
30
0.0000000000
10
59.8465888056
20
203.1371764024
30
0.0000000000
10
59.7722167091
20
203.4996331313
30
0.0000000000
10
59.6237194768
20
203.8948462318
30
0.0000000000
10
59.4653258069
20
204.1604035251
30
0.0000000000
10
59.4390581948
20
204.2016093705
30
0.0000000000
11
59.8641199185
21
203.0282416738
31
0.0000000000
11
59.7971362444
21
203.3523350280
31
0.0000000000
11
59.5141789244
21
204.0758070410
31
0.0000000000
11
59.4390581948
21
204.2016093705
31
0.0000000000
0
SPLINE
5
4DC
100
AcDbEntity
8
0
100
AcDbSpline
62
7
6
BYLAYER
70
0
71
3
72
9
73
5
74
3
42
0.0000001000
43
0.0000001000
44
0.0000000001
40
0.0000000000
40
0.0000000000
40
0.0000000000
40
0.0000000000
40
0.4866497317
40
1.0000000000
40
1.0000000000
40
1.0000000000
40
1.0000000000
10
59.4390581948
20
204.2016093705
30
0.0000000000
10
59.3364032086
20
204.3626436315
30
0.0000000000
10
59.0869187269
20
204.6692401929
30
0.0000000000
10
58.7576806430
20
204.8909142290
30
0.0000000000
10
58.5764605336
20
204.9788414741
30
0.0000000000
11
59.4390581948
21
204.2016093705
31
0.0000000000
11
59.0746922134
21
204.6409418716
31
0.0000000000
11
58.5764605336
21
204.9788414741
31
0.0000000000
0
SPLINE
5
4DD
100
AcDbEntity
8
0
100
AcDbSpline
62
7
6
BYLAYER
70
0
71
3
72
8
73
4
74
2
42
0.0000001000
43
0.0000001000
44
0.0000000001
40
0.0000000000
40
0.0000000000
40
0.0000000000
40
0.0000000000
40
1.0000000000
40
1.0000000000
40
1.0000000000
40
1.0000000000
10
180.0975812978
20
254.8173011495
30
0.0000000000
10
180.4252305510
20
254.9600332765
30
0.0000000000
10
180.7809271893
20
255.0530867170
30
0.0000000000
10
181.1411187274
20
255.0634069636
30
0.0000000000
11
180.0975812978
21
254.8173011495
31
0.0000000000
11
181.1411187274
21
255.0634069636
31
0.0000000000
0
SPLINE
5
4DE
100
AcDbEntity
8
0
100
AcDbSpline
62
7
6
BYLAYER
70
0
71
3
72
8
73
4
74
2
42
0.0000001000
43
0.0000001000
44
0.0000000001
40
0.0000000000
40
0.0000000000
40
0.0000000000
40
0.0000000000
40
1.0000000000
40
1.0000000000
40
1.0000000000
40
1.0000000000
10
181.1411187274
20
255.0634069636
30
0.0000000000
10
181.4383879375
20
255.0719243529
30
0.0000000000
10
181.7387187786
20
255.0240893136
30
0.0000000000
10
182.0153507780
20
254.9167768783
30
0.0000000000
11
181.1411187274
21
255.0634069636
31
0.0000000000
11
182.0153507780
21
254.9167768783
31
0.0000000000
0
SPLINE
5
4DF
100
AcDbEntity
8
0
100
AcDbSpline
62
7
6
BYLAYER
70
0
71
3
72
11
73
7
74
5
42
0.0000001000
43
0.0000001000
44
0.0000000001
40
0.0000000000
40
0.0000000000
40
0.0000000000
40
0.0000000000
40
0.2805204372
40
0.5664832681
40
0.8714665621
40
1.0000000000
40
1.0000000000
40
1.0000000000
40
1.0000000000
10
60.4438095597
20
193.3912777560
30
0.0000000000
10
60.2362120423
20
193.4818125071
30
0.0000000000
10
59.8437149941
20
193.7291140478
30
0.0000000000
10
59.4013621276
20
194.2880310023
30
0.0000000000
10
59.1828940469
20
194.8307213913
30
0.0000000000
10
59.1065398112
20
195.1718313035
30
0.0000000000
10
59.0884353268
20
195.2737874281
30
0.0000000000
11
60.4438095597
21
193.3912777560
31
0.0000000000
11
59.8732222233
21
193.7551869557
31
0.0000000000
11
59.4392391032
21
194.2914593283
31
0.0000000000
11
59.1566760080
21
194.9708007458
31
0.0000000000
11
59.0884353268
21
195.2737874281
31
0.0000000000
0
SPLINE
5
4E0
100
AcDbEntity
8
0
100
AcDbSpline
62
7
6
BYLAYER
70
0
71
3
72
9
73
5
74
3
42
0.0000001000
43
0.0000001000
44
0.0000000001
40
0.0000000000
40
0.0000000000
40
0.0000000000
40
0.0000000000
40
0.3603908000
40
1.0000000000
40
1.0000000000
40
1.0000000000
40
1.0000000000
10
59.0884353268
20
195.2737874281
30
0.0000000000
10
59.0599443207
20
195.4342356627
30
0.0000000000
10
59.0120437129
20
195.8850795049
30
0.0000000000
10
59.0408140796
20
196.3389486281
30
0.0000000000
10
59.0851844907
20
196.6242000301
30
0.0000000000
11
59.0884353268
21
195.2737874281
31
0.0000000000
11
59.0353765873
21
195.7595885368
31
0.0000000000
11
59.0851844907
21
196.6242000301
31
0.0000000000
0
SPLINE
5
4E1
100
AcDbEntity
8
0
100
AcDbSpline
62
7
6
BYLAYER
70
0
71
3
72
9
73
5
74
3
42
0.0000001000
43
0.0000001000
44
0.0000000001
40
0.0000000000
40
0.0000000000
40
0.0000000000
40
0.0000000000
40
0.2502688883
40
1.0000000000
40
1.0000000000
40
1.0000000000
40
1.0000000000
10
230.2759403259
20
167.0966641151
30
0.0000000000
10
229.6311618932
20
167.1635731688
30
0.0000000000
10
227.0467009966
20
167.3460588474
30
0.0000000000
10
224.4383378201
20
167.1880809062
30
0.0000000000
10
222.5209638454
20
166.8801949800
30
0.0000000000
11
230.2759403259
21
167.0966641151
31
0.0000000000
11
228.3360444746
21
167.2335893704
31
0.0000000000
11
222.5209638454
21
166.8801949800
31
0.0000000000
0
SPLINE
5
4E2
100
AcDbEntity
8
0
100
AcDbSpline
62
7
6
BYLAYER
70
0
71
3
72
8
73
4
74
2
42
0.0000001000
43
0.0000001000
44
0.0000000001
40
0.0000000000
40
0.0000000000
40
0.0000000000
40
0.0000000000
40
1.0000000000
40
1.0000000000
40
1.0000000000
40
1.0000000000
10
216.9938322921
20
165.9926654526
30
0.0000000000
10
214.0771366937
20
165.5243115802
30
0.0000000000
10
211.1137787816
20
165.2879234453
30
0.0000000000
10
208.1597191066
20
165.2879234453
30
0.0000000000
11
216.9938322921
21
165.9926654526
31
0.0000000000
11
208.1597191066
21
165.2879234453
31
0.0000000000
0
SPLINE
5
4E3
100
AcDbEntity
8
0
100
AcDbSpline
62
7
6
BYLAYER
70
0
71
3
72
8
73
4
74
2
42
0.0000001000
43
0.0000001000
44
0.0000000001
40
0.0000000000
40
0.0000000000
40
0.0000000000
40
0.0000000000
40
1.0000000000
40
1.0000000000
40
1.0000000000
40
1.0000000000
10
208.1597191066
20
165.2879234453
30
0.0000000000
10
205.7122287404
20
165.2879234453
30
0.0000000000
10
203.2647501162
20
165.2980740145
30
0.0000000000
10
200.8172597420
20
165.3010496264
30
0.0000000000
11
208.1597191066
21
165.2879234453
31
0.0000000000
11
200.8172597420
21
165.3010496264
31
0.0000000000
0
SPLINE
5
4E4
100
AcDbEntity
8
0
100
AcDbSpline
62
7
6
BYLAYER
70
0
71
3
72
8
73
4
74
2
42
0.0000001000
43
0.0000001000
44
0.0000000001
40
0.0000000000
40
0.0000000000
40
0.0000000000
40
0.0000000000
40
1.0000000000
40
1.0000000000
40
1.0000000000
40
1.0000000000
10
208.1597191066
20
168.6799428394
30
0.0000000000
10
205.7090754046
20
168.6799428394
30
0.0000000000
10
203.2584600947
20
168.6972337090
30
0.0000000000
10
200.8078183187
20
168.7010562759
30
0.0000000000
11
208.1597191066
21
168.6799428394
31
0.0000000000
11
200.8078183187
21
168.7010562759
31
0.0000000000
0
SPLINE
5
4E5
100
AcDbEntity
8
0
100
AcDbSpline
62
7
6
BYLAYER
70
0
71
3
72
9
73
5
74
3
42
0.0000001000
43
0.0000001000
44
0.0000000001
40
0.0000000000
40
0.0000000000
40
0.0000000000
40
0.0000000000
40
0.2502688883
40
1.0000000000
40
1.0000000000
40
1.0000000000
40
1.0000000000
10
230.6276928147
20
170.4876008259
30
0.0000000000
10
229.9087463770
20
170.5622063389
30
0.0000000000
10
227.0269983832
20
170.7656831022
30
0.0000000000
10
224.1185986619
20
170.5895331687
30
0.0000000000
10
221.9806717109
20
170.2462315342
30
0.0000000000
11
230.6276928147
21
170.4876008259
31
0.0000000000
11
228.4646533255
21
170.6402764110
31
0.0000000000
11
221.9806717109
21
170.2462315342
31
0.0000000000
0
SPLINE
5
4E6
100
AcDbEntity
8
0
100
AcDbSpline
62
7
6
BYLAYER
70
0
71
3
72
8
73
4
74
2
42
0.0000001000
43
0.0000001000
44
0.0000000001
40
0.0000000000
40
0.0000000000
40
0.0000000000
40
0.0000000000
40
1.0000000000
40
1.0000000000
40
1.0000000000
40
1.0000000000
10
216.4535401576
20
169.3587020068
30
0.0000000000
10
213.7152289264
20
168.9189925392
30
0.0000000000
10
210.9331092369
20
168.6970618430
30
0.0000000000
10
208.1597191066
20
168.6970618430
30
0.0000000000
11
216.4535401576
21
169.3587020068
31
0.0000000000
11
208.1597191066
21
168.6970618430
31
0.0000000000
0
SPLINE
5
4E7
100
AcDbEntity
8
0
100
AcDbSpline
62
7
6
BYLAYER
70
0
71
3
72
8
73
4
74
2
42
0.0000001000
43
0.0000001000
44
0.0000000001
40
0.0000000000
40
0.0000000000
40
0.0000000000
40
0.0000000000
40
1.0000000000
40
1.0000000000
40
1.0000000000
40
1.0000000000
10
208.1597191066
20
168.6970618430
30
0.0000000000
10
205.7106564673
20
168.6970618430
30
0.0000000000
10
203.2615947958
20
168.7006255171
30
0.0000000000
10
200.8125322724
20
168.7010521968
30
0.0000000000
11
208.1597191066
21
168.6970618430
31
0.0000000000
11
200.8125322724
21
168.7010521968
31
0.0000000000
0
ENDSEC
0
SECTION
2
OBJECTS
0
DICTIONARY
5
4E8
100
AcDbDictionary
3
ACAD_GROUP
350
4E9
3
ACAD_MLINESTYLE
350
4EA
0
DICTIONARY
5
4E9
102
{ACAD_REACTORS
330
4E8
102
}
100
AcDbDictionary
0
DICTIONARY
5
4EA
102
{ACAD_REACTORS
330
4E8
102
}
100
AcDbDictionary
3
STANDARD
350
4EB
0
MLINESTYLE
5
4EB
102
{ACAD_REACTORS
330
4EA
102
}
100
AcDbMlineStyle
2
STANDARD
70
0
3

62
256
51
90.0
52
90.0
71
2
49
0.5
62
256
6
BYLAYER
49
-0.5
62
256
6
BYLAYER
0
ENDSEC
0
EOF
