999
DXF file: td-1002-966.dxf
999
Pro/ENGINEER 2003060 by Parametric Technology Corporation
0
SECTION
2
HEADER
9
$ACADVER
1
AC1014
9
$HANDSEED
5
       4EA
9
$EXTMAX
10
420.0000000000
20
297.0000000000
9
$EXTMIN
10
0.0000000000
20
0.0000000000
9
$LIMMIN
10
0.0000000000
20
0.0000000000
9
$LIMMAX
10
420.0000000000
20
297.0000000000
9
$VIEWCTR
10
210.0000000000
20
148.5000000000
9
$VIEWSIZE
40
297.0000000000
9
$CLAYER
8
0
9
$LTSCALE
40
23.1000000000
9
$CELTYPE
6
BYLAYER
9
$DIMSCALE
40
1
9
$DIMASZ
40
5.0000000000
9
$DIMEXO
40
2.6250000000
9
$DIMDLI
40
15.9600000000
9
$DIMEXE
40
7.5600000000
9
$DIMCEN
40
3.7800000000
9
$DIMLFAC
40
1.0000000000
9
$DIMTXT
40
4.0000000000
9
$DIMTOL
70
1
9
$DIMLIM
70
0
9
$DIMTFAC
40
1.0000000000
9
$DIMTP
40
0.0100000000
9
$DIMTM
40
0.0100000000
0
ENDSEC
0
SECTION
2
CLASSES
0
ENDSEC
0
SECTION
2
TABLES
0
TABLE
2
VPORT
5
8
100
AcDbSymbolTable
70
2
0
VPORT
5
1F4
100
AcDbSymbolTableRecord
100
AcDbViewportTableRecord
2
*ACTIVE
70
0
10
0.0
20
0.0
11
1.0
21
1.0
12
210.0000000000
22
148.5000000000
13
0.0
23
0.0
14
1.0
24
1.0
15
0.0
25
0.0
16
0.0
26
0.0
36
1.0
17
0.0
27
0.0
37
0.0
40
297.0000000000
41
1.4141414141
42
50.0
43
0.0
44
0.0
50
0.0
51
0.0
71
0
72
100
73
1
74
1
75
0
76
0
77
0
78
0
0
ENDTAB
0
TABLE
2
LTYPE
5
5
100
AcDbSymbolTable
70
6
0
LTYPE
5
14
100
AcDbSymbolTableRecord
100
AcDbLinetypeTableRecord
2
BYBLOCK
70
0
3

72
65
73
0
40
0.0
0
LTYPE
5
15
100
AcDbSymbolTableRecord
100
AcDbLinetypeTableRecord
2
BYLAYER
70
0
3

72
65
73
0
40
0.0
0
LTYPE
5
16
100
AcDbSymbolTableRecord
100
AcDbLinetypeTableRecord
2
CONTINUOUS
70
64
3
Solid line
72
65
73
0
40
0
0
LTYPE
5
1F5
100
AcDbSymbolTableRecord
100
AcDbLinetypeTableRecord
2
CENTER
70
64
3
____ _ ____ _ ____ _ ____ _ ____ _ ____ _ ____
72
65
73
4
40
0.6
49
0.375
74
0
49
-0.075
74
0
49
0.075
74
0
49
-0.075
74
0
0
LTYPE
5
1F6
100
AcDbSymbolTableRecord
100
AcDbLinetypeTableRecord
2
HIDDEN
70
64
3
- - - - - - - - - - - - - - - - - - - -
72
65
73
2
40
0.2
49
0.1
74
0
49
-0.1
74
0
0
LTYPE
5
1F7
100
AcDbSymbolTableRecord
100
AcDbLinetypeTableRecord
2
PHANTOM
70
64
3
_____ _ _ _____ _ _ _____ _ _ _____
72
65
73
6
40
0.8
49
0.45
74
0
49
-0.05
74
0
49
0.1
74
0
49
-0.05
74
0
49
0.1
74
0
49
-0.05
74
0
0
LTYPE
5
1F8
100
AcDbSymbolTableRecord
100
AcDbLinetypeTableRecord
2
DOT
70
64
3
. . . . . . . . . . . . . . . . . . . .
72
65
73
2
40
0.2
49
0.1
74
0
49
-0.1
74
0
0
LTYPE
5
1F9
100
AcDbSymbolTableRecord
100
AcDbLinetypeTableRecord
2
DASHED
70
64
3
- - - - - - - - - - - - - - - - - - - -
72
65
73
2
40
0.2
49
0.1
74
0
49
-0.1
74
0
0
ENDTAB
0
TABLE
2
LAYER
5
2
100
AcDbSymbolTable
70
36
0
LAYER
5
10
100
AcDbSymbolTableRecord
100
AcDbLayerTableRecord
2
0
70
0
62
7
6
CONTINUOUS
0
LAYER
5
1FA
100
AcDbSymbolTableRecord
100
AcDbLayerTableRecord
2
DEFAULT_1
70
0
62
7
6
CENTER
0
LAYER
5
1FB
100
AcDbSymbolTableRecord
100
AcDbLayerTableRecord
2
DEFAULT_2
70
0
62
7
6
HIDDEN
0
LAYER
5
1FC
100
AcDbSymbolTableRecord
100
AcDbLayerTableRecord
2
DEFAULT_3
70
0
62
7
6
PHANTOM
0
LAYER
5
1FD
100
AcDbSymbolTableRecord
100
AcDbLayerTableRecord
2
AXIS
70
0
62
7
6
CONTINUOUS
0
LAYER
5
1FE
100
AcDbSymbolTableRecord
100
AcDbLayerTableRecord
2
CSYS
70
0
62
7
6
CONTINUOUS
0
LAYER
5
1FF
100
AcDbSymbolTableRecord
100
AcDbLayerTableRecord
2
CURVES
70
0
62
7
6
CONTINUOUS
0
LAYER
5
200
100
AcDbSymbolTableRecord
100
AcDbLayerTableRecord
2
DTMS
70
0
62
7
6
CONTINUOUS
0
LAYER
5
201
100
AcDbSymbolTableRecord
100
AcDbLayerTableRecord
2
GEOM
70
0
62
7
6
CONTINUOUS
0
LAYER
5
202
100
AcDbSymbolTableRecord
100
AcDbLayerTableRecord
2
PLANES
70
0
62
7
6
CONTINUOUS
0
LAYER
5
203
100
AcDbSymbolTableRecord
100
AcDbLayerTableRecord
2
POINTS
70
0
62
7
6
CONTINUOUS
0
LAYER
5
204
100
AcDbSymbolTableRecord
100
AcDbLayerTableRecord
2
SKELETON
70
0
62
7
6
CONTINUOUS
0
ENDTAB
0
TABLE
2
STYLE
5
3
100
AcDbSymbolTable
70
1
0
STYLE
5
11
100
AcDbSymbolTableRecord
100
AcDbTextStyleTableRecord
2
STANDARD
70
0
40
0.0
41
0.8000000000
50
0.0
71
0
42
0.2
3
txt
4

0
STYLE
5
205
100
AcDbSymbolTableRecord
100
AcDbTextStyleTableRecord
2
TEXTSTYLE_1
70
0
40
0.0
41
0.8000000000
50
0.0
71
0
42
0.2
3
txt
4

0
STYLE
5
206
100
AcDbSymbolTableRecord
100
AcDbTextStyleTableRecord
2
TEXTSTYLE_2
70
0
40
0.0
41
0.8000000000
50
0.0
71
0
42
0.2
3
cgtime.ttf
4

0
ENDTAB
0
TABLE
2
VIEW
5
6
100
AcDbSymbolTable
70
0
0
ENDTAB
0
TABLE
2
UCS
5
7
100
AcDbSymbolTable
70
0
0
ENDTAB
0
TABLE
2
APPID
5
9
100
AcDbSymbolTable
70
1
0
APPID
5
207
100
AcDbSymbolTableRecord
100
AcDbRegAppTableRecord
2
ACAD
70
0
0
ENDTAB
0
TABLE
2
DIMSTYLE
5
A
100
AcDbSymbolTable
70
1
0
DIMSTYLE
105
208
100
AcDbSymbolTableRecord
100
AcDbDimStyleTableRecord
2
STANDARD
70
0
3

4

5

6

7

40
1.0
41
5.0000000000
42
0.0625
43
0.38
44
0.18
45
0.0
46
0.0
47
0.0100000000
48
0.0100000000
140
4.0000000000
141
0.09
142
0.0
143
25.4
144
1.0000000000
145
0.0
146
1.0000000000
147
0.09
71
1
72
0
73
0
74
0
75
0
76
0
77
1
78
8
170
0
171
2
172
0
173
0
174
0
175
0
176
0
177
0
178
0
270
2
271
2
272
2
273
2
274
2
340
11
275
0
280
0
281
0
282
0
283
1
284
8
285
0
286
0
287
3
288
0
0
DIMSTYLE
105
209
100
AcDbSymbolTableRecord
100
AcDbDimStyleTableRecord
2
DIMSTYLE_1
70
0
3

4

5

6

7

40
1.0
41
5.0000000000
42
0.0625
43
0.38
44
0.18
45
0.0
46
0.0
47
0.2000000000
48
0.2000000000
140
4.0000000000
141
0.09
142
0.0
143
25.4
144
1.0000000000
145
0.0
146
1.0000000000
147
0.09
71
0
72
0
73
0
74
0
75
0
76
0
77
1
78
8
170
0
171
2
172
0
173
0
174
0
175
0
176
0
177
0
178
0
270
2
271
2
272
2
273
2
274
2
340
11
275
0
280
0
281
0
282
0
283
1
284
8
285
0
286
0
287
3
288
0
0
DIMSTYLE
105
20A
100
AcDbSymbolTableRecord
100
AcDbDimStyleTableRecord
2
DIMSTYLE_2
70
0
3

4

5

6

7

40
1.0
41
5.0000000000
42
0.0625
43
0.38
44
0.18
45
0.0
46
0.0
47
0.3000000000
48
0.3000000000
140
4.0000000000
141
0.09
142
0.0
143
25.4
144
1.0000000000
145
0.0
146
1.0000000000
147
0.09
71
0
72
0
73
0
74
0
75
0
76
0
77
1
78
8
170
0
171
2
172
0
173
0
174
0
175
0
176
0
177
0
178
0
270
2
271
2
272
2
273
2
274
2
340
11
275
0
280
0
281
0
282
0
283
1
284
8
285
0
286
0
287
3
288
0
0
DIMSTYLE
105
20B
100
AcDbSymbolTableRecord
100
AcDbDimStyleTableRecord
2
DIMSTYLE_3
70
0
3

4

5

6

7

40
1.0
41
5.0000000000
42
0.0625
43
0.38
44
0.18
45
0.0
46
0.0
47
0.5000000000
48
0.5000000000
140
4.0000000000
141
0.09
142
0.0
143
25.4
144
1.0000000000
145
0.0
146
1.0000000000
147
0.09
71
0
72
0
73
0
74
0
75
0
76
0
77
1
78
8
170
0
171
2
172
0
173
0
174
0
175
0
176
0
177
0
178
0
270
2
271
1
272
1
273
2
274
2
340
11
275
0
280
0
281
0
282
0
283
1
284
8
285
0
286
0
287
3
288
0
0
ENDTAB
0
TABLE
2
BLOCK_RECORD
5
1
100
AcDbSymbolTable
70
0
0
BLOCK_RECORD
5
1B
100
AcDbSymbolTableRecord
100
AcDbBlockTableRecord
2
*MODEL_SPACE
0
BLOCK_RECORD
5
1C
100
AcDbSymbolTableRecord
100
AcDbBlockTableRecord
2
*PAPER_SPACE
0
BLOCK_RECORD
5
20C
100
AcDbSymbolTableRecord
100
AcDbBlockTableRecord
2
COPYRIGHT_BL0
0
BLOCK_RECORD
5
20D
100
AcDbSymbolTableRecord
100
AcDbBlockTableRecord
2
MICRO_U_BL1
0
BLOCK_RECORD
5
20E
100
AcDbSymbolTableRecord
100
AcDbBlockTableRecord
2
PROJECTION_BL2
0
BLOCK_RECORD
5
20F
100
AcDbSymbolTableRecord
100
AcDbBlockTableRecord
2
SURFACE_FINISH_BL3
0
BLOCK_RECORD
5
210
100
AcDbSymbolTableRecord
100
AcDbBlockTableRecord
2
*D0
0
BLOCK_RECORD
5
211
100
AcDbSymbolTableRecord
100
AcDbBlockTableRecord
2
*D1
0
BLOCK_RECORD
5
212
100
AcDbSymbolTableRecord
100
AcDbBlockTableRecord
2
*D2
0
BLOCK_RECORD
5
213
100
AcDbSymbolTableRecord
100
AcDbBlockTableRecord
2
*D3
0
BLOCK_RECORD
5
214
100
AcDbSymbolTableRecord
100
AcDbBlockTableRecord
2
*D4
0
BLOCK_RECORD
5
215
100
AcDbSymbolTableRecord
100
AcDbBlockTableRecord
2
*D5
0
BLOCK_RECORD
5
216
100
AcDbSymbolTableRecord
100
AcDbBlockTableRecord
2
*D6
0
BLOCK_RECORD
5
217
100
AcDbSymbolTableRecord
100
AcDbBlockTableRecord
2
*D7
0
BLOCK_RECORD
5
218
100
AcDbSymbolTableRecord
100
AcDbBlockTableRecord
2
*D8
0
BLOCK_RECORD
5
219
100
AcDbSymbolTableRecord
100
AcDbBlockTableRecord
2
*D9
0
BLOCK_RECORD
5
21A
100
AcDbSymbolTableRecord
100
AcDbBlockTableRecord
2
COPYRIGHT_BL4
0
BLOCK_RECORD
5
21B
100
AcDbSymbolTableRecord
100
AcDbBlockTableRecord
2
MICRO_U_BL5
0
BLOCK_RECORD
5
21C
100
AcDbSymbolTableRecord
100
AcDbBlockTableRecord
2
SURFACE_FINISH_BL6
0
BLOCK_RECORD
5
21D
100
AcDbSymbolTableRecord
100
AcDbBlockTableRecord
2
PROJECTION_BL7
0
ENDTAB
0
ENDSEC
0
SECTION
2
BLOCKS
0
BLOCK
5
1E
100
AcDbEntity
8
0
100
AcDbBlockBegin
2
*MODEL_SPACE
70
0
10
0.0
20
0.0
30
0.0
3
*MODEL_SPACE
1

0
ENDBLK
5
1F
100
AcDbEntity
8
0
100
AcDbBlockEnd
0
BLOCK
5
20
100
AcDbEntity
8
0
100
AcDbBlockBegin
2
*PAPER_SPACE
70
0
10
0.0
20
0.0
30
0.0
3
*PAPER_SPACE
1

0
ENDBLK
5
21
100
AcDbEntity
8
0
100
AcDbBlockEnd
0
BLOCK
5
21E
100
AcDbEntity
8
0
100
AcDbBlockBegin
62
7
6
BYLAYER
2
COPYRIGHT_BL0
70
64
10
0.0000000000
20
0.0000000000
3
COPYRIGHT_BL0
1

0
TEXT
5
21F
100
AcDbEntity
8
0
100
AcDbText
62
7
6
BYLAYER
10
409.9593803245
20
9.9568590072
7
TEXTSTYLE_1
40
0.1000000000
1
C
41
0.8000000000
72
0
100
AcDbText
0
CIRCLE
5
220
100
AcDbEntity
8
0
100
AcDbCircle
62
7
6
BYLAYER
10
409.9943527832
20
10.0069663115
40
0.0753936874
0
ENDBLK
5
221
100
AcDbEntity
8
0
100
AcDbBlockEnd
0
BLOCK
5
222
100
AcDbEntity
8
0
100
AcDbBlockBegin
62
7
6
BYLAYER
2
MICRO_U_BL1
70
64
10
0.0000000000
20
0.0000000000
3
MICRO_U_BL1
1

0
TEXT
5
223
100
AcDbEntity
8
0
100
AcDbText
62
7
6
BYLAYER
10
409.9173172813
20
9.9658183152
7
STANDARD
40
0.1000000000
1
um
41
0.8000000000
72
0
100
AcDbText
0
ARC
5
224
100
AcDbEntity
8
0
100
AcDbCircle
62
7
6
BYLAYER
10
409.8795565990
20
9.9804558390
40
0.0627552936
100
AcDbArc
50
303.7730668774
51
1.5957171757
0
ENDBLK
5
225
100
AcDbEntity
8
0
100
AcDbBlockEnd
0
BLOCK
5
226
100
AcDbEntity
8
0
100
AcDbBlockBegin
62
7
6
BYLAYER
2
PROJECTION_BL2
70
64
10
0.0000000000
20
0.0000000000
3
PROJECTION_BL2
1

0
LINE
5
227
100
AcDbEntity
8
0
100
AcDbLine
62
7
6
BYLAYER
10
409.6178469936
20
9.9332236616
11
409.6178469936
21
10.0582236616
0
LINE
5
228
100
AcDbEntity
8
0
100
AcDbLine
62
7
6
BYLAYER
10
409.6178469936
20
10.0582236616
11
409.7928469936
21
10.1207236616
0
LINE
5
229
100
AcDbEntity
8
0
100
AcDbLine
62
7
6
BYLAYER
10
409.7928469936
20
10.1207236616
11
409.7928469936
21
9.8707236616
0
LINE
5
22A
100
AcDbEntity
8
0
100
AcDbLine
62
7
6
BYLAYER
10
409.7928469936
20
9.8707236616
11
409.6178469936
21
9.9332236616
0
ARC
5
22B
100
AcDbEntity
8
0
100
AcDbCircle
62
7
6
BYLAYER
10
409.2678469936
20
9.9957236616
40
0.0625000000
100
AcDbArc
50
180.0000000000
51
360.0000000000
0
ARC
5
22C
100
AcDbEntity
8
0
100
AcDbCircle
62
7
6
BYLAYER
10
409.2678469936
20
9.9957236616
40
0.0625000000
100
AcDbArc
50
0.0000000000
51
180.0000000000
0
ARC
5
22D
100
AcDbEntity
8
0
100
AcDbCircle
62
7
6
BYLAYER
10
409.2678469936
20
9.9957236616
40
0.1250000000
100
AcDbArc
50
180.0000000000
51
360.0000000000
0
ARC
5
22E
100
AcDbEntity
8
0
100
AcDbCircle
62
7
6
BYLAYER
10
409.2678469936
20
9.9957236616
40
0.1250000000
100
AcDbArc
50
0.0000000000
51
180.0000000000
0
LINE
5
22F
100
AcDbEntity
8
0
100
AcDbLine
62
7
6
BYLAYER
10
409.0671219936
20
9.9957236616
11
409.4456219936
21
9.9957236616
0
LINE
5
230
100
AcDbEntity
8
0
100
AcDbLine
62
7
6
BYLAYER
10
409.5241469936
20
9.9957236616
11
409.8669219936
21
9.9957236616
0
LINE
5
231
100
AcDbEntity
8
0
100
AcDbLine
62
7
6
BYLAYER
10
409.2678469936
20
10.1398736616
11
409.2678469936
21
9.8515736616
0
TEXT
5
232
100
AcDbEntity
8
0
100
AcDbText
62
7
6
BYLAYER
10
409.2283663134
20
9.9568432128
7
STANDARD
40
0.1000000000
1
l
41
0.8000000000
72
0
100
AcDbText
0
ENDBLK
5
233
100
AcDbEntity
8
0
100
AcDbBlockEnd
0
BLOCK
5
234
100
AcDbEntity
8
0
100
AcDbBlockBegin
62
7
6
BYLAYER
2
SURFACE_FINISH_BL3
70
64
10
0.0000000000
20
0.0000000000
3
SURFACE_FINISH_BL3
1

0
LINE
5
235
100
AcDbEntity
8
0
100
AcDbLine
62
7
6
BYLAYER
10
409.9768652881
20
9.9666906703
11
410.0571314064
21
10.1057156653
0
LINE
5
236
100
AcDbEntity
8
0
100
AcDbLine
62
7
6
BYLAYER
10
409.9768652881
20
9.9666906703
11
409.9405459599
21
10.0295975921
0
LINE
5
237
100
AcDbEntity
8
0
100
AcDbLine
62
7
6
BYLAYER
10
409.9405459599
20
10.0295975921
11
410.0131846164
21
10.0295975921
0
TEXT
5
238
100
AcDbEntity
8
0
100
AcDbText
62
7
6
BYLAYER
10
409.9369531437
20
9.9795701528
7
STANDARD
40
0.1000000000
1
-
41
0.8000000000
72
0
100
AcDbText
0
ENDBLK
5
239
100
AcDbEntity
8
0
100
AcDbBlockEnd
0
BLOCK
5
23A
100
AcDbEntity
8
0
100
AcDbBlockBegin
62
7
6
BYLAYER
2
*D0
70
65
10
0.0000000000
20
0.0000000000
3
*D0
1

0
TEXT
5
23B
100
AcDbEntity
8
0
100
AcDbText
62
7
6
BYLAYER
10
88.3774689248
20
212.1995498634
7
STANDARD
40
4.0000000000
1
27.8
50
90.0000000000
41
0.8000000000
72
0
100
AcDbText
0
LINE
5
23C
100
AcDbEntity
8
0
100
AcDbLine
62
7
6
BYLAYER
10
107.6328084910
20
229.8778539990
11
86.3774689248
21
229.8778539990
0
LINE
5
23D
100
AcDbEntity
8
0
100
AcDbLine
62
7
6
BYLAYER
10
107.6328084910
20
202.0778539990
11
86.3774689248
21
202.0778539990
0
LINE
5
23E
100
AcDbEntity
8
0
100
AcDbLine
62
7
6
BYLAYER
10
89.3774689248
20
229.8778539990
11
89.3774689248
21
215.9778539990
0
LINE
5
23F
100
AcDbEntity
8
0
100
AcDbLine
62
7
6
BYLAYER
10
89.3774689248
20
202.0778539990
11
89.3774689248
21
215.9778539990
0
SOLID
5
240
100
AcDbEntity
8
0
100
AcDbTrace
62
7
6
BYLAYER
10
90.1774689248
20
224.8778539990
11
89.3774689248
21
229.8778539990
12
88.5774689248
22
224.8778539990
13
88.5774689248
23
224.8778539990
0
SOLID
5
241
100
AcDbEntity
8
0
100
AcDbTrace
62
7
6
BYLAYER
10
88.5774689248
20
207.0778539990
11
89.3774689248
21
202.0778539990
12
90.1774689248
22
207.0778539990
13
90.1774689248
23
207.0778539990
0
ENDBLK
5
242
100
AcDbEntity
8
0
100
AcDbBlockEnd
0
BLOCK
5
243
100
AcDbEntity
8
0
100
AcDbBlockBegin
62
7
6
BYLAYER
2
*D1
70
65
10
0.0000000000
20
0.0000000000
3
*D1
1

0
TEXT
5
244
100
AcDbEntity
8
0
100
AcDbText
62
7
6
BYLAYER
10
123.5336369533
20
180.5022584238
7
STANDARD
40
4.0000000000
1
40
41
0.8000000000
72
0
100
AcDbText
0
LINE
5
245
100
AcDbEntity
8
0
100
AcDbLine
62
7
6
BYLAYER
10
149.6328084910
20
200.0778539990
11
149.6328084910
21
176.5022584238
0
LINE
5
246
100
AcDbEntity
8
0
100
AcDbLine
62
7
6
BYLAYER
10
109.6328084910
20
200.0778539990
11
109.6328084910
21
176.5022584238
0
LINE
5
247
100
AcDbEntity
8
0
100
AcDbLine
62
7
6
BYLAYER
10
149.6328084910
20
179.5022584238
11
129.6328084910
21
179.5022584238
0
LINE
5
248
100
AcDbEntity
8
0
100
AcDbLine
62
7
6
BYLAYER
10
109.6328084910
20
179.5022584238
11
129.6328084910
21
179.5022584238
0
SOLID
5
249
100
AcDbEntity
8
0
100
AcDbTrace
62
7
6
BYLAYER
10
144.6328084910
20
178.7022584238
11
149.6328084910
21
179.5022584238
12
144.6328084910
22
180.3022584238
13
144.6328084910
23
180.3022584238
0
SOLID
5
24A
100
AcDbEntity
8
0
100
AcDbTrace
62
7
6
BYLAYER
10
114.6328084910
20
180.3022584238
11
109.6328084910
21
179.5022584238
12
114.6328084910
22
178.7022584238
13
114.6328084910
23
178.7022584238
0
ENDBLK
5
24B
100
AcDbEntity
8
0
100
AcDbBlockEnd
0
BLOCK
5
24C
100
AcDbEntity
8
0
100
AcDbBlockBegin
62
7
6
BYLAYER
2
*D2
70
65
10
0.0000000000
20
0.0000000000
3
*D2
1

0
TEXT
5
24D
100
AcDbEntity
8
0
100
AcDbText
62
7
6
BYLAYER
10
239.7157138583
20
202.9838292586
7
STANDARD
40
4.0000000000
1
59.9%%d
50
65.7715869148
41
0.7733333333
72
0
100
AcDbText
0
LINE
5
24E
100
AcDbEntity
8
0
100
AcDbLine
62
7
6
BYLAYER
10
221.9773366237
20
211.4262435337
11
235.1621826066
21
188.6844470616
0
LINE
5
24F
100
AcDbEntity
8
0
100
AcDbLine
62
7
6
BYLAYER
10
217.6859773273
20
222.2778539990
11
254.5168872025
21
222.2778539990
0
ARC
5
250
100
AcDbEntity
8
0
100
AcDbCircle
62
7
6
BYLAYER
10
215.6859773273
20
222.2778539990
40
35.8309098752
100
AcDbArc
50
300.1035595263
51
330.0517797631
0
ARC
5
251
100
AcDbEntity
8
0
100
AcDbCircle
62
7
6
BYLAYER
10
215.6859773273
20
222.2778539990
40
35.8309098752
100
AcDbArc
50
330.0517797631
51
360.0000000000
0
SOLID
5
252
100
AcDbEntity
8
0
100
AcDbTrace
62
7
6
BYLAYER
10
233.6574891543
20
191.2798078486
11
237.3492064503
21
194.7455290443
12
238.2462568180
22
193.4206514507
13
238.2462568180
23
193.4206514507
0
SOLID
5
253
100
AcDbEntity
8
0
100
AcDbTrace
62
7
6
BYLAYER
10
251.5168872025
20
222.2778539990
11
251.9663629099
21
217.2342469972
12
250.3702558537
22
217.3457918998
13
250.3702558537
23
217.3457918998
0
ENDBLK
5
254
100
AcDbEntity
8
0
100
AcDbBlockEnd
0
BLOCK
5
255
100
AcDbEntity
8
0
100
AcDbBlockBegin
62
7
6
BYLAYER
2
*D3
70
65
10
0.0000000000
20
0.0000000000
3
*D3
1

0
TEXT
5
256
100
AcDbEntity
8
0
100
AcDbText
62
7
6
BYLAYER
10
275.0997217694
20
98.1067488503
7
STANDARD
40
4.0000000000
1
69.9%%d
50
62.9877143499
41
0.7733333333
72
0
100
AcDbText
0
LINE
5
257
100
AcDbEntity
8
0
100
AcDbLine
62
7
6
BYLAYER
10
266.1361859842
20
110.1377413544
11
277.2355526951
21
90.9930703409
0
LINE
5
258
100
AcDbEntity
8
0
100
AcDbLine
62
7
6
BYLAYER
10
279.6975431308
20
114.4360937412
11
288.8959667774
21
116.0580240101
0
ARC
5
259
100
AcDbEntity
8
0
100
AcDbCircle
62
7
6
BYLAYER
10
265.1330570160
20
111.8679818790
40
21.1294909476
100
AcDbArc
50
300.1035595263
51
335.0517797631
0
ARC
5
25A
100
AcDbEntity
8
0
100
AcDbCircle
62
7
6
BYLAYER
10
265.1330570160
20
111.8679818790
40
21.1294909476
100
AcDbArc
50
335.0517797631
51
10.0000000000
0
SOLID
5
25B
100
AcDbEntity
8
0
100
AcDbTrace
62
7
6
BYLAYER
10
275.7308592427
20
93.5884311278
11
279.2500468395
21
97.2292165732
12
280.2103324650
22
95.9494308421
13
280.2103324650
23
95.9494308421
0
SOLID
5
25C
100
AcDbEntity
8
0
100
AcDbTrace
62
7
6
BYLAYER
10
285.9415435184
20
115.5370794771
11
287.0212062069
21
110.5899259037
12
285.4237336317
22
110.5000294554
13
285.4237336317
23
110.5000294554
0
ENDBLK
5
25D
100
AcDbEntity
8
0
100
AcDbBlockEnd
0
BLOCK
5
25E
100
AcDbEntity
8
0
100
AcDbBlockBegin
62
7
6
BYLAYER
2
*D4
70
65
10
0.0000000000
20
0.0000000000
3
*D4
1

0
TEXT
5
25F
100
AcDbEntity
8
0
100
AcDbText
62
7
6
BYLAYER
10
332.4927071450
20
112.5578826237
7
STANDARD
40
4.0000000000
1
60%%d
50
82.6186882822
41
0.7555555556
72
0
100
AcDbText
0
LINE
5
260
100
AcDbEntity
8
0
100
AcDbLine
62
7
6
BYLAYER
10
320.2166713910
20
108.7641097169
11
331.0247892982
21
95.8617714230
0
LINE
5
261
100
AcDbEntity
8
0
100
AcDbLine
62
7
6
BYLAYER
10
312.8317235752
20
120.2785437372
11
341.7837132534
21
125.3835606627
0
ARC
5
262
100
AcDbEntity
8
0
100
AcDbCircle
62
7
6
BYLAYER
10
310.8621080692
20
119.9312473819
40
28.3986207863
100
AcDbArc
50
309.9524624737
51
339.9762312369
0
ARC
5
263
100
AcDbEntity
8
0
100
AcDbCircle
62
7
6
BYLAYER
10
310.8621080692
20
119.9312473819
40
28.3986207863
100
AcDbArc
50
339.9762312369
51
10.0000000000
0
SOLID
5
264
100
AcDbEntity
8
0
100
AcDbTrace
62
7
6
BYLAYER
10
329.0983338625
20
98.1615038975
11
332.0684436046
21
102.2625340266
12
333.1997423785
22
101.1310911053
13
333.1997423785
23
101.1310911053
0
SOLID
5
265
100
AcDbEntity
8
0
100
AcDbTrace
62
7
6
BYLAYER
10
338.8292899943
20
124.8626161297
11
340.0582621789
21
119.9504244224
12
338.4642443141
22
119.8121961817
13
338.4642443141
23
119.8121961817
0
ENDBLK
5
266
100
AcDbEntity
8
0
100
AcDbBlockEnd
0
BLOCK
5
267
100
AcDbEntity
8
0
100
AcDbBlockBegin
62
7
6
BYLAYER
2
*D5
70
65
10
0.0000000000
20
0.0000000000
3
*D5
1

0
TEXT
5
268
100
AcDbEntity
8
0
100
AcDbText
62
7
6
BYLAYER
10
322.4226880959
20
139.4696442499
7
STANDARD
40
4.0000000000
1
60%%d
50
-50.2185187787
41
0.7555555556
72
0
100
AcDbText
0
LINE
5
269
100
AcDbEntity
8
0
100
AcDbLine
62
7
6
BYLAYER
10
308.2954294226
20
119.4786726857
11
328.1610962918
21
122.9815257445
0
LINE
5
26A
100
AcDbEntity
8
0
100
AcDbLine
62
7
6
BYLAYER
10
308.5758140146
20
129.3555122476
11
312.8911168333
21
141.1903158021
0
ARC
5
26B
100
AcDbEntity
8
0
100
AcDbCircle
62
7
6
BYLAYER
10
304.7462498435
20
118.8528565665
40
20.7760581969
100
AcDbArc
50
10.0000000000
51
39.9833597820
0
ARC
5
26C
100
AcDbEntity
8
0
100
AcDbCircle
62
7
6
BYLAYER
10
304.7462498435
20
118.8528565665
40
20.7760581969
100
AcDbArc
50
39.9833597820
51
69.9667195640
0
SOLID
5
26D
100
AcDbEntity
8
0
100
AcDbTrace
62
7
6
BYLAYER
10
325.2066730328
20
122.4605812115
11
322.9881522677
21
127.0123023821
12
324.5190990674
22
127.4772775390
13
324.5190990674
23
127.4772775390
0
SOLID
5
26E
100
AcDbEntity
8
0
100
AcDbTrace
62
7
6
BYLAYER
10
311.8634191061
20
138.3718344057
11
316.6836044480
21
136.8207659771
12
315.9590184626
22
135.3942404254
13
315.9590184626
23
135.3942404254
0
ENDBLK
5
26F
100
AcDbEntity
8
0
100
AcDbBlockEnd
0
BLOCK
5
270
100
AcDbEntity
8
0
100
AcDbBlockBegin
62
7
6
BYLAYER
2
*D6
70
65
10
0.0000000000
20
0.0000000000
3
*D6
1

0
TEXT
5
271
100
AcDbEntity
8
0
100
AcDbText
62
7
6
BYLAYER
10
325.9163314667
20
155.0179143268
7
STANDARD
40
4.0000000000
1
60%%d
50
-45.8099346415
41
0.7555555556
72
0
100
AcDbText
0
LINE
5
272
100
AcDbEntity
8
0
100
AcDbLine
62
7
6
BYLAYER
10
309.1085435095
20
119.6220466376
11
339.5547714163
21
124.9905380784
0
LINE
5
273
100
AcDbEntity
8
0
100
AcDbLine
62
7
6
BYLAYER
10
307.2124501372
20
155.6199420028
11
309.2144306562
21
161.1293814907
0
ARC
5
274
100
AcDbEntity
8
0
100
AcDbCircle
62
7
6
BYLAYER
10
293.1065041119
20
116.8004553455
40
44.1648066968
100
AcDbArc
50
10.0000000000
51
40.0151157278
0
ARC
5
275
100
AcDbEntity
8
0
100
AcDbCircle
62
7
6
BYLAYER
10
293.1065041119
20
116.8004553455
40
44.1648066968
100
AcDbArc
50
40.0151157278
51
70.0302314557
0
SOLID
5
276
100
AcDbEntity
8
0
100
AcDbTrace
62
7
6
BYLAYER
10
336.6003481572
20
124.4695935454
11
334.6761909854
21
129.1533547667
12
336.2336407105
22
129.5198931057
13
336.2336407105
23
129.5198931057
0
SOLID
5
277
100
AcDbEntity
8
0
100
AcDbTrace
62
7
6
BYLAYER
10
308.1898578229
20
158.3097626319
11
313.1004064968
21
157.0742418021
12
312.4697641824
22
155.6037689967
13
312.4697641824
23
155.6037689967
0
ENDBLK
5
278
100
AcDbEntity
8
0
100
AcDbBlockEnd
0
BLOCK
5
279
100
AcDbEntity
8
0
100
AcDbBlockBegin
62
7
6
BYLAYER
2
*D7
70
65
10
0.0000000000
20
0.0000000000
3
*D7
1

0
TEXT
5
27A
100
AcDbEntity
8
0
100
AcDbText
62
7
6
BYLAYER
10
344.0681819442
20
187.2644651255
7
STANDARD
40
4.0000000000
1
60.4%%d
50
-58.7744431943
41
0.7733333333
72
0
100
AcDbText
0
LINE
5
27B
100
AcDbEntity
8
0
100
AcDbLine
62
7
6
BYLAYER
10
340.9835806701
20
161.6749869745
11
351.3474277938
21
163.4379205739
0
LINE
5
27C
100
AcDbEntity
8
0
100
AcDbLine
62
7
6
BYLAYER
10
308.0157341947
20
157.8305753554
11
322.5807179716
21
197.9133314058
0
ARC
5
27D
100
AcDbEntity
8
0
100
AcDbCircle
62
7
6
BYLAYER
10
307.3326856392
20
155.9508294495
40
41.6469938567
100
AcDbArc
50
9.6538460000
51
39.8420387278
0
ARC
5
27E
100
AcDbEntity
8
0
100
AcDbCircle
62
7
6
BYLAYER
10
307.3326856392
20
155.9508294495
40
41.6469938567
100
AcDbArc
50
39.8420387278
51
70.0302314557
0
SOLID
5
27F
100
AcDbEntity
8
0
100
AcDbTrace
62
7
6
BYLAYER
10
348.3899111716
20
162.9348346675
11
346.4780289599
21
167.6236198416
12
348.0364334304
22
167.9860774340
13
348.0364334304
23
167.9860774340
0
SOLID
5
280
100
AcDbEntity
8
0
100
AcDbTrace
62
7
6
BYLAYER
10
321.5561451383
20
195.0937125469
11
326.4624368853
21
193.8413941796
12
325.8267660438
22
192.3730881552
13
325.8267660438
23
192.3730881552
0
ENDBLK
5
281
100
AcDbEntity
8
0
100
AcDbBlockEnd
0
BLOCK
5
282
100
AcDbEntity
8
0
100
AcDbBlockBegin
62
7
6
BYLAYER
2
*D8
70
65
10
0.0000000000
20
0.0000000000
3
*D8
1

0
TEXT
5
283
100
AcDbEntity
8
0
100
AcDbText
62
7
6
BYLAYER
10
336.2089633309
20
92.4306453107
7
STANDARD
40
4.0000000000
1
66.6%%d
50
73.5601695235
41
0.7733333333
72
0
100
AcDbText
0
LINE
5
284
100
AcDbEntity
8
0
100
AcDbLine
62
7
6
BYLAYER
10
319.5614097432
20
104.2516391203
11
337.5275922852
21
82.8042634535
0
LINE
5
285
100
AcDbEntity
8
0
100
AcDbLine
62
7
6
BYLAYER
10
329.4114773389
20
109.0992117752
11
347.0092356747
21
114.3376145610
0
ARC
5
286
100
AcDbEntity
8
0
100
AcDbCircle
62
7
6
BYLAYER
10
318.2771061194
20
105.7847941033
40
26.9780921102
100
AcDbArc
50
309.9524624737
51
343.2646927369
0
ARC
5
287
100
AcDbEntity
8
0
100
AcDbCircle
62
7
6
BYLAYER
10
318.2771061194
20
105.7847941033
40
26.9780921102
100
AcDbArc
50
343.2646927369
51
16.5769230000
0
SOLID
5
288
100
AcDbEntity
8
0
100
AcDbTrace
62
7
6
BYLAYER
10
335.6011368495
20
85.1039959280
11
338.5522050850
21
89.2187494163
12
339.6887363083
22
88.0925625852
13
339.6887363083
23
88.0925625852
0
SOLID
5
289
100
AcDbEntity
8
0
100
AcDbTrace
62
7
6
BYLAYER
10
344.1339229848
20
113.4817074779
11
345.8954487526
21
108.7343896068
12
344.3262874440
22
108.4217671705
13
344.3262874440
23
108.4217671705
0
ENDBLK
5
28A
100
AcDbEntity
8
0
100
AcDbBlockEnd
0
BLOCK
5
28B
100
AcDbEntity
8
0
100
AcDbBlockBegin
62
7
6
BYLAYER
2
*D9
70
65
10
0.0000000000
20
0.0000000000
3
*D9
1

0
TEXT
5
28C
100
AcDbEntity
8
0
100
AcDbText
62
7
6
BYLAYER
10
332.4610630914
20
177.0806054713
7
STANDARD
40
4.0000000000
1
60%%d
50
-40.4758483420
41
0.7555555556
72
0
100
AcDbText
0
LINE
5
28D
100
AcDbEntity
8
0
100
AcDbLine
62
7
6
BYLAYER
10
318.7825303819
20
145.6980702195
11
346.1594434103
21
150.5253586349
0
LINE
5
28E
100
AcDbEntity
8
0
100
AcDbLine
62
7
6
BYLAYER
10
311.0603979398
20
146.0946302941
11
322.8228115283
21
178.3532828140
0
ARC
5
28F
100
AcDbEntity
8
0
100
AcDbCircle
62
7
6
BYLAYER
10
310.3752661217
20
144.2156426965
40
33.3362059033
100
AcDbArc
50
10.0000000000
51
39.9833597820
0
ARC
5
290
100
AcDbEntity
8
0
100
AcDbCircle
62
7
6
BYLAYER
10
310.3752661217
20
144.2156426965
40
33.3362059033
100
AcDbArc
50
39.9833597820
51
69.9667195640
0
SOLID
5
291
100
AcDbEntity
8
0
100
AcDbTrace
62
7
6
BYLAYER
10
343.2050201512
20
150.0044141019
11
341.1950710010
21
154.6520053505
12
342.7455181500
22
155.0471175347
13
342.7455181500
23
155.0471175347
0
SOLID
5
292
100
AcDbEntity
8
0
100
AcDbTrace
62
7
6
BYLAYER
10
321.7951138012
20
175.5348014177
11
326.6806432524
21
174.2037860230
12
326.0214544516
22
172.7458868068
13
326.0214544516
23
172.7458868068
0
ENDBLK
5
293
100
AcDbEntity
8
0
100
AcDbBlockEnd
0
BLOCK
5
294
100
AcDbEntity
8
0
100
AcDbBlockBegin
62
7
6
BYLAYER
2
COPYRIGHT_BL4
70
64
10
0.0000000000
20
0.0000000000
3
COPYRIGHT_BL4
1

0
CIRCLE
5
295
100
AcDbEntity
8
0
100
AcDbCircle
62
7
6
BYLAYER
10
368.4166666667
20
59.2552477502
40
2.6387790604
0
ENDBLK
5
296
100
AcDbEntity
8
0
100
AcDbBlockEnd
0
BLOCK
5
297
100
AcDbEntity
8
0
100
AcDbBlockBegin
62
7
6
BYLAYER
2
MICRO_U_BL5
70
64
10
0.0000000000
20
0.0000000000
3
MICRO_U_BL5
1

0
ARC
5
298
100
AcDbEntity
8
0
100
AcDbCircle
62
7
6
BYLAYER
10
115.8029987548
20
24.2743672858
40
1.1407767248
100
AcDbArc
50
303.7730668774
51
1.5957171757
0
ENDBLK
5
299
100
AcDbEntity
8
0
100
AcDbBlockEnd
0
BLOCK
5
29A
100
AcDbEntity
8
0
100
AcDbBlockBegin
62
7
6
BYLAYER
2
SURFACE_FINISH_BL6
70
64
10
0.0000000000
20
0.0000000000
3
SURFACE_FINISH_BL6
1

0
LINE
5
29B
100
AcDbEntity
8
0
100
AcDbLine
62
7
6
BYLAYER
10
97.0309676193
20
12.0901401771
11
99.8402817594
21
16.9560150021
0
LINE
5
29C
100
AcDbEntity
8
0
100
AcDbLine
62
7
6
BYLAYER
10
97.0309676193
20
12.0901401771
11
95.7597911309
21
14.2918824404
0
LINE
5
29D
100
AcDbEntity
8
0
100
AcDbLine
62
7
6
BYLAYER
10
95.7597911309
20
14.2918824404
11
98.3021441078
21
14.2918824404
0
ENDBLK
5
29E
100
AcDbEntity
8
0
100
AcDbBlockEnd
0
BLOCK
5
29F
100
AcDbEntity
8
0
100
AcDbBlockBegin
62
7
6
BYLAYER
2
PROJECTION_BL7
70
64
10
0.0000000000
20
0.0000000000
3
PROJECTION_BL7
1

0
LINE
5
2A0
100
AcDbEntity
8
0
100
AcDbLine
62
7
6
BYLAYER
10
304.4288585399
20
278.0624994947
11
304.4288585399
21
282.4374994947
0
LINE
5
2A1
100
AcDbEntity
8
0
100
AcDbLine
62
7
6
BYLAYER
10
304.4288585399
20
282.4374994947
11
310.5538585399
21
284.6249994947
0
LINE
5
2A2
100
AcDbEntity
8
0
100
AcDbLine
62
7
6
BYLAYER
10
310.5538585399
20
284.6249994947
11
310.5538585399
21
275.8749994947
0
LINE
5
2A3
100
AcDbEntity
8
0
100
AcDbLine
62
7
6
BYLAYER
10
310.5538585399
20
275.8749994947
11
304.4288585399
21
278.0624994947
0
ARC
5
2A4
100
AcDbEntity
8
0
100
AcDbCircle
62
7
6
BYLAYER
10
292.1788585399
20
280.2499994947
40
2.1875000000
100
AcDbArc
50
180.0000000000
51
360.0000000000
0
ARC
5
2A5
100
AcDbEntity
8
0
100
AcDbCircle
62
7
6
BYLAYER
10
292.1788585399
20
280.2499994947
40
2.1875000000
100
AcDbArc
50
0.0000000000
51
180.0000000000
0
ARC
5
2A6
100
AcDbEntity
8
0
100
AcDbCircle
62
7
6
BYLAYER
10
292.1788585399
20
280.2499994947
40
4.3750000000
100
AcDbArc
50
180.0000000000
51
360.0000000000
0
ARC
5
2A7
100
AcDbEntity
8
0
100
AcDbCircle
62
7
6
BYLAYER
10
292.1788585399
20
280.2499994947
40
4.3750000000
100
AcDbArc
50
0.0000000000
51
180.0000000000
0
LINE
5
2A8
100
AcDbEntity
8
0
100
AcDbLine
62
7
6
BYLAYER
10
285.1534835399
20
280.2499994947
11
298.4009835399
21
280.2499994947
0
LINE
5
2A9
100
AcDbEntity
8
0
100
AcDbLine
62
7
6
BYLAYER
10
301.1493585399
20
280.2499994947
11
313.1464835399
21
280.2499994947
0
LINE
5
2AA
100
AcDbEntity
8
0
100
AcDbLine
62
7
6
BYLAYER
10
292.1788585399
20
285.2952494947
11
292.1788585399
21
275.2047494947
0
ENDBLK
5
2AB
100
AcDbEntity
8
0
100
AcDbBlockEnd
0
ENDSEC
0
SECTION
2
ENTITIES
0
INSERT
5
2AC
100
AcDbEntity
8
0
100
AcDbBlockReference
62
7
6
BYLAYER
2
COPYRIGHT_BL0
10
0.0000000000
20
0.0000000000
0
INSERT
5
2AD
100
AcDbEntity
8
0
100
AcDbBlockReference
62
7
6
BYLAYER
2
MICRO_U_BL1
10
0.0000000000
20
0.0000000000
0
INSERT
5
2AE
100
AcDbEntity
8
0
100
AcDbBlockReference
62
7
6
BYLAYER
2
PROJECTION_BL2
10
0.0000000000
20
0.0000000000
0
INSERT
5
2AF
100
AcDbEntity
8
0
100
AcDbBlockReference
62
7
6
BYLAYER
2
SURFACE_FINISH_BL3
10
0.0000000000
20
0.0000000000
0
DIMENSION
5
2B0
100
AcDbEntity
8
0
100
AcDbDimension
62
7
6
BYLAYER
2
*D0
10
89.3774689248
20
202.0778539990
11
86.3774689248
21
218.5995498634
70
160
3
DIMSTYLE_1
100
AcDbAlignedDimension
13
107.6328084910
23
229.8778539990
14
107.6328084910
24
202.0778539990
50
270.000000
100
AcDbRotatedDimension
0
DIMENSION
5
2B1
100
AcDbEntity
8
0
100
AcDbDimension
62
7
6
BYLAYER
2
*D1
10
109.6328084910
20
179.5022584238
11
126.7336369533
21
182.5022584238
70
160
3
DIMSTYLE_2
100
AcDbAlignedDimension
13
149.6328084910
23
200.0778539990
14
109.6328084910
24
200.0778539990
50
180.000000
100
AcDbRotatedDimension
0
DIMENSION
5
2B2
100
AcDbEntity
8
0
100
AcDbDimension
62
7
6
BYLAYER
2
*D2
10
217.6859773273
20
222.2778539990
11
241.0654494427
21
210.8567358564
70
162
3
DIMSTYLE_3
100
AcDb2LineAngularDimension
13
221.9773366237
23
211.4262435337
14
235.1621826066
24
188.6844470616
15
254.5168872025
25
222.2778539990
16
246.7326335328
26
204.3904494654
0
DIMENSION
5
2B3
100
AcDbEntity
8
0
100
AcDbDimension
62
7
6
BYLAYER
2
*D3
10
279.6975431308
20
114.4360937412
11
276.8302407250
21
105.9048094162
70
162
3
DIMSTYLE_3
100
AcDb2LineAngularDimension
13
266.1361859842
23
110.1377413544
14
277.2355526951
24
90.9930703409
15
288.8959667774
25
116.0580240101
16
284.2909413988
26
102.9555830056
0
DIMENSION
5
2B4
100
AcDbEntity
8
0
100
AcDbDimension
62
7
6
BYLAYER
2
*D4
10
312.8317235752
20
120.2785437372
11
331.0916879156
21
117.3105930325
70
162
3
DIMSTYLE_3
100
AcDb2LineAngularDimension
13
320.2166713910
23
108.7641097169
14
331.0247892982
24
95.8617714230
15
341.7837132534
25
125.3835606627
16
337.5440508359
26
110.2072773721
0
DIMENSION
5
2B5
100
AcDbEntity
8
0
100
AcDbDimension
62
7
6
BYLAYER
2
*D5
10
308.5758140146
20
129.3555122476
11
326.8603736172
21
137.2655439062
70
162
3
DIMSTYLE_3
100
AcDb2LineAngularDimension
13
308.2954294226
23
119.4786726857
14
328.1610962918
24
122.9815257445
15
312.8911168333
25
141.1903158021
16
320.6655116327
26
132.2028265397
0
DIMENSION
5
2B6
100
AcDbEntity
8
0
100
AcDbDimension
62
7
6
BYLAYER
2
*D6
10
307.2124501372
20
155.6199420028
11
330.5103126547
21
153.1614531894
70
162
3
DIMSTYLE_3
100
AcDb2LineAngularDimension
13
309.1085435095
23
119.6220466376
14
339.5547714163
24
124.9905380784
15
309.2144306562
25
161.1293814907
16
326.9312182304
26
145.1979704722
0
DIMENSION
5
2B7
100
AcDbEntity
8
0
100
AcDbDimension
62
7
6
BYLAYER
2
*D7
10
308.0157341947
20
157.8305753554
11
349.7874738443
21
181.6882527367
70
162
3
DIMSTYLE_3
100
AcDb2LineAngularDimension
13
340.9835806701
23
161.6749869745
14
351.3474277938
24
163.4379205739
15
322.5807179716
25
197.9133314058
16
339.3098163892
26
182.6329434268
0
DIMENSION
5
2B8
100
AcDbEntity
8
0
100
AcDbDimension
62
7
6
BYLAYER
2
*D8
10
329.4114773389
20
109.0992117752
11
336.4793257452
21
100.4138369412
70
162
3
DIMSTYLE_3
100
AcDb2LineAngularDimension
13
319.5614097432
23
104.2516391203
14
337.5275922852
24
82.8042634535
15
347.0092356747
25
114.3376145610
16
344.1125474349
26
98.0164335339
0
DIMENSION
5
2B9
100
AcDbEntity
8
0
100
AcDbDimension
62
7
6
BYLAYER
2
*D9
10
311.0603979398
20
146.0946302941
11
337.2077324571
21
175.6592536347
70
162
3
DIMSTYLE_3
100
AcDb2LineAngularDimension
13
318.7825303819
23
145.6980702195
14
346.1594434103
24
150.5253586349
15
322.8228115283
25
178.3532828140
16
335.9185036216
26
165.6363252731
0
LINE
5
2BA
100
AcDbEntity
8
0
100
AcDbLine
62
7
6
BYLAYER
10
209.0000000000
20
82.0000000000
11
410.0000000000
21
82.0000000000
0
LINE
5
2BB
100
AcDbEntity
8
0
100
AcDbLine
62
7
6
BYLAYER
10
209.0000000000
20
82.0000000000
11
209.0000000000
21
10.0000000000
0
LINE
5
2BC
100
AcDbEntity
8
0
100
AcDbLine
62
7
6
BYLAYER
10
209.0000000000
20
73.0000000000
11
410.0000000000
21
73.0000000000
0
LINE
5
2BD
100
AcDbEntity
8
0
100
AcDbLine
62
7
6
BYLAYER
10
209.0000000000
20
64.0000000000
11
410.0000000000
21
64.0000000000
0
LINE
5
2BE
100
AcDbEntity
8
0
100
AcDbLine
62
7
6
BYLAYER
10
209.0000000000
20
55.0000000000
11
410.0000000000
21
55.0000000000
0
LINE
5
2BF
100
AcDbEntity
8
0
100
AcDbLine
62
7
6
BYLAYER
10
209.0000000000
20
46.0000000000
11
410.0000000000
21
46.0000000000
0
LINE
5
2C0
100
AcDbEntity
8
0
100
AcDbLine
62
7
6
BYLAYER
10
209.0000000000
20
21.0000000000
11
410.0000000000
21
21.0000000000
0
LINE
5
2C1
100
AcDbEntity
8
0
100
AcDbLine
62
7
6
BYLAYER
10
209.0000000000
20
10.0000000000
11
410.0000000000
21
10.0000000000
0
LINE
5
2C2
100
AcDbEntity
8
0
100
AcDbLine
62
7
6
BYLAYER
10
224.0000000000
20
82.0000000000
11
224.0000000000
21
64.0000000000
0
LINE
5
2C3
100
AcDbEntity
8
0
100
AcDbLine
62
7
6
BYLAYER
10
224.0000000000
20
21.0000000000
11
224.0000000000
21
10.0000000000
0
LINE
5
2C4
100
AcDbEntity
8
0
100
AcDbLine
62
7
6
BYLAYER
10
253.5000000000
20
82.0000000000
11
253.5000000000
21
64.0000000000
0
LINE
5
2C5
100
AcDbEntity
8
0
100
AcDbLine
62
7
6
BYLAYER
10
283.0000000000
20
82.0000000000
11
283.0000000000
21
64.0000000000
0
LINE
5
2C6
100
AcDbEntity
8
0
100
AcDbLine
62
7
6
BYLAYER
10
315.5000000000
20
82.0000000000
11
315.5000000000
21
64.0000000000
0
LINE
5
2C7
100
AcDbEntity
8
0
100
AcDbLine
62
7
6
BYLAYER
10
344.0000000000
20
21.0000000000
11
344.0000000000
21
10.0000000000
0
LINE
5
2C8
100
AcDbEntity
8
0
100
AcDbLine
62
7
6
BYLAYER
10
348.0000000000
20
82.0000000000
11
348.0000000000
21
64.0000000000
0
LINE
5
2C9
100
AcDbEntity
8
0
100
AcDbLine
62
7
6
BYLAYER
10
365.0000000000
20
64.0000000000
11
365.0000000000
21
55.0000000000
0
LINE
5
2CA
100
AcDbEntity
8
0
100
AcDbLine
62
7
6
BYLAYER
10
380.5000000000
20
82.0000000000
11
380.5000000000
21
64.0000000000
0
LINE
5
2CB
100
AcDbEntity
8
0
100
AcDbLine
62
7
6
BYLAYER
10
410.0000000000
20
82.0000000000
11
410.0000000000
21
10.0000000000
0
TEXT
5
2CC
100
AcDbEntity
8
0
100
AcDbText
62
7
6
BYLAYER
10
215.3000000000
20
76.0000000000
7
STANDARD
40
3.0000000000
1
D
41
0.8000000000
72
1
11
216.5000000000
21
76.0000000000
100
AcDbText
0
TEXT
5
2CD
100
AcDbEntity
8
0
100
AcDbText
62
7
6
BYLAYER
10
227.9500000000
20
76.0000000000
7
STANDARD
40
3.0000000000
1
29/MAY/03
41
0.8000000000
72
1
11
238.7500000000
21
76.0000000000
100
AcDbText
0
TEXT
5
2CE
100
AcDbEntity
8
0
100
AcDbText
62
7
6
BYLAYER
10
259.8500000000
20
76.0000000000
7
STANDARD
40
3.0000000000
1
------
41
0.8000000000
72
1
11
267.0500000000
21
76.0000000000
100
AcDbText
0
TEXT
5
2CF
100
AcDbEntity
8
0
100
AcDbText
62
7
6
BYLAYER
10
274.2500000000
20
76.0000000000
7
STANDARD
40
3.0000000000
1
.
41
0.8000000000
72
1
11
275.4500000000
21
76.0000000000
100
AcDbText
0
TEXT
5
2D0
100
AcDbEntity
8
0
100
AcDbText
62
7
6
BYLAYER
10
289.6500000000
20
76.0000000000
7
STANDARD
40
3.0000000000
1
J NOVISS
41
0.8000000000
72
1
11
299.2500000000
21
76.0000000000
100
AcDbText
0
TEXT
5
2D1
100
AcDbEntity
8
0
100
AcDbText
62
7
6
BYLAYER
10
329.3500000000
20
76.0000000000
7
STANDARD
40
3.0000000000
1
IW
41
0.8000000000
72
1
11
331.7500000000
21
76.0000000000
100
AcDbText
0
TEXT
5
2D2
100
AcDbEntity
8
0
100
AcDbText
62
7
6
BYLAYER
10
361.8500000000
20
76.0000000000
7
STANDARD
40
3.0000000000
1
DG
41
0.8000000000
72
1
11
364.2500000000
21
76.0000000000
100
AcDbText
0
TEXT
5
2D3
100
AcDbEntity
8
0
100
AcDbText
62
7
6
BYLAYER
10
391.6500000000
20
76.0000000000
7
STANDARD
40
3.0000000000
1
REL
41
0.8000000000
72
1
11
395.2500000000
21
76.0000000000
100
AcDbText
0
TEXT
5
2D4
100
AcDbEntity
8
0
100
AcDbText
62
7
6
BYLAYER
10
210.5000000000
20
67.0000000000
7
STANDARD
40
3.0000000000
1
ISSUE
41
0.8000000000
72
1
11
216.5000000000
21
67.0000000000
100
AcDbText
0
TEXT
5
2D5
100
AcDbEntity
8
0
100
AcDbText
62
7
6
BYLAYER
10
227.9500000000
20
67.0000000000
7
STANDARD
40
3.0000000000
1
DATE APPD
41
0.8000000000
72
1
11
238.7500000000
21
67.0000000000
100
AcDbText
0
TEXT
5
2D6
100
AcDbEntity
8
0
100
AcDbText
62
7
6
BYLAYER
10
258.6500000000
20
67.0000000000
7
STANDARD
40
3.0000000000
1
MOD. No.
41
0.8000000000
72
1
11
268.2500000000
21
67.0000000000
100
AcDbText
0
TEXT
5
2D7
100
AcDbEntity
8
0
100
AcDbText
62
7
6
BYLAYER
10
290.8500000000
20
67.0000000000
7
STANDARD
40
3.0000000000
1
DRN. BY
41
0.8000000000
72
1
11
299.2500000000
21
67.0000000000
100
AcDbText
0
TEXT
5
2D8
100
AcDbEntity
8
0
100
AcDbText
62
7
6
BYLAYER
10
322.1500000000
20
67.0000000000
7
STANDARD
40
3.0000000000
1
CHKD BY.
41
0.8000000000
72
1
11
331.7500000000
21
67.0000000000
100
AcDbText
0
TEXT
5
2D9
100
AcDbEntity
8
0
100
AcDbText
62
7
6
BYLAYER
10
354.6500000000
20
67.0000000000
7
STANDARD
40
3.0000000000
1
APPD BY.
41
0.8000000000
72
1
11
364.2500000000
21
67.0000000000
100
AcDbText
0
TEXT
5
2DA
100
AcDbEntity
8
0
100
AcDbText
62
7
6
BYLAYER
10
388.0500000000
20
67.0000000000
7
STANDARD
40
3.0000000000
1
STATUS
41
0.8000000000
72
1
11
395.2500000000
21
67.0000000000
100
AcDbText
0
TEXT
5
2DB
100
AcDbEntity
8
0
100
AcDbText
62
7
6
BYLAYER
10
210.4000000000
20
57.5000000000
7
STANDARD
40
4.0000000000
1
USED ON
41
0.8000000000
72
0
100
AcDbText
0
TEXT
5
2DC
100
AcDbEntity
8
0
100
AcDbText
62
7
6
BYLAYER
10
254.9000000000
20
57.5000000000
7
STANDARD
40
4.0000000000
1
 
41
0.8000000000
72
0
100
AcDbText
0
INSERT
5
2DD
100
AcDbEntity
8
0
100
AcDbBlockReference
62
7
6
BYLAYER
2
COPYRIGHT_BL4
10
0.0000000000
20
0.0000000000
0
TEXT
5
2DE
100
AcDbEntity
8
0
100
AcDbText
62
7
6
BYLAYER
10
371.0554457271
20
57.3835313102
7
TEXTSTYLE_1
40
5.0000000000
1
 CLRC
41
0.7800000000
72
1
11
380.8054457271
21
57.3835313102
100
AcDbText
0
TEXT
5
2DF
100
AcDbEntity
8
0
100
AcDbText
62
7
6
BYLAYER
10
390.5554457271
20
57.3835313102
7
TEXTSTYLE_1
40
5.0000000000
1
 
41
0.8000000000
72
1
11
392.5554457271
21
57.3835313102
100
AcDbText
0
TEXT
5
2E0
100
AcDbEntity
8
0
100
AcDbText
62
7
6
BYLAYER
10
394.5554457271
20
57.3835313102
7
TEXTSTYLE_1
40
5.0000000000
1
2002
41
0.7333333333
72
1
11
401.8887790604
21
57.3835313102
100
AcDbText
0
TEXT
5
2E1
100
AcDbEntity
8
0
100
AcDbText
62
7
6
BYLAYER
10
367.1926306113
20
57.5014920980
7
TEXTSTYLE_1
40
3.5000000000
1
C
41
0.8000000000
72
0
100
AcDbText
0
TEXT
5
2E2
100
AcDbEntity
8
0
100
AcDbText
62
7
6
BYLAYER
10
210.4000000000
20
48.5000000000
7
TEXTSTYLE_1
40
3.0000000000
1
CENTRAL LABORATORY OF THE RESEARCH COUNCILS
41
0.7620155039
72
0
100
AcDbText
0
TEXT
5
2E3
100
AcDbEntity
8
0
100
AcDbText
62
7
6
BYLAYER
10
308.7000000000
20
48.5000000000
7
STANDARD
40
4.0000000000
1
 
41
0.8000000000
72
0
100
AcDbText
0
TEXT
5
2E4
100
AcDbEntity
8
0
100
AcDbText
62
7
6
BYLAYER
10
311.9000000000
20
48.5000000000
7
STANDARD
40
2.0000000000
1
RUTHERFORD APPLETON LABORATORY, CHILTON, OXON OX110QX
41
0.8000000000
72
0
100
AcDbText
0
TEXT
5
2E5
100
AcDbEntity
8
0
100
AcDbText
62
7
6
BYLAYER
10
210.4000000000
20
41.5000000000
7
STANDARD
40
3.0000000000
1
TITLE
41
0.8000000000
72
0
100
AcDbText
0
TEXT
5
2E6
100
AcDbEntity
8
0
100
AcDbText
62
7
6
BYLAYER
10
271.0000000000
20
36.5000000000
7
TEXTSTYLE_1
40
6.0000000000
1
POWER TAPE W8
41
0.9871794872
72
1
11
309.5000000000
21
36.5000000000
100
AcDbText
0
TEXT
5
2E7
100
AcDbEntity
8
0
100
AcDbText
62
7
6
BYLAYER
10
269.0625000000
20
27.5000000000
7
TEXTSTYLE_1
40
6.0000000000
1
WHEELS 2,3,4,5,6,
41
0.7928921569
72
1
11
309.5000000000
21
27.5000000000
100
AcDbText
0
TEXT
5
2E8
100
AcDbEntity
8
0
100
AcDbText
62
7
6
BYLAYER
10
210.4000000000
20
24.2500000000
7
STANDARD
40
4.0000000000
1
ATLAS_ID
41
0.8000000000
72
0
100
AcDbText
0
TEXT
5
2E9
100
AcDbEntity
8
0
100
AcDbText
62
7
6
BYLAYER
10
389.4000000000
20
24.2500000000
7
STANDARD
40
4.0000000000
1
TDL008
41
0.8000000000
72
2
11
408.6000000000
21
24.2500000000
100
AcDbText
0
TEXT
5
2EA
100
AcDbEntity
8
0
100
AcDbText
62
7
6
BYLAYER
10
211.1333333333
20
12.0000000000
7
TEXTSTYLE_1
40
7.0000000000
1
A3
41
0.7666666667
72
1
11
216.5000000000
21
12.0000000000
100
AcDbText
0
TEXT
5
2EB
100
AcDbEntity
8
0
100
AcDbText
62
7
6
BYLAYER
10
225.4000000000
20
12.0000000000
7
TEXTSTYLE_1
40
5.0000000000
1
 
41
1.0000000000
72
0
100
AcDbText
0
TEXT
5
2EC
100
AcDbEntity
8
0
100
AcDbText
62
7
6
BYLAYER
10
230.4000000000
20
12.0000000000
7
TEXTSTYLE_1
40
7.0000000000
1
TD-1002-966
41
0.7992424242
72
0
100
AcDbText
0
TEXT
5
2ED
100
AcDbEntity
8
0
100
AcDbText
62
7
6
BYLAYER
10
345.4000000000
20
16.7500000000
7
STANDARD
40
2.5000000000
1
SHEET
41
0.8000000000
72
0
100
AcDbText
0
TEXT
5
2EE
100
AcDbEntity
8
0
100
AcDbText
62
7
6
BYLAYER
10
366.7666666667
20
12.0000000000
7
STANDARD
40
3.0000000000
1
 
41
0.8000000000
72
1
11
367.9666666667
21
12.0000000000
100
AcDbText
0
TEXT
5
2EF
100
AcDbEntity
8
0
100
AcDbText
62
7
6
BYLAYER
10
369.1666666667
20
12.0000000000
7
TEXTSTYLE_1
40
7.0000000000
1
1
41
0.3333333333
72
1
11
370.3333333333
21
12.0000000000
100
AcDbText
0
TEXT
5
2F0
100
AcDbEntity
8
0
100
AcDbText
62
7
6
BYLAYER
10
371.5000000000
20
12.0000000000
7
STANDARD
40
4.0000000000
1
 OF 
41
0.8000000000
72
1
11
377.9000000000
21
12.0000000000
100
AcDbText
0
TEXT
5
2F1
100
AcDbEntity
8
0
100
AcDbText
62
7
6
BYLAYER
10
384.3000000000
20
12.0000000000
7
TEXTSTYLE_1
40
7.0000000000
1
1
41
0.3333333333
72
1
11
385.4666666667
21
12.0000000000
100
AcDbText
0
TEXT
5
2F2
100
AcDbEntity
8
0
100
AcDbText
62
7
6
BYLAYER
10
386.6333333333
20
12.0000000000
7
STANDARD
40
4.0000000000
1
     
41
0.8000000000
72
1
11
394.6333333333
21
12.0000000000
100
AcDbText
0
TEXT
5
2F3
100
AcDbEntity
8
0
100
AcDbText
62
7
6
BYLAYER
10
402.6333333333
20
12.0000000000
7
TEXTSTYLE_1
40
7.0000000000
1
D
41
0.8000000000
72
1
11
405.4333333333
21
12.0000000000
100
AcDbText
0
LINE
5
2F4
100
AcDbEntity
8
0
100
AcDbLine
62
7
6
BYLAYER
10
20.0371621622
20
45.9172297297
11
209.0371621622
21
45.9172297297
0
LINE
5
2F5
100
AcDbEntity
8
0
100
AcDbLine
62
7
6
BYLAYER
10
20.0371621622
20
45.9172297297
11
20.0371621622
21
9.9172297297
0
LINE
5
2F6
100
AcDbEntity
8
0
100
AcDbLine
62
7
6
BYLAYER
10
20.0371621622
20
27.9172297297
11
209.0371621622
21
27.9172297297
0
LINE
5
2F7
100
AcDbEntity
8
0
100
AcDbLine
62
7
6
BYLAYER
10
20.0371621622
20
9.9172297297
11
209.0371621622
21
9.9172297297
0
LINE
5
2F8
100
AcDbEntity
8
0
100
AcDbLine
62
7
6
BYLAYER
10
83.0371621622
20
45.9172297297
11
83.0371621622
21
9.9172297297
0
LINE
5
2F9
100
AcDbEntity
8
0
100
AcDbLine
62
7
6
BYLAYER
10
146.0371621622
20
45.9172297297
11
146.0371621622
21
9.9172297297
0
LINE
5
2FA
100
AcDbEntity
8
0
100
AcDbLine
62
7
6
BYLAYER
10
209.0371621622
20
45.9172297297
11
209.0371621622
21
9.9172297297
0
TEXT
5
2FB
100
AcDbEntity
8
0
100
AcDbText
62
7
6
BYLAYER
10
21.4371621622
20
41.6672297297
7
STANDARD
40
2.5000000000
1
TOLERANCES UNLESS STATED
41
0.8000000000
72
0
100
AcDbText
0
TEXT
5
2FC
100
AcDbEntity
8
0
100
AcDbText
62
7
6
BYLAYER
10
84.4371621622
20
41.6672297297
7
STANDARD
40
2.5000000000
1
FINISH
41
0.8000000000
72
0
100
AcDbText
0
TEXT
5
2FD
100
AcDbEntity
8
0
100
AcDbText
62
7
6
BYLAYER
10
147.4371621622
20
41.6672297297
7
STANDARD
40
2.5000000000
1
ORIGINAL SCALE
41
0.8000000000
72
0
100
AcDbText
0
TEXT
5
2FE
100
AcDbEntity
8
0
100
AcDbText
62
7
6
BYLAYER
10
44.9871621622
20
34.1672297297
7
STANDARD
40
3.0000000000
1
%%p
41
1.1666666667
72
1
11
46.7371621622
21
34.1672297297
100
AcDbText
0
TEXT
5
2FF
100
AcDbEntity
8
0
100
AcDbText
62
7
6
BYLAYER
10
48.4871621622
20
34.1672297297
7
STANDARD
40
3.0000000000
1
 
41
0.8000000000
72
1
11
49.6871621622
21
34.1672297297
100
AcDbText
0
TEXT
5
300
100
AcDbEntity
8
0
100
AcDbText
62
7
6
BYLAYER
10
50.8871621622
20
34.1672297297
7
STANDARD
40
3.0000000000
1
 mm
41
0.8000000000
72
1
11
54.4871621622
21
34.1672297297
100
AcDbText
0
TEXT
5
301
100
AcDbEntity
8
0
100
AcDbText
62
7
6
BYLAYER
10
46.3871621622
20
29.6672297297
7
STANDARD
40
3.0000000000
1
%%p
41
1.1666666667
72
1
11
48.1371621622
21
29.6672297297
100
AcDbText
0
TEXT
5
302
100
AcDbEntity
8
0
100
AcDbText
62
7
6
BYLAYER
10
49.8871621622
20
29.6672297297
7
STANDARD
40
3.0000000000
1
 
41
0.8000000000
72
1
11
51.0871621622
21
29.6672297297
100
AcDbText
0
TEXT
5
303
100
AcDbEntity
8
0
100
AcDbText
62
7
6
BYLAYER
10
52.2871621622
20
29.6672297297
7
STANDARD
40
3.0000000000
1
 %%d
41
0.7333333333
72
1
11
54.4871621622
21
29.6672297297
100
AcDbText
0
TEXT
5
304
100
AcDbEntity
8
0
100
AcDbText
62
7
6
BYLAYER
10
102.5371621622
20
34.1672297297
7
STANDARD
40
3.0000000000
1
SEE NOTE 3
41
0.8000000000
72
1
11
114.5371621622
21
34.1672297297
100
AcDbText
0
TEXT
5
305
100
AcDbEntity
8
0
100
AcDbText
62
7
6
BYLAYER
10
95.3371621622
20
29.6672297297
7
STANDARD
40
3.0000000000
1
REMOVE ALL BURRS
41
0.8000000000
72
1
11
114.5371621622
21
29.6672297297
100
AcDbText
0
TEXT
5
306
100
AcDbEntity
8
0
100
AcDbText
62
7
6
BYLAYER
10
173.9371621622
20
34.1672297297
7
STANDARD
40
3.0000000000
1
1:1
41
0.8000000000
72
1
11
177.5371621622
21
34.1672297297
100
AcDbText
0
TEXT
5
307
100
AcDbEntity
8
0
100
AcDbText
62
7
6
BYLAYER
10
163.1371621622
20
29.6672297297
7
STANDARD
40
3.0000000000
1
DO NOT SCALE
41
0.8000000000
72
1
11
177.5371621622
21
29.6672297297
100
AcDbText
0
TEXT
5
308
100
AcDbEntity
8
0
100
AcDbText
62
7
6
BYLAYER
10
21.4371621622
20
23.6672297297
7
STANDARD
40
2.5000000000
1
MATERIAL 
41
0.8000000000
72
0
100
AcDbText
0
TEXT
5
309
100
AcDbEntity
8
0
100
AcDbText
62
7
6
BYLAYER
10
39.4371621622
20
23.6672297297
7
STANDARD
40
2.5000000000
1
& SPEC.
41
0.8000000000
72
0
100
AcDbText
0
INSERT
5
30A
100
AcDbEntity
8
0
100
AcDbBlockReference
62
7
6
BYLAYER
2
MICRO_U_BL5
10
0.0000000000
20
0.0000000000
0
TEXT
5
30B
100
AcDbEntity
8
0
100
AcDbText
62
7
6
BYLAYER
10
84.4371621622
20
24.0083581219
7
STANDARD
40
2.5000000000
1
SURFACE TEXTURE 
41
0.8000000000
72
0
100
AcDbText
0
TEXT
5
30C
100
AcDbEntity
8
0
100
AcDbText
62
7
6
BYLAYER
10
116.4894190556
20
24.0082838118
7
STANDARD
40
1.8178175258
1
um
41
0.8000000000
72
0
100
AcDbText
0
TEXT
5
30D
100
AcDbEntity
8
0
100
AcDbText
62
7
6
BYLAYER
10
43.1371621622
20
16.1672297297
7
STANDARD
40
3.0000000000
1
-------
41
0.8000000000
72
1
11
51.5371621622
21
16.1672297297
100
AcDbText
0
TEXT
5
30E
100
AcDbEntity
8
0
100
AcDbText
62
7
6
BYLAYER
10
39.5371621622
20
11.6672297297
7
STANDARD
40
3.0000000000
1
SEE NOTE 3
41
0.8000000000
72
1
11
51.5371621622
21
11.6672297297
100
AcDbText
0
INSERT
5
30F
100
AcDbEntity
8
0
100
AcDbBlockReference
62
7
6
BYLAYER
2
SURFACE_FINISH_BL6
10
0.0000000000
20
0.0000000000
0
TEXT
5
310
100
AcDbEntity
8
0
100
AcDbText
62
7
6
BYLAYER
10
102.5371621622
20
18.5810150021
7
STANDARD
40
3.0000000000
1
SEE NOTE 3
41
0.8000000000
72
1
11
114.5371621622
21
18.5810150021
100
AcDbText
0
TEXT
5
311
100
AcDbEntity
8
0
100
AcDbText
62
7
6
BYLAYER
10
99.8402817594
20
11.6672297297
7
STANDARD
40
3.0000000000
1
 UNLESS STATED
41
0.8000000000
72
1
11
116.6402817594
21
11.6672297297
100
AcDbText
0
TEXT
5
312
100
AcDbEntity
8
0
100
AcDbText
62
7
6
BYLAYER
10
95.6340425649
20
12.5409220665
7
STANDARD
40
3.5000000000
1
-
41
0.8000000000
72
0
100
AcDbText
0
LINE
5
313
100
AcDbEntity
8
0
100
AcDbLine
62
7
6
BYLAYER
10
10.0000000000
20
10.0000000000
11
10.0000000000
21
116.2000000000
0
LINE
5
314
100
AcDbEntity
8
0
100
AcDbLine
62
7
6
BYLAYER
10
10.0000000000
20
10.0000000000
11
20.0000000000
21
10.0000000000
0
LINE
5
315
100
AcDbEntity
8
0
100
AcDbLine
62
7
6
BYLAYER
10
20.0000000000
20
10.0000000000
11
20.0000000000
21
116.2000000000
0
LINE
5
316
100
AcDbEntity
8
0
100
AcDbLine
62
7
6
BYLAYER
10
10.0000000000
20
25.0000000000
11
20.0000000000
21
25.0000000000
0
LINE
5
317
100
AcDbEntity
8
0
100
AcDbLine
62
7
6
BYLAYER
10
10.0000000000
20
78.2000000000
11
20.0000000000
21
78.2000000000
0
LINE
5
318
100
AcDbEntity
8
0
100
AcDbLine
62
7
6
BYLAYER
10
10.0000000000
20
106.2000000000
11
20.0000000000
21
106.2000000000
0
LINE
5
319
100
AcDbEntity
8
0
100
AcDbLine
62
7
6
BYLAYER
10
10.0000000000
20
116.2000000000
11
20.0000000000
21
116.2000000000
0
TEXT
5
31A
100
AcDbEntity
8
0
100
AcDbText
62
7
6
BYLAYER
10
17.5000000000
20
12.5000000000
7
STANDARD
40
5.0000000000
1
A3
50
90.0000000000
41
1.0000000000
72
1
11
17.5000000000
21
17.5000000000
100
AcDbText
0
TEXT
5
31B
100
AcDbEntity
8
0
100
AcDbText
62
7
6
BYLAYER
10
17.5000000000
20
26.4000000000
7
TEXTSTYLE_1
40
5.0000000000
1
 
50
90.0000000000
41
1.0000000000
72
0
100
AcDbText
0
TEXT
5
31C
100
AcDbEntity
8
0
100
AcDbText
62
7
6
BYLAYER
10
17.5000000000
20
31.4000000000
7
TEXTSTYLE_1
40
5.0000000000
1
TD-1002-966
50
90.0000000000
41
0.7992424242
72
0
100
AcDbText
0
TEXT
5
31D
100
AcDbEntity
8
0
100
AcDbText
62
7
6
BYLAYER
10
16.5000000000
20
79.6000000000
7
TEXTSTYLE_1
40
3.0000000000
1
Sheet 
50
90.0000000000
41
0.6666666667
72
0
100
AcDbText
0
TEXT
5
31E
100
AcDbEntity
8
0
100
AcDbText
62
7
6
BYLAYER
10
16.5000000000
20
91.6000000000
7
TEXTSTYLE_1
40
3.0000000000
1
1
50
90.0000000000
41
0.3333333333
72
0
100
AcDbText
0
TEXT
5
31F
100
AcDbEntity
8
0
100
AcDbText
62
7
6
BYLAYER
10
16.5000000000
20
92.6000000000
7
TEXTSTYLE_1
40
3.0000000000
1
 OF 
50
90.0000000000
41
0.7833333333
72
0
100
AcDbText
0
TEXT
5
320
100
AcDbEntity
8
0
100
AcDbText
62
7
6
BYLAYER
10
16.5000000000
20
102.0000000000
7
TEXTSTYLE_1
40
3.0000000000
1
1
50
90.0000000000
41
0.3333333333
72
0
100
AcDbText
0
TEXT
5
321
100
AcDbEntity
8
0
100
AcDbText
62
7
6
BYLAYER
10
17.5000000000
20
109.2000000000
7
TEXTSTYLE_1
40
5.0000000000
1
D
50
90.0000000000
41
0.8000000000
72
1
11
17.5000000000
21
111.2000000000
100
AcDbText
0
LINE
5
322
100
AcDbEntity
8
0
100
AcDbLine
62
7
6
BYLAYER
10
10.0000000000
20
287.0000000000
11
116.2000000000
21
287.0000000000
0
LINE
5
323
100
AcDbEntity
8
0
100
AcDbLine
62
7
6
BYLAYER
10
10.0000000000
20
287.0000000000
11
10.0000000000
21
277.0000000000
0
LINE
5
324
100
AcDbEntity
8
0
100
AcDbLine
62
7
6
BYLAYER
10
10.0000000000
20
277.0000000000
11
116.2000000000
21
277.0000000000
0
LINE
5
325
100
AcDbEntity
8
0
100
AcDbLine
62
7
6
BYLAYER
10
25.0000000000
20
287.0000000000
11
25.0000000000
21
277.0000000000
0
LINE
5
326
100
AcDbEntity
8
0
100
AcDbLine
62
7
6
BYLAYER
10
78.2000000000
20
287.0000000000
11
78.2000000000
21
277.0000000000
0
LINE
5
327
100
AcDbEntity
8
0
100
AcDbLine
62
7
6
BYLAYER
10
106.2000000000
20
287.0000000000
11
106.2000000000
21
277.0000000000
0
LINE
5
328
100
AcDbEntity
8
0
100
AcDbLine
62
7
6
BYLAYER
10
116.2000000000
20
287.0000000000
11
116.2000000000
21
277.0000000000
0
TEXT
5
329
100
AcDbEntity
8
0
100
AcDbText
62
7
6
BYLAYER
10
12.5000000000
20
279.5000000000
7
STANDARD
40
5.0000000000
1
A3
41
1.0000000000
72
1
11
17.5000000000
21
279.5000000000
100
AcDbText
0
TEXT
5
32A
100
AcDbEntity
8
0
100
AcDbText
62
7
6
BYLAYER
10
26.4000000000
20
279.5000000000
7
TEXTSTYLE_1
40
5.0000000000
1
 
41
1.0000000000
72
0
100
AcDbText
0
TEXT
5
32B
100
AcDbEntity
8
0
100
AcDbText
62
7
6
BYLAYER
10
31.4000000000
20
279.5000000000
7
TEXTSTYLE_1
40
5.0000000000
1
TD-1002-966
41
0.7992424242
72
0
100
AcDbText
0
TEXT
5
32C
100
AcDbEntity
8
0
100
AcDbText
62
7
6
BYLAYER
10
79.6000000000
20
280.5000000000
7
TEXTSTYLE_1
40
3.0000000000
1
Sheet 
41
0.6666666667
72
0
100
AcDbText
0
TEXT
5
32D
100
AcDbEntity
8
0
100
AcDbText
62
7
6
BYLAYER
10
91.6000000000
20
280.5000000000
7
TEXTSTYLE_1
40
3.0000000000
1
1
41
0.3333333333
72
0
100
AcDbText
0
TEXT
5
32E
100
AcDbEntity
8
0
100
AcDbText
62
7
6
BYLAYER
10
92.6000000000
20
280.5000000000
7
TEXTSTYLE_1
40
3.0000000000
1
 OF 
41
0.7833333333
72
0
100
AcDbText
0
TEXT
5
32F
100
AcDbEntity
8
0
100
AcDbText
62
7
6
BYLAYER
10
102.0000000000
20
280.5000000000
7
TEXTSTYLE_1
40
3.0000000000
1
1
41
0.3333333333
72
0
100
AcDbText
0
TEXT
5
330
100
AcDbEntity
8
0
100
AcDbText
62
7
6
BYLAYER
10
109.2000000000
20
279.5000000000
7
TEXTSTYLE_1
40
5.0000000000
1
D
41
0.8000000000
72
1
11
111.2000000000
21
279.5000000000
100
AcDbText
0
LINE
5
331
100
AcDbEntity
8
0
100
AcDbLine
62
7
6
BYLAYER
10
331.0000000000
20
287.0000000000
11
410.0000000000
21
287.0000000000
0
LINE
5
332
100
AcDbEntity
8
0
100
AcDbLine
62
7
6
BYLAYER
10
331.0000000000
20
287.0000000000
11
331.0000000000
21
277.0000000000
0
LINE
5
333
100
AcDbEntity
8
0
100
AcDbLine
62
7
6
BYLAYER
10
331.0000000000
20
277.0000000000
11
410.0000000000
21
277.0000000000
0
LINE
5
334
100
AcDbEntity
8
0
100
AcDbLine
62
7
6
BYLAYER
10
410.0000000000
20
287.0000000000
11
410.0000000000
21
277.0000000000
0
TEXT
5
335
100
AcDbEntity
8
0
100
AcDbText
62
7
6
BYLAYER
10
336.5000000000
20
280.7500000000
7
STANDARD
40
2.5000000000
1
THIS DRAWING CONFORMS TO B.S. 8888
41
0.8000000000
72
1
11
370.5000000000
21
280.7500000000
100
AcDbText
0
LINE
5
336
100
AcDbEntity
8
0
100
AcDbLine
62
7
6
BYLAYER
10
236.4999835399
20
286.9999994947
11
330.9999835399
21
286.9999994947
0
LINE
5
337
100
AcDbEntity
8
0
100
AcDbLine
62
7
6
BYLAYER
10
236.4999835399
20
286.9999994947
11
236.4999835399
21
273.4999994947
0
LINE
5
338
100
AcDbEntity
8
0
100
AcDbLine
62
7
6
BYLAYER
10
236.4999835399
20
273.4999994947
11
330.9999835399
21
273.4999994947
0
LINE
5
339
100
AcDbEntity
8
0
100
AcDbLine
62
7
6
BYLAYER
10
330.9999835399
20
286.9999994947
11
330.9999835399
21
273.4999994947
0
INSERT
5
33A
100
AcDbEntity
8
0
100
AcDbBlockReference
62
7
6
BYLAYER
2
PROJECTION_BL7
10
0.0000000000
20
0.0000000000
0
TEXT
5
33B
100
AcDbEntity
8
0
100
AcDbText
62
7
6
BYLAYER
10
254.3534835399
20
278.9781218886
7
STANDARD
40
3.5000000000
1
PROJECTION 
41
0.8000000000
72
1
11
269.7534835399
21
278.9781218886
100
AcDbText
0
TEXT
5
33C
100
AcDbEntity
8
0
100
AcDbText
62
7
6
BYLAYER
10
290.7970347322
20
278.8891837883
7
STANDARD
40
3.5000000000
1
l
41
0.8000000000
72
0
100
AcDbText
0
LINE
5
33D
100
AcDbEntity
8
0
100
AcDbLine
62
7
6
BYLAYER
10
159.0509538372
20
70.9185125895
11
209.0509538372
21
70.9185125895
0
LINE
5
33E
100
AcDbEntity
8
0
100
AcDbLine
62
7
6
BYLAYER
10
159.0509538372
20
70.9185125895
11
159.0509538372
21
45.9185125895
0
LINE
5
33F
100
AcDbEntity
8
0
100
AcDbLine
62
7
6
BYLAYER
10
159.0509538372
20
45.9185125895
11
209.0509538372
21
45.9185125895
0
LINE
5
340
100
AcDbEntity
8
0
100
AcDbLine
62
7
6
BYLAYER
10
209.0509538372
20
70.9185125895
11
209.0509538372
21
45.9185125895
0
SOLID
5
341
100
AcDbEntity
8
0
100
AcDbTrace
62
7
6
BYLAYER
10
243.8217444329
20
121.4723784163
11
239.4783396016
21
124.0752296359
12
240.5072931095
22
125.3004866207
13
240.5072931095
23
125.3004866207
0
POLYLINE
5
342
100
AcDbEntity
8
0
100
AcDb2dPolyline
62
7
6
BYLAYER
66
1
70
0
0
VERTEX
5
343
100
AcDbEntity
8
0
100
AcDbVertex
62
7
6
BYLAYER
100
AcDb2dVertex
10
223.9826623535
20
131.6817095947
0
VERTEX
5
344
100
AcDbEntity
8
0
100
AcDbVertex
62
7
6
BYLAYER
100
AcDb2dVertex
10
222.9826501465
20
132.0150384521
0
VERTEX
5
345
100
AcDbEntity
8
0
100
AcDbVertex
62
7
6
BYLAYER
100
AcDb2dVertex
10
221.9826635742
20
131.6817095947
0
VERTEX
5
346
100
AcDbEntity
8
0
100
AcDbVertex
62
7
6
BYLAYER
100
AcDb2dVertex
10
221.3159802246
20
131.0150390625
0
VERTEX
5
347
100
AcDbEntity
8
0
100
AcDbVertex
62
7
6
BYLAYER
100
AcDb2dVertex
10
220.9826513672
20
130.0150396729
0
VERTEX
5
348
100
AcDbEntity
8
0
100
AcDbVertex
62
7
6
BYLAYER
100
AcDb2dVertex
10
221.3159802246
20
129.0150402832
0
VERTEX
5
349
100
AcDbEntity
8
0
100
AcDbVertex
62
7
6
BYLAYER
100
AcDb2dVertex
10
221.9826635742
20
128.3483697510
0
VERTEX
5
34A
100
AcDbEntity
8
0
100
AcDbVertex
62
7
6
BYLAYER
100
AcDb2dVertex
10
222.9826501465
20
128.0150408936
0
VERTEX
5
34B
100
AcDbEntity
8
0
100
AcDbVertex
62
7
6
BYLAYER
100
AcDb2dVertex
10
223.9826623535
20
128.3483697510
0
SEQEND
5
34C
100
AcDbEntity
8
0
0
POLYLINE
5
34D
100
AcDbEntity
8
0
100
AcDb2dPolyline
62
7
6
BYLAYER
66
1
70
0
0
VERTEX
5
34E
100
AcDbEntity
8
0
100
AcDbVertex
62
7
6
BYLAYER
100
AcDb2dVertex
10
222.6493212891
20
133.1817022705
0
VERTEX
5
34F
100
AcDbEntity
8
0
100
AcDbVertex
62
7
6
BYLAYER
100
AcDb2dVertex
10
222.6493212891
20
127.0150415039
0
VERTEX
5
350
100
AcDbEntity
8
0
100
AcDbVertex
62
7
6
BYLAYER
100
AcDb2dVertex
10
225.3159777832
20
127.0150415039
0
SEQEND
5
351
100
AcDbEntity
8
0
0
TEXT
5
352
100
AcDbEntity
8
0
100
AcDbText
62
7
6
BYLAYER
10
204.9826516187
20
128.0150381995
7
STANDARD
40
4.0000000000
1
PIPE 
41
0.8000000000
72
0
100
AcDbText
0
TEXT
5
353
100
AcDbEntity
8
0
100
AcDbText
62
7
6
BYLAYER
10
31.0928319624
20
135.8844741481
7
STANDARD
40
3.5000000000
1
NOTES -
41
0.8000000000
72
0
100
AcDbText
0
TEXT
5
354
100
AcDbEntity
8
0
100
AcDbText
62
7
6
BYLAYER
10
31.0928319624
20
130.6344741481
7
STANDARD
40
3.5000000000
1
 
41
0.8000000000
72
0
100
AcDbText
0
TEXT
5
355
100
AcDbEntity
8
0
100
AcDbText
62
7
6
BYLAYER
10
31.0928319624
20
125.3844741481
7
STANDARD
40
3.5000000000
1
1 - ALL OUTER MODULE TAPE ENDS SET FOR HIGH MODULES
41
0.8000000000
72
0
100
AcDbText
0
TEXT
5
356
100
AcDbEntity
8
0
100
AcDbText
62
7
6
BYLAYER
10
31.0928319624
20
120.1344741481
7
STANDARD
40
3.5000000000
1
2 - TAPE DESIGN SET TO ZERO MODULE ROTATION
41
0.8000000000
72
0
100
AcDbText
0
TEXT
5
357
100
AcDbEntity
8
0
100
AcDbText
62
7
6
BYLAYER
10
31.0928319624
20
114.8844741481
7
STANDARD
40
3.5000000000
1
3 - FOR TAPE SPECIFICATIONS REFER TO DOCUMENT ATL-IS-ER-0034
41
0.8000000000
72
0
100
AcDbText
0
TEXT
5
358
100
AcDbEntity
8
0
100
AcDbText
62
7
6
BYLAYER
10
31.0928319624
20
109.6344741481
7
STANDARD
40
3.5000000000
1
4 - ALL TWISTED PAIR WIRES TO LIE ONE WIRE DEEP 4mm EITHER SIDE
41
0.8000000000
72
0
100
AcDbText
0
TEXT
5
359
100
AcDbEntity
8
0
100
AcDbText
62
7
6
BYLAYER
10
31.0928319624
20
104.3844741481
7
STANDARD
40
3.5000000000
1
    OF PIPE CENTER LINES 
41
0.8000000000
72
0
100
AcDbText
0
TEXT
5
35A
100
AcDbEntity
8
0
100
AcDbText
62
7
6
BYLAYER
10
31.0928319624
20
99.1344741481
7
STANDARD
40
3.5000000000
1
5 - ANY CUTS  BETWEEN TAPE LEGS MUST NOT BE SHORTENED
41
0.8000000000
72
0
100
AcDbText
0
TEXT
5
35B
100
AcDbEntity
8
0
100
AcDbText
62
7
6
BYLAYER
10
31.0928319624
20
93.8844741481
7
STANDARD
40
3.5000000000
1
6 - TAPE ENDS TO INCLUDE TEXT AS SHOWN ON 3D-VIEW
41
0.8000000000
72
0
100
AcDbText
0
TEXT
5
35C
100
AcDbEntity
8
0
100
AcDbText
62
7
6
BYLAYER
10
31.0928319624
20
88.6344741481
7
STANDARD
40
3.5000000000
1
7 - TEXT 'TD-1002-966 (W8)' TO BE LOCATED VISIBLY ON TAPE
41
0.8000000000
72
0
100
AcDbText
0
TEXT
5
35D
100
AcDbEntity
8
0
100
AcDbText
62
7
6
BYLAYER
10
31.0928319624
20
83.3844741481
7
STANDARD
40
3.5000000000
1
8 - FOR CONNECTOR POSITIONS REFER TO DRAWING TD-1010-345
41
0.8000000000
72
0
100
AcDbText
0
CIRCLE
5
35E
100
AcDbEntity
8
0
100
AcDbCircle
62
7
6
BYLAYER
10
210.6141425525
20
278.3499967857
40
0.8000000000
0
TEXT
5
35F
100
AcDbEntity
8
0
100
AcDbText
62
7
6
BYLAYER
10
222.4581825067
20
280.4131493490
7
TEXTSTYLE_2
40
4.0000000000
1
I6
41
0.6070038911
72
0
100
AcDbText
0
CIRCLE
5
360
100
AcDbEntity
8
0
100
AcDbCircle
62
7
6
BYLAYER
10
183.1187176592
20
277.3409070351
40
0.8000000000
0
TEXT
5
361
100
AcDbEntity
8
0
100
AcDbText
62
7
6
BYLAYER
10
162.6438704036
20
269.2996523239
7
TEXTSTYLE_2
40
4.0000000000
1
O8
41
0.8891050584
72
0
100
AcDbText
0
CIRCLE
5
362
100
AcDbEntity
8
0
100
AcDbCircle
62
7
6
BYLAYER
10
224.7060024047
20
265.8365635891
40
0.8000000000
0
TEXT
5
363
100
AcDbEntity
8
0
100
AcDbText
62
7
6
BYLAYER
10
206.8521825959
20
258.7609913519
7
TEXTSTYLE_2
40
4.0000000000
1
07
41
0.7276264591
72
0
100
AcDbText
0
TEXT
5
364
100
AcDbEntity
8
0
100
AcDbText
62
7
6
BYLAYER
10
130.8341210315
20
257.6323864974
7
STANDARD
40
4.0000000000
1
3D-VIEW
41
0.8000000000
72
0
100
AcDbText
0
TEXT
5
365
100
AcDbEntity
8
0
100
AcDbText
62
7
6
BYLAYER
10
174.1457583724
20
152.5769104893
7
STANDARD
40
4.0000000000
1
DEVELOPED VIEW
41
0.8000000000
72
0
100
AcDbText
0
LINE
5
366
100
AcDbEntity
8
0
100
AcDbLine
62
7
6
BYLAYER
10
0.0000000000
20
297.0000000000
11
0.0000000000
21
0.0000000000
0
LINE
5
367
100
AcDbEntity
8
0
100
AcDbLine
62
7
6
BYLAYER
10
10.0000000000
20
10.0000000000
11
10.0000000000
21
287.0000000000
0
LINE
5
368
100
AcDbEntity
8
0
100
AcDbLine
62
7
6
BYLAYER
10
10.0010000000
20
106.2230000000
11
10.0010000000
21
276.9990000000
0
LINE
5
369
100
AcDbEntity
8
0
100
AcDbLine
62
7
6
BYLAYER
10
0.0000000000
20
0.0000000000
11
420.0000000000
21
0.0000000000
0
LINE
5
36A
100
AcDbEntity
8
0
100
AcDbLine
62
7
6
BYLAYER
10
160.0381492713
20
3.8460928114
11
260.0381492713
21
3.8460928114
0
LINE
5
36B
100
AcDbEntity
8
0
100
AcDbLine
62
7
6
BYLAYER
10
160.0381492713
20
3.8460928114
11
160.0381492713
21
8.8460928114
0
LINE
5
36C
100
AcDbEntity
8
DEFAULT_1
100
AcDbLine
62
7
6
BYLAYER
10
260.5598230933
20
141.4262109762
11
301.0055877330
21
149.1415405515
0
LINE
5
36D
100
AcDbEntity
8
0
100
AcDbLine
62
7
6
BYLAYER
10
233.6493182854
20
130.0150381995
11
226.6493182854
21
130.0150381995
0
LINE
5
36E
100
AcDbEntity
8
0
100
AcDbLine
62
7
6
BYLAYER
10
243.8217444329
20
121.4723784163
11
233.6493182854
21
130.0150381995
0
LINE
5
36F
100
AcDbEntity
8
0
100
AcDbLine
62
7
6
BYLAYER
10
260.0381492713
20
3.8460928114
11
260.0381492713
21
8.8460928114
0
LINE
5
370
100
AcDbEntity
8
0
100
AcDbLine
62
7
6
BYLAYER
10
106.2230000000
20
286.9990000000
11
237.9920000000
21
286.9990000000
0
LINE
5
371
100
AcDbEntity
8
0
100
AcDbLine
62
7
6
BYLAYER
10
10.0000000000
20
287.0000000000
11
410.0000000000
21
287.0000000000
0
LINE
5
372
100
AcDbEntity
8
0
100
AcDbLine
62
7
6
BYLAYER
10
0.0000000000
20
297.0000000000
11
420.0000000000
21
297.0000000000
0
LINE
5
373
100
AcDbEntity
8
0
100
AcDbLine
62
7
6
BYLAYER
10
401.4430414976
20
21.0017763982
11
401.4430414976
21
10.0350776605
0
LINE
5
374
100
AcDbEntity
8
0
100
AcDbLine
62
7
6
BYLAYER
10
410.0000000000
20
287.0000000000
11
410.0000000000
21
10.0000000000
0
LINE
5
375
100
AcDbEntity
8
0
100
AcDbLine
62
7
6
BYLAYER
10
420.0000000000
20
297.0000000000
11
420.0000000000
21
0.0000000000
0
LINE
5
376
100
AcDbEntity
8
0
100
AcDbLine
62
7
6
BYLAYER
10
25.4096963843
20
232.4577499602
11
24.9208224117
21
195.3366282032
0
LINE
5
377
100
AcDbEntity
8
0
100
AcDbLine
62
7
6
BYLAYER
10
43.1886165027
20
232.7904580939
11
43.1916719650
21
233.0224651048
0
LINE
5
378
100
AcDbEntity
8
0
100
AcDbLine
62
7
6
BYLAYER
10
44.5557720426
20
224.7361959411
11
44.0668980699
21
187.6150741840
0
LINE
5
379
100
AcDbEntity
8
0
100
AcDbLine
62
7
6
BYLAYER
10
44.7370060507
20
224.7982527742
11
44.2481320780
21
187.6771310172
0
LINE
5
37A
100
AcDbEntity
8
0
100
AcDbLine
62
7
6
BYLAYER
10
47.8014795050
20
245.4140428770
11
47.7959796728
21
244.9964302573
0
LINE
5
37B
100
AcDbEntity
8
0
100
AcDbLine
62
7
6
BYLAYER
10
53.3377209572
20
236.2656407506
11
53.3407764196
21
236.4976477616
0
LINE
5
37C
100
AcDbEntity
8
0
100
AcDbLine
62
7
6
BYLAYER
10
56.4791972494
20
241.9143457317
11
56.4736974172
21
241.4967331119
0
LINE
5
37D
100
AcDbEntity
8
0
100
AcDbLine
62
7
6
BYLAYER
10
56.6604312575
20
241.9764025648
11
56.6549314253
21
241.5587899451
0
LINE
5
37E
100
AcDbEntity
8
0
100
AcDbLine
62
7
6
BYLAYER
10
59.9776417255
20
247.2695517593
11
59.9806971878
21
247.5015587703
0
LINE
5
37F
100
AcDbEntity
8
0
100
AcDbLine
62
7
6
BYLAYER
10
73.8139512565
20
252.0072804063
11
73.8170067189
21
252.2392874173
0
LINE
5
380
100
AcDbEntity
8
0
100
AcDbLine
62
7
6
BYLAYER
10
79.3454208213
20
252.4422141501
11
79.3484762836
21
252.6742211611
0
LINE
5
381
100
AcDbEntity
8
0
100
AcDbLine
62
7
6
BYLAYER
10
24.9208224117
20
195.3366282032
11
44.0668980699
21
187.6150741840
0
LINE
5
382
100
AcDbEntity
8
0
100
AcDbLine
62
7
6
BYLAYER
10
172.3955337347
20
241.2123535503
11
172.3985891970
21
241.4443605613
0
LINE
5
383
100
AcDbEntity
8
0
100
AcDbLine
62
7
6
BYLAYER
10
173.7378158147
20
276.4524430926
11
173.7347603524
21
276.2204360816
0
LINE
5
384
100
AcDbEntity
8
0
100
AcDbLine
62
7
6
BYLAYER
10
25.4096963843
20
232.4577499602
11
30.6438753413
21
230.3468215233
0
LINE
5
385
100
AcDbEntity
8
0
100
AcDbLine
62
7
6
BYLAYER
10
30.6438753413
20
230.3468215233
11
39.3215930856
21
226.8471243780
0
LINE
5
386
100
AcDbEntity
8
0
100
AcDbLine
62
7
6
BYLAYER
10
39.3215930856
20
226.8471243780
11
44.5557720426
21
224.7361959411
0
LINE
5
387
100
AcDbEntity
8
0
100
AcDbLine
62
7
6
BYLAYER
10
25.5909303924
20
232.5198067933
11
30.6907551700
21
230.4630629879
0
LINE
5
388
100
AcDbEntity
8
0
100
AcDbLine
62
7
6
BYLAYER
10
39.5028270938
20
226.9091812111
11
44.7370060507
21
224.7982527742
0
LINE
5
389
100
AcDbEntity
8
0
100
AcDbLine
62
7
6
BYLAYER
10
201.6194966988
20
269.7073205965
11
201.6512570237
21
267.4450541201
0
LINE
5
38A
100
AcDbEntity
8
0
100
AcDbLine
62
7
6
BYLAYER
10
185.7456645229
20
272.9695349160
11
185.7426090605
21
272.7375279050
0
LINE
5
38B
100
AcDbEntity
8
0
100
AcDbLine
62
7
6
BYLAYER
10
186.4554579617
20
261.1028755877
11
186.4585134240
21
261.3348825987
0
LINE
5
38C
100
AcDbEntity
8
0
100
AcDbLine
62
7
6
BYLAYER
10
189.9546711123
20
262.7966802041
11
189.9577265747
21
263.0286872151
0
LINE
5
38D
100
AcDbEntity
8
0
100
AcDbLine
62
7
6
BYLAYER
10
192.2666630250
20
243.4747476519
11
192.2697184873
21
243.7067546629
0
LINE
5
38E
100
AcDbEntity
8
0
100
AcDbLine
62
7
6
BYLAYER
10
193.2604797589
20
276.3923435159
11
193.1845775026
21
270.6289421998
0
LINE
5
38F
100
AcDbEntity
8
0
100
AcDbLine
62
7
6
BYLAYER
10
193.5145826226
20
280.3503349043
11
193.5115271603
21
280.1183278933
0
LINE
5
390
100
AcDbEntity
8
0
100
AcDbLine
62
7
6
BYLAYER
10
193.3048556883
20
264.4253736705
11
193.3079111507
21
264.6573806815
0
LINE
5
391
100
AcDbEntity
8
0
100
AcDbLine
62
7
6
BYLAYER
10
193.8345549213
20
276.9019519645
11
193.8314994589
21
276.6699449535
0
LINE
5
392
100
AcDbEntity
8
0
100
AcDbLine
62
7
6
BYLAYER
10
196.0060868335
20
277.4121918515
11
195.9063565431
21
269.8394830131
0
LINE
5
393
100
AcDbEntity
8
0
100
AcDbLine
62
7
6
BYLAYER
10
196.1558811001
20
277.4850143895
11
196.0561508097
21
269.9123055510
0
LINE
5
394
100
AcDbEntity
8
0
100
AcDbLine
62
7
6
BYLAYER
10
196.7265321616
20
258.6091066010
11
196.7295876240
21
258.8411136120
0
LINE
5
395
100
AcDbEntity
8
0
100
AcDbLine
62
7
6
BYLAYER
10
197.3348369426
20
251.7338691525
11
197.3378924050
21
251.9658761634
0
LINE
5
396
100
AcDbEntity
8
0
100
AcDbLine
62
7
6
BYLAYER
10
200.2168126438
20
260.2945208019
11
200.2198681061
21
260.5265278128
0
LINE
5
397
100
AcDbEntity
8
0
100
AcDbLine
62
7
6
BYLAYER
10
201.8044500012
20
261.0763793539
11
201.8075054635
21
261.3083863649
0
LINE
5
398
100
AcDbEntity
8
0
100
AcDbLine
62
7
6
BYLAYER
10
182.5385973856
20
276.7900345742
11
176.7567108705
21
271.2996523239
0
LINE
5
399
100
AcDbEntity
8
0
100
AcDbLine
62
7
6
BYLAYER
10
181.8267062131
20
280.3848601411
11
173.7378158147
21
276.4524430926
0
LINE
5
39A
100
AcDbEntity
8
0
100
AcDbLine
62
7
6
BYLAYER
10
189.9449680329
20
280.7276185263
11
190.7928035821
21
281.1397940910
0
LINE
5
39B
100
AcDbEntity
8
0
100
AcDbLine
62
7
6
BYLAYER
10
65.1392889745
20
255.7389845626
11
51.3029794435
21
251.0012559156
0
LINE
5
39C
100
AcDbEntity
8
0
100
AcDbLine
62
7
6
BYLAYER
10
73.8170067189
20
252.2392874173
11
59.9806971878
21
247.5015587703
0
LINE
5
39D
100
AcDbEntity
8
0
100
AcDbLine
62
7
6
BYLAYER
10
73.8139512565
20
252.0072804063
11
59.9776417255
21
247.2695517593
0
LINE
5
39E
100
AcDbEntity
8
0
100
AcDbLine
62
7
6
BYLAYER
10
44.6630586752
20
239.9973449069
11
34.5139542206
21
236.5221622502
0
LINE
5
39F
100
AcDbEntity
8
0
100
AcDbLine
62
7
6
BYLAYER
10
25.5909303924
20
232.5198067933
11
25.4096963843
21
232.4577499602
0
LINE
5
3A0
100
AcDbEntity
8
0
100
AcDbLine
62
7
6
BYLAYER
10
56.6604312575
20
241.9764025648
11
56.4791972494
21
241.9143457317
0
LINE
5
3A1
100
AcDbEntity
8
0
100
AcDbLine
62
7
6
BYLAYER
10
34.5139542206
20
236.5221622502
11
43.1916719650
21
233.0224651048
0
LINE
5
3A2
100
AcDbEntity
8
0
100
AcDbLine
62
7
6
BYLAYER
10
44.6630586752
20
239.9973449069
11
53.3407764196
21
236.4976477616
0
LINE
5
3A3
100
AcDbEntity
8
0
100
AcDbLine
62
7
6
BYLAYER
10
47.7959796728
20
244.9964302573
11
56.4736974172
21
241.4967331119
0
LINE
5
3A4
100
AcDbEntity
8
0
100
AcDbLine
62
7
6
BYLAYER
10
47.8014795050
20
245.4140428770
11
56.4791972494
21
241.9143457317
0
LINE
5
3A5
100
AcDbEntity
8
0
100
AcDbLine
62
7
6
BYLAYER
10
51.3029794435
20
251.0012559156
11
59.9806971878
21
247.5015587703
0
LINE
5
3A6
100
AcDbEntity
8
0
100
AcDbLine
62
7
6
BYLAYER
10
204.3535338031
20
268.9238592279
11
204.3852941281
21
266.6615927515
0
LINE
5
3A7
100
AcDbEntity
8
0
100
AcDbLine
62
7
6
BYLAYER
10
204.5021129681
20
269.0067467103
11
204.5338732931
21
266.7444802339
0
LINE
5
3A8
100
AcDbEntity
8
0
100
AcDbLine
62
7
6
BYLAYER
10
202.8835687769
20
248.7032203381
11
202.8866242393
21
248.9352273491
0
LINE
5
3A9
100
AcDbEntity
8
0
100
AcDbLine
62
7
6
BYLAYER
10
203.8906052484
20
279.0232671179
11
203.8875497861
21
278.7912601069
0
LINE
5
3AA
100
AcDbEntity
8
0
100
AcDbLine
62
7
6
BYLAYER
10
204.1562556528
20
252.2115835348
11
204.1593111152
21
252.4435905458
0
LINE
5
3AB
100
AcDbEntity
8
0
100
AcDbLine
62
7
6
BYLAYER
10
207.2315362600
20
274.6748475902
11
207.2345917223
21
274.9068546012
0
LINE
5
3AC
100
AcDbEntity
8
0
100
AcDbLine
62
7
6
BYLAYER
10
207.8414752879
20
275.2057245564
11
207.8384198255
21
274.9737175454
0
LINE
5
3AD
100
AcDbEntity
8
0
100
AcDbLine
62
7
6
BYLAYER
10
208.9691693940
20
251.7001760754
11
208.9722248563
21
251.9321830864
0
LINE
5
3AE
100
AcDbEntity
8
0
100
AcDbLine
62
7
6
BYLAYER
10
211.5384305529
20
252.0871801479
11
211.5414860152
21
252.3191871588
0
LINE
5
3AF
100
AcDbEntity
8
0
100
AcDbLine
62
7
6
BYLAYER
10
214.0852103829
20
265.4365308217
11
214.0821549206
21
265.2045238107
0
LINE
5
3B0
100
AcDbEntity
8
0
100
AcDbLine
62
7
6
BYLAYER
10
215.9525336499
20
275.5668199035
11
215.9494781876
21
275.3348128925
0
LINE
5
3B1
100
AcDbEntity
8
0
100
AcDbLine
62
7
6
BYLAYER
10
221.3015016535
20
278.2010085984
11
221.2984461912
21
277.9690015874
0
LINE
5
3B2
100
AcDbEntity
8
0
100
AcDbLine
62
7
6
BYLAYER
10
223.0068963998
20
251.4693499294
11
223.0099518622
21
251.7013569403
0
LINE
5
3B3
100
AcDbEntity
8
0
100
AcDbLine
62
7
6
BYLAYER
10
224.1427151862
20
265.2684900820
11
219.6731942690
21
260.7609913519
0
LINE
5
3B4
100
AcDbEntity
8
0
100
AcDbLine
62
7
6
BYLAYER
10
211.2270702821
20
278.8641170034
11
215.4581825067
21
282.4131493490
0
LINE
5
3B5
100
AcDbEntity
8
0
100
AcDbLine
62
7
6
BYLAYER
10
220.8124760491
20
269.7181124963
11
214.0852103829
21
265.4365308217
0
LINE
5
3B6
100
AcDbEntity
8
0
100
AcDbLine
62
7
6
BYLAYER
10
228.7307829158
20
270.4243461485
11
229.4359000208
21
270.8731193388
0
LINE
5
3B7
100
AcDbEntity
8
0
100
AcDbLine
62
7
6
BYLAYER
10
204.5021129681
20
269.0067467103
11
204.3535338031
21
268.9238592279
0
LINE
5
3B8
100
AcDbEntity
8
0
100
AcDbLine
62
7
6
BYLAYER
10
204.5338732931
20
266.7444802339
11
204.3852941281
21
266.6615927515
0
LINE
5
3B9
100
AcDbEntity
8
0
100
AcDbLine
62
7
6
BYLAYER
10
209.2395732520
20
281.6574558128
11
203.8906052484
21
279.0232671179
0
LINE
5
3BA
100
AcDbEntity
8
0
100
AcDbLine
62
7
6
BYLAYER
10
205.1074381835
20
275.9891859250
11
204.5005546180
21
275.6903159698
0
LINE
5
3BB
100
AcDbEntity
8
0
100
AcDbLine
62
7
6
BYLAYER
10
207.8414752879
20
275.2057245564
11
207.2345917223
21
274.9068546012
0
LINE
5
3BC
100
AcDbEntity
8
0
100
AcDbLine
62
7
6
BYLAYER
10
207.8384198255
20
274.9737175454
11
207.2315362600
21
274.6748475902
0
LINE
5
3BD
100
AcDbEntity
8
0
100
AcDbLine
62
7
6
BYLAYER
10
215.9525336499
20
275.5668199035
11
221.3015016535
21
278.2010085984
0
LINE
5
3BE
100
AcDbEntity
8
0
100
AcDbLine
62
7
6
BYLAYER
10
215.9494781876
20
275.3348128925
11
221.2984461912
21
277.9690015874
0
LINE
5
3BF
100
AcDbEntity
8
0
100
AcDbLine
62
7
6
BYLAYER
10
199.0734683592
20
262.0918477335
11
197.4858310017
21
261.3099891814
0
LINE
5
3C0
100
AcDbEntity
8
0
100
AcDbLine
62
7
6
BYLAYER
10
201.8075054635
20
261.3083863649
11
200.2198681061
21
260.5265278128
0
LINE
5
3C1
100
AcDbEntity
8
0
100
AcDbLine
62
7
6
BYLAYER
10
201.8044500012
20
261.0763793539
11
200.2168126438
21
260.2945208019
0
LINE
5
3C2
100
AcDbEntity
8
0
100
AcDbLine
62
7
6
BYLAYER
10
192.6667470734
20
279.9381593396
11
193.5145826226
21
280.3503349043
0
LINE
5
3C3
100
AcDbEntity
8
0
100
AcDbLine
62
7
6
BYLAYER
10
192.7573920106
20
279.7517048123
11
193.5115271603
21
280.1183278933
0
LINE
5
3C4
100
AcDbEntity
8
0
100
AcDbLine
62
7
6
BYLAYER
10
185.7456645229
20
272.9695349160
11
193.8345549213
21
276.9019519645
0
LINE
5
3C5
100
AcDbEntity
8
0
100
AcDbLine
62
7
6
BYLAYER
10
185.7426090605
20
272.7375279050
11
193.8314994589
21
276.6699449535
0
LINE
5
3C6
100
AcDbEntity
8
0
100
AcDbLine
62
7
6
BYLAYER
10
196.1558811001
20
277.4850143895
11
196.0060868335
21
277.4121918515
0
LINE
5
3C7
100
AcDbEntity
8
0
100
AcDbLine
62
7
6
BYLAYER
10
196.0561508097
20
269.9123055510
11
195.9063565431
21
269.8394830131
0
LINE
5
3C8
100
AcDbEntity
8
0
100
AcDbLine
62
7
6
BYLAYER
10
190.5861321101
20
265.4468398682
11
187.2359475342
21
263.8181464018
0
LINE
5
3C9
100
AcDbEntity
8
0
100
AcDbLine
62
7
6
BYLAYER
10
193.3079111507
20
264.6573806815
11
189.9577265747
21
263.0286872151
0
LINE
5
3CA
100
AcDbEntity
8
0
100
AcDbLine
62
7
6
BYLAYER
10
193.3048556883
20
264.4253736705
11
189.9546711123
21
262.7966802041
0
LINE
5
3CB
100
AcDbEntity
8
0
100
AcDbLine
62
7
6
BYLAYER
10
56.6549314253
20
241.5587899451
11
56.4736974172
21
241.4967331119
0
LINE
5
3CC
100
AcDbEntity
8
0
100
AcDbLine
62
7
6
BYLAYER
10
53.3407764196
20
236.4976477616
11
43.1916719650
21
233.0224651048
0
LINE
5
3CD
100
AcDbEntity
8
0
100
AcDbLine
62
7
6
BYLAYER
10
53.3377209572
20
236.2656407506
11
43.1886165027
21
232.7904580939
0
LINE
5
3CE
100
AcDbEntity
8
0
100
AcDbLine
62
7
6
BYLAYER
10
39.5028270938
20
226.9091812111
11
39.3215930856
21
226.8471243780
0
LINE
5
3CF
100
AcDbEntity
8
0
100
AcDbLine
62
7
6
BYLAYER
10
44.7370060507
20
224.7982527742
11
44.5557720426
21
224.7361959411
0
LINE
5
3D0
100
AcDbEntity
8
0
100
AcDbLine
62
7
6
BYLAYER
10
203.8875497861
20
278.7912601069
11
205.0246510779
21
275.9559837559
0
LINE
5
3D1
100
AcDbEntity
8
0
100
AcDbLine
62
7
6
BYLAYER
10
203.8906052484
20
279.0232671179
11
205.1074381835
21
275.9891859250
0
LINE
5
3D2
100
AcDbEntity
8
0
100
AcDbLine
62
7
6
BYLAYER
10
193.8345549213
20
276.9019519645
11
192.6667470734
21
279.9381593396
0
LINE
5
3D3
100
AcDbEntity
8
0
100
AcDbLine
62
7
6
BYLAYER
10
227.0888505817
20
262.5056841918
11
227.0857951193
21
262.2736771808
0
LINE
5
3D4
100
AcDbEntity
8
0
100
AcDbLine
62
7
6
BYLAYER
10
229.5754025851
20
252.6301636495
11
229.5784580475
21
252.8621706605
0
LINE
5
3D5
100
AcDbEntity
8
0
100
AcDbLine
62
7
6
BYLAYER
10
231.4593983716
20
265.0572657094
11
231.3990143034
21
260.4721896447
0
LINE
5
3D6
100
AcDbEntity
8
0
100
AcDbLine
62
7
6
BYLAYER
10
232.3833917992
20
270.2087941027
11
232.3803363369
21
269.9767870917
0
LINE
5
3D7
100
AcDbEntity
8
0
100
AcDbLine
62
7
6
BYLAYER
10
232.1736648649
20
254.2838328689
11
232.1767203272
21
254.5158398799
0
LINE
5
3D8
100
AcDbEntity
8
0
100
AcDbLine
62
7
6
BYLAYER
10
233.8161162478
20
266.7872658663
11
233.8130607855
21
266.5552588554
0
LINE
5
3D9
100
AcDbEntity
8
0
100
AcDbLine
62
7
6
BYLAYER
10
234.4462363722
20
267.3805732470
11
234.3465060817
21
259.8078644086
0
LINE
5
3DA
100
AcDbEntity
8
0
100
AcDbLine
62
7
6
BYLAYER
10
234.5708153660
20
267.4598617965
11
234.4710850756
21
259.8871529581
0
LINE
5
3DB
100
AcDbEntity
8
0
100
AcDbLine
62
7
6
BYLAYER
10
231.6782746942
20
269.7600209123
11
232.3833917992
21
270.2087941027
0
LINE
5
3DC
100
AcDbEntity
8
0
100
AcDbLine
62
7
6
BYLAYER
10
231.7824855354
20
269.5962837546
11
232.3803363369
21
269.9767870917
0
LINE
5
3DD
100
AcDbEntity
8
0
100
AcDbLine
62
7
6
BYLAYER
10
234.5708153660
20
267.4598617965
11
234.4462363722
21
267.3805732470
0
LINE
5
3DE
100
AcDbEntity
8
0
100
AcDbLine
62
7
6
BYLAYER
10
227.0888505817
20
262.5056841918
11
233.8161162478
21
266.7872658663
0
LINE
5
3DF
100
AcDbEntity
8
0
100
AcDbLine
62
7
6
BYLAYER
10
227.0857951193
20
262.2736771808
11
233.8130607855
21
266.5552588554
0
LINE
5
3E0
100
AcDbEntity
8
0
100
AcDbLine
62
7
6
BYLAYER
10
234.4710850756
20
259.8871529581
11
234.3465060817
21
259.8078644086
0
LINE
5
3E1
100
AcDbEntity
8
0
100
AcDbLine
62
7
6
BYLAYER
10
229.2292285489
20
255.1801651160
11
226.6309662691
21
253.5264958966
0
LINE
5
3E2
100
AcDbEntity
8
0
100
AcDbLine
62
7
6
BYLAYER
10
232.1767203272
20
254.5158398799
11
229.5784580475
21
252.8621706605
0
LINE
5
3E3
100
AcDbEntity
8
0
100
AcDbLine
62
7
6
BYLAYER
10
232.1736648649
20
254.2838328689
11
229.5754025851
21
252.6301636495
0
LINE
5
3E4
100
AcDbEntity
8
0
100
AcDbLine
62
7
6
BYLAYER
10
194.6038553006
20
252.7493375320
11
182.1376986301
21
246.6101703230
0
LINE
5
3E5
100
AcDbEntity
8
0
100
AcDbLine
62
7
6
BYLAYER
10
197.3378924050
20
251.9658761634
11
195.4886414864
21
251.0551816406
0
LINE
5
3E6
100
AcDbEntity
8
0
100
AcDbLine
62
7
6
BYLAYER
10
197.3348369426
20
251.7338691525
11
195.7845270564
21
250.9703931374
0
LINE
5
3E7
100
AcDbEntity
8
0
100
AcDbLine
62
7
6
BYLAYER
10
201.4252740108
20
253.2270519144
11
196.4535957585
21
250.7786658634
0
LINE
5
3E8
100
AcDbEntity
8
0
100
AcDbLine
62
7
6
BYLAYER
10
204.1593111152
20
252.4435905458
11
199.1876328628
21
249.9952044949
0
LINE
5
3E9
100
AcDbEntity
8
0
100
AcDbLine
62
7
6
BYLAYER
10
204.1562556528
20
252.2115835348
11
199.4835184329
21
249.9104159917
0
LINE
5
3EA
100
AcDbEntity
8
0
100
AcDbLine
62
7
6
BYLAYER
10
206.2381877520
20
252.7156444550
11
200.1525871349
21
249.7186887177
0
LINE
5
3EB
100
AcDbEntity
8
0
100
AcDbLine
62
7
6
BYLAYER
10
208.9722248563
20
251.9321830864
11
192.2697184873
21
243.7067546629
0
LINE
5
3EC
100
AcDbEntity
8
0
100
AcDbLine
62
7
6
BYLAYER
10
208.9691693940
20
251.7001760754
11
192.2666630250
21
243.4747476519
0
LINE
5
3ED
100
AcDbEntity
8
0
100
AcDbLine
62
7
6
BYLAYER
10
44.2481320780
20
187.6771310172
11
44.0668980699
21
187.6150741840
0
LINE
5
3EE
100
AcDbEntity
8
0
100
AcDbLine
62
7
6
BYLAYER
10
186.4554579617
20
261.1028755877
11
194.9718176137
21
253.7346091915
0
LINE
5
3EF
100
AcDbEntity
8
0
100
AcDbLine
62
7
6
BYLAYER
10
186.4585134240
20
261.3348825987
11
194.9748730760
21
253.9666162025
0
LINE
5
3F0
100
AcDbEntity
8
0
100
AcDbLine
62
7
6
BYLAYER
10
189.5748112667
20
261.8055871330
11
198.0911709187
21
254.4373207367
0
LINE
5
3F1
100
AcDbEntity
8
0
100
AcDbLine
62
7
6
BYLAYER
10
196.7265321616
20
258.6091066010
11
201.7946966301
21
254.2110582436
0
LINE
5
3F2
100
AcDbEntity
8
0
100
AcDbLine
62
7
6
BYLAYER
10
196.7295876240
20
258.8411136120
11
201.7977520924
21
254.4430652546
0
LINE
5
3F3
100
AcDbEntity
8
0
100
AcDbLine
62
7
6
BYLAYER
10
199.8473900245
20
259.3105144726
11
204.9155544929
21
254.9124661152
0
LINE
5
3F4
100
AcDbEntity
8
0
100
AcDbLine
62
7
6
BYLAYER
10
172.3955337347
20
241.2123535503
11
79.3454208213
21
252.4422141501
0
LINE
5
3F5
100
AcDbEntity
8
0
100
AcDbLine
62
7
6
BYLAYER
10
172.3985891970
20
241.4443605613
11
79.3484762836
21
252.6742211611
0
LINE
5
3F6
100
AcDbEntity
8
0
100
AcDbLine
62
7
6
BYLAYER
10
175.9483304905
20
245.9054901930
11
82.8982175771
21
257.1353507928
0
LINE
5
3F7
100
AcDbEntity
8
0
100
AcDbLine
62
7
6
BYLAYER
10
195.4886414864
20
251.0551816406
11
196.4535957585
21
250.7786658634
0
LINE
5
3F8
100
AcDbEntity
8
0
100
AcDbLine
62
7
6
BYLAYER
10
199.1876328628
20
249.9952044949
11
200.1525871349
21
249.7186887177
0
LINE
5
3F9
100
AcDbEntity
8
0
100
AcDbLine
62
7
6
BYLAYER
10
199.0734683592
20
262.0918477335
11
201.8075054635
21
261.3083863649
0
LINE
5
3FA
100
AcDbEntity
8
0
100
AcDbLine
62
7
6
BYLAYER
10
190.5861321101
20
265.4468398682
11
193.3079111507
21
264.6573806815
0
LINE
5
3FB
100
AcDbEntity
8
0
100
AcDbLine
62
7
6
BYLAYER
10
233.8161162478
20
266.7872658663
11
231.6782746942
21
269.7600209123
0
LINE
5
3FC
100
AcDbEntity
8
0
100
AcDbLine
62
7
6
BYLAYER
10
219.6731942690
20
260.7609913519
11
212.6731942690
21
260.7609913519
0
LINE
5
3FD
100
AcDbEntity
8
0
100
AcDbLine
62
7
6
BYLAYER
10
223.0068963998
20
251.4693499294
11
211.5384305529
21
252.0871801479
0
LINE
5
3FE
100
AcDbEntity
8
0
100
AcDbLine
62
7
6
BYLAYER
10
223.0099518622
20
251.7013569403
11
211.5414860152
21
252.3191871588
0
LINE
5
3FF
100
AcDbEntity
8
0
100
AcDbLine
62
7
6
BYLAYER
10
223.3957318793
20
252.9547518255
11
211.9272660323
21
253.5725820440
0
LINE
5
400
100
AcDbEntity
8
0
100
AcDbLine
62
7
6
BYLAYER
10
229.2292285489
20
255.1801651160
11
232.1767203272
21
254.5158398799
0
LINE
5
401
100
AcDbEntity
8
0
100
AcDbLine
62
7
6
BYLAYER
10
231.3990143034
20
260.4721896447
11
234.3465060817
21
259.8078644086
0
LINE
5
402
100
AcDbEntity
8
0
100
AcDbLine
62
7
6
BYLAYER
10
227.0857951193
20
262.2736771808
11
214.0821549206
21
265.2045238107
0
LINE
5
403
100
AcDbEntity
8
0
100
AcDbLine
62
7
6
BYLAYER
10
214.0852103829
20
265.4365308217
11
227.0888505817
21
262.5056841918
0
LINE
5
404
100
AcDbEntity
8
0
100
AcDbLine
62
7
6
BYLAYER
10
233.1850166877
20
267.6648353002
11
234.4462363722
21
267.3805732470
0
LINE
5
405
100
AcDbEntity
8
0
100
AcDbLine
62
7
6
BYLAYER
10
229.4359000208
20
270.8731193388
11
232.3833917992
21
270.2087941027
0
LINE
5
406
100
AcDbEntity
8
0
100
AcDbLine
62
7
6
BYLAYER
10
233.3178137604
20
270.4225480290
11
230.3703219820
21
271.0868732652
0
LINE
5
407
100
AcDbEntity
8
0
100
AcDbLine
62
7
6
BYLAYER
10
201.6512570237
20
267.4450541201
11
204.3852941281
21
266.6615927515
0
LINE
5
408
100
AcDbEntity
8
0
100
AcDbLine
62
7
6
BYLAYER
10
201.6194966988
20
269.7073205965
11
204.3535338031
21
268.9238592279
0
LINE
5
409
100
AcDbEntity
8
0
100
AcDbLine
62
7
6
BYLAYER
10
204.5005546180
20
275.6903159698
11
207.2345917223
21
274.9068546012
0
LINE
5
40A
100
AcDbEntity
8
0
100
AcDbLine
62
7
6
BYLAYER
10
221.3015016535
20
278.2010085984
11
209.2395732520
21
281.6574558128
0
LINE
5
40B
100
AcDbEntity
8
0
100
AcDbLine
62
7
6
BYLAYER
10
185.7426090605
20
272.7375279050
11
173.7347603524
21
276.2204360816
0
LINE
5
40C
100
AcDbEntity
8
0
100
AcDbLine
62
7
6
BYLAYER
10
193.1845775026
20
270.6289421998
11
195.9063565431
21
269.8394830131
0
LINE
5
40D
100
AcDbEntity
8
0
100
AcDbLine
62
7
6
BYLAYER
10
173.7378158147
20
276.4524430926
11
185.7456645229
21
272.9695349160
0
LINE
5
40E
100
AcDbEntity
8
0
100
AcDbLine
62
7
6
BYLAYER
10
193.2843077930
20
278.2016510382
11
196.0060868335
21
277.4121918515
0
LINE
5
40F
100
AcDbEntity
8
0
100
AcDbLine
62
7
6
BYLAYER
10
190.7928035821
20
281.1397940910
11
193.5145826226
21
280.3503349043
0
LINE
5
410
100
AcDbEntity
8
0
100
AcDbLine
62
7
6
BYLAYER
10
194.7131541659
20
280.4960789723
11
191.9913751254
21
281.2855381590
0
LINE
5
411
100
AcDbEntity
8
0
100
AcDbLine
62
7
6
BYLAYER
10
232.3833917992
20
270.2087941027
11
233.3163950937
21
270.4226339419
0
LINE
5
412
100
AcDbEntity
8
0
100
AcDbLine
62
7
6
BYLAYER
10
229.4359000208
20
270.8731193388
11
230.3689033153
21
271.0869591780
0
LINE
5
413
100
AcDbEntity
8
0
100
AcDbLine
62
7
6
BYLAYER
10
228.7307829158
20
270.4243461485
11
220.8124760491
21
269.7181124963
0
LINE
5
414
100
AcDbEntity
8
0
100
AcDbLine
62
7
6
BYLAYER
10
207.8384198255
20
274.9737175454
11
215.9494781876
21
275.3348128925
0
LINE
5
415
100
AcDbEntity
8
0
100
AcDbLine
62
7
6
BYLAYER
10
207.8414752879
20
275.2057245564
11
215.9525336499
21
275.5668199035
0
LINE
5
416
100
AcDbEntity
8
0
100
AcDbLine
62
7
6
BYLAYER
10
189.9449680329
20
280.7276185263
11
181.8267062131
21
280.3848601411
0
LINE
5
417
100
AcDbEntity
8
0
100
AcDbLine
62
7
6
BYLAYER
10
176.7567108705
20
271.2996523239
11
169.7567108705
21
271.2996523239
0
LINE
5
418
100
AcDbEntity
8
0
100
AcDbLine
62
7
6
BYLAYER
10
215.4581825067
20
282.4131493490
11
222.4581825067
21
282.4131493490
0
LINE
5
419
100
AcDbEntity
8
0
100
AcDbLine
62
7
6
BYLAYER
10
109.6328084910
20
229.8778539990
11
109.6328084910
21
202.0778539990
0
LINE
5
41A
100
AcDbEntity
8
0
100
AcDbLine
62
7
6
BYLAYER
10
149.6328084910
20
229.8778539990
11
149.6328084910
21
222.2778539990
0
LINE
5
41B
100
AcDbEntity
8
0
100
AcDbLine
62
7
6
BYLAYER
10
149.6328084910
20
222.2778539990
11
149.6328084910
21
209.6778539990
0
LINE
5
41C
100
AcDbEntity
8
0
100
AcDbLine
62
7
6
BYLAYER
10
149.6328084910
20
209.6778539990
11
149.6328084910
21
202.0778539990
0
LINE
5
41D
100
AcDbEntity
8
0
100
AcDbLine
62
7
6
BYLAYER
10
157.6117901250
20
222.2778539990
11
157.6117901250
21
209.6778539990
0
LINE
5
41E
100
AcDbEntity
8
0
100
AcDbLine
62
7
6
BYLAYER
10
171.6117901250
20
222.2778539990
11
171.6117901250
21
209.6778539990
0
LINE
5
41F
100
AcDbEntity
8
0
100
AcDbLine
62
7
6
BYLAYER
10
178.4126745138
20
222.2778539990
11
178.4126745138
21
209.6778539990
0
LINE
5
420
100
AcDbEntity
8
0
100
AcDbLine
62
7
6
BYLAYER
10
178.8626745138
20
222.2778539990
11
178.8626745138
21
209.6778539990
0
LINE
5
421
100
AcDbEntity
8
0
100
AcDbLine
62
7
6
BYLAYER
10
186.0562579844
20
222.2778539990
11
186.0562579844
21
209.6778539990
0
LINE
5
422
100
AcDbEntity
8
0
100
AcDbLine
62
7
6
BYLAYER
10
306.0015452690
20
152.2875383987
11
298.7249933873
21
132.2625072397
0
LINE
5
423
100
AcDbEntity
8
0
100
AcDbLine
62
7
6
BYLAYER
10
309.1971133090
20
151.1263558542
11
301.9205614273
21
131.1013246952
0
LINE
5
424
100
AcDbEntity
8
0
100
AcDbLine
62
7
6
BYLAYER
10
258.7184651730
20
122.9321492067
11
210.0736923503
21
206.8367715584
0
LINE
5
425
100
AcDbEntity
8
0
100
AcDbLine
62
7
6
BYLAYER
10
269.6189804782
20
129.2518617066
11
220.9742076555
21
213.1564840583
0
LINE
5
426
100
AcDbEntity
8
0
100
AcDbLine
62
7
6
BYLAYER
10
293.7226363600
20
126.2510209139
11
293.9310141732
21
125.0692516102
0
LINE
5
427
100
AcDbEntity
8
0
100
AcDbLine
62
7
6
BYLAYER
10
294.5214179773
20
121.7209052500
11
294.7297957905
21
120.5391359464
0
LINE
5
428
100
AcDbEntity
8
0
100
AcDbLine
62
7
6
BYLAYER
10
309.0510252696
20
140.5838858994
11
304.6964032806
21
128.6412487408
0
LINE
5
429
100
AcDbEntity
8
0
100
AcDbLine
62
7
6
BYLAYER
10
312.2453041854
20
139.4191618086
11
307.8906821965
21
127.4765246500
0
LINE
5
42A
100
AcDbEntity
8
0
100
AcDbLine
62
7
6
BYLAYER
10
339.1103153855
20
155.1718815226
11
334.4055898485
21
148.4528371247
0
LINE
5
42B
100
AcDbEntity
8
0
100
AcDbLine
62
7
6
BYLAYER
10
339.5358256776
20
161.4287178150
11
344.2810583948
21
168.1192160370
0
LINE
5
42C
100
AcDbEntity
8
0
100
AcDbLine
62
7
6
BYLAYER
10
315.4496314551
20
109.1601305818
11
308.0367055890
21
118.0094120286
0
LINE
5
42D
100
AcDbEntity
8
0
100
AcDbLine
62
7
6
BYLAYER
10
318.0559949262
20
111.3434467422
11
310.6430690601
21
120.1927281890
0
LINE
5
42E
100
AcDbEntity
8
0
100
AcDbLine
62
7
6
BYLAYER
10
326.5245741848
20
111.7872947685
11
327.4946022123
21
108.5286070532
0
LINE
5
42F
100
AcDbEntity
8
0
100
AcDbLine
62
7
6
BYLAYER
10
316.8129148759
20
145.3507738642
11
317.4033186799
21
142.0024275039
0
LINE
5
430
100
AcDbEntity
8
0
100
AcDbLine
62
7
6
BYLAYER
10
323.6902791325
20
146.5634387388
11
324.2806829366
21
143.2150923785
0
LINE
5
431
100
AcDbEntity
8
0
100
AcDbLine
62
7
6
BYLAYER
10
316.6872660410
20
157.5420825722
11
317.2574300682
21
154.1902304003
0
LINE
5
432
100
AcDbEntity
8
0
100
AcDbLine
62
7
6
BYLAYER
10
323.3918422496
20
158.6825589346
11
323.9620062769
21
155.3307067627
0
LINE
5
433
100
AcDbEntity
8
0
100
AcDbLine
62
7
6
BYLAYER
10
348.7380599780
20
118.3996816214
11
352.6422441515
21
125.6133731826
0
LINE
5
434
100
AcDbEntity
8
0
100
AcDbLine
62
7
6
BYLAYER
10
352.6422441515
20
125.6133731826
11
365.5811512564
21
129.4649550563
0
LINE
5
435
100
AcDbEntity
8
0
100
AcDbLine
62
7
6
BYLAYER
10
348.7380599780
20
118.3996816214
11
321.5271984395
21
110.2997037625
0
LINE
5
436
100
AcDbEntity
8
0
100
AcDbLine
62
7
6
BYLAYER
10
349.7080880055
20
115.1409939061
11
322.4972264669
21
107.0410160472
0
LINE
5
437
100
AcDbEntity
8
0
100
AcDbLine
62
7
6
BYLAYER
10
356.9217795667
20
111.2368097327
11
349.7080880055
21
115.1409939061
0
LINE
5
438
100
AcDbEntity
8
0
100
AcDbLine
62
7
6
BYLAYER
10
333.0427972470
20
113.7276031416
11
334.0128252744
21
110.4689154263
0
LINE
5
439
100
AcDbEntity
8
0
100
AcDbLine
62
7
6
BYLAYER
10
340.8636477638
20
116.0556704075
11
341.8336757912
21
112.7969826922
0
LINE
5
43A
100
AcDbEntity
8
0
100
AcDbLine
62
7
6
BYLAYER
10
347.3818708259
20
117.9959787806
11
348.3518988534
21
114.7372910653
0
LINE
5
43B
100
AcDbEntity
8
0
100
AcDbLine
62
7
6
BYLAYER
10
326.1255009339
20
146.9928340464
11
326.7159047379
21
143.6444876861
0
LINE
5
43C
100
AcDbEntity
8
0
100
AcDbLine
62
7
6
BYLAYER
10
333.3999803999
20
148.2755210468
11
333.9903842040
21
144.9271746866
0
LINE
5
43D
100
AcDbEntity
8
0
100
AcDbLine
62
7
6
BYLAYER
10
350.5783078276
20
141.9625988264
11
347.9735851626
21
156.7347151216
0
LINE
5
43E
100
AcDbEntity
8
0
100
AcDbLine
62
7
6
BYLAYER
10
331.4362874621
20
160.0509526001
11
332.0064514894
21
156.6991004282
0
LINE
5
43F
100
AcDbEntity
8
0
100
AcDbLine
62
7
6
BYLAYER
10
338.1408636707
20
161.1914289625
11
338.7110276980
21
157.8395767906
0
LINE
5
440
100
AcDbEntity
8
0
100
AcDbLine
62
7
6
BYLAYER
10
369.8606866716
20
115.0883916063
11
356.9217795667
21
111.2368097327
0
LINE
5
441
100
AcDbEntity
8
0
100
AcDbLine
62
7
6
BYLAYER
10
305.4040737154
20
118.9688486637
11
277.7279276247
21
114.0887973859
0
LINE
5
442
100
AcDbEntity
8
0
100
AcDbLine
62
7
6
BYLAYER
10
304.8136699113
20
122.3171950239
11
294.7297957905
21
120.5391359464
0
LINE
5
443
100
AcDbEntity
8
0
100
AcDbLine
62
7
6
BYLAYER
10
302.7595165350
20
123.1735042954
11
294.5214179773
21
121.7209052500
0
LINE
5
444
100
AcDbEntity
8
0
100
AcDbLine
62
7
6
BYLAYER
10
302.1691127309
20
126.5218506557
11
293.9310141732
21
125.0692516102
0
LINE
5
445
100
AcDbEntity
8
0
100
AcDbLine
62
7
6
BYLAYER
10
296.7868554330
20
126.7913254112
11
293.7226363600
21
126.2510209139
0
LINE
5
446
100
AcDbEntity
8
0
100
AcDbLine
62
7
6
BYLAYER
10
296.1964516289
20
130.1396717714
11
275.5399605861
21
126.4973750738
0
LINE
5
447
100
AcDbEntity
8
0
100
AcDbLine
62
7
6
BYLAYER
10
341.7150380505
20
140.3997652274
11
350.5783078276
21
141.9625988264
0
LINE
5
448
100
AcDbEntity
8
0
100
AcDbLine
62
7
6
BYLAYER
10
334.9959936526
20
145.1044907644
11
314.7725947351
21
141.5385598937
0
LINE
5
449
100
AcDbEntity
8
0
100
AcDbLine
62
7
6
BYLAYER
10
334.9959936526
20
145.1044907644
11
341.7150380505
21
140.3997652274
0
LINE
5
44A
100
AcDbEntity
8
0
100
AcDbLine
62
7
6
BYLAYER
10
346.7964879269
20
153.3316329259
11
340.1059897048
21
158.0768656431
0
LINE
5
44B
100
AcDbEntity
8
0
100
AcDbLine
62
7
6
BYLAYER
10
369.8606866716
20
115.0883916063
11
365.5811512564
21
129.4649550563
0
LINE
5
44C
100
AcDbEntity
8
0
100
AcDbLine
62
7
6
BYLAYER
10
360.1053127269
20
155.5955195048
11
357.5898831948
21
170.3831026159
0
LINE
5
44D
100
AcDbEntity
8
0
100
AcDbLine
62
7
6
BYLAYER
10
334.4055898485
20
148.4528371247
11
314.1821909311
21
144.8869062539
0
LINE
5
44E
100
AcDbEntity
8
0
100
AcDbLine
62
7
6
BYLAYER
10
347.9735851626
20
156.7347151216
11
339.1103153855
21
155.1718815226
0
LINE
5
44F
100
AcDbEntity
8
0
100
AcDbLine
62
7
6
BYLAYER
10
360.1053127269
20
155.5955195048
11
346.7964879269
21
153.3316329259
0
LINE
5
450
100
AcDbEntity
8
0
100
AcDbLine
62
7
6
BYLAYER
10
340.1059897048
20
158.0768656431
11
311.7452995567
21
153.2525940219
0
LINE
5
451
100
AcDbEntity
8
0
100
AcDbLine
62
7
6
BYLAYER
10
339.5358256776
20
161.4287178150
11
311.1751355294
21
156.6044461938
0
LINE
5
452
100
AcDbEntity
8
0
100
AcDbLine
62
7
6
BYLAYER
10
344.2810583948
20
168.1192160370
11
357.5898831948
21
170.3831026159
0
LINE
5
453
100
AcDbEntity
8
0
100
AcDbLine
62
7
6
BYLAYER
10
149.6328084910
20
202.0778539990
11
109.6328084910
21
202.0778539990
0
LINE
5
454
100
AcDbEntity
8
0
100
AcDbLine
62
7
6
BYLAYER
10
205.1425068551
20
209.6778539990
11
149.6328084910
21
209.6778539990
0
LINE
5
455
100
AcDbEntity
8
0
100
AcDbLine
62
7
6
BYLAYER
10
205.1425068551
20
222.2778539990
11
149.6328084910
21
222.2778539990
0
LINE
5
456
100
AcDbEntity
8
0
100
AcDbLine
62
7
6
BYLAYER
10
149.6328084910
20
229.8778539990
11
109.6328084910
21
229.8778539990
0
ARC
5
457
100
AcDbEntity
8
DEFAULT_1
100
AcDbCircle
62
7
6
BYLAYER
10
297.1455870406
20
169.3766682915
40
20.6000000000
100
AcDbArc
50
280.7998460000
51
5.8718701552
0
ARC
5
458
100
AcDbEntity
8
DEFAULT_1
100
AcDbCircle
62
7
6
BYLAYER
10
264.4198237857
20
121.1910832361
40
20.6000000000
100
AcDbArc
50
100.7998460000
51
193.0482608939
0
ARC
5
459
100
AcDbEntity
8
0
100
AcDbCircle
62
7
6
BYLAYER
10
274.5501659734
20
132.1107792660
40
5.7000000000
100
AcDbArc
50
210.1035595263
51
280.0000000000
0
ARC
5
45A
100
AcDbEntity
8
0
100
AcDbCircle
62
7
6
BYLAYER
10
205.1425068551
20
203.9778539990
40
18.3000000000
100
AcDbArc
50
30.1035595263
51
90.0000000000
0
ARC
5
45B
100
AcDbEntity
8
0
100
AcDbCircle
62
7
6
BYLAYER
10
320.5857006481
20
113.4625477215
40
3.3000000000
100
AcDbArc
50
219.9524624737
51
286.5769230000
0
ARC
5
45C
100
AcDbEntity
8
0
100
AcDbCircle
62
7
6
BYLAYER
10
305.8902886128
20
116.2113869553
40
6.2000000000
100
AcDbArc
50
39.9524624737
51
100.0000000000
0
ARC
5
45D
100
AcDbEntity
8
0
100
AcDbCircle
62
7
6
BYLAYER
10
315.3456337214
20
138.2886943087
40
6.7000000000
100
AcDbArc
50
100.0000000000
51
159.9667195640
0
ARC
5
45E
100
AcDbEntity
8
0
100
AcDbCircle
62
7
6
BYLAYER
10
301.5960737446
20
129.7717162406
40
3.3000000000
100
AcDbArc
50
280.0000000000
51
339.9667195640
0
ARC
5
45F
100
AcDbEntity
8
0
100
AcDbCircle
62
7
6
BYLAYER
10
312.2986940538
20
149.9993257375
40
6.7000000000
100
AcDbArc
50
99.6538460000
51
160.0302314557
0
ARC
5
460
100
AcDbEntity
8
0
100
AcDbCircle
62
7
6
BYLAYER
10
295.6234126426
20
133.3895373564
40
3.3000000000
100
AcDbArc
50
280.0000000000
51
340.0302314557
0
ARC
5
461
100
AcDbEntity
8
0
100
AcDbCircle
62
7
6
BYLAYER
10
312.2986940538
20
149.9993257375
40
3.3000000000
100
AcDbArc
50
99.6538460000
51
160.0302314557
0
ARC
5
462
100
AcDbEntity
8
0
100
AcDbCircle
62
7
6
BYLAYER
10
295.6234126426
20
133.3895373564
40
6.7000000000
100
AcDbArc
50
280.0000000000
51
340.0302314557
0
ARC
5
463
100
AcDbEntity
8
0
100
AcDbCircle
62
7
6
BYLAYER
10
274.5501659734
20
132.1107792660
40
18.3000000000
100
AcDbArc
50
210.1035595263
51
280.0000000000
0
ARC
5
464
100
AcDbEntity
8
0
100
AcDbCircle
62
7
6
BYLAYER
10
205.1425068551
20
203.9778539990
40
5.7000000000
100
AcDbArc
50
30.1035595263
51
90.0000000000
0
ARC
5
465
100
AcDbEntity
8
0
100
AcDbCircle
62
7
6
BYLAYER
10
315.3456337214
20
138.2886943087
40
3.3000000000
100
AcDbArc
50
100.0000000000
51
159.9667195640
0
ARC
5
466
100
AcDbEntity
8
0
100
AcDbCircle
62
7
6
BYLAYER
10
301.5960737446
20
129.7717162406
40
6.7000000000
100
AcDbArc
50
280.0000000000
51
339.9667195640
0
ARC
5
467
100
AcDbEntity
8
0
100
AcDbCircle
62
7
6
BYLAYER
10
320.5857006481
20
113.4625477215
40
6.7000000000
100
AcDbArc
50
219.9524624737
51
286.5769230000
0
ARC
5
468
100
AcDbEntity
8
0
100
AcDbCircle
62
7
6
BYLAYER
10
305.8902886128
20
116.2113869553
40
2.8000000000
100
AcDbArc
50
39.9524624737
51
100.0000000000
0
SPLINE
5
469
100
AcDbEntity
8
0
100
AcDbSpline
62
7
6
BYLAYER
70
0
71
3
72
8
73
4
74
2
42
0.0000001000
43
0.0000001000
44
0.0000000001
40
0.0000000000
40
0.0000000000
40
0.0000000000
40
0.0000000000
40
1.0000000000
40
1.0000000000
40
1.0000000000
40
1.0000000000
10
189.3027691139
20
262.3049118011
30
0.0000000000
10
189.3013600446
20
262.2784683175
30
0.0000000000
10
189.3022210516
20
262.2521301298
30
0.0000000000
10
189.3056340596
20
262.2261551805
30
0.0000000000
11
189.3027691139
21
262.3049118011
31
0.0000000000
11
189.3056340596
21
262.2261551805
31
0.0000000000
0
SPLINE
5
46A
100
AcDbEntity
8
0
100
AcDbSpline
62
7
6
BYLAYER
70
0
71
3
72
8
73
4
74
2
42
0.0000001000
43
0.0000001000
44
0.0000000001
40
0.0000000000
40
0.0000000000
40
0.0000000000
40
0.0000000000
40
1.0000000000
40
1.0000000000
40
1.0000000000
40
1.0000000000
10
189.3056340596
20
262.2261551805
30
0.0000000000
10
189.3081336880
20
262.2071315737
30
0.0000000000
10
189.3120021704
20
262.1883028023
30
0.0000000000
10
189.3170860652
20
262.1697093808
30
0.0000000000
11
189.3056340596
21
262.2261551805
31
0.0000000000
11
189.3170860652
21
262.1697093808
31
0.0000000000
0
SPLINE
5
46B
100
AcDbEntity
8
0
100
AcDbSpline
62
7
6
BYLAYER
70
0
71
3
72
8
73
4
74
2
42
0.0000001000
43
0.0000001000
44
0.0000000001
40
0.0000000000
40
0.0000000000
40
0.0000000000
40
0.0000000000
40
1.0000000000
40
1.0000000000
40
1.0000000000
40
1.0000000000
10
189.3170860652
20
262.1697093808
30
0.0000000000
10
189.3228822141
20
262.1485110195
30
0.0000000000
10
189.3302581903
20
262.1276185725
30
0.0000000000
10
189.3389866035
20
262.1070920798
30
0.0000000000
11
189.3170860652
21
262.1697093808
31
0.0000000000
11
189.3389866035
21
262.1070920798
31
0.0000000000
0
SPLINE
5
46C
100
AcDbEntity
8
0
100
AcDbSpline
62
7
6
BYLAYER
70
0
71
3
72
8
73
4
74
2
42
0.0000001000
43
0.0000001000
44
0.0000000001
40
0.0000000000
40
0.0000000000
40
0.0000000000
40
0.0000000000
40
1.0000000000
40
1.0000000000
40
1.0000000000
40
1.0000000000
10
189.3389866035
20
262.1070920798
30
0.0000000000
10
189.3881929187
20
261.9913742445
30
0.0000000000
10
189.4803813820
20
261.8872868938
30
0.0000000000
10
189.5748112667
20
261.8055871330
30
0.0000000000
11
189.3389866035
21
262.1070920798
31
0.0000000000
11
189.5748112667
21
261.8055871330
31
0.0000000000
0
SPLINE
5
46D
100
AcDbEntity
8
0
100
AcDbSpline
62
7
6
BYLAYER
70
0
71
3
72
8
73
4
74
2
42
0.0000001000
43
0.0000001000
44
0.0000000001
40
0.0000000000
40
0.0000000000
40
0.0000000000
40
0.0000000000
40
1.0000000000
40
1.0000000000
40
1.0000000000
40
1.0000000000
10
195.2467852931
20
253.4672885203
30
0.0000000000
10
195.2448772527
20
253.4314571350
30
0.0000000000
10
195.2388341894
20
253.3954284874
30
0.0000000000
10
195.2293452105
20
253.3598554125
30
0.0000000000
11
195.2467852931
21
253.4672885203
31
0.0000000000
11
195.2293452105
21
253.3598554125
31
0.0000000000
0
SPLINE
5
46E
100
AcDbEntity
8
0
100
AcDbSpline
62
7
6
BYLAYER
70
0
71
3
72
8
73
4
74
2
42
0.0000001000
43
0.0000001000
44
0.0000000001
40
0.0000000000
40
0.0000000000
40
0.0000000000
40
0.0000000000
40
1.0000000000
40
1.0000000000
40
1.0000000000
40
1.0000000000
10
195.2293452105
20
253.3598554125
30
0.0000000000
10
195.2071163973
20
253.2765221847
30
0.0000000000
10
195.1659772922
20
253.1956890217
30
0.0000000000
10
195.1147867427
20
253.1257484704
30
0.0000000000
11
195.2293452105
21
253.3598554125
31
0.0000000000
11
195.1147867427
21
253.1257484704
31
0.0000000000
0
SPLINE
5
46F
100
AcDbEntity
8
0
100
AcDbSpline
62
7
6
BYLAYER
70
0
71
3
72
8
73
4
74
2
42
0.0000001000
43
0.0000001000
44
0.0000000001
40
0.0000000000
40
0.0000000000
40
0.0000000000
40
0.0000000000
40
1.0000000000
40
1.0000000000
40
1.0000000000
40
1.0000000000
10
195.1147867427
20
253.1257484704
30
0.0000000000
10
194.9860119475
20
252.9498062260
30
0.0000000000
10
194.7936293146
20
252.8427949171
30
0.0000000000
10
194.6038553006
20
252.7493375320
30
0.0000000000
11
195.1147867427
21
253.1257484704
31
0.0000000000
11
194.6038553006
21
252.7493375320
31
0.0000000000
0
SPLINE
5
470
100
AcDbEntity
8
0
100
AcDbSpline
62
7
6
BYLAYER
70
0
71
3
72
8
73
4
74
2
42
0.0000001000
43
0.0000001000
44
0.0000000001
40
0.0000000000
40
0.0000000000
40
0.0000000000
40
0.0000000000
40
1.0000000000
40
1.0000000000
40
1.0000000000
40
1.0000000000
10
202.0682724628
20
253.9449948805
30
0.0000000000
10
202.0663689181
20
253.9090629508
30
0.0000000000
10
202.0602971947
20
253.8729348058
30
0.0000000000
10
202.0507557623
20
253.8372669626
30
0.0000000000
11
202.0682724628
21
253.9449948805
31
0.0000000000
11
202.0507557623
21
253.8372669626
31
0.0000000000
0
SPLINE
5
471
100
AcDbEntity
8
0
100
AcDbSpline
62
7
6
BYLAYER
70
0
71
3
72
8
73
4
74
2
42
0.0000001000
43
0.0000001000
44
0.0000000001
40
0.0000000000
40
0.0000000000
40
0.0000000000
40
0.0000000000
40
1.0000000000
40
1.0000000000
40
1.0000000000
40
1.0000000000
10
202.0507557623
20
253.8372669626
30
0.0000000000
10
202.0284478909
20
253.7538755361
30
0.0000000000
10
201.9871737396
20
253.6730002318
30
0.0000000000
10
201.9358598092
20
253.6030313926
30
0.0000000000
11
202.0507557623
21
253.8372669626
31
0.0000000000
11
201.9358598092
21
253.6030313926
31
0.0000000000
0
SPLINE
5
472
100
AcDbEntity
8
0
100
AcDbSpline
62
7
6
BYLAYER
70
0
71
3
72
8
73
4
74
2
42
0.0000001000
43
0.0000001000
44
0.0000000001
40
0.0000000000
40
0.0000000000
40
0.0000000000
40
0.0000000000
40
1.0000000000
40
1.0000000000
40
1.0000000000
40
1.0000000000
10
201.9358598092
20
253.6030313926
30
0.0000000000
10
201.8070202722
20
253.4273529212
30
0.0000000000
10
201.6148882858
20
253.3204306332
30
0.0000000000
10
201.4252740108
20
253.2270519144
30
0.0000000000
11
201.9358598092
21
253.6030313926
31
0.0000000000
11
201.4252740108
21
253.2270519144
31
0.0000000000
0
SPLINE
5
473
100
AcDbEntity
8
0
100
AcDbSpline
62
7
6
BYLAYER
70
0
71
3
72
8
73
4
74
2
42
0.0000001000
43
0.0000001000
44
0.0000000001
40
0.0000000000
40
0.0000000000
40
0.0000000000
40
0.0000000000
40
1.0000000000
40
1.0000000000
40
1.0000000000
40
1.0000000000
10
199.5768696541
20
259.8085848467
30
0.0000000000
10
199.5754402804
20
259.7816035230
30
0.0000000000
10
199.5763611442
20
259.7547328358
30
0.0000000000
10
199.5799279758
20
259.7282507526
30
0.0000000000
11
199.5768696541
21
259.8085848467
31
0.0000000000
11
199.5799279758
21
259.7282507526
31
0.0000000000
0
SPLINE
5
474
100
AcDbEntity
8
0
100
AcDbSpline
62
7
6
BYLAYER
70
0
71
3
72
8
73
4
74
2
42
0.0000001000
43
0.0000001000
44
0.0000000001
40
0.0000000000
40
0.0000000000
40
0.0000000000
40
0.0000000000
40
1.0000000000
40
1.0000000000
40
1.0000000000
40
1.0000000000
10
199.5799279758
20
259.7282507526
30
0.0000000000
10
199.5824203014
20
259.7097463815
30
0.0000000000
10
199.5862045272
20
259.6914317472
30
0.0000000000
10
199.5911391679
20
259.6733434222
30
0.0000000000
11
199.5799279758
21
259.7282507526
31
0.0000000000
11
199.5911391679
21
259.6733434222
31
0.0000000000
0
SPLINE
5
475
100
AcDbEntity
8
0
100
AcDbSpline
62
7
6
BYLAYER
70
0
71
3
72
8
73
4
74
2
42
0.0000001000
43
0.0000001000
44
0.0000000001
40
0.0000000000
40
0.0000000000
40
0.0000000000
40
0.0000000000
40
1.0000000000
40
1.0000000000
40
1.0000000000
40
1.0000000000
10
199.5911391679
20
259.6733434222
30
0.0000000000
10
199.5969279737
20
259.6521240860
30
0.0000000000
10
199.6042999271
20
259.6312161861
30
0.0000000000
10
199.6130266204
20
259.6106787635
30
0.0000000000
11
199.5911391679
21
259.6733434222
31
0.0000000000
11
199.6130266204
21
259.6106787635
31
0.0000000000
0
SPLINE
5
476
100
AcDbEntity
8
0
100
AcDbSpline
62
7
6
BYLAYER
70
0
71
3
72
8
73
4
74
2
42
0.0000001000
43
0.0000001000
44
0.0000000001
40
0.0000000000
40
0.0000000000
40
0.0000000000
40
0.0000000000
40
1.0000000000
40
1.0000000000
40
1.0000000000
40
1.0000000000
10
199.6130266204
20
259.6106787635
30
0.0000000000
10
199.6619678967
20
259.4955002364
30
0.0000000000
10
199.7535187344
20
259.3919740377
30
0.0000000000
10
199.8473900245
20
259.3105144726
30
0.0000000000
11
199.6130266204
21
259.6106787635
31
0.0000000000
11
199.8473900245
21
259.3105144726
31
0.0000000000
0
SPLINE
5
477
100
AcDbEntity
8
0
100
AcDbSpline
62
7
6
BYLAYER
70
0
71
3
72
8
73
4
74
2
42
0.0000001000
43
0.0000001000
44
0.0000000001
40
0.0000000000
40
0.0000000000
40
0.0000000000
40
0.0000000000
40
1.0000000000
40
1.0000000000
40
1.0000000000
40
1.0000000000
10
193.0250016081
20
279.8769154964
30
0.0000000000
10
193.0567353988
20
279.7919735972
30
0.0000000000
10
193.0847858468
20
279.7055554689
30
0.0000000000
10
193.1098146939
20
279.6185752651
30
0.0000000000
11
193.0250016081
21
279.8769154964
31
0.0000000000
11
193.1098146939
21
279.6185752651
31
0.0000000000
0
SPLINE
5
478
100
AcDbEntity
8
0
100
AcDbSpline
62
7
6
BYLAYER
70
0
71
3
72
8
73
4
74
2
42
0.0000001000
43
0.0000001000
44
0.0000000001
40
0.0000000000
40
0.0000000000
40
0.0000000000
40
0.0000000000
40
1.0000000000
40
1.0000000000
40
1.0000000000
40
1.0000000000
10
193.1098146939
20
279.6185752651
30
0.0000000000
10
193.2249419470
20
279.2184852436
30
0.0000000000
10
193.2761381670
20
278.8065028320
30
0.0000000000
10
193.2838172758
20
278.3946338906
30
0.0000000000
11
193.1098146939
21
279.6185752651
31
0.0000000000
11
193.2838172758
21
278.3946338906
31
0.0000000000
0
SPLINE
5
479
100
AcDbEntity
8
0
100
AcDbSpline
62
7
6
BYLAYER
70
0
71
3
72
8
73
4
74
2
42
0.0000001000
43
0.0000001000
44
0.0000000001
40
0.0000000000
40
0.0000000000
40
0.0000000000
40
0.0000000000
40
1.0000000000
40
1.0000000000
40
1.0000000000
40
1.0000000000
10
204.5005546180
20
275.6903159698
30
0.0000000000
10
204.1654869089
20
275.5253062762
30
0.0000000000
10
203.8665066154
20
275.2880346162
30
0.0000000000
10
203.6017116541
20
275.0213104063
30
0.0000000000
11
204.5005546180
21
275.6903159698
31
0.0000000000
11
203.6017116541
21
275.0213104063
31
0.0000000000
0
SPLINE
5
47A
100
AcDbEntity
8
0
100
AcDbSpline
62
7
6
BYLAYER
70
0
71
3
72
11
73
7
74
5
42
0.0000001000
43
0.0000001000
44
0.0000000001
40
0.0000000000
40
0.0000000000
40
0.0000000000
40
0.0000000000
40
0.2287934744
40
0.4846753838
40
0.7470958577
40
1.0000000000
40
1.0000000000
40
1.0000000000
40
1.0000000000
10
203.6017116541
20
275.0213104063
30
0.0000000000
10
203.2883230775
20
274.7056385368
30
0.0000000000
10
202.7258781386
20
273.9495271359
30
0.0000000000
10
202.1036198577
20
272.6372826259
30
0.0000000000
10
201.7064504374
20
271.1944383068
30
0.0000000000
10
201.6126375691
20
270.1958917650
30
0.0000000000
10
201.6194966988
20
269.7073205965
30
0.0000000000
11
203.6017116541
21
275.0213104063
31
0.0000000000
11
202.7926899705
21
273.9705716883
31
0.0000000000
11
202.1492258594
21
272.6343115688
31
0.0000000000
11
201.7460429191
21
271.1677060125
31
0.0000000000
11
201.6194966988
21
269.7073205965
31
0.0000000000
0
SPLINE
5
47B
100
AcDbEntity
8
0
100
AcDbSpline
62
7
6
BYLAYER
70
0
71
3
72
11
73
7
74
5
42
0.0000001000
43
0.0000001000
44
0.0000000001
40
0.0000000000
40
0.0000000000
40
0.0000000000
40
0.0000000000
40
0.2203621358
40
0.4661623321
40
0.7315676091
40
1.0000000000
40
1.0000000000
40
1.0000000000
40
1.0000000000
10
34.5139542206
20
236.5221622502
30
0.0000000000
10
34.0902399351
20
236.3770770810
30
0.0000000000
10
33.2503575980
20
235.8991162959
30
0.0000000000
10
32.1953827447
20
234.8329109532
30
0.0000000000
10
31.3534445401
20
233.4754462060
30
0.0000000000
10
30.9808836121
20
232.4489498479
30
0.0000000000
10
30.8503423220
20
231.9176630813
30
0.0000000000
11
34.5139542206
21
236.5221622502
31
0.0000000000
11
33.3336504016
21
235.8801852932
31
0.0000000000
11
32.2664578458
21
234.8279516795
31
0.0000000000
11
31.4071208205
21
233.4567395942
31
0.0000000000
11
30.8503423220
21
231.9176630813
31
0.0000000000
0
SPLINE
5
47C
100
AcDbEntity
8
0
100
AcDbSpline
62
7
6
BYLAYER
70
0
71
3
72
8
73
4
74
2
42
0.0000001000
43
0.0000001000
44
0.0000000001
40
0.0000000000
40
0.0000000000
40
0.0000000000
40
0.0000000000
40
1.0000000000
40
1.0000000000
40
1.0000000000
40
1.0000000000
10
30.8503423220
20
231.9176630813
30
0.0000000000
10
30.7342500576
20
231.4451820470
30
0.0000000000
10
30.6630762144
20
230.9607363969
30
0.0000000000
10
30.6468774575
20
230.4756292134
30
0.0000000000
11
30.8503423220
21
231.9176630813
31
0.0000000000
11
30.6468774575
21
230.4756292134
31
0.0000000000
0
SPLINE
5
47D
100
AcDbEntity
8
0
100
AcDbSpline
62
7
6
BYLAYER
70
0
71
3
72
8
73
4
74
2
42
0.0000001000
43
0.0000001000
44
0.0000000001
40
0.0000000000
40
0.0000000000
40
0.0000000000
40
0.0000000000
40
1.0000000000
40
1.0000000000
40
1.0000000000
40
1.0000000000
10
30.6468774575
20
230.4756292134
30
0.0000000000
10
30.6454438228
20
230.4326958865
30
0.0000000000
10
30.6444407935
20
230.3897573780
30
0.0000000000
10
30.6438753413
20
230.3468215233
30
0.0000000000
11
30.6468774575
21
230.4756292134
31
0.0000000000
11
30.6438753413
21
230.3468215233
31
0.0000000000
0
SPLINE
5
47E
100
AcDbEntity
8
0
100
AcDbSpline
62
7
6
BYLAYER
70
0
71
3
72
8
73
4
74
2
42
0.0000001000
43
0.0000001000
44
0.0000000001
40
0.0000000000
40
0.0000000000
40
0.0000000000
40
0.0000000000
40
1.0000000000
40
1.0000000000
40
1.0000000000
40
1.0000000000
10
47.7959796728
20
244.9964302573
30
0.0000000000
10
47.7889025551
20
244.4590513810
30
0.0000000000
10
47.6976812325
20
243.9210553894
30
0.0000000000
10
47.5408749069
20
243.4044639138
30
0.0000000000
11
47.7959796728
21
244.9964302573
31
0.0000000000
11
47.5408749069
21
243.4044639138
31
0.0000000000
0
SPLINE
5
47F
100
AcDbEntity
8
0
100
AcDbSpline
62
7
6
BYLAYER
70
0
71
3
72
10
73
6
74
4
42
0.0000001000
43
0.0000001000
44
0.0000000001
40
0.0000000000
40
0.0000000000
40
0.0000000000
40
0.0000000000
40
0.3597650027
40
0.7001112287
40
1.0000000000
40
1.0000000000
40
1.0000000000
40
1.0000000000
10
47.5408749069
20
243.4044639138
30
0.0000000000
10
47.3800099393
20
242.8745014223
30
0.0000000000
10
46.9326404893
20
241.8870197027
30
0.0000000000
10
45.9508160589
20
240.6869402145
30
0.0000000000
10
45.0978520726
20
240.1462237051
30
0.0000000000
10
44.6630586752
20
239.9973449069
30
0.0000000000
11
47.5408749069
21
243.4044639138
31
0.0000000000
11
46.8568529206
21
241.8985243991
31
0.0000000000
11
45.8476895446
21
240.7027110939
31
0.0000000000
11
44.6630586752
21
239.9973449069
31
0.0000000000
0
SPLINE
5
480
100
AcDbEntity
8
0
100
AcDbSpline
62
7
6
BYLAYER
70
0
71
3
72
8
73
4
74
2
42
0.0000001000
43
0.0000001000
44
0.0000000001
40
0.0000000000
40
0.0000000000
40
0.0000000000
40
0.0000000000
40
1.0000000000
40
1.0000000000
40
1.0000000000
40
1.0000000000
10
232.3803363369
20
269.9767870917
30
0.0000000000
10
232.3949250164
20
269.9860720859
30
0.0000000000
10
232.4097570491
20
269.9951913642
30
0.0000000000
10
232.4248116211
20
270.0041199895
30
0.0000000000
11
232.3803363369
21
269.9767870917
31
0.0000000000
11
232.4248116211
21
270.0041199895
31
0.0000000000
0
SPLINE
5
481
100
AcDbEntity
8
0
100
AcDbSpline
62
7
6
BYLAYER
70
0
71
3
72
9
73
5
74
3
42
0.0000001000
43
0.0000001000
44
0.0000000001
40
0.0000000000
40
0.0000000000
40
0.0000000000
40
0.0000000000
40
0.9126028417
40
1.0000000000
40
1.0000000000
40
1.0000000000
40
1.0000000000
10
232.4248116211
20
270.0041199895
30
0.0000000000
10
232.6523144390
20
270.1390482653
30
0.0000000000
10
232.9572924752
20
270.2391894357
30
0.0000000000
10
233.2370440175
20
270.1837214800
30
0.0000000000
10
233.2612652389
20
270.1777671037
30
0.0000000000
11
232.4248116211
21
270.0041199895
31
0.0000000000
11
233.1879523512
21
270.1922283800
31
0.0000000000
11
233.2612652389
21
270.1777671037
31
0.0000000000
0
SPLINE
5
482
100
AcDbEntity
8
0
100
AcDbSpline
62
7
6
BYLAYER
70
0
71
3
72
8
73
4
74
2
42
0.0000001000
43
0.0000001000
44
0.0000000001
40
0.0000000000
40
0.0000000000
40
0.0000000000
40
0.0000000000
40
1.0000000000
40
1.0000000000
40
1.0000000000
40
1.0000000000
10
193.5115271603
20
280.1183278933
30
0.0000000000
10
193.8074794695
20
280.2622052175
30
0.0000000000
10
194.1568074565
20
280.3459826540
30
0.0000000000
10
194.4834103849
20
280.2916457553
30
0.0000000000
11
193.5115271603
21
280.1183278933
31
0.0000000000
11
194.4834103849
21
280.2916457553
31
0.0000000000
0
SPLINE
5
483
100
AcDbEntity
8
0
100
AcDbSpline
62
7
6
BYLAYER
70
0
71
3
72
8
73
4
74
2
42
0.0000001000
43
0.0000001000
44
0.0000000001
40
0.0000000000
40
0.0000000000
40
0.0000000000
40
0.0000000000
40
1.0000000000
40
1.0000000000
40
1.0000000000
40
1.0000000000
10
194.4834103849
20
280.2916457553
30
0.0000000000
10
194.5365873275
20
280.2827987123
30
0.0000000000
10
194.5891618332
20
280.2702902848
30
0.0000000000
10
194.6408766075
20
280.2544769166
30
0.0000000000
11
194.4834103849
21
280.2916457553
31
0.0000000000
11
194.6408766075
21
280.2544769166
31
0.0000000000
0
SPLINE
5
484
100
AcDbEntity
8
0
100
AcDbSpline
62
7
6
BYLAYER
70
0
71
3
72
11
73
7
74
5
42
0.0000001000
43
0.0000001000
44
0.0000000001
40
0.0000000000
40
0.0000000000
40
0.0000000000
40
0.0000000000
40
0.2689290406
40
0.5422669621
40
0.7925858999
40
1.0000000000
40
1.0000000000
40
1.0000000000
40
1.0000000000
10
193.1845775026
20
270.6289421998
30
0.0000000000
10
193.1774657210
20
270.0889312237
30
0.0000000000
10
193.0235482182
20
268.9997941533
30
0.0000000000
10
192.4745515919
20
267.4932026063
30
0.0000000000
10
191.6780854661
20
266.2469367581
30
0.0000000000
10
190.9607353051
20
265.6289533495
30
0.0000000000
10
190.5861321101
20
265.4468398682
30
0.0000000000
11
193.1845775026
21
270.6289421998
31
0.0000000000
11
192.9702742236
21
269.0230044704
31
0.0000000000
11
192.4019950308
21
267.4774319089
31
0.0000000000
11
191.5659458966
21
266.2223402275
31
0.0000000000
11
190.5861321101
21
265.4468398682
31
0.0000000000
0
SPLINE
5
485
100
AcDbEntity
8
0
100
AcDbSpline
62
7
6
BYLAYER
70
0
71
3
72
11
73
7
74
5
42
0.0000001000
43
0.0000001000
44
0.0000000001
40
0.0000000000
40
0.0000000000
40
0.0000000000
40
0.0000000000
40
0.2759898337
40
0.5545802061
40
0.8038050649
40
1.0000000000
40
1.0000000000
40
1.0000000000
40
1.0000000000
10
231.3990143034
20
260.4721896447
30
0.0000000000
10
231.3918834904
20
259.9307335796
30
0.0000000000
10
231.2623637313
20
258.8430443098
30
0.0000000000
10
230.8081440218
20
257.3234145705
30
0.0000000000
10
230.1549626176
20
256.0560013433
30
0.0000000000
10
229.5539765084
20
255.3868516037
30
0.0000000000
10
229.2292285489
20
255.1801651160
30
0.0000000000
11
231.3990143034
21
260.4721896447
31
0.0000000000
11
231.2174345957
21
258.8578605331
31
0.0000000000
11
230.7419833327
21
257.2884838877
31
0.0000000000
11
230.0447751250
21
255.9977889016
31
0.0000000000
11
229.2292285489
21
255.1801651160
31
0.0000000000
0
SPLINE
5
486
100
AcDbEntity
8
0
100
AcDbSpline
62
7
6
BYLAYER
70
0
71
3
72
11
73
7
74
5
42
0.0000001000
43
0.0000001000
44
0.0000000001
40
0.0000000000
40
0.0000000000
40
0.0000000000
40
0.0000000000
40
0.2220266646
40
0.4740065469
40
0.7403633806
40
1.0000000000
40
1.0000000000
40
1.0000000000
40
1.0000000000
10
51.3029794435
20
251.0012559156
30
0.0000000000
10
50.8170338817
20
250.8348619647
30
0.0000000000
10
49.8637211910
20
250.2305317484
30
0.0000000000
10
48.7663880042
20
248.8892664380
30
0.0000000000
10
48.0159345820
20
247.2327853444
30
0.0000000000
10
47.8093892247
20
246.0146427976
30
0.0000000000
10
47.8014795050
20
245.4140428770
30
0.0000000000
11
51.3029794435
21
251.0012559156
31
0.0000000000
11
49.9789802365
21
250.2129054714
31
0.0000000000
11
48.8510917574
21
248.8764082479
31
0.0000000000
11
48.0865965963
21
247.1932993785
31
0.0000000000
11
47.8014795050
21
245.4140428770
31
0.0000000000
0
SPLINE
5
487
100
AcDbEntity
8
0
100
AcDbSpline
62
7
6
BYLAYER
70
0
71
3
72
11
73
7
74
5
42
0.0000001000
43
0.0000001000
44
0.0000000001
40
0.0000000000
40
0.0000000000
40
0.0000000000
40
0.0000000000
40
0.2073004242
40
0.4555934012
40
0.7269249006
40
1.0000000000
40
1.0000000000
40
1.0000000000
40
1.0000000000
10
182.1376986301
20
246.6101703230
30
0.0000000000
10
181.7473727771
20
246.4179478329
30
0.0000000000
10
180.8328082734
20
246.1128940185
30
0.0000000000
10
179.3261646887
20
245.8534062701
30
0.0000000000
10
177.6608181574
20
245.7690185209
30
0.0000000000
10
176.5173426623
20
245.8368183003
30
0.0000000000
10
175.9483304905
20
245.9054901930
30
0.0000000000
11
182.1376986301
21
246.6101703230
31
0.0000000000
11
180.9089461925
21
246.1698281127
31
0.0000000000
11
179.3705658547
21
245.8913513373
31
0.0000000000
11
177.6645417180
21
245.8004418821
31
0.0000000000
11
175.9483304905
21
245.9054901930
31
0.0000000000
0
SPLINE
5
488
100
AcDbEntity
8
0
100
AcDbSpline
62
7
6
BYLAYER
70
0
71
3
72
12
73
8
74
6
42
0.0000001000
43
0.0000001000
44
0.0000000001
40
0.0000000000
40
0.0000000000
40
0.0000000000
40
0.0000000000
40
0.2100256465
40
0.4227869446
40
0.6303164058
40
0.8249776770
40
1.0000000000
40
1.0000000000
40
1.0000000000
40
1.0000000000
10
82.8982175771
20
257.1353507928
30
0.0000000000
10
81.6511669994
20
257.2858525354
30
0.0000000000
10
79.1271261788
20
257.4833556912
30
0.0000000000
10
75.3539725678
20
257.4876547726
30
0.0000000000
10
71.6827376889
20
257.2055028788
30
0.0000000000
10
68.2714426273
20
256.6499436453
30
0.0000000000
10
66.1295978078
20
256.0780789229
30
0.0000000000
10
65.1392889745
20
255.7389845626
30
0.0000000000
11
82.8982175771
21
257.1353507928
31
0.0000000000
11
79.1417762074
21
257.4340504678
31
0.0000000000
11
75.3243960467
21
257.4375387657
31
0.0000000000
11
71.6123415990
21
257.1456637550
31
0.0000000000
11
68.1672899479
21
256.5711379380
31
0.0000000000
11
65.1392889745
21
255.7389845626
31
0.0000000000
0
SPLINE
5
489
100
AcDbEntity
8
0
100
AcDbSpline
62
7
6
BYLAYER
70
0
71
3
72
10
73
6
74
4
42
0.0000001000
43
0.0000001000
44
0.0000000001
40
0.0000000000
40
0.0000000000
40
0.0000000000
40
0.0000000000
40
0.2718896204
40
0.6186310372
40
1.0000000000
40
1.0000000000
40
1.0000000000
40
1.0000000000
10
226.6309662691
20
253.5264958966
30
0.0000000000
10
226.3769236440
20
253.3648099603
30
0.0000000000
10
225.7223405839
20
253.1247378607
30
0.0000000000
10
224.6277913749
20
252.9454882471
30
0.0000000000
10
223.8175052674
20
252.9320300118
30
0.0000000000
10
223.3957318793
20
252.9547518255
30
0.0000000000
11
226.6309662691
21
253.5264958966
31
0.0000000000
11
225.7971887364
21
253.1787387940
31
0.0000000000
11
224.6626690790
21
252.9782417636
31
0.0000000000
11
223.3957318793
21
252.9547518255
31
0.0000000000
0
SPLINE
5
48A
100
AcDbEntity
8
0
100
AcDbSpline
62
7
6
BYLAYER
70
0
71
3
72
10
73
6
74
4
42
0.0000001000
43
0.0000001000
44
0.0000000001
40
0.0000000000
40
0.0000000000
40
0.0000000000
40
0.0000000000
40
0.3708125527
40
0.7153021431
40
1.0000000000
40
1.0000000000
40
1.0000000000
40
1.0000000000
10
211.9272660323
20
253.5725820440
30
0.0000000000
10
211.2113365595
20
253.6111506606
30
0.0000000000
10
209.8232761978
20
253.5970778305
30
0.0000000000
10
207.9051566344
20
253.3253304409
30
0.0000000000
10
206.7320172236
20
252.9588390320
30
0.0000000000
10
206.2381877520
20
252.7156444550
30
0.0000000000
11
211.9272660323
21
253.5725820440
31
0.0000000000
11
209.7765025019
21
253.5481040843
31
0.0000000000
11
207.8005764795
21
253.2504732207
31
0.0000000000
11
206.2381877520
21
252.7156444550
31
0.0000000000
0
SPLINE
5
48B
100
AcDbEntity
8
0
100
AcDbSpline
62
7
6
BYLAYER
70
0
71
3
72
9
73
5
74
3
42
0.0000001000
43
0.0000001000
44
0.0000000001
40
0.0000000000
40
0.0000000000
40
0.0000000000
40
0.0000000000
40
0.6745946536
40
1.0000000000
40
1.0000000000
40
1.0000000000
40
1.0000000000
10
204.9155544929
20
254.9124661152
30
0.0000000000
10
205.1154647386
20
254.7389881365
30
0.0000000000
10
205.3945760264
20
254.4323727260
30
0.0000000000
10
205.4658135623
20
254.0291547722
30
0.0000000000
10
205.4652318610
20
253.8989596324
30
0.0000000000
11
204.9155544929
21
254.9124661152
31
0.0000000000
11
205.3974399435
21
254.2813442162
31
0.0000000000
11
205.4652318610
21
253.8989596324
31
0.0000000000
0
SPLINE
5
48C
100
AcDbEntity
8
0
100
AcDbSpline
62
7
6
BYLAYER
70
0
71
3
72
10
73
6
74
4
42
0.0000001000
43
0.0000001000
44
0.0000000001
40
0.0000000000
40
0.0000000000
40
0.0000000000
40
0.0000000000
40
0.4976483661
40
0.8681992161
40
1.0000000000
40
1.0000000000
40
1.0000000000
40
1.0000000000
10
197.4858310017
20
261.3099891814
30
0.0000000000
10
197.1823006165
20
261.1605105701
30
0.0000000000
10
196.6743894817
20
260.8550165102
30
0.0000000000
10
196.2264875366
20
260.2923664886
30
0.0000000000
10
196.1803185161
20
259.9459960187
30
0.0000000000
10
196.1799102559
20
259.8546200948
30
0.0000000000
11
197.4858310017
21
261.3099891814
31
0.0000000000
11
196.6391473243
21
260.7501698351
31
0.0000000000
11
196.2168554621
21
260.1233623479
31
0.0000000000
11
196.1799102559
21
259.8546200948
31
0.0000000000
0
SPLINE
5
48D
100
AcDbEntity
8
0
100
AcDbSpline
62
7
6
BYLAYER
70
0
71
3
72
9
73
5
74
3
42
0.0000001000
43
0.0000001000
44
0.0000000001
40
0.0000000000
40
0.0000000000
40
0.0000000000
40
0.0000000000
40
0.6369904593
40
1.0000000000
40
1.0000000000
40
1.0000000000
40
1.0000000000
10
187.2359475342
20
263.8181464018
30
0.0000000000
10
186.8453023622
20
263.6282341075
30
0.0000000000
10
186.2237635045
20
263.2876224273
30
0.0000000000
10
185.9193342456
20
262.5954222036
30
0.0000000000
10
185.9061854168
20
262.3486629856
30
0.0000000000
11
187.2359475342
21
263.8181464018
31
0.0000000000
11
186.1821431078
21
263.0516418680
31
0.0000000000
11
185.9061854168
21
262.3486629856
31
0.0000000000
0
SPLINE
5
48E
100
AcDbEntity
8
0
100
AcDbSpline
62
7
6
BYLAYER
70
0
71
3
72
11
73
7
74
5
42
0.0000001000
43
0.0000001000
44
0.0000000001
40
0.0000000000
40
0.0000000000
40
0.0000000000
40
0.0000000000
40
0.2671489963
40
0.5411140284
40
0.7926072881
40
1.0000000000
40
1.0000000000
40
1.0000000000
40
1.0000000000
10
201.6512570237
20
267.4450541201
30
0.0000000000
10
201.6589840403
20
266.8946639549
30
0.0000000000
10
201.5244398511
20
265.7757425423
30
0.0000000000
10
200.9870503789
20
264.2204131529
30
0.0000000000
10
200.1874282835
20
262.9264595934
30
0.0000000000
10
199.4568233349
20
262.2806372986
30
0.0000000000
10
199.0734683592
20
262.0918477335
30
0.0000000000
11
201.6512570237
21
267.4450541201
31
0.0000000000
11
201.4695055826
21
265.8037534832
31
0.0000000000
11
200.9128056496
21
264.2044067681
31
0.0000000000
11
200.0702539714
21
262.8979750676
31
0.0000000000
11
199.0734683592
21
262.0918477335
31
0.0000000000
0
SPLINE
5
48F
100
AcDbEntity
8
0
100
AcDbSpline
62
7
6
BYLAYER
70
0
71
3
72
9
73
5
74
3
42
0.0000001000
43
0.0000001000
44
0.0000000001
40
0.0000000000
40
0.0000000000
40
0.0000000000
40
0.0000000000
40
0.8583631666
40
1.0000000000
40
1.0000000000
40
1.0000000000
40
1.0000000000
10
198.0911709187
20
254.4373207367
30
0.0000000000
10
198.3455518128
20
254.2172330149
30
0.0000000000
10
198.6326361446
20
253.8684679576
30
0.0000000000
10
198.6461854119
20
253.4789382757
30
0.0000000000
10
198.6432351169
20
253.4235342305
30
0.0000000000
11
198.0911709187
21
254.4373207367
31
0.0000000000
11
198.6368598764
21
253.5884639982
31
0.0000000000
11
198.6432351169
21
253.4235342305
31
0.0000000000
0
SPLINE
5
490
100
AcDbEntity
8
0
100
AcDbSpline
62
7
6
BYLAYER
70
0
71
3
72
8
73
4
74
2
42
0.0000001000
43
0.0000001000
44
0.0000000001
40
0.0000000000
40
0.0000000000
40
0.0000000000
40
0.0000000000
40
1.0000000000
40
1.0000000000
40
1.0000000000
40
1.0000000000
10
43.1916719650
20
233.0224651048
30
0.0000000000
10
43.1562041367
20
233.0103204686
30
0.0000000000
10
43.1209233138
20
232.9976092984
30
0.0000000000
10
43.0858358145
20
232.9843526159
30
0.0000000000
11
43.1916719650
21
233.0224651048
31
0.0000000000
11
43.0858358145
21
232.9843526159
31
0.0000000000
0
SPLINE
5
491
100
AcDbEntity
8
0
100
AcDbSpline
62
7
6
BYLAYER
70
0
71
3
72
12
73
8
74
6
42
0.0000001000
43
0.0000001000
44
0.0000000001
40
0.0000000000
40
0.0000000000
40
0.0000000000
40
0.0000000000
40
0.1626517632
40
0.3606537886
40
0.5744485016
40
0.7906816776
40
1.0000000000
40
1.0000000000
40
1.0000000000
40
1.0000000000
10
43.0858358145
20
232.9843526159
30
0.0000000000
10
42.7017526054
20
232.8392391354
30
0.0000000000
10
41.9014750688
20
232.3725357100
30
0.0000000000
10
40.8731004890
20
231.3332138078
30
0.0000000000
10
40.0311622845
20
229.9757490607
30
0.0000000000
10
39.4772553777
20
228.4496002353
30
0.0000000000
10
39.3285476293
20
227.3751959770
30
0.0000000000
10
39.3215930856
20
226.8471243780
30
0.0000000000
11
43.0858358145
21
232.9843526159
31
0.0000000000
11
42.0113681459
21
232.3804881478
31
0.0000000000
11
40.9441755901
21
231.3282545342
31
0.0000000000
11
40.0848385648
21
229.9570424489
31
0.0000000000
11
39.5280600664
21
228.4179659360
31
0.0000000000
11
39.3215930856
21
226.8471243780
31
0.0000000000
0
SPLINE
5
492
100
AcDbEntity
8
0
100
AcDbSpline
62
7
6
BYLAYER
70
0
71
3
72
8
73
4
74
2
42
0.0000001000
43
0.0000001000
44
0.0000000001
40
0.0000000000
40
0.0000000000
40
0.0000000000
40
0.0000000000
40
1.0000000000
40
1.0000000000
40
1.0000000000
40
1.0000000000
10
211.5414860152
20
252.3191871588
30
0.0000000000
10
211.2181630274
20
252.3366052438
30
0.0000000000
10
210.8931957773
20
252.3333105680
30
0.0000000000
10
210.5701734530
20
252.3081325964
30
0.0000000000
11
211.5414860152
21
252.3191871588
31
0.0000000000
11
210.5701734530
21
252.3081325964
31
0.0000000000
0
SPLINE
5
493
100
AcDbEntity
8
0
100
AcDbSpline
62
7
6
BYLAYER
70
0
71
3
72
8
73
4
74
2
42
0.0000001000
43
0.0000001000
44
0.0000000001
40
0.0000000000
40
0.0000000000
40
0.0000000000
40
0.0000000000
40
1.0000000000
40
1.0000000000
40
1.0000000000
40
1.0000000000
10
210.5701734530
20
252.3081325964
30
0.0000000000
10
210.2700815943
20
252.2847419397
30
0.0000000000
10
209.9716683324
20
252.2424645830
30
0.0000000000
10
209.6778197655
20
252.1737186580
30
0.0000000000
11
210.5701734530
21
252.3081325964
31
0.0000000000
11
209.6778197655
21
252.1737186580
31
0.0000000000
0
SPLINE
5
494
100
AcDbEntity
8
0
100
AcDbSpline
62
7
6
BYLAYER
70
0
71
3
72
8
73
4
74
2
42
0.0000001000
43
0.0000001000
44
0.0000000001
40
0.0000000000
40
0.0000000000
40
0.0000000000
40
0.0000000000
40
1.0000000000
40
1.0000000000
40
1.0000000000
40
1.0000000000
10
209.6778197655
20
252.1737186580
30
0.0000000000
10
209.4349733645
20
252.1169046988
30
0.0000000000
10
209.1952446177
20
252.0420128954
30
0.0000000000
10
208.9722248563
20
251.9321830864
30
0.0000000000
11
209.6778197655
21
252.1737186580
31
0.0000000000
11
208.9722248563
21
251.9321830864
31
0.0000000000
0
SPLINE
5
495
100
AcDbEntity
8
0
100
AcDbSpline
62
7
6
BYLAYER
70
0
71
3
72
8
73
4
74
2
42
0.0000001000
43
0.0000001000
44
0.0000000001
40
0.0000000000
40
0.0000000000
40
0.0000000000
40
0.0000000000
40
1.0000000000
40
1.0000000000
40
1.0000000000
40
1.0000000000
10
194.6408766075
20
280.2544769166
30
0.0000000000
10
194.8887735808
20
280.1786748624
30
0.0000000000
10
195.1169156038
20
280.0269317117
30
0.0000000000
10
195.2969626582
20
279.8385084061
30
0.0000000000
11
194.6408766075
21
280.2544769166
31
0.0000000000
11
195.2969626582
21
279.8385084061
31
0.0000000000
0
SPLINE
5
496
100
AcDbEntity
8
0
100
AcDbSpline
62
7
6
BYLAYER
70
0
71
3
72
9
73
5
74
3
42
0.0000001000
43
0.0000001000
44
0.0000000001
40
0.0000000000
40
0.0000000000
40
0.0000000000
40
0.0000000000
40
0.4444733189
40
1.0000000000
40
1.0000000000
40
1.0000000000
40
1.0000000000
10
195.2969626582
20
279.8385084061
30
0.0000000000
10
195.5638756315
20
279.5591779561
30
0.0000000000
10
195.9265856471
20
278.7493605611
30
0.0000000000
10
196.0123534340
20
277.8880266354
30
0.0000000000
10
196.0060868335
20
277.4121918515
30
0.0000000000
11
195.2969626582
21
279.8385084061
31
0.0000000000
11
195.8315937344
21
278.8291160784
31
0.0000000000
11
196.0060868335
21
277.4121918515
31
0.0000000000
0
SPLINE
5
497
100
AcDbEntity
8
0
100
AcDbSpline
62
7
6
BYLAYER
70
0
71
3
72
8
73
4
74
2
42
0.0000001000
43
0.0000001000
44
0.0000000001
40
0.0000000000
40
0.0000000000
40
0.0000000000
40
0.0000000000
40
1.0000000000
40
1.0000000000
40
1.0000000000
40
1.0000000000
10
229.5784580475
20
252.8621706605
30
0.0000000000
10
229.5505031482
20
252.8443787090
30
0.0000000000
10
229.5223327252
20
252.8269354841
30
0.0000000000
10
229.4939592402
20
252.8098285646
30
0.0000000000
11
229.5784580475
21
252.8621706605
31
0.0000000000
11
229.4939592402
21
252.8098285646
31
0.0000000000
0
SPLINE
5
498
100
AcDbEntity
8
0
100
AcDbSpline
62
7
6
BYLAYER
70
0
71
3
72
8
73
4
74
2
42
0.0000001000
43
0.0000001000
44
0.0000000001
40
0.0000000000
40
0.0000000000
40
0.0000000000
40
0.0000000000
40
1.0000000000
40
1.0000000000
40
1.0000000000
40
1.0000000000
10
229.4939592402
20
252.8098285646
30
0.0000000000
10
229.1449010562
20
252.5993746755
30
0.0000000000
10
228.7651103114
20
252.4398191864
30
0.0000000000
10
228.3777897286
20
252.3080351561
30
0.0000000000
11
229.4939592402
21
252.8098285646
31
0.0000000000
11
228.3777897286
21
252.3080351561
31
0.0000000000
0
SPLINE
5
499
100
AcDbEntity
8
0
100
AcDbSpline
62
7
6
BYLAYER
70
0
71
3
72
9
73
5
74
3
42
0.0000001000
43
0.0000001000
44
0.0000000001
40
0.0000000000
40
0.0000000000
40
0.0000000000
40
0.0000000000
40
0.4690321721
40
1.0000000000
40
1.0000000000
40
1.0000000000
40
1.0000000000
10
228.3777897286
20
252.3080351561
30
0.0000000000
10
227.8595305569
20
252.1316998788
30
0.0000000000
10
226.7258328896
20
251.8617547706
30
0.0000000000
10
225.5667782935
20
251.7362732774
30
0.0000000000
10
224.9497020059
20
251.7022092423
30
0.0000000000
11
228.3777897286
21
252.3080351561
31
0.0000000000
11
226.7904708975
21
251.9102547188
31
0.0000000000
11
224.9497020059
21
251.7022092423
31
0.0000000000
0
SPLINE
5
49A
100
AcDbEntity
8
0
100
AcDbSpline
62
7
6
BYLAYER
70
0
71
3
72
8
73
4
74
2
42
0.0000001000
43
0.0000001000
44
0.0000000001
40
0.0000000000
40
0.0000000000
40
0.0000000000
40
0.0000000000
40
1.0000000000
40
1.0000000000
40
1.0000000000
40
1.0000000000
10
224.9497020059
20
251.7022092423
30
0.0000000000
10
224.3035581624
20
251.6665406110
30
0.0000000000
10
223.6555990853
20
251.6665745754
30
0.0000000000
10
223.0099518622
20
251.7013569403
30
0.0000000000
11
224.9497020059
21
251.7022092423
31
0.0000000000
11
223.0099518622
21
251.7013569403
31
0.0000000000
0
SPLINE
5
49B
100
AcDbEntity
8
0
100
AcDbSpline
62
7
6
BYLAYER
70
0
71
3
72
8
73
4
74
2
42
0.0000001000
43
0.0000001000
44
0.0000000001
40
0.0000000000
40
0.0000000000
40
0.0000000000
40
0.0000000000
40
1.0000000000
40
1.0000000000
40
1.0000000000
40
1.0000000000
10
233.2612652389
20
270.1777671037
30
0.0000000000
10
233.4930191744
20
270.1207943310
30
0.0000000000
10
233.7038749540
20
269.9625082717
30
0.0000000000
10
233.8626636980
20
269.7746943355
30
0.0000000000
11
233.2612652389
21
270.1777671037
31
0.0000000000
11
233.8626636980
21
269.7746943355
31
0.0000000000
0
SPLINE
5
49C
100
AcDbEntity
8
0
100
AcDbSpline
62
7
6
BYLAYER
70
0
71
3
72
8
73
4
74
2
42
0.0000001000
43
0.0000001000
44
0.0000000001
40
0.0000000000
40
0.0000000000
40
0.0000000000
40
0.0000000000
40
1.0000000000
40
1.0000000000
40
1.0000000000
40
1.0000000000
10
233.8626636980
20
269.7746943355
30
0.0000000000
10
234.1014033511
20
269.4923151639
30
0.0000000000
10
234.2224440667
20
269.1431874305
30
0.0000000000
10
234.3044668444
20
268.7891060917
30
0.0000000000
11
233.8626636980
21
269.7746943355
31
0.0000000000
11
234.3044668444
21
268.7891060917
31
0.0000000000
0
SPLINE
5
49D
100
AcDbEntity
8
0
100
AcDbSpline
62
7
6
BYLAYER
70
0
71
3
72
8
73
4
74
2
42
0.0000001000
43
0.0000001000
44
0.0000000001
40
0.0000000000
40
0.0000000000
40
0.0000000000
40
0.0000000000
40
1.0000000000
40
1.0000000000
40
1.0000000000
40
1.0000000000
10
234.3044668444
20
268.7891060917
30
0.0000000000
10
234.4119731687
20
268.3250156977
30
0.0000000000
10
234.4524503920
20
267.8524154814
30
0.0000000000
10
234.4462363722
20
267.3805732470
30
0.0000000000
11
234.3044668444
21
268.7891060917
31
0.0000000000
11
234.4462363722
21
267.3805732470
31
0.0000000000
0
SPLINE
5
49E
100
AcDbEntity
8
0
100
AcDbSpline
62
7
6
BYLAYER
70
0
71
3
72
9
73
5
74
3
42
0.0000001000
43
0.0000001000
44
0.0000000001
40
0.0000000000
40
0.0000000000
40
0.0000000000
40
0.0000000000
40
0.7646645741
40
1.0000000000
40
1.0000000000
40
1.0000000000
40
1.0000000000
10
185.9061854168
20
262.3486629856
30
0.0000000000
10
185.9033245792
20
262.2949747005
30
0.0000000000
10
185.9056106863
20
262.2250427277
30
0.0000000000
10
185.9167581406
20
262.1563720322
30
0.0000000000
10
185.9198491800
20
262.1402873418
30
0.0000000000
11
185.9061854168
21
262.3486629856
31
0.0000000000
11
185.9120021247
21
262.1887631800
31
0.0000000000
11
185.9198491800
21
262.1402873418
31
0.0000000000
0
SPLINE
5
49F
100
AcDbEntity
8
0
100
AcDbSpline
62
7
6
BYLAYER
70
0
71
3
72
8
73
4
74
2
42
0.0000001000
43
0.0000001000
44
0.0000000001
40
0.0000000000
40
0.0000000000
40
0.0000000000
40
0.0000000000
40
1.0000000000
40
1.0000000000
40
1.0000000000
40
1.0000000000
10
185.9198491800
20
262.1402873418
30
0.0000000000
10
185.9797777016
20
261.8284402281
30
0.0000000000
10
186.2154895159
20
261.5451443735
30
0.0000000000
10
186.4585134240
20
261.3348825987
30
0.0000000000
11
185.9198491800
21
262.1402873418
31
0.0000000000
11
186.4585134240
21
261.3348825987
31
0.0000000000
0
SPLINE
5
4A0
100
AcDbEntity
8
0
100
AcDbSpline
62
7
6
BYLAYER
70
0
71
3
72
9
73
5
74
3
42
0.0000001000
43
0.0000001000
44
0.0000000001
40
0.0000000000
40
0.0000000000
40
0.0000000000
40
0.0000000000
40
0.2623675829
40
1.0000000000
40
1.0000000000
40
1.0000000000
40
1.0000000000
10
205.4652318610
20
253.8989596324
30
0.0000000000
10
205.4648236008
20
253.8075837085
30
0.0000000000
10
205.4186545803
20
253.4612132386
30
0.0000000000
10
205.1936503064
20
253.1785650809
30
0.0000000000
10
205.0059947926
20
253.0034098921
30
0.0000000000
11
205.4652318610
21
253.8989596324
31
0.0000000000
11
205.4282866548
21
253.6302173793
31
0.0000000000
11
205.0059947926
21
253.0034098921
31
0.0000000000
0
SPLINE
5
4A1
100
AcDbEntity
8
0
100
AcDbSpline
62
7
6
BYLAYER
70
0
71
3
72
8
73
4
74
2
42
0.0000001000
43
0.0000001000
44
0.0000000001
40
0.0000000000
40
0.0000000000
40
0.0000000000
40
0.0000000000
40
1.0000000000
40
1.0000000000
40
1.0000000000
40
1.0000000000
10
205.0059947926
20
253.0034098921
30
0.0000000000
10
204.7539741595
20
252.7681771472
30
0.0000000000
10
204.4628415004
20
252.5930691571
30
0.0000000000
10
204.1593111152
20
252.4435905458
30
0.0000000000
11
205.0059947926
21
253.0034098921
31
0.0000000000
11
204.1593111152
21
252.4435905458
31
0.0000000000
0
SPLINE
5
4A2
100
AcDbEntity
8
0
100
AcDbSpline
62
7
6
BYLAYER
70
0
71
3
72
8
73
4
74
2
42
0.0000001000
43
0.0000001000
44
0.0000000001
40
0.0000000000
40
0.0000000000
40
0.0000000000
40
0.0000000000
40
1.0000000000
40
1.0000000000
40
1.0000000000
40
1.0000000000
10
200.2198681061
20
260.5265278128
30
0.0000000000
10
200.0302538311
20
260.4331490940
30
0.0000000000
10
199.8381218447
20
260.3262268060
30
0.0000000000
10
199.7092823077
20
260.1505483346
30
0.0000000000
11
200.2198681061
21
260.5265278128
31
0.0000000000
11
199.7092823077
21
260.1505483346
31
0.0000000000
0
SPLINE
5
4A3
100
AcDbEntity
8
0
100
AcDbSpline
62
7
6
BYLAYER
70
0
71
3
72
8
73
4
74
2
42
0.0000001000
43
0.0000001000
44
0.0000000001
40
0.0000000000
40
0.0000000000
40
0.0000000000
40
0.0000000000
40
1.0000000000
40
1.0000000000
40
1.0000000000
40
1.0000000000
10
199.7092823077
20
260.1505483346
30
0.0000000000
10
199.6360205908
20
260.0506527068
30
0.0000000000
10
199.5832236868
20
259.9285256369
30
0.0000000000
10
199.5768696541
20
259.8085848467
30
0.0000000000
11
199.7092823077
21
260.1505483346
31
0.0000000000
11
199.5768696541
21
259.8085848467
31
0.0000000000
0
SPLINE
5
4A4
100
AcDbEntity
8
0
100
AcDbSpline
62
7
6
BYLAYER
70
0
71
3
72
8
73
4
74
2
42
0.0000001000
43
0.0000001000
44
0.0000000001
40
0.0000000000
40
0.0000000000
40
0.0000000000
40
0.0000000000
40
1.0000000000
40
1.0000000000
40
1.0000000000
40
1.0000000000
10
201.7977520924
20
254.4430652546
30
0.0000000000
10
201.9226298733
20
254.3346988977
30
0.0000000000
10
202.0434011011
20
254.1872807588
30
0.0000000000
10
202.0652141411
20
254.0253289746
30
0.0000000000
11
201.7977520924
21
254.4430652546
31
0.0000000000
11
202.0652141411
21
254.0253289746
31
0.0000000000
0
SPLINE
5
4A5
100
AcDbEntity
8
0
100
AcDbSpline
62
7
6
BYLAYER
70
0
71
3
72
8
73
4
74
2
42
0.0000001000
43
0.0000001000
44
0.0000000001
40
0.0000000000
40
0.0000000000
40
0.0000000000
40
0.0000000000
40
1.0000000000
40
1.0000000000
40
1.0000000000
40
1.0000000000
10
202.0652141411
20
254.0253289746
30
0.0000000000
10
202.0687809727
20
253.9988468914
30
0.0000000000
10
202.0697018365
20
253.9719762042
30
0.0000000000
10
202.0682724628
20
253.9449948805
30
0.0000000000
11
202.0652141411
21
254.0253289746
31
0.0000000000
11
202.0682724628
21
253.9449948805
31
0.0000000000
0
SPLINE
5
4A6
100
AcDbEntity
8
0
100
AcDbSpline
62
7
6
BYLAYER
70
0
71
3
72
8
73
4
74
2
42
0.0000001000
43
0.0000001000
44
0.0000000001
40
0.0000000000
40
0.0000000000
40
0.0000000000
40
0.0000000000
40
1.0000000000
40
1.0000000000
40
1.0000000000
40
1.0000000000
10
79.3484762836
20
252.6742211611
30
0.0000000000
10
78.6976753109
20
252.7527638299
30
0.0000000000
10
78.0406760117
20
252.7862294584
30
0.0000000000
10
77.3846615720
20
252.7782859987
30
0.0000000000
11
79.3484762836
21
252.6742211611
31
0.0000000000
11
77.3846615720
21
252.7782859987
31
0.0000000000
0
SPLINE
5
4A7
100
AcDbEntity
8
0
100
AcDbSpline
62
7
6
BYLAYER
70
0
71
3
72
8
73
4
74
2
42
0.0000001000
43
0.0000001000
44
0.0000000001
40
0.0000000000
40
0.0000000000
40
0.0000000000
40
0.0000000000
40
1.0000000000
40
1.0000000000
40
1.0000000000
40
1.0000000000
10
77.3846615720
20
252.7782859987
30
0.0000000000
10
76.7419427589
20
252.7705035314
30
0.0000000000
10
76.1001692891
20
252.7229734657
30
0.0000000000
10
75.4638770452
20
252.6272566935
30
0.0000000000
11
77.3846615720
21
252.7782859987
31
0.0000000000
11
75.4638770452
21
252.6272566935
31
0.0000000000
0
SPLINE
5
4A8
100
AcDbEntity
8
0
100
AcDbSpline
62
7
6
BYLAYER
70
0
71
3
72
8
73
4
74
2
42
0.0000001000
43
0.0000001000
44
0.0000000001
40
0.0000000000
40
0.0000000000
40
0.0000000000
40
0.0000000000
40
1.0000000000
40
1.0000000000
40
1.0000000000
40
1.0000000000
10
75.4638770452
20
252.6272566935
30
0.0000000000
10
74.9051140058
20
252.5432025579
30
0.0000000000
10
74.3505778451
20
252.4219889681
30
0.0000000000
10
73.8170067189
20
252.2392874173
30
0.0000000000
11
75.4638770452
21
252.6272566935
31
0.0000000000
11
73.8170067189
21
252.2392874173
31
0.0000000000
0
SPLINE
5
4A9
100
AcDbEntity
8
0
100
AcDbSpline
62
7
6
BYLAYER
70
0
71
3
72
8
73
4
74
2
42
0.0000001000
43
0.0000001000
44
0.0000000001
40
0.0000000000
40
0.0000000000
40
0.0000000000
40
0.0000000000
40
1.0000000000
40
1.0000000000
40
1.0000000000
40
1.0000000000
10
192.2697184873
20
243.7067546629
30
0.0000000000
10
192.2442254586
20
243.6942001948
30
0.0000000000
10
192.2186969282
20
243.6817181554
30
0.0000000000
10
192.1931335235
20
243.6693078084
30
0.0000000000
11
192.2697184873
21
243.7067546629
31
0.0000000000
11
192.1931335235
21
243.6693078084
31
0.0000000000
0
SPLINE
5
4AA
100
AcDbEntity
8
0
100
AcDbSpline
62
7
6
BYLAYER
70
0
71
3
72
12
73
8
74
6
42
0.0000001000
43
0.0000001000
44
0.0000000001
40
0.0000000000
40
0.0000000000
40
0.0000000000
40
0.0000000000
40
0.1585932967
40
0.3497160772
40
0.5607094319
40
0.7812050646
40
1.0000000000
40
1.0000000000
40
1.0000000000
40
1.0000000000
10
192.1931335235
20
243.6693078084
30
0.0000000000
10
191.2355350222
20
243.2044194310
30
0.0000000000
10
189.0160114180
20
242.4011248885
30
0.0000000000
10
185.3329670272
20
241.5957737155
30
0.0000000000
10
181.1719810081
20
241.1363877918
30
0.0000000000
10
176.8026549110
20
241.0584125489
30
0.0000000000
10
173.8565671759
20
241.2684028010
30
0.0000000000
10
172.3985891970
20
241.4443605613
30
0.0000000000
11
192.1931335235
21
243.6693078084
31
0.0000000000
11
189.2065053347
21
242.5377457584
31
0.0000000000
11
185.4530801948
21
241.6877625007
31
0.0000000000
11
181.2317725858
21
241.2071526020
31
0.0000000000
11
176.7926264678
21
241.1243843980
31
0.0000000000
11
172.3985891970
21
241.4443605613
31
0.0000000000
0
SPLINE
5
4AB
100
AcDbEntity
8
0
100
AcDbSpline
62
7
6
BYLAYER
70
0
71
3
72
8
73
4
74
2
42
0.0000001000
43
0.0000001000
44
0.0000000001
40
0.0000000000
40
0.0000000000
40
0.0000000000
40
0.0000000000
40
1.0000000000
40
1.0000000000
40
1.0000000000
40
1.0000000000
10
194.9748730760
20
253.9666162025
30
0.0000000000
10
195.1001651582
20
253.8582147872
30
0.0000000000
10
195.2215374915
20
253.7107653304
30
0.0000000000
10
195.2436452492
20
253.5485225850
30
0.0000000000
11
194.9748730760
21
253.9666162025
31
0.0000000000
11
195.2436452492
21
253.5485225850
31
0.0000000000
0
SPLINE
5
4AC
100
AcDbEntity
8
0
100
AcDbSpline
62
7
6
BYLAYER
70
0
71
3
72
8
73
4
74
2
42
0.0000001000
43
0.0000001000
44
0.0000000001
40
0.0000000000
40
0.0000000000
40
0.0000000000
40
0.0000000000
40
1.0000000000
40
1.0000000000
40
1.0000000000
40
1.0000000000
10
195.2436452492
20
253.5485225850
30
0.0000000000
10
195.2472932072
20
253.5217512257
30
0.0000000000
10
195.2482384234
20
253.4945770799
30
0.0000000000
10
195.2467852931
20
253.4672885203
30
0.0000000000
11
195.2436452492
21
253.5485225850
31
0.0000000000
11
195.2467852931
21
253.4672885203
31
0.0000000000
0
SPLINE
5
4AD
100
AcDbEntity
8
0
100
AcDbSpline
62
7
6
BYLAYER
70
0
71
3
72
8
73
4
74
2
42
0.0000001000
43
0.0000001000
44
0.0000000001
40
0.0000000000
40
0.0000000000
40
0.0000000000
40
0.0000000000
40
1.0000000000
40
1.0000000000
40
1.0000000000
40
1.0000000000
10
198.6432351169
20
253.4235342305
30
0.0000000000
10
198.6302862461
20
253.1803653865
30
0.0000000000
10
198.5235367540
20
252.9327217612
30
0.0000000000
10
198.3752380601
20
252.7301044322
30
0.0000000000
11
198.6432351169
21
253.4235342305
31
0.0000000000
11
198.3752380601
21
252.7301044322
31
0.0000000000
0
SPLINE
5
4AE
100
AcDbEntity
8
0
100
AcDbSpline
62
7
6
BYLAYER
70
0
71
3
72
8
73
4
74
2
42
0.0000001000
43
0.0000001000
44
0.0000000001
40
0.0000000000
40
0.0000000000
40
0.0000000000
40
0.0000000000
40
1.0000000000
40
1.0000000000
40
1.0000000000
40
1.0000000000
10
198.3752380601
20
252.7301044322
30
0.0000000000
10
198.1137862031
20
252.3728883603
30
0.0000000000
10
197.7231911607
20
252.1556229755
30
0.0000000000
10
197.3378924050
20
251.9658761634
30
0.0000000000
11
198.3752380601
21
252.7301044322
31
0.0000000000
11
197.3378924050
21
251.9658761634
31
0.0000000000
0
SPLINE
5
4AF
100
AcDbEntity
8
0
100
AcDbSpline
62
7
6
BYLAYER
70
0
71
3
72
11
73
7
74
5
42
0.0000001000
43
0.0000001000
44
0.0000000001
40
0.0000000000
40
0.0000000000
40
0.0000000000
40
0.0000000000
40
0.2689290406
40
0.5422669621
40
0.7925858999
40
1.0000000000
40
1.0000000000
40
1.0000000000
40
1.0000000000
10
195.9063565431
20
269.8394830131
30
0.0000000000
10
195.8992447615
20
269.2994720370
30
0.0000000000
10
195.7453272587
20
268.2103349666
30
0.0000000000
10
195.1963306324
20
266.7037434197
30
0.0000000000
10
194.3998645066
20
265.4574775715
30
0.0000000000
10
193.6825143456
20
264.8394941628
30
0.0000000000
10
193.3079111507
20
264.6573806815
30
0.0000000000
11
195.9063565431
21
269.8394830131
31
0.0000000000
11
195.6920532641
21
268.2335452837
31
0.0000000000
11
195.1237740713
21
266.6879727222
31
0.0000000000
11
194.2877249371
21
265.4328810408
31
0.0000000000
11
193.3079111507
21
264.6573806815
31
0.0000000000
0
SPLINE
5
4B0
100
AcDbEntity
8
0
100
AcDbSpline
62
7
6
BYLAYER
70
0
71
3
72
11
73
7
74
5
42
0.0000001000
43
0.0000001000
44
0.0000000001
40
0.0000000000
40
0.0000000000
40
0.0000000000
40
0.0000000000
40
0.2596366194
40
0.5259934531
40
0.7779733354
40
1.0000000000
40
1.0000000000
40
1.0000000000
40
1.0000000000
10
56.4736974172
20
241.4967331119
30
0.0000000000
10
56.4666202995
20
240.9593542356
30
0.0000000000
10
56.2818165587
20
239.8694372201
30
0.0000000000
10
55.6103582337
20
238.3873225573
30
0.0000000000
10
54.6285338033
20
237.1872430691
30
0.0000000000
10
53.7755698169
20
236.6465265598
30
0.0000000000
10
53.3407764196
20
236.4976477616
30
0.0000000000
11
56.4736974172
21
241.4967331119
31
0.0000000000
11
56.2185926513
21
239.9047667685
31
0.0000000000
11
55.5345706650
21
238.3988272538
31
0.0000000000
11
54.5254072890
21
237.2030139485
31
0.0000000000
11
53.3407764196
21
236.4976477616
31
0.0000000000
0
SPLINE
5
4B1
100
AcDbEntity
8
0
100
AcDbSpline
62
7
6
BYLAYER
70
0
71
3
72
8
73
4
74
2
42
0.0000001000
43
0.0000001000
44
0.0000000001
40
0.0000000000
40
0.0000000000
40
0.0000000000
40
0.0000000000
40
1.0000000000
40
1.0000000000
40
1.0000000000
40
1.0000000000
10
207.2345917223
20
274.9068546012
30
0.0000000000
10
207.1927742898
20
274.8862609076
30
0.0000000000
10
207.1515189467
20
274.8645416782
30
0.0000000000
10
207.1108219954
20
274.8417801301
30
0.0000000000
11
207.2345917223
21
274.9068546012
31
0.0000000000
11
207.1108219954
21
274.8417801301
31
0.0000000000
0
SPLINE
5
4B2
100
AcDbEntity
8
0
100
AcDbSpline
62
7
6
BYLAYER
70
0
71
3
72
12
73
8
74
6
42
0.0000001000
43
0.0000001000
44
0.0000000001
40
0.0000000000
40
0.0000000000
40
0.0000000000
40
0.0000000000
40
0.1447074047
40
0.3403927692
40
0.5592466716
40
0.7836929598
40
1.0000000000
40
1.0000000000
40
1.0000000000
40
1.0000000000
10
207.1108219954
20
274.8417801301
30
0.0000000000
10
206.8254292417
20
274.6821617637
30
0.0000000000
10
206.2186985119
20
274.1861206042
30
0.0000000000
10
205.4599152429
20
273.1660657673
30
0.0000000000
10
204.8376569621
20
271.8538212573
30
0.0000000000
10
204.4404875418
20
270.4109769382
30
0.0000000000
10
204.3466746735
20
269.4124303964
30
0.0000000000
10
204.3535338031
20
268.9238592279
30
0.0000000000
11
207.1108219954
21
274.8417801301
31
0.0000000000
11
206.3357487585
21
274.2378490377
31
0.0000000000
11
205.5267270748
21
273.1871103197
31
0.0000000000
11
204.8832629637
21
271.8508502002
31
0.0000000000
11
204.4800800234
21
270.3842446439
31
0.0000000000
11
204.3535338031
21
268.9238592279
31
0.0000000000
0
SPLINE
5
4B3
100
AcDbEntity
8
0
100
AcDbSpline
62
7
6
BYLAYER
70
0
71
3
72
8
73
4
74
2
42
0.0000001000
43
0.0000001000
44
0.0000000001
40
0.0000000000
40
0.0000000000
40
0.0000000000
40
0.0000000000
40
1.0000000000
40
1.0000000000
40
1.0000000000
40
1.0000000000
10
189.9577265747
20
263.0286872151
30
0.0000000000
10
189.7653192512
20
262.9351483239
30
0.0000000000
10
189.5703166745
20
262.8282842807
30
0.0000000000
10
189.4386885736
20
262.6511551313
30
0.0000000000
11
189.9577265747
21
263.0286872151
31
0.0000000000
11
189.4386885736
21
262.6511551313
31
0.0000000000
0
SPLINE
5
4B4
100
AcDbEntity
8
0
100
AcDbSpline
62
7
6
BYLAYER
70
0
71
3
72
8
73
4
74
2
42
0.0000001000
43
0.0000001000
44
0.0000000001
40
0.0000000000
40
0.0000000000
40
0.0000000000
40
0.0000000000
40
1.0000000000
40
1.0000000000
40
1.0000000000
40
1.0000000000
10
189.4386885736
20
262.6511551313
30
0.0000000000
10
189.3636760585
20
262.5502123774
30
0.0000000000
10
189.3092454027
20
262.4264499234
30
0.0000000000
10
189.3027691139
20
262.3049118011
30
0.0000000000
11
189.4386885736
21
262.6511551313
31
0.0000000000
11
189.3027691139
21
262.3049118011
31
0.0000000000
0
SPLINE
5
4B5
100
AcDbEntity
8
0
100
AcDbSpline
62
7
6
BYLAYER
70
0
71
3
72
8
73
4
74
2
42
0.0000001000
43
0.0000001000
44
0.0000000001
40
0.0000000000
40
0.0000000000
40
0.0000000000
40
0.0000000000
40
1.0000000000
40
1.0000000000
40
1.0000000000
40
1.0000000000
10
59.9806971878
20
247.5015587703
30
0.0000000000
10
59.9429906158
20
247.4886475597
30
0.0000000000
10
59.9055213253
20
247.4750338534
30
0.0000000000
10
59.8682966080
20
247.4607460853
30
0.0000000000
11
59.9806971878
21
247.5015587703
31
0.0000000000
11
59.8682966080
21
247.4607460853
31
0.0000000000
0
SPLINE
5
4B6
100
AcDbEntity
8
0
100
AcDbSpline
62
7
6
BYLAYER
70
0
71
3
72
11
73
7
74
5
42
0.0000001000
43
0.0000001000
44
0.0000000001
40
0.0000000000
40
0.0000000000
40
0.0000000000
40
0.0000000000
40
0.2083887960
40
0.4647858845
40
0.7358119520
40
1.0000000000
40
1.0000000000
40
1.0000000000
40
1.0000000000
10
59.8682966080
20
247.4607460853
30
0.0000000000
10
59.4257856947
20
247.2908994406
30
0.0000000000
10
58.5159043888
20
246.6996238441
30
0.0000000000
10
57.4441057486
20
245.3895692927
30
0.0000000000
10
56.6936523264
20
243.7330881990
30
0.0000000000
10
56.4871069691
20
242.5149456522
30
0.0000000000
10
56.4791972494
20
241.9143457317
30
0.0000000000
11
59.8682966080
21
247.4607460853
31
0.0000000000
11
58.6566979809
21
246.7132083261
31
0.0000000000
11
57.5288095018
21
245.3767111025
31
0.0000000000
11
56.7643143407
21
243.6936022332
31
0.0000000000
11
56.4791972494
21
241.9143457317
31
0.0000000000
0
SPLINE
5
4B7
100
AcDbEntity
8
0
100
AcDbSpline
62
7
6
BYLAYER
70
0
71
3
72
8
73
4
74
2
42
0.0000001000
43
0.0000001000
44
0.0000000001
40
0.0000000000
40
0.0000000000
40
0.0000000000
40
0.0000000000
40
1.0000000000
40
1.0000000000
40
1.0000000000
40
1.0000000000
10
196.1799102559
20
259.8546200948
30
0.0000000000
10
196.1793285546
20
259.7244249550
30
0.0000000000
10
196.2025096296
20
259.5932156771
30
0.0000000000
10
196.2477021734
20
259.4722355111
30
0.0000000000
11
196.1799102559
21
259.8546200948
31
0.0000000000
11
196.2477021734
21
259.4722355111
31
0.0000000000
0
SPLINE
5
4B8
100
AcDbEntity
8
0
100
AcDbSpline
62
7
6
BYLAYER
70
0
71
3
72
8
73
4
74
2
42
0.0000001000
43
0.0000001000
44
0.0000000001
40
0.0000000000
40
0.0000000000
40
0.0000000000
40
0.0000000000
40
1.0000000000
40
1.0000000000
40
1.0000000000
40
1.0000000000
10
196.2477021734
20
259.4722355111
30
0.0000000000
10
196.3413903958
20
259.2214327074
30
0.0000000000
10
196.5296773783
20
259.0145915907
30
0.0000000000
10
196.7295876240
20
258.8411136120
30
0.0000000000
11
196.2477021734
21
259.4722355111
31
0.0000000000
11
196.7295876240
21
258.8411136120
31
0.0000000000
0
SPLINE
5
4B9
100
AcDbEntity
8
0
100
AcDbSpline
62
7
6
BYLAYER
70
0
71
3
72
11
73
7
74
5
42
0.0000001000
43
0.0000001000
44
0.0000000001
40
0.0000000000
40
0.0000000000
40
0.0000000000
40
0.0000000000
40
0.2759898337
40
0.5545802061
40
0.8038050649
40
1.0000000000
40
1.0000000000
40
1.0000000000
40
1.0000000000
10
234.3465060817
20
259.8078644086
30
0.0000000000
10
234.3393752687
20
259.2664083434
30
0.0000000000
10
234.2098555096
20
258.1787190737
30
0.0000000000
10
233.7556358002
20
256.6590893344
30
0.0000000000
10
233.1024543960
20
255.3916761072
30
0.0000000000
10
232.5014682868
20
254.7225263676
30
0.0000000000
10
232.1767203272
20
254.5158398799
30
0.0000000000
11
234.3465060817
21
259.8078644086
31
0.0000000000
11
234.1649263741
21
258.1935352970
31
0.0000000000
11
233.6894751111
21
256.6241586516
31
0.0000000000
11
232.9922669034
21
255.3334636655
31
0.0000000000
11
232.1767203272
21
254.5158398799
31
0.0000000000
0
SPLINE
5
4BA
100
AcDbEntity
8
0
100
AcDbSpline
62
7
6
BYLAYER
70
0
71
3
72
11
73
7
74
5
42
0.0000001000
43
0.0000001000
44
0.0000000001
40
0.0000000000
40
0.0000000000
40
0.0000000000
40
0.0000000000
40
0.2671489963
40
0.5411140284
40
0.7926072881
40
1.0000000000
40
1.0000000000
40
1.0000000000
40
1.0000000000
10
204.3852941281
20
266.6615927515
30
0.0000000000
10
204.3930211446
20
266.1112025863
30
0.0000000000
10
204.2584769554
20
264.9922811738
30
0.0000000000
10
203.7210874832
20
263.4369517843
30
0.0000000000
10
202.9214653879
20
262.1429982248
30
0.0000000000
10
202.1908604392
20
261.4971759300
30
0.0000000000
10
201.8075054635
20
261.3083863649
30
0.0000000000
11
204.3852941281
21
266.6615927515
31
0.0000000000
11
204.2035426869
21
265.0202921146
31
0.0000000000
11
203.6468427539
21
263.4209453995
31
0.0000000000
11
202.8042910757
21
262.1145136990
31
0.0000000000
11
201.8075054635
21
261.3083863649
31
0.0000000000
0
SPLINE
5
4BB
100
AcDbEntity
8
0
100
AcDbSpline
62
7
6
BYLAYER
70
0
71
3
72
8
73
4
74
2
42
0.0000001000
43
0.0000001000
44
0.0000000001
40
0.0000000000
40
0.0000000000
40
0.0000000000
40
0.0000000000
40
1.0000000000
40
1.0000000000
40
1.0000000000
40
1.0000000000
10
198.6401796546
20
253.1915272196
30
0.0000000000
10
198.6272307838
20
252.9483583755
30
0.0000000000
10
198.5204812917
20
252.7007147502
30
0.0000000000
10
198.3721825977
20
252.4980974212
30
0.0000000000
11
198.6401796546
21
253.1915272196
31
0.0000000000
11
198.3721825977
21
252.4980974212
31
0.0000000000
0
SPLINE
5
4BC
100
AcDbEntity
8
0
100
AcDbSpline
62
7
6
BYLAYER
70
0
71
3
72
8
73
4
74
2
42
0.0000001000
43
0.0000001000
44
0.0000000001
40
0.0000000000
40
0.0000000000
40
0.0000000000
40
0.0000000000
40
1.0000000000
40
1.0000000000
40
1.0000000000
40
1.0000000000
10
198.3721825977
20
252.4980974212
30
0.0000000000
10
198.1386814997
20
252.1790698726
30
0.0000000000
10
197.8021736037
20
251.9716693688
30
0.0000000000
10
197.4584264619
20
251.7958052325
30
0.0000000000
11
198.3721825977
21
252.4980974212
31
0.0000000000
11
197.4584264619
21
251.7958052325
31
0.0000000000
0
SPLINE
5
4BD
100
AcDbEntity
8
0
100
AcDbSpline
62
7
6
BYLAYER
70
0
71
3
72
8
73
4
74
2
42
0.0000001000
43
0.0000001000
44
0.0000000001
40
0.0000000000
40
0.0000000000
40
0.0000000000
40
0.0000000000
40
1.0000000000
40
1.0000000000
40
1.0000000000
40
1.0000000000
10
197.4584264619
20
251.7958052325
30
0.0000000000
10
197.4172789317
20
251.7747537851
30
0.0000000000
10
197.3760276718
20
251.7541542155
30
0.0000000000
10
197.3348369426
20
251.7338691525
30
0.0000000000
11
197.4584264619
21
251.7958052325
31
0.0000000000
11
197.3348369426
21
251.7338691525
31
0.0000000000
0
SPLINE
5
4BE
100
AcDbEntity
8
0
100
AcDbSpline
62
7
6
BYLAYER
70
0
71
3
72
8
73
4
74
2
42
0.0000001000
43
0.0000001000
44
0.0000000001
40
0.0000000000
40
0.0000000000
40
0.0000000000
40
0.0000000000
40
1.0000000000
40
1.0000000000
40
1.0000000000
40
1.0000000000
10
185.9089466623
20
261.9567561690
30
0.0000000000
10
185.9444522976
20
261.6865379064
30
0.0000000000
10
186.1159895760
20
261.4356816706
30
0.0000000000
10
186.3168775246
20
261.2323553064
30
0.0000000000
11
185.9089466623
21
261.9567561690
31
0.0000000000
11
186.3168775246
21
261.2323553064
31
0.0000000000
0
SPLINE
5
4BF
100
AcDbEntity
8
0
100
AcDbSpline
62
7
6
BYLAYER
70
0
71
3
72
8
73
4
74
2
42
0.0000001000
43
0.0000001000
44
0.0000000001
40
0.0000000000
40
0.0000000000
40
0.0000000000
40
0.0000000000
40
1.0000000000
40
1.0000000000
40
1.0000000000
40
1.0000000000
10
186.3168775246
20
261.2323553064
30
0.0000000000
10
186.3619934389
20
261.1866917667
30
0.0000000000
10
186.4085897216
20
261.1434255050
30
0.0000000000
10
186.4554579617
20
261.1028755877
30
0.0000000000
11
186.3168775246
21
261.2323553064
31
0.0000000000
11
186.4554579617
21
261.1028755877
31
0.0000000000
0
SPLINE
5
4C0
100
AcDbEntity
8
0
100
AcDbSpline
62
7
6
BYLAYER
70
0
71
3
72
8
73
4
74
2
42
0.0000001000
43
0.0000001000
44
0.0000000001
40
0.0000000000
40
0.0000000000
40
0.0000000000
40
0.0000000000
40
1.0000000000
40
1.0000000000
40
1.0000000000
40
1.0000000000
10
196.2446467111
20
259.2402285001
30
0.0000000000
10
196.3171561583
20
259.0461211491
30
0.0000000000
10
196.4463292671
20
258.8783463860
30
0.0000000000
10
196.5936998940
20
258.7319908890
30
0.0000000000
11
196.2446467111
21
259.2402285001
31
0.0000000000
11
196.5936998940
21
258.7319908890
31
0.0000000000
0
SPLINE
5
4C1
100
AcDbEntity
8
0
100
AcDbSpline
62
7
6
BYLAYER
70
0
71
3
72
8
73
4
74
2
42
0.0000001000
43
0.0000001000
44
0.0000000001
40
0.0000000000
40
0.0000000000
40
0.0000000000
40
0.0000000000
40
1.0000000000
40
1.0000000000
40
1.0000000000
40
1.0000000000
10
196.5936998940
20
258.7319908890
30
0.0000000000
10
196.6367443453
20
258.6892429398
30
0.0000000000
10
196.6813412717
20
258.6483223211
30
0.0000000000
10
196.7265321616
20
258.6091066010
30
0.0000000000
11
196.5936998940
21
258.7319908890
31
0.0000000000
11
196.7265321616
21
258.6091066010
31
0.0000000000
0
SPLINE
5
4C2
100
AcDbEntity
8
0
100
AcDbSpline
62
7
6
BYLAYER
70
0
71
3
72
8
73
4
74
2
42
0.0000001000
43
0.0000001000
44
0.0000000001
40
0.0000000000
40
0.0000000000
40
0.0000000000
40
0.0000000000
40
1.0000000000
40
1.0000000000
40
1.0000000000
40
1.0000000000
10
205.4252311925
20
253.3982103684
30
0.0000000000
10
205.4152671128
20
253.3629252557
30
0.0000000000
10
205.4032541120
20
253.3283702115
30
0.0000000000
10
205.3894232485
20
253.2945411532
30
0.0000000000
11
205.4252311925
21
253.3982103684
31
0.0000000000
11
205.3894232485
21
253.2945411532
31
0.0000000000
0
SPLINE
5
4C3
100
AcDbEntity
8
0
100
AcDbSpline
62
7
6
BYLAYER
70
0
71
3
72
8
73
4
74
2
42
0.0000001000
43
0.0000001000
44
0.0000000001
40
0.0000000000
40
0.0000000000
40
0.0000000000
40
0.0000000000
40
1.0000000000
40
1.0000000000
40
1.0000000000
40
1.0000000000
10
205.3894232485
20
253.2945411532
30
0.0000000000
10
205.3079408717
20
253.0952425289
30
0.0000000000
10
205.1633642327
20
252.9211413754
30
0.0000000000
10
205.0029393303
20
252.7714028811
30
0.0000000000
11
205.3894232485
21
253.2945411532
31
0.0000000000
11
205.0029393303
21
252.7714028811
31
0.0000000000
0
SPLINE
5
4C4
100
AcDbEntity
8
0
100
AcDbSpline
62
7
6
BYLAYER
70
0
71
3
72
8
73
4
74
2
42
0.0000001000
43
0.0000001000
44
0.0000000001
40
0.0000000000
40
0.0000000000
40
0.0000000000
40
0.0000000000
40
1.0000000000
40
1.0000000000
40
1.0000000000
40
1.0000000000
10
205.0029393303
20
252.7714028811
30
0.0000000000
10
204.7831533202
20
252.5662575095
30
0.0000000000
10
204.5336206504
20
252.4068400331
30
0.0000000000
10
204.2720601751
20
252.2702706255
30
0.0000000000
11
205.0029393303
21
252.7714028811
31
0.0000000000
11
204.2720601751
21
252.2702706255
31
0.0000000000
0
SPLINE
5
4C5
100
AcDbEntity
8
0
100
AcDbSpline
62
7
6
BYLAYER
70
0
71
3
72
8
73
4
74
2
42
0.0000001000
43
0.0000001000
44
0.0000000001
40
0.0000000000
40
0.0000000000
40
0.0000000000
40
0.0000000000
40
1.0000000000
40
1.0000000000
40
1.0000000000
40
1.0000000000
10
204.2720601751
20
252.2702706255
30
0.0000000000
10
204.2336987556
20
252.2502408549
30
0.0000000000
10
204.1950786152
20
252.2307025515
30
0.0000000000
10
204.1562556528
20
252.2115835348
30
0.0000000000
11
204.2720601751
21
252.2702706255
31
0.0000000000
11
204.1562556528
21
252.2115835348
31
0.0000000000
0
SPLINE
5
4C6
100
AcDbEntity
8
0
100
AcDbSpline
62
7
6
BYLAYER
70
0
71
3
72
9
73
5
74
3
42
0.0000001000
43
0.0000001000
44
0.0000000001
40
0.0000000000
40
0.0000000000
40
0.0000000000
40
0.0000000000
40
0.4028258530
40
1.0000000000
40
1.0000000000
40
1.0000000000
40
1.0000000000
10
194.7103643902
20
280.4944926937
30
0.0000000000
10
194.9728435385
20
280.4142316951
30
0.0000000000
10
195.5725124530
20
280.0153764150
30
0.0000000000
10
195.8583556298
20
279.3771784969
30
0.0000000000
10
195.9711237011
20
278.9852871003
30
0.0000000000
11
194.7103643902
21
280.4944926937
31
0.0000000000
11
195.4050437381
21
280.0540554472
31
0.0000000000
11
195.9711237011
21
278.9852871003
31
0.0000000000
0
SPLINE
5
4C7
100
AcDbEntity
8
0
100
AcDbSpline
62
7
6
BYLAYER
70
0
71
3
72
8
73
4
74
2
42
0.0000001000
43
0.0000001000
44
0.0000000001
40
0.0000000000
40
0.0000000000
40
0.0000000000
40
0.0000000000
40
1.0000000000
40
1.0000000000
40
1.0000000000
40
1.0000000000
10
195.9711237011
20
278.9852871003
30
0.0000000000
10
196.1120673071
20
278.4954801363
30
0.0000000000
10
196.1625163242
20
277.9888394547
30
0.0000000000
10
196.1558811001
20
277.4850143895
30
0.0000000000
11
195.9711237011
21
278.9852871003
31
0.0000000000
11
196.1558811001
21
277.4850143895
31
0.0000000000
0
SPLINE
5
4C8
100
AcDbEntity
8
0
100
AcDbSpline
62
7
6
BYLAYER
70
0
71
3
72
10
73
6
74
4
42
0.0000001000
43
0.0000001000
44
0.0000000001
40
0.0000000000
40
0.0000000000
40
0.0000000000
40
0.0000000000
40
0.2235070553
40
0.5595510060
40
1.0000000000
40
1.0000000000
40
1.0000000000
40
1.0000000000
10
233.3161400484
20
270.4215964683
30
0.0000000000
10
233.5615265683
20
270.3612723560
30
0.0000000000
10
234.1204567187
20
269.9416924371
30
0.0000000000
10
234.5018376584
20
268.8416438924
30
0.0000000000
10
234.5773949164
20
267.9594594565
30
0.0000000000
10
234.5708153660
20
267.4598617965
30
0.0000000000
11
233.3161400484
21
270.4215964683
31
0.0000000000
11
233.9529148874
21
269.9948135372
31
0.0000000000
11
234.4207064542
21
268.9512495144
31
0.0000000000
11
234.5708153660
21
267.4598617965
31
0.0000000000
0
SPLINE
5
4C9
100
AcDbEntity
8
0
100
AcDbSpline
62
7
6
BYLAYER
70
0
71
3
72
11
73
7
74
5
42
0.0000001000
43
0.0000001000
44
0.0000000001
40
0.0000000000
40
0.0000000000
40
0.0000000000
40
0.0000000000
40
0.2073927119
40
0.4588859716
40
0.7328510037
40
1.0000000000
40
1.0000000000
40
1.0000000000
40
1.0000000000
10
207.2315362600
20
274.6748475902
30
0.0000000000
10
206.8256309916
20
274.4749527566
30
0.0000000000
10
206.0520492813
20
273.7911409151
30
0.0000000000
10
205.2053905921
20
272.4210724403
30
0.0000000000
10
204.6363899744
20
270.7742530868
30
0.0000000000
10
204.4939314212
20
269.5895127676
30
0.0000000000
10
204.5021129681
20
269.0067467103
30
0.0000000000
11
207.2315362600
21
274.6748475902
31
0.0000000000
11
206.1761162000
21
273.8213010012
31
0.0000000000
11
205.2840026584
21
272.4380203772
31
0.0000000000
11
204.6945556705
21
270.7445944435
31
0.0000000000
11
204.5021129681
21
269.0067467103
31
0.0000000000
0
SPLINE
5
4CA
100
AcDbEntity
8
0
100
AcDbSpline
62
7
6
BYLAYER
70
0
71
3
72
11
73
7
74
5
42
0.0000001000
43
0.0000001000
44
0.0000000001
40
0.0000000000
40
0.0000000000
40
0.0000000000
40
0.0000000000
40
0.2644473252
40
0.5357393809
40
0.7923881004
40
1.0000000000
40
1.0000000000
40
1.0000000000
40
1.0000000000
10
56.6549314253
20
241.5587899451
30
0.0000000000
10
56.6474380066
20
240.9898005467
30
0.0000000000
10
56.4517634575
20
239.8357707655
30
0.0000000000
10
55.7408075839
20
238.2664728873
30
0.0000000000
10
54.7267723756
20
237.0270223132
30
0.0000000000
10
53.8670622875
20
236.4675770010
30
0.0000000000
10
53.4501207241
20
236.3065825488
30
0.0000000000
11
56.6549314253
21
241.5587899451
31
0.0000000000
11
56.3848204967
21
239.8731785226
31
0.0000000000
11
55.6605619230
21
238.2786543306
31
0.0000000000
11
54.5920359954
21
237.0124990662
31
0.0000000000
11
53.4501207241
21
236.3065825488
31
0.0000000000
0
SPLINE
5
4CB
100
AcDbEntity
8
0
100
AcDbSpline
62
7
6
BYLAYER
70
0
71
3
72
8
73
4
74
2
42
0.0000001000
43
0.0000001000
44
0.0000000001
40
0.0000000000
40
0.0000000000
40
0.0000000000
40
0.0000000000
40
1.0000000000
40
1.0000000000
40
1.0000000000
40
1.0000000000
10
53.4501207241
20
236.3065825488
30
0.0000000000
10
53.4129101987
20
236.2922143767
30
0.0000000000
10
53.3754408987
20
236.2785565391
30
0.0000000000
10
53.3377209572
20
236.2656407506
30
0.0000000000
11
53.4501207241
21
236.3065825488
31
0.0000000000
11
53.3377209572
21
236.2656407506
31
0.0000000000
0
SPLINE
5
4CC
100
AcDbEntity
8
0
100
AcDbSpline
62
7
6
BYLAYER
70
0
71
3
72
10
73
6
74
4
42
0.0000001000
43
0.0000001000
44
0.0000000001
40
0.0000000000
40
0.0000000000
40
0.0000000000
40
0.0000000000
40
0.2998887713
40
0.6402349973
40
1.0000000000
40
1.0000000000
40
1.0000000000
40
1.0000000000
10
43.1886165027
20
232.7904580939
30
0.0000000000
10
42.6770948587
20
232.6153065666
30
0.0000000000
10
41.6736078159
20
231.9791694967
30
0.0000000000
10
40.5185202508
20
230.5673112753
30
0.0000000000
10
39.9922032508
20
229.4055680758
30
0.0000000000
10
39.8029503478
20
228.7820827916
30
0.0000000000
11
43.1886165027
21
232.7904580939
31
0.0000000000
11
41.7949331269
21
231.9606155210
31
0.0000000000
11
40.6076820963
21
230.5537763383
31
0.0000000000
11
39.8029503478
21
228.7820827916
31
0.0000000000
0
SPLINE
5
4CD
100
AcDbEntity
8
0
100
AcDbSpline
62
7
6
BYLAYER
70
0
71
3
72
8
73
4
74
2
42
0.0000001000
43
0.0000001000
44
0.0000000001
40
0.0000000000
40
0.0000000000
40
0.0000000000
40
0.0000000000
40
1.0000000000
40
1.0000000000
40
1.0000000000
40
1.0000000000
10
39.8029503478
20
228.7820827916
30
0.0000000000
10
39.6184723177
20
228.1743281145
30
0.0000000000
10
39.5111531145
20
227.5413916538
30
0.0000000000
10
39.5028270938
20
226.9091812111
30
0.0000000000
11
39.8029503478
21
228.7820827916
31
0.0000000000
11
39.5028270938
21
226.9091812111
31
0.0000000000
0
SPLINE
5
4CE
100
AcDbEntity
8
0
100
AcDbSpline
62
7
6
BYLAYER
70
0
71
3
72
9
73
5
74
3
42
0.0000001000
43
0.0000001000
44
0.0000000001
40
0.0000000000
40
0.0000000000
40
0.0000000000
40
0.0000000000
40
0.8599795654
40
1.0000000000
40
1.0000000000
40
1.0000000000
40
1.0000000000
10
190.7928035821
20
281.1397940910
30
0.0000000000
10
191.1061648507
20
281.2921347872
30
0.0000000000
10
191.5362642472
20
281.3952831928
30
0.0000000000
10
191.9338285299
20
281.3006954467
30
0.0000000000
10
191.9885853497
20
281.2839518804
30
0.0000000000
11
190.7928035821
21
281.1397940910
31
0.0000000000
11
191.8218564082
21
281.3233071213
31
0.0000000000
11
191.9885853497
21
281.2839518804
31
0.0000000000
0
SPLINE
5
4CF
100
AcDbEntity
8
0
100
AcDbSpline
62
7
6
BYLAYER
70
0
71
3
72
8
73
4
74
2
42
0.0000001000
43
0.0000001000
44
0.0000000001
40
0.0000000000
40
0.0000000000
40
0.0000000000
40
0.0000000000
40
1.0000000000
40
1.0000000000
40
1.0000000000
40
1.0000000000
10
211.5384305529
20
252.0871801479
30
0.0000000000
10
211.2151075651
20
252.1045982328
30
0.0000000000
10
210.8901403150
20
252.1013035570
30
0.0000000000
10
210.5671179907
20
252.0761255854
30
0.0000000000
11
211.5384305529
21
252.0871801479
31
0.0000000000
11
210.5671179907
21
252.0761255854
31
0.0000000000
0
SPLINE
5
4D0
100
AcDbEntity
8
0
100
AcDbSpline
62
7
6
BYLAYER
70
0
71
3
72
8
73
4
74
2
42
0.0000001000
43
0.0000001000
44
0.0000000001
40
0.0000000000
40
0.0000000000
40
0.0000000000
40
0.0000000000
40
1.0000000000
40
1.0000000000
40
1.0000000000
40
1.0000000000
10
210.5671179907
20
252.0761255854
30
0.0000000000
10
210.2670261320
20
252.0527349287
30
0.0000000000
10
209.9686128701
20
252.0104575720
30
0.0000000000
10
209.6747643032
20
251.9417116470
30
0.0000000000
11
210.5671179907
21
252.0761255854
31
0.0000000000
11
209.6747643032
21
251.9417116470
31
0.0000000000
0
SPLINE
5
4D1
100
AcDbEntity
8
0
100
AcDbSpline
62
7
6
BYLAYER
70
0
71
3
72
8
73
4
74
2
42
0.0000001000
43
0.0000001000
44
0.0000000001
40
0.0000000000
40
0.0000000000
40
0.0000000000
40
0.0000000000
40
1.0000000000
40
1.0000000000
40
1.0000000000
40
1.0000000000
10
209.6747643032
20
251.9417116470
30
0.0000000000
10
209.4572149152
20
251.8908159286
30
0.0000000000
10
209.2421674871
20
251.8254124947
30
0.0000000000
10
209.0393930541
20
251.7333802936
30
0.0000000000
11
209.6747643032
21
251.9417116470
31
0.0000000000
11
209.0393930541
21
251.7333802936
31
0.0000000000
0
SPLINE
5
4D2
100
AcDbEntity
8
0
100
AcDbSpline
62
7
6
BYLAYER
70
0
71
3
72
8
73
4
74
2
42
0.0000001000
43
0.0000001000
44
0.0000000001
40
0.0000000000
40
0.0000000000
40
0.0000000000
40
0.0000000000
40
1.0000000000
40
1.0000000000
40
1.0000000000
40
1.0000000000
10
209.0393930541
20
251.7333802936
30
0.0000000000
10
209.0158140979
20
251.7226786326
30
0.0000000000
10
208.9924010902
20
251.7116169125
30
0.0000000000
10
208.9691693940
20
251.7001760754
30
0.0000000000
11
209.0393930541
21
251.7333802936
31
0.0000000000
11
208.9691693940
21
251.7001760754
31
0.0000000000
0
SPLINE
5
4D3
100
AcDbEntity
8
0
100
AcDbSpline
62
7
6
BYLAYER
70
0
71
3
72
8
73
4
74
2
42
0.0000001000
43
0.0000001000
44
0.0000000001
40
0.0000000000
40
0.0000000000
40
0.0000000000
40
0.0000000000
40
1.0000000000
40
1.0000000000
40
1.0000000000
40
1.0000000000
10
229.5754025851
20
252.6301636495
30
0.0000000000
10
229.2035390548
20
252.3934903626
30
0.0000000000
10
228.7935385249
20
252.2185243500
30
0.0000000000
10
228.3747342663
20
252.0760281452
30
0.0000000000
11
229.5754025851
21
252.6301636495
31
0.0000000000
11
228.3747342663
21
252.0760281452
31
0.0000000000
0
SPLINE
5
4D4
100
AcDbEntity
8
0
100
AcDbSpline
62
7
6
BYLAYER
70
0
71
3
72
9
73
5
74
3
42
0.0000001000
43
0.0000001000
44
0.0000000001
40
0.0000000000
40
0.0000000000
40
0.0000000000
40
0.0000000000
40
0.4690321721
40
1.0000000000
40
1.0000000000
40
1.0000000000
40
1.0000000000
10
228.3747342663
20
252.0760281452
30
0.0000000000
10
227.8564750946
20
251.8996928678
30
0.0000000000
10
226.7227774273
20
251.6297477596
30
0.0000000000
10
225.5637228311
20
251.5042662664
30
0.0000000000
10
224.9466465436
20
251.4702022313
30
0.0000000000
11
228.3747342663
21
252.0760281452
31
0.0000000000
11
226.7874154351
21
251.6782477078
31
0.0000000000
11
224.9466465436
21
251.4702022313
31
0.0000000000
0
SPLINE
5
4D5
100
AcDbEntity
8
0
100
AcDbSpline
62
7
6
BYLAYER
70
0
71
3
72
8
73
4
74
2
42
0.0000001000
43
0.0000001000
44
0.0000000001
40
0.0000000000
40
0.0000000000
40
0.0000000000
40
0.0000000000
40
1.0000000000
40
1.0000000000
40
1.0000000000
40
1.0000000000
10
224.9466465436
20
251.4702022313
30
0.0000000000
10
224.3005027000
20
251.4345336001
30
0.0000000000
10
223.6525436229
20
251.4345675644
30
0.0000000000
10
223.0068963998
20
251.4693499294
30
0.0000000000
11
224.9466465436
21
251.4702022313
31
0.0000000000
11
223.0068963998
21
251.4693499294
31
0.0000000000
0
SPLINE
5
4D6
100
AcDbEntity
8
0
100
AcDbSpline
62
7
6
BYLAYER
70
0
71
3
72
8
73
4
74
2
42
0.0000001000
43
0.0000001000
44
0.0000000001
40
0.0000000000
40
0.0000000000
40
0.0000000000
40
0.0000000000
40
1.0000000000
40
1.0000000000
40
1.0000000000
40
1.0000000000
10
200.2168126438
20
260.2945208019
30
0.0000000000
10
200.0271983688
20
260.2011420830
30
0.0000000000
10
199.8350663824
20
260.0942197951
30
0.0000000000
10
199.7062268453
20
259.9185413236
30
0.0000000000
11
200.2168126438
21
260.2945208019
31
0.0000000000
11
199.7062268453
21
259.9185413236
31
0.0000000000
0
SPLINE
5
4D7
100
AcDbEntity
8
0
100
AcDbSpline
62
7
6
BYLAYER
70
0
71
3
72
8
73
4
74
2
42
0.0000001000
43
0.0000001000
44
0.0000000001
40
0.0000000000
40
0.0000000000
40
0.0000000000
40
0.0000000000
40
1.0000000000
40
1.0000000000
40
1.0000000000
40
1.0000000000
10
79.3454208213
20
252.4422141501
30
0.0000000000
10
78.6946198486
20
252.5207568189
30
0.0000000000
10
78.0376205493
20
252.5542224474
30
0.0000000000
10
77.3816061097
20
252.5462789877
30
0.0000000000
11
79.3454208213
21
252.4422141501
31
0.0000000000
11
77.3816061097
21
252.5462789877
31
0.0000000000
0
SPLINE
5
4D8
100
AcDbEntity
8
0
100
AcDbSpline
62
7
6
BYLAYER
70
0
71
3
72
8
73
4
74
2
42
0.0000001000
43
0.0000001000
44
0.0000000001
40
0.0000000000
40
0.0000000000
40
0.0000000000
40
0.0000000000
40
1.0000000000
40
1.0000000000
40
1.0000000000
40
1.0000000000
10
77.3816061097
20
252.5462789877
30
0.0000000000
10
76.7388872966
20
252.5384965204
30
0.0000000000
10
76.0971138268
20
252.4909664547
30
0.0000000000
10
75.4608215829
20
252.3952496825
30
0.0000000000
11
77.3816061097
21
252.5462789877
31
0.0000000000
11
75.4608215829
21
252.3952496825
31
0.0000000000
0
SPLINE
5
4D9
100
AcDbEntity
8
0
100
AcDbSpline
62
7
6
BYLAYER
70
0
71
3
72
8
73
4
74
2
42
0.0000001000
43
0.0000001000
44
0.0000000001
40
0.0000000000
40
0.0000000000
40
0.0000000000
40
0.0000000000
40
1.0000000000
40
1.0000000000
40
1.0000000000
40
1.0000000000
10
75.4608215829
20
252.3952496825
30
0.0000000000
10
74.9020585435
20
252.3111955469
30
0.0000000000
10
74.3475223828
20
252.1899819572
30
0.0000000000
10
73.8139512565
20
252.0072804063
30
0.0000000000
11
75.4608215829
21
252.3952496825
31
0.0000000000
11
73.8139512565
21
252.0072804063
31
0.0000000000
0
SPLINE
5
4DA
100
AcDbEntity
8
0
100
AcDbSpline
62
7
6
BYLAYER
70
0
71
3
72
12
73
8
74
6
42
0.0000001000
43
0.0000001000
44
0.0000000001
40
0.0000000000
40
0.0000000000
40
0.0000000000
40
0.0000000000
40
0.1621405421
40
0.3524575775
40
0.5625614156
40
0.7821274715
40
1.0000000000
40
1.0000000000
40
1.0000000000
40
1.0000000000
10
192.2666630250
20
243.4747476519
30
0.0000000000
10
191.2862077621
20
242.9919060706
30
0.0000000000
10
189.0407651979
20
242.1751987724
30
0.0000000000
10
185.3299115649
20
241.3637667045
30
0.0000000000
10
181.1689255458
20
240.9043807808
30
0.0000000000
10
176.7995994487
20
240.8264055379
30
0.0000000000
10
173.8535117135
20
241.0363957900
30
0.0000000000
10
172.3955337347
20
241.2123535503
30
0.0000000000
11
192.2666630250
21
243.4747476519
31
0.0000000000
11
189.2034498724
21
242.3057387474
31
0.0000000000
11
185.4500247325
21
241.4557554898
31
0.0000000000
11
181.2287171235
21
240.9751455910
31
0.0000000000
11
176.7895710055
21
240.8923773870
31
0.0000000000
11
172.3955337347
21
241.2123535503
31
0.0000000000
0
SPLINE
5
4DB
100
AcDbEntity
8
0
100
AcDbSpline
62
7
6
BYLAYER
70
0
71
3
72
8
73
4
74
2
42
0.0000001000
43
0.0000001000
44
0.0000000001
40
0.0000000000
40
0.0000000000
40
0.0000000000
40
0.0000000000
40
1.0000000000
40
1.0000000000
40
1.0000000000
40
1.0000000000
10
189.9546711123
20
262.7966802041
30
0.0000000000
10
189.7622637888
20
262.7031413129
30
0.0000000000
10
189.5672612121
20
262.5962772698
30
0.0000000000
10
189.4356331113
20
262.4191481203
30
0.0000000000
11
189.9546711123
21
262.7966802041
31
0.0000000000
11
189.4356331113
21
262.4191481203
31
0.0000000000
0
SPLINE
5
4DC
100
AcDbEntity
8
0
100
AcDbSpline
62
7
6
BYLAYER
70
0
71
3
72
11
73
7
74
5
42
0.0000001000
43
0.0000001000
44
0.0000000001
40
0.0000000000
40
0.0000000000
40
0.0000000000
40
0.0000000000
40
0.2751658874
40
0.5548429038
40
0.8109670935
40
1.0000000000
40
1.0000000000
40
1.0000000000
40
1.0000000000
10
196.0561508097
20
269.9123055510
30
0.0000000000
10
196.0486206880
20
269.3405292234
30
0.0000000000
10
195.8856492145
20
268.1873252665
30
0.0000000000
10
195.3043586690
20
266.5921106874
30
0.0000000000
10
194.4871873889
20
265.3134465665
30
0.0000000000
10
193.7761483204
20
264.6834231566
30
0.0000000000
10
193.4330141271
20
264.4922134410
30
0.0000000000
11
196.0561508097
21
269.9123055510
31
0.0000000000
11
195.8292414555
21
268.2119008964
31
0.0000000000
11
195.2275340749
21
266.5754123019
31
0.0000000000
11
194.3423055799
21
265.2464916980
31
0.0000000000
11
193.4330141271
21
264.4922134410
31
0.0000000000
0
SPLINE
5
4DD
100
AcDbEntity
8
0
100
AcDbSpline
62
7
6
BYLAYER
70
0
71
3
72
8
73
4
74
2
42
0.0000001000
43
0.0000001000
44
0.0000000001
40
0.0000000000
40
0.0000000000
40
0.0000000000
40
0.0000000000
40
1.0000000000
40
1.0000000000
40
1.0000000000
40
1.0000000000
10
193.4330141271
20
264.4922134410
30
0.0000000000
10
193.3909168550
20
264.4687549586
30
0.0000000000
10
193.3481995162
20
264.4464452884
30
0.0000000000
10
193.3048556883
20
264.4253736705
30
0.0000000000
11
193.4330141271
21
264.4922134410
31
0.0000000000
11
193.3048556883
21
264.4253736705
31
0.0000000000
0
SPLINE
5
4DE
100
AcDbEntity
8
0
100
AcDbSpline
62
7
6
BYLAYER
70
0
71
3
72
11
73
7
74
5
42
0.0000001000
43
0.0000001000
44
0.0000000001
40
0.0000000000
40
0.0000000000
40
0.0000000000
40
0.0000000000
40
0.2834871508
40
0.5696454844
40
0.8256405845
40
1.0000000000
40
1.0000000000
40
1.0000000000
40
1.0000000000
10
234.4710850756
20
259.8871529581
30
0.0000000000
10
234.4635348030
20
259.3138465362
30
0.0000000000
10
234.3263962345
20
258.1621755447
30
0.0000000000
10
233.8454577186
20
256.5531558208
30
0.0000000000
10
233.1791168968
20
255.2602084620
30
0.0000000000
10
232.5923373554
20
254.5872257628
30
0.0000000000
10
232.3093070852
20
254.3772422137
30
0.0000000000
11
234.4710850756
21
259.8871529581
31
0.0000000000
11
234.2788242086
21
258.1778633105
31
0.0000000000
11
233.7754052242
21
256.5161703919
31
0.0000000000
11
233.0371847691
21
255.1495521713
31
0.0000000000
11
232.3093070852
21
254.3772422137
31
0.0000000000
0
SPLINE
5
4DF
100
AcDbEntity
8
0
100
AcDbSpline
62
7
6
BYLAYER
70
0
71
3
72
8
73
4
74
2
42
0.0000001000
43
0.0000001000
44
0.0000000001
40
0.0000000000
40
0.0000000000
40
0.0000000000
40
0.0000000000
40
1.0000000000
40
1.0000000000
40
1.0000000000
40
1.0000000000
10
232.3093070852
20
254.3772422137
30
0.0000000000
10
232.2652109756
20
254.3445267816
30
0.0000000000
10
232.2200153969
20
254.3133327576
30
0.0000000000
10
232.1736648649
20
254.2838328689
30
0.0000000000
11
232.3093070852
21
254.3772422137
31
0.0000000000
11
232.1736648649
21
254.2838328689
31
0.0000000000
0
SPLINE
5
4E0
100
AcDbEntity
8
0
100
AcDbSpline
62
7
6
BYLAYER
70
0
71
3
72
11
73
7
74
5
42
0.0000001000
43
0.0000001000
44
0.0000000001
40
0.0000000000
40
0.0000000000
40
0.0000000000
40
0.0000000000
40
0.2732592147
40
0.5534903613
40
0.8107357622
40
1.0000000000
40
1.0000000000
40
1.0000000000
40
1.0000000000
10
204.5338732931
20
266.7444802339
30
0.0000000000
10
204.5420548400
20
266.1617141765
30
0.0000000000
10
204.3995962868
20
264.9769738574
30
0.0000000000
10
203.8305956691
20
263.3301545039
30
0.0000000000
10
203.0097699655
20
262.0018891307
30
0.0000000000
10
202.2851671888
20
261.3433288626
30
0.0000000000
10
201.9337861363
20
261.1447500345
30
0.0000000000
11
204.5338732931
21
266.7444802339
31
0.0000000000
11
204.3414305906
21
265.0066325006
31
0.0000000000
11
203.7519836028
21
263.3132065670
31
0.0000000000
11
202.8598700612
21
261.9299259430
31
0.0000000000
11
201.9337861363
21
261.1447500345
31
0.0000000000
0
SPLINE
5
4E1
100
AcDbEntity
8
0
100
AcDbSpline
62
7
6
BYLAYER
70
0
71
3
72
8
73
4
74
2
42
0.0000001000
43
0.0000001000
44
0.0000000001
40
0.0000000000
40
0.0000000000
40
0.0000000000
40
0.0000000000
40
1.0000000000
40
1.0000000000
40
1.0000000000
40
1.0000000000
10
201.9337861363
20
261.1447500345
30
0.0000000000
10
201.8913229120
20
261.1207524476
30
0.0000000000
10
201.8482136090
20
261.0979314741
30
0.0000000000
10
201.8044500012
20
261.0763793539
30
0.0000000000
11
201.9337861363
21
261.1447500345
31
0.0000000000
11
201.8044500012
21
261.0763793539
31
0.0000000000
0
SPLINE
5
4E2
100
AcDbEntity
8
0
100
AcDbSpline
62
7
6
BYLAYER
70
0
71
3
72
10
73
6
74
4
42
0.0000001000
43
0.0000001000
44
0.0000000001
40
0.0000000000
40
0.0000000000
40
0.0000000000
40
0.0000000000
40
0.2998887713
40
0.6402349973
40
1.0000000000
40
1.0000000000
40
1.0000000000
40
1.0000000000
10
59.9776417255
20
247.2695517593
30
0.0000000000
10
59.5172722460
20
247.1119153848
30
0.0000000000
10
58.6141339074
20
246.5393920219
30
0.0000000000
10
57.5745550988
20
245.2687196226
30
0.0000000000
10
57.1008697989
20
244.2231507431
30
0.0000000000
10
56.9305421861
20
243.6620139873
30
0.0000000000
11
59.9776417255
21
247.2695517593
31
0.0000000000
11
58.7233266873
21
246.5226934437
31
0.0000000000
11
57.6548007598
21
245.2565381793
31
0.0000000000
11
56.9305421861
21
243.6620139873
31
0.0000000000
0
SPLINE
5
4E3
100
AcDbEntity
8
0
100
AcDbSpline
62
7
6
BYLAYER
70
0
71
3
72
8
73
4
74
2
42
0.0000001000
43
0.0000001000
44
0.0000000001
40
0.0000000000
40
0.0000000000
40
0.0000000000
40
0.0000000000
40
1.0000000000
40
1.0000000000
40
1.0000000000
40
1.0000000000
10
56.9305421861
20
243.6620139873
30
0.0000000000
10
56.7645119590
20
243.1150347779
30
0.0000000000
10
56.6679246762
20
242.5453919632
30
0.0000000000
10
56.6604312575
20
241.9764025648
30
0.0000000000
11
56.9305421861
21
243.6620139873
31
0.0000000000
11
56.6604312575
21
241.9764025648
31
0.0000000000
0
SPLINE
5
4E4
100
AcDbEntity
8
0
100
AcDbSpline
62
7
6
BYLAYER
70
0
71
3
72
8
73
4
74
2
42
0.0000001000
43
0.0000001000
44
0.0000000001
40
0.0000000000
40
0.0000000000
40
0.0000000000
40
0.0000000000
40
1.0000000000
40
1.0000000000
40
1.0000000000
40
1.0000000000
10
193.5145826226
20
280.3503349043
30
0.0000000000
10
193.8279438912
20
280.5026756005
30
0.0000000000
10
194.1978205833
20
280.5913811215
30
0.0000000000
10
194.5436354487
20
280.5338479346
30
0.0000000000
11
193.5145826226
21
280.3503349043
31
0.0000000000
11
194.5436354487
21
280.5338479346
31
0.0000000000
0
SPLINE
5
4E5
100
AcDbEntity
8
0
100
AcDbSpline
62
7
6
BYLAYER
70
0
71
3
72
8
73
4
74
2
42
0.0000001000
43
0.0000001000
44
0.0000000001
40
0.0000000000
40
0.0000000000
40
0.0000000000
40
0.0000000000
40
1.0000000000
40
1.0000000000
40
1.0000000000
40
1.0000000000
10
194.5436354487
20
280.5338479346
30
0.0000000000
10
194.5999404467
20
280.5244804773
30
0.0000000000
10
194.6556075704
20
280.5112362600
30
0.0000000000
10
194.7103643902
20
280.4944926937
30
0.0000000000
11
194.5436354487
21
280.5338479346
31
0.0000000000
11
194.7103643902
21
280.4944926937
31
0.0000000000
0
ENDSEC
0
SECTION
2
OBJECTS
0
DICTIONARY
5
4E6
100
AcDbDictionary
3
ACAD_GROUP
350
4E7
3
ACAD_MLINESTYLE
350
4E8
0
DICTIONARY
5
4E7
102
{ACAD_REACTORS
330
4E6
102
}
100
AcDbDictionary
0
DICTIONARY
5
4E8
102
{ACAD_REACTORS
330
4E6
102
}
100
AcDbDictionary
3
STANDARD
350
4E9
0
MLINESTYLE
5
4E9
102
{ACAD_REACTORS
330
4E8
102
}
100
AcDbMlineStyle
2
STANDARD
70
0
3

62
256
51
90.0
52
90.0
71
2
49
0.5
62
256
6
BYLAYER
49
-0.5
62
256
6
BYLAYER
0
ENDSEC
0
EOF
