999
DXF file: td-1002-938.dxf
999
Pro/ENGINEER 2003060 by Parametric Technology Corporation
0
SECTION
2
HEADER
9
$ACADVER
1
AC1014
9
$HANDSEED
5
       422
9
$EXTMAX
10
420.0000000000
20
297.0000000000
9
$EXTMIN
10
0.0000000000
20
0.0000000000
9
$LIMMIN
10
0.0000000000
20
0.0000000000
9
$LIMMAX
10
420.0000000000
20
297.0000000000
9
$VIEWCTR
10
210.0000000000
20
148.5000000000
9
$VIEWSIZE
40
297.0000000000
9
$CLAYER
8
0
9
$LTSCALE
40
23.1000000000
9
$CELTYPE
6
BYLAYER
9
$DIMSCALE
40
1
9
$DIMASZ
40
5.0000000000
9
$DIMEXO
40
2.6250000000
9
$DIMDLI
40
15.9600000000
9
$DIMEXE
40
7.5600000000
9
$DIMCEN
40
3.7800000000
9
$DIMLFAC
40
1.0000000000
9
$DIMTXT
40
4.0000000000
9
$DIMTOL
70
1
9
$DIMLIM
70
0
9
$DIMTFAC
40
1.0000000000
9
$DIMTP
40
0.0100000000
9
$DIMTM
40
0.0100000000
0
ENDSEC
0
SECTION
2
CLASSES
0
ENDSEC
0
SECTION
2
TABLES
0
TABLE
2
VPORT
5
8
100
AcDbSymbolTable
70
2
0
VPORT
5
1F4
100
AcDbSymbolTableRecord
100
AcDbViewportTableRecord
2
*ACTIVE
70
0
10
0.0
20
0.0
11
1.0
21
1.0
12
210.0000000000
22
148.5000000000
13
0.0
23
0.0
14
1.0
24
1.0
15
0.0
25
0.0
16
0.0
26
0.0
36
1.0
17
0.0
27
0.0
37
0.0
40
297.0000000000
41
1.4141414141
42
50.0
43
0.0
44
0.0
50
0.0
51
0.0
71
0
72
100
73
1
74
1
75
0
76
0
77
0
78
0
0
ENDTAB
0
TABLE
2
LTYPE
5
5
100
AcDbSymbolTable
70
6
0
LTYPE
5
14
100
AcDbSymbolTableRecord
100
AcDbLinetypeTableRecord
2
BYBLOCK
70
0
3

72
65
73
0
40
0.0
0
LTYPE
5
15
100
AcDbSymbolTableRecord
100
AcDbLinetypeTableRecord
2
BYLAYER
70
0
3

72
65
73
0
40
0.0
0
LTYPE
5
16
100
AcDbSymbolTableRecord
100
AcDbLinetypeTableRecord
2
CONTINUOUS
70
64
3
Solid line
72
65
73
0
40
0
0
LTYPE
5
1F5
100
AcDbSymbolTableRecord
100
AcDbLinetypeTableRecord
2
CENTER
70
64
3
____ _ ____ _ ____ _ ____ _ ____ _ ____ _ ____
72
65
73
4
40
0.6
49
0.375
74
0
49
-0.075
74
0
49
0.075
74
0
49
-0.075
74
0
0
LTYPE
5
1F6
100
AcDbSymbolTableRecord
100
AcDbLinetypeTableRecord
2
HIDDEN
70
64
3
- - - - - - - - - - - - - - - - - - - -
72
65
73
2
40
0.2
49
0.1
74
0
49
-0.1
74
0
0
LTYPE
5
1F7
100
AcDbSymbolTableRecord
100
AcDbLinetypeTableRecord
2
PHANTOM
70
64
3
_____ _ _ _____ _ _ _____ _ _ _____
72
65
73
6
40
0.8
49
0.45
74
0
49
-0.05
74
0
49
0.1
74
0
49
-0.05
74
0
49
0.1
74
0
49
-0.05
74
0
0
LTYPE
5
1F8
100
AcDbSymbolTableRecord
100
AcDbLinetypeTableRecord
2
DOT
70
64
3
. . . . . . . . . . . . . . . . . . . .
72
65
73
2
40
0.2
49
0.1
74
0
49
-0.1
74
0
0
LTYPE
5
1F9
100
AcDbSymbolTableRecord
100
AcDbLinetypeTableRecord
2
DASHED
70
64
3
- - - - - - - - - - - - - - - - - - - -
72
65
73
2
40
0.2
49
0.1
74
0
49
-0.1
74
0
0
ENDTAB
0
TABLE
2
LAYER
5
2
100
AcDbSymbolTable
70
36
0
LAYER
5
10
100
AcDbSymbolTableRecord
100
AcDbLayerTableRecord
2
0
70
0
62
7
6
CONTINUOUS
0
LAYER
5
1FA
100
AcDbSymbolTableRecord
100
AcDbLayerTableRecord
2
DEFAULT_1
70
0
62
7
6
CENTER
0
LAYER
5
1FB
100
AcDbSymbolTableRecord
100
AcDbLayerTableRecord
2
DEFAULT_2
70
0
62
7
6
HIDDEN
0
LAYER
5
1FC
100
AcDbSymbolTableRecord
100
AcDbLayerTableRecord
2
DEFAULT_3
70
0
62
7
6
PHANTOM
0
LAYER
5
1FD
100
AcDbSymbolTableRecord
100
AcDbLayerTableRecord
2
AXIS
70
0
62
7
6
CONTINUOUS
0
LAYER
5
1FE
100
AcDbSymbolTableRecord
100
AcDbLayerTableRecord
2
CSYS
70
0
62
7
6
CONTINUOUS
0
LAYER
5
1FF
100
AcDbSymbolTableRecord
100
AcDbLayerTableRecord
2
CURVES
70
0
62
7
6
CONTINUOUS
0
LAYER
5
200
100
AcDbSymbolTableRecord
100
AcDbLayerTableRecord
2
DTMS
70
0
62
7
6
CONTINUOUS
0
LAYER
5
201
100
AcDbSymbolTableRecord
100
AcDbLayerTableRecord
2
GEOM
70
0
62
7
6
CONTINUOUS
0
LAYER
5
202
100
AcDbSymbolTableRecord
100
AcDbLayerTableRecord
2
PLANES
70
0
62
7
6
CONTINUOUS
0
LAYER
5
203
100
AcDbSymbolTableRecord
100
AcDbLayerTableRecord
2
POINTS
70
0
62
7
6
CONTINUOUS
0
LAYER
5
204
100
AcDbSymbolTableRecord
100
AcDbLayerTableRecord
2
SKELETON
70
0
62
7
6
CONTINUOUS
0
ENDTAB
0
TABLE
2
STYLE
5
3
100
AcDbSymbolTable
70
1
0
STYLE
5
11
100
AcDbSymbolTableRecord
100
AcDbTextStyleTableRecord
2
STANDARD
70
0
40
0.0
41
0.8000000000
50
0.0
71
0
42
0.2
3
txt
4

0
STYLE
5
205
100
AcDbSymbolTableRecord
100
AcDbTextStyleTableRecord
2
TEXTSTYLE_1
70
0
40
0.0
41
0.8000000000
50
0.0
71
0
42
0.2
3
txt
4

0
STYLE
5
206
100
AcDbSymbolTableRecord
100
AcDbTextStyleTableRecord
2
TEXTSTYLE_2
70
0
40
0.0
41
0.8000000000
50
0.0
71
0
42
0.2
3
cgtime.ttf
4

0
ENDTAB
0
TABLE
2
VIEW
5
6
100
AcDbSymbolTable
70
0
0
ENDTAB
0
TABLE
2
UCS
5
7
100
AcDbSymbolTable
70
0
0
ENDTAB
0
TABLE
2
APPID
5
9
100
AcDbSymbolTable
70
1
0
APPID
5
207
100
AcDbSymbolTableRecord
100
AcDbRegAppTableRecord
2
ACAD
70
0
0
ENDTAB
0
TABLE
2
DIMSTYLE
5
A
100
AcDbSymbolTable
70
1
0
DIMSTYLE
105
208
100
AcDbSymbolTableRecord
100
AcDbDimStyleTableRecord
2
STANDARD
70
0
3

4

5

6

7

40
1.0
41
5.0000000000
42
0.0625
43
0.38
44
0.18
45
0.0
46
0.0
47
0.0100000000
48
0.0100000000
140
4.0000000000
141
0.09
142
0.0
143
25.4
144
1.0000000000
145
0.0
146
1.0000000000
147
0.09
71
1
72
0
73
0
74
0
75
0
76
0
77
1
78
0
170
0
171
2
172
0
173
0
174
0
175
0
176
0
177
0
178
0
270
2
271
2
272
2
273
2
274
2
340
11
275
0
280
0
281
0
282
0
283
1
284
0
285
0
286
0
287
3
288
0
0
DIMSTYLE
105
209
100
AcDbSymbolTableRecord
100
AcDbDimStyleTableRecord
2
DIMSTYLE_1
70
0
3

4

5

6

7

40
1.0
41
5.0000000000
42
0.0625
43
0.38
44
0.18
45
0.0
46
0.0
47
0.2000000000
48
0.2000000000
140
4.0000000000
141
0.09
142
0.0
143
25.4
144
1.0000000000
145
0.0
146
1.0000000000
147
0.09
71
0
72
0
73
0
74
0
75
0
76
0
77
1
78
0
170
0
171
2
172
0
173
0
174
0
175
0
176
0
177
0
178
0
270
2
271
2
272
2
273
2
274
2
340
11
275
0
280
0
281
0
282
0
283
1
284
0
285
0
286
0
287
3
288
0
0
DIMSTYLE
105
20A
100
AcDbSymbolTableRecord
100
AcDbDimStyleTableRecord
2
DIMSTYLE_2
70
0
3

4

5

6

7

40
1.0
41
5.0000000000
42
0.0625
43
0.38
44
0.18
45
0.0
46
0.0
47
0.3000000000
48
0.3000000000
140
4.0000000000
141
0.09
142
0.0
143
25.4
144
1.0000000000
145
0.0
146
1.0000000000
147
0.09
71
0
72
0
73
0
74
0
75
0
76
0
77
1
78
0
170
0
171
2
172
0
173
0
174
0
175
0
176
0
177
0
178
0
270
2
271
2
272
2
273
2
274
2
340
11
275
0
280
0
281
0
282
0
283
1
284
0
285
0
286
0
287
3
288
0
0
DIMSTYLE
105
20B
100
AcDbSymbolTableRecord
100
AcDbDimStyleTableRecord
2
DIMSTYLE_3
70
0
3

4

5

6

7

40
1.0
41
5.0000000000
42
0.0625
43
0.38
44
0.18
45
0.0
46
0.0
47
0.5000000000
48
0.5000000000
140
4.0000000000
141
0.09
142
0.0
143
25.4
144
1.0000000000
145
0.0
146
1.0000000000
147
0.09
71
0
72
0
73
0
74
0
75
0
76
0
77
1
78
0
170
0
171
2
172
0
173
0
174
0
175
0
176
0
177
0
178
0
270
2
271
1
272
1
273
2
274
2
340
11
275
0
280
0
281
0
282
0
283
1
284
0
285
0
286
0
287
3
288
0
0
ENDTAB
0
TABLE
2
BLOCK_RECORD
5
1
100
AcDbSymbolTable
70
0
0
BLOCK_RECORD
5
1B
100
AcDbSymbolTableRecord
100
AcDbBlockTableRecord
2
*MODEL_SPACE
0
BLOCK_RECORD
5
1C
100
AcDbSymbolTableRecord
100
AcDbBlockTableRecord
2
*PAPER_SPACE
0
BLOCK_RECORD
5
20C
100
AcDbSymbolTableRecord
100
AcDbBlockTableRecord
2
COPYRIGHT_BL0
0
BLOCK_RECORD
5
20D
100
AcDbSymbolTableRecord
100
AcDbBlockTableRecord
2
MICRO_U_BL1
0
BLOCK_RECORD
5
20E
100
AcDbSymbolTableRecord
100
AcDbBlockTableRecord
2
PROJECTION_BL2
0
BLOCK_RECORD
5
20F
100
AcDbSymbolTableRecord
100
AcDbBlockTableRecord
2
SURFACE_FINISH_BL3
0
BLOCK_RECORD
5
210
100
AcDbSymbolTableRecord
100
AcDbBlockTableRecord
2
*D0
0
BLOCK_RECORD
5
211
100
AcDbSymbolTableRecord
100
AcDbBlockTableRecord
2
*D1
0
BLOCK_RECORD
5
212
100
AcDbSymbolTableRecord
100
AcDbBlockTableRecord
2
*D2
0
BLOCK_RECORD
5
213
100
AcDbSymbolTableRecord
100
AcDbBlockTableRecord
2
*D3
0
BLOCK_RECORD
5
214
100
AcDbSymbolTableRecord
100
AcDbBlockTableRecord
2
*D4
0
BLOCK_RECORD
5
215
100
AcDbSymbolTableRecord
100
AcDbBlockTableRecord
2
*D5
0
BLOCK_RECORD
5
216
100
AcDbSymbolTableRecord
100
AcDbBlockTableRecord
2
COPYRIGHT_BL4
0
BLOCK_RECORD
5
217
100
AcDbSymbolTableRecord
100
AcDbBlockTableRecord
2
MICRO_U_BL5
0
BLOCK_RECORD
5
218
100
AcDbSymbolTableRecord
100
AcDbBlockTableRecord
2
SURFACE_FINISH_BL6
0
BLOCK_RECORD
5
219
100
AcDbSymbolTableRecord
100
AcDbBlockTableRecord
2
PROJECTION_BL7
0
ENDTAB
0
ENDSEC
0
SECTION
2
BLOCKS
0
BLOCK
5
1E
100
AcDbEntity
8
0
100
AcDbBlockBegin
2
*MODEL_SPACE
70
0
10
0.0
20
0.0
30
0.0
3
*MODEL_SPACE
1

0
ENDBLK
5
1F
100
AcDbEntity
8
0
100
AcDbBlockEnd
0
BLOCK
5
20
100
AcDbEntity
8
0
100
AcDbBlockBegin
2
*PAPER_SPACE
70
0
10
0.0
20
0.0
30
0.0
3
*PAPER_SPACE
1

0
ENDBLK
5
21
100
AcDbEntity
8
0
100
AcDbBlockEnd
0
BLOCK
5
21A
100
AcDbEntity
8
0
100
AcDbBlockBegin
62
7
6
BYLAYER
2
COPYRIGHT_BL0
70
64
10
0.0000000000
20
0.0000000000
3
COPYRIGHT_BL0
1

0
TEXT
5
21B
100
AcDbEntity
8
0
100
AcDbText
62
7
6
BYLAYER
10
409.9593803245
20
9.9568590072
7
TEXTSTYLE_1
40
0.1000000000
1
C
41
0.8000000000
72
0
100
AcDbText
0
CIRCLE
5
21C
100
AcDbEntity
8
0
100
AcDbCircle
62
7
6
BYLAYER
10
409.9943527832
20
10.0069663115
40
0.0753936874
0
ENDBLK
5
21D
100
AcDbEntity
8
0
100
AcDbBlockEnd
0
BLOCK
5
21E
100
AcDbEntity
8
0
100
AcDbBlockBegin
62
7
6
BYLAYER
2
MICRO_U_BL1
70
64
10
0.0000000000
20
0.0000000000
3
MICRO_U_BL1
1

0
TEXT
5
21F
100
AcDbEntity
8
0
100
AcDbText
62
7
6
BYLAYER
10
409.9173172813
20
9.9658183152
7
STANDARD
40
0.1000000000
1
um
41
0.8000000000
72
0
100
AcDbText
0
ARC
5
220
100
AcDbEntity
8
0
100
AcDbCircle
62
7
6
BYLAYER
10
409.8795565990
20
9.9804558390
40
0.0627552936
100
AcDbArc
50
303.7730668774
51
1.5957171757
0
ENDBLK
5
221
100
AcDbEntity
8
0
100
AcDbBlockEnd
0
BLOCK
5
222
100
AcDbEntity
8
0
100
AcDbBlockBegin
62
7
6
BYLAYER
2
PROJECTION_BL2
70
64
10
0.0000000000
20
0.0000000000
3
PROJECTION_BL2
1

0
LINE
5
223
100
AcDbEntity
8
0
100
AcDbLine
62
7
6
BYLAYER
10
409.6178469936
20
9.9332236616
11
409.6178469936
21
10.0582236616
0
LINE
5
224
100
AcDbEntity
8
0
100
AcDbLine
62
7
6
BYLAYER
10
409.6178469936
20
10.0582236616
11
409.7928469936
21
10.1207236616
0
LINE
5
225
100
AcDbEntity
8
0
100
AcDbLine
62
7
6
BYLAYER
10
409.7928469936
20
10.1207236616
11
409.7928469936
21
9.8707236616
0
LINE
5
226
100
AcDbEntity
8
0
100
AcDbLine
62
7
6
BYLAYER
10
409.7928469936
20
9.8707236616
11
409.6178469936
21
9.9332236616
0
ARC
5
227
100
AcDbEntity
8
0
100
AcDbCircle
62
7
6
BYLAYER
10
409.2678469936
20
9.9957236616
40
0.0625000000
100
AcDbArc
50
180.0000000000
51
360.0000000000
0
ARC
5
228
100
AcDbEntity
8
0
100
AcDbCircle
62
7
6
BYLAYER
10
409.2678469936
20
9.9957236616
40
0.0625000000
100
AcDbArc
50
0.0000000000
51
180.0000000000
0
ARC
5
229
100
AcDbEntity
8
0
100
AcDbCircle
62
7
6
BYLAYER
10
409.2678469936
20
9.9957236616
40
0.1250000000
100
AcDbArc
50
180.0000000000
51
360.0000000000
0
ARC
5
22A
100
AcDbEntity
8
0
100
AcDbCircle
62
7
6
BYLAYER
10
409.2678469936
20
9.9957236616
40
0.1250000000
100
AcDbArc
50
0.0000000000
51
180.0000000000
0
LINE
5
22B
100
AcDbEntity
8
0
100
AcDbLine
62
7
6
BYLAYER
10
409.0671219936
20
9.9957236616
11
409.4456219936
21
9.9957236616
0
LINE
5
22C
100
AcDbEntity
8
0
100
AcDbLine
62
7
6
BYLAYER
10
409.5241469936
20
9.9957236616
11
409.8669219936
21
9.9957236616
0
LINE
5
22D
100
AcDbEntity
8
0
100
AcDbLine
62
7
6
BYLAYER
10
409.2678469936
20
10.1398736616
11
409.2678469936
21
9.8515736616
0
TEXT
5
22E
100
AcDbEntity
8
0
100
AcDbText
62
7
6
BYLAYER
10
409.2283663134
20
9.9568432128
7
STANDARD
40
0.1000000000
1
l
41
0.8000000000
72
0
100
AcDbText
0
ENDBLK
5
22F
100
AcDbEntity
8
0
100
AcDbBlockEnd
0
BLOCK
5
230
100
AcDbEntity
8
0
100
AcDbBlockBegin
62
7
6
BYLAYER
2
SURFACE_FINISH_BL3
70
64
10
0.0000000000
20
0.0000000000
3
SURFACE_FINISH_BL3
1

0
LINE
5
231
100
AcDbEntity
8
0
100
AcDbLine
62
7
6
BYLAYER
10
409.9768652881
20
9.9666906703
11
410.0571314064
21
10.1057156653
0
LINE
5
232
100
AcDbEntity
8
0
100
AcDbLine
62
7
6
BYLAYER
10
409.9768652881
20
9.9666906703
11
409.9405459599
21
10.0295975921
0
LINE
5
233
100
AcDbEntity
8
0
100
AcDbLine
62
7
6
BYLAYER
10
409.9405459599
20
10.0295975921
11
410.0131846164
21
10.0295975921
0
TEXT
5
234
100
AcDbEntity
8
0
100
AcDbText
62
7
6
BYLAYER
10
409.9369531437
20
9.9795701528
7
STANDARD
40
0.1000000000
1
-
41
0.8000000000
72
0
100
AcDbText
0
ENDBLK
5
235
100
AcDbEntity
8
0
100
AcDbBlockEnd
0
BLOCK
5
236
100
AcDbEntity
8
0
100
AcDbBlockBegin
62
7
6
BYLAYER
2
*D0
70
65
10
0.0000000000
20
0.0000000000
3
*D0
1

0
TEXT
5
237
100
AcDbEntity
8
0
100
AcDbText
62
7
6
BYLAYER
10
209.7523411762
20
204.1119368638
7
STANDARD
40
4.0000000000
1
27.80
50
90.0000000000
41
0.8000000000
72
0
100
AcDbText
0
LINE
5
238
100
AcDbEntity
8
0
100
AcDbLine
62
7
6
BYLAYER
10
232.9816812074
20
227.1351519881
11
207.7523411762
21
227.1351519881
0
LINE
5
239
100
AcDbEntity
8
0
100
AcDbLine
62
7
6
BYLAYER
10
232.9816812074
20
199.3351519881
11
207.7523411762
21
199.3351519881
0
LINE
5
23A
100
AcDbEntity
8
0
100
AcDbLine
62
7
6
BYLAYER
10
210.7523411762
20
227.1351519881
11
210.7523411762
21
213.2351519881
0
LINE
5
23B
100
AcDbEntity
8
0
100
AcDbLine
62
7
6
BYLAYER
10
210.7523411762
20
199.3351519881
11
210.7523411762
21
213.2351519881
0
SOLID
5
23C
100
AcDbEntity
8
0
100
AcDbTrace
62
7
6
BYLAYER
10
211.5523411762
20
222.1351519881
11
210.7523411762
21
227.1351519881
12
209.9523411762
22
222.1351519881
13
209.9523411762
23
222.1351519881
0
SOLID
5
23D
100
AcDbEntity
8
0
100
AcDbTrace
62
7
6
BYLAYER
10
209.9523411762
20
204.3351519881
11
210.7523411762
21
199.3351519881
12
211.5523411762
22
204.3351519881
13
211.5523411762
23
204.3351519881
0
ENDBLK
5
23E
100
AcDbEntity
8
0
100
AcDbBlockEnd
0
BLOCK
5
23F
100
AcDbEntity
8
0
100
AcDbBlockBegin
62
7
6
BYLAYER
2
*D1
70
65
10
0.0000000000
20
0.0000000000
3
*D1
1

0
TEXT
5
240
100
AcDbEntity
8
0
100
AcDbText
62
7
6
BYLAYER
10
243.3960896846
20
247.5157009849
7
STANDARD
40
4.0000000000
1
32.00
41
0.8000000000
72
0
100
AcDbText
0
LINE
5
241
100
AcDbEntity
8
0
100
AcDbLine
62
7
6
BYLAYER
10
266.9816812074
20
229.1351519881
11
266.9816812074
21
249.5157009849
0
LINE
5
242
100
AcDbEntity
8
0
100
AcDbLine
62
7
6
BYLAYER
10
234.9816812074
20
229.1351519881
11
234.9816812074
21
249.5157009849
0
LINE
5
243
100
AcDbEntity
8
0
100
AcDbLine
62
7
6
BYLAYER
10
266.9816812074
20
246.5157009849
11
250.9816812074
21
246.5157009849
0
LINE
5
244
100
AcDbEntity
8
0
100
AcDbLine
62
7
6
BYLAYER
10
234.9816812074
20
246.5157009849
11
250.9816812074
21
246.5157009849
0
SOLID
5
245
100
AcDbEntity
8
0
100
AcDbTrace
62
7
6
BYLAYER
10
261.9816812074
20
245.7157009849
11
266.9816812074
21
246.5157009849
12
261.9816812074
22
247.3157009849
13
261.9816812074
23
247.3157009849
0
SOLID
5
246
100
AcDbEntity
8
0
100
AcDbTrace
62
7
6
BYLAYER
10
239.9816812074
20
247.3157009849
11
234.9816812074
21
246.5157009849
12
239.9816812074
22
245.7157009849
13
239.9816812074
23
245.7157009849
0
ENDBLK
5
247
100
AcDbEntity
8
0
100
AcDbBlockEnd
0
BLOCK
5
248
100
AcDbEntity
8
0
100
AcDbBlockBegin
62
7
6
BYLAYER
2
*D2
70
65
10
0.0000000000
20
0.0000000000
3
*D2
1

0
TEXT
5
249
100
AcDbEntity
8
0
100
AcDbText
62
7
6
BYLAYER
10
309.9502570355
20
232.3283209230
7
STANDARD
40
4.0000000000
1
67.1%%d
50
-44.7026812157
41
0.7733333333
72
0
100
AcDbText
0
LINE
5
24A
100
AcDbEntity
8
0
100
AcDbLine
62
7
6
BYLAYER
10
306.5793352352
20
208.0169209763
11
309.0228195900
21
202.2587366363
0
LINE
5
24B
100
AcDbEntity
8
0
100
AcDbLine
62
7
6
BYLAYER
10
305.6355881708
20
214.9565611793
11
317.4265826775
21
214.9716975421
0
ARC
5
24C
100
AcDbEntity
8
0
100
AcDbCircle
62
7
6
BYLAYER
10
303.6355898187
20
214.9539937367
40
10.7910042221
100
AcDbArc
50
292.9939302381
51
45.2973187843
0
SOLID
5
24D
100
AcDbEntity
8
0
100
AcDbTrace
62
7
6
BYLAYER
10
307.8509187586
20
205.0203753602
11
311.4089687523
21
208.6231909595
12
312.3554672235
22
207.3331752061
13
312.3554672235
23
207.3331752061
0
SOLID
5
24E
100
AcDbEntity
8
0
100
AcDbTrace
62
7
6
BYLAYER
10
314.4265851494
20
214.9678463783
11
314.0636572031
21
209.9172738062
12
312.5059336147
22
210.2826465232
13
312.5059336147
23
210.2826465232
0
ENDBLK
5
24F
100
AcDbEntity
8
0
100
AcDbBlockEnd
0
BLOCK
5
250
100
AcDbEntity
8
0
100
AcDbBlockBegin
62
7
6
BYLAYER
2
*D3
70
65
10
0.0000000000
20
0.0000000000
3
*D3
1

0
TEXT
5
251
100
AcDbEntity
8
0
100
AcDbText
62
7
6
BYLAYER
10
323.6074809690
20
172.4237809839
7
STANDARD
40
4.0000000000
1
73.7%%d
50
58.5347198318
41
0.7733333333
72
0
100
AcDbText
0
LINE
5
252
100
AcDbEntity
8
0
100
AcDbLine
62
7
6
BYLAYER
10
308.1651801933
20
195.5782814878
11
322.0427013480
21
162.8752585139
0
LINE
5
253
100
AcDbEntity
8
0
100
AcDbLine
62
7
6
BYLAYER
10
334.1864628447
20
192.0584478577
11
339.3476891589
21
192.6648262341
0
ARC
5
254
100
AcDbEntity
8
0
100
AcDbCircle
62
7
6
BYLAYER
10
310.8235930613
20
189.3136081265
40
25.7202841384
100
AcDbArc
50
292.9939302381
51
329.8473682482
0
ARC
5
255
100
AcDbEntity
8
0
100
AcDbCircle
62
7
6
BYLAYER
10
310.8235930613
20
189.3136081265
40
25.7202841384
100
AcDbArc
50
329.8473682482
51
6.7008062583
0
SOLID
5
256
100
AcDbEntity
8
0
100
AcDbTrace
62
7
6
BYLAYER
10
320.8708005166
20
165.6368972378
11
324.8797573596
21
168.7301584668
12
325.6447583375
22
167.3248921206
13
325.6447583375
23
167.3248921206
0
SOLID
5
257
100
AcDbEntity
8
0
100
AcDbTrace
62
7
6
BYLAYER
10
336.3681821359
20
192.3147720956
11
337.2667775871
21
187.3315476159
12
335.6670896770
22
187.2999471371
13
335.6670896770
23
187.2999471371
0
ENDBLK
5
258
100
AcDbEntity
8
0
100
AcDbBlockEnd
0
BLOCK
5
259
100
AcDbEntity
8
0
100
AcDbBlockBegin
62
7
6
BYLAYER
2
*D4
70
65
10
0.0000000000
20
0.0000000000
3
*D4
1

0
TEXT
5
25A
100
AcDbEntity
8
0
100
AcDbText
62
7
6
BYLAYER
10
279.8949559333
20
201.7365907007
7
STANDARD
40
4.0000000000
1
99.2%%d
50
-48.6629209129
41
0.7733333333
72
0
100
AcDbText
0
LINE
5
25B
100
AcDbEntity
8
0
100
AcDbLine
62
7
6
BYLAYER
10
286.9606628414
20
206.9351519881
11
271.8511762598
21
206.9351519881
0
LINE
5
25C
100
AcDbEntity
8
0
100
AcDbLine
62
7
6
BYLAYER
10
298.2799176510
20
202.1867957119
11
301.6040432318
21
181.6013434730
0
ARC
5
25D
100
AcDbEntity
8
0
100
AcDbCircle
62
7
6
BYLAYER
10
297.5131561350
20
206.9351519881
40
22.6619798752
100
AcDbArc
50
180.0000000000
51
229.5864514810
0
ARC
5
25E
100
AcDbEntity
8
0
100
AcDbCircle
62
7
6
BYLAYER
10
297.5131561350
20
206.9351519881
40
22.6619798752
100
AcDbArc
50
229.5864514810
51
279.1729029621
0
SOLID
5
25F
100
AcDbEntity
8
0
100
AcDbTrace
62
7
6
BYLAYER
10
274.8511762598
20
206.9351519881
11
276.1967798035
21
202.0536203531
12
274.6065057935
22
201.8774710607
13
274.6065057935
23
201.8774710607
0
SOLID
5
260
100
AcDbEntity
8
0
100
AcDbTrace
62
7
6
BYLAYER
10
301.1258002689
20
184.5629787761
11
296.1718021164
21
183.5151704418
12
296.0921863193
22
185.1131883781
13
296.0921863193
23
185.1131883781
0
ENDBLK
5
261
100
AcDbEntity
8
0
100
AcDbBlockEnd
0
BLOCK
5
262
100
AcDbEntity
8
0
100
AcDbBlockBegin
62
7
6
BYLAYER
2
*D5
70
65
10
0.0000000000
20
0.0000000000
3
*D5
1

0
TEXT
5
263
100
AcDbEntity
8
0
100
AcDbText
62
7
6
BYLAYER
10
293.7902091347
20
130.0221066226
7
STANDARD
40
4.0000000000
1
5.3%%d
50
-15.8302271443
41
0.7666666667
72
0
100
AcDbText
0
LINE
5
264
100
AcDbEntity
8
0
100
AcDbLine
62
7
6
BYLAYER
10
306.7075646415
20
149.9965518746
11
311.7375911151
21
118.8468954572
0
LINE
5
265
100
AcDbEntity
8
0
100
AcDbLine
62
7
6
BYLAYER
10
314.1964743551
20
121.7806912693
11
314.7897777460
21
119.4865572785
0
ARC
5
266
100
AcDbEntity
8
0
100
AcDbCircle
62
7
6
BYLAYER
10
306.3887359996
20
151.9709754100
40
30.5531656296
100
AcDbArc
50
254.1697728557
51
279.1729029621
0
ARC
5
267
100
AcDbEntity
8
0
100
AcDbCircle
62
7
6
BYLAYER
10
306.3887359996
20
151.9709754100
40
30.5531656296
100
AcDbArc
50
284.5000000000
51
303.2528127879
0
SOLID
5
268
100
AcDbEntity
8
0
100
AcDbTrace
62
7
6
BYLAYER
10
311.2593481522
20
121.8085307602
11
306.3372112042
21
120.6200157771
12
306.2121026016
22
122.2151169769
13
306.2121026016
23
122.2151169769
0
SOLID
5
269
100
AcDbEntity
8
0
100
AcDbTrace
62
7
6
BYLAYER
10
314.0386377338
20
122.3910001996
11
318.4979202823
21
124.7899164450
12
319.0237958011
22
123.2788059465
13
319.0237958011
23
123.2788059465
0
ENDBLK
5
26A
100
AcDbEntity
8
0
100
AcDbBlockEnd
0
BLOCK
5
26B
100
AcDbEntity
8
0
100
AcDbBlockBegin
62
7
6
BYLAYER
2
COPYRIGHT_BL4
70
64
10
0.0000000000
20
0.0000000000
3
COPYRIGHT_BL4
1

0
CIRCLE
5
26C
100
AcDbEntity
8
0
100
AcDbCircle
62
7
6
BYLAYER
10
368.4166666667
20
59.2552477502
40
2.6387790604
0
ENDBLK
5
26D
100
AcDbEntity
8
0
100
AcDbBlockEnd
0
BLOCK
5
26E
100
AcDbEntity
8
0
100
AcDbBlockBegin
62
7
6
BYLAYER
2
MICRO_U_BL5
70
64
10
0.0000000000
20
0.0000000000
3
MICRO_U_BL5
1

0
ARC
5
26F
100
AcDbEntity
8
0
100
AcDbCircle
62
7
6
BYLAYER
10
115.8029987548
20
24.2743672858
40
1.1407767248
100
AcDbArc
50
303.7730668774
51
1.5957171757
0
ENDBLK
5
270
100
AcDbEntity
8
0
100
AcDbBlockEnd
0
BLOCK
5
271
100
AcDbEntity
8
0
100
AcDbBlockBegin
62
7
6
BYLAYER
2
SURFACE_FINISH_BL6
70
64
10
0.0000000000
20
0.0000000000
3
SURFACE_FINISH_BL6
1

0
LINE
5
272
100
AcDbEntity
8
0
100
AcDbLine
62
7
6
BYLAYER
10
97.0309676193
20
12.0901401771
11
99.8402817594
21
16.9560150021
0
LINE
5
273
100
AcDbEntity
8
0
100
AcDbLine
62
7
6
BYLAYER
10
97.0309676193
20
12.0901401771
11
95.7597911309
21
14.2918824404
0
LINE
5
274
100
AcDbEntity
8
0
100
AcDbLine
62
7
6
BYLAYER
10
95.7597911309
20
14.2918824404
11
98.3021441078
21
14.2918824404
0
ENDBLK
5
275
100
AcDbEntity
8
0
100
AcDbBlockEnd
0
BLOCK
5
276
100
AcDbEntity
8
0
100
AcDbBlockBegin
62
7
6
BYLAYER
2
PROJECTION_BL7
70
64
10
0.0000000000
20
0.0000000000
3
PROJECTION_BL7
1

0
LINE
5
277
100
AcDbEntity
8
0
100
AcDbLine
62
7
6
BYLAYER
10
304.4288585399
20
278.0624994947
11
304.4288585399
21
282.4374994947
0
LINE
5
278
100
AcDbEntity
8
0
100
AcDbLine
62
7
6
BYLAYER
10
304.4288585399
20
282.4374994947
11
310.5538585399
21
284.6249994947
0
LINE
5
279
100
AcDbEntity
8
0
100
AcDbLine
62
7
6
BYLAYER
10
310.5538585399
20
284.6249994947
11
310.5538585399
21
275.8749994947
0
LINE
5
27A
100
AcDbEntity
8
0
100
AcDbLine
62
7
6
BYLAYER
10
310.5538585399
20
275.8749994947
11
304.4288585399
21
278.0624994947
0
ARC
5
27B
100
AcDbEntity
8
0
100
AcDbCircle
62
7
6
BYLAYER
10
292.1788585399
20
280.2499994947
40
2.1875000000
100
AcDbArc
50
180.0000000000
51
360.0000000000
0
ARC
5
27C
100
AcDbEntity
8
0
100
AcDbCircle
62
7
6
BYLAYER
10
292.1788585399
20
280.2499994947
40
2.1875000000
100
AcDbArc
50
0.0000000000
51
180.0000000000
0
ARC
5
27D
100
AcDbEntity
8
0
100
AcDbCircle
62
7
6
BYLAYER
10
292.1788585399
20
280.2499994947
40
4.3750000000
100
AcDbArc
50
180.0000000000
51
360.0000000000
0
ARC
5
27E
100
AcDbEntity
8
0
100
AcDbCircle
62
7
6
BYLAYER
10
292.1788585399
20
280.2499994947
40
4.3750000000
100
AcDbArc
50
0.0000000000
51
180.0000000000
0
LINE
5
27F
100
AcDbEntity
8
0
100
AcDbLine
62
7
6
BYLAYER
10
285.1534835399
20
280.2499994947
11
298.4009835399
21
280.2499994947
0
LINE
5
280
100
AcDbEntity
8
0
100
AcDbLine
62
7
6
BYLAYER
10
301.1493585399
20
280.2499994947
11
313.1464835399
21
280.2499994947
0
LINE
5
281
100
AcDbEntity
8
0
100
AcDbLine
62
7
6
BYLAYER
10
292.1788585399
20
285.2952494947
11
292.1788585399
21
275.2047494947
0
ENDBLK
5
282
100
AcDbEntity
8
0
100
AcDbBlockEnd
0
ENDSEC
0
SECTION
2
ENTITIES
0
INSERT
5
283
100
AcDbEntity
8
0
100
AcDbBlockReference
62
7
6
BYLAYER
2
COPYRIGHT_BL0
10
0.0000000000
20
0.0000000000
0
INSERT
5
284
100
AcDbEntity
8
0
100
AcDbBlockReference
62
7
6
BYLAYER
2
MICRO_U_BL1
10
0.0000000000
20
0.0000000000
0
INSERT
5
285
100
AcDbEntity
8
0
100
AcDbBlockReference
62
7
6
BYLAYER
2
PROJECTION_BL2
10
0.0000000000
20
0.0000000000
0
INSERT
5
286
100
AcDbEntity
8
0
100
AcDbBlockReference
62
7
6
BYLAYER
2
SURFACE_FINISH_BL3
10
0.0000000000
20
0.0000000000
0
DIMENSION
5
287
100
AcDbEntity
8
0
100
AcDbDimension
62
7
6
BYLAYER
2
*D0
10
210.7523411762
20
199.3351519881
11
207.7523411762
21
212.1119368638
70
160
3
DIMSTYLE_1
100
AcDbAlignedDimension
13
232.9816812074
23
227.1351519881
14
232.9816812074
24
199.3351519881
50
270.000000
100
AcDbRotatedDimension
0
DIMENSION
5
288
100
AcDbEntity
8
0
100
AcDbDimension
62
7
6
BYLAYER
2
*D1
10
234.9816812074
20
246.5157009849
11
251.3960896846
21
249.5157009849
70
160
3
DIMSTYLE_2
100
AcDbAlignedDimension
13
266.9816812074
23
229.1351519881
14
234.9816812074
24
229.1351519881
50
180.000000
100
AcDbRotatedDimension
0
DIMENSION
5
289
100
AcDbEntity
8
0
100
AcDbDimension
62
7
6
BYLAYER
2
*D2
10
305.6355881708
20
214.9565611793
11
316.8537076723
21
228.3100111104
70
162
3
DIMSTYLE_3
100
AcDb2LineAngularDimension
13
306.5793352352
23
208.0169209763
14
309.0228195900
24
202.2587366363
15
317.4265826775
25
214.9716975421
16
312.6375610996
26
209.0033395559
0
DIMENSION
5
28A
100
AcDbEntity
8
0
100
AcDbDimension
62
7
6
BYLAYER
2
*D3
10
334.1864628447
20
192.0584478577
11
325.9382268859
21
180.0639424950
70
162
3
DIMSTYLE_3
100
AcDb2LineAngularDimension
13
308.1651801933
23
195.5782814878
14
322.0427013480
24
162.8752585139
15
339.3476891589
25
192.6648262341
16
333.0636750483
26
176.3941743397
0
DIMENSION
5
28B
100
AcDbEntity
8
0
100
AcDbDimension
62
7
6
BYLAYER
2
*D4
10
298.2799176510
20
202.1867957119
11
286.5044012816
21
197.2510944480
70
162
3
DIMSTYLE_3
100
AcDb2LineAngularDimension
13
286.9606628414
23
206.9351519881
14
271.8511762598
24
206.9351519881
15
301.6040432318
25
181.6013434730
16
282.8213954644
26
189.6806598118
0
DIMENSION
5
28C
100
AcDbEntity
8
0
100
AcDbDimension
62
7
6
BYLAYER
2
*D5
10
314.1964743551
20
121.7806912693
11
300.2365066641
21
130.2731563002
70
162
3
DIMSTYLE_3
100
AcDb2LineAngularDimension
13
306.7075646415
23
149.9965518746
14
311.7375911151
24
118.8468954572
15
314.7897777460
25
119.4865572785
16
298.0542039447
26
122.5765625835
0
LINE
5
28D
100
AcDbEntity
8
0
100
AcDbLine
62
7
6
BYLAYER
10
209.0000000000
20
82.0000000000
11
410.0000000000
21
82.0000000000
0
LINE
5
28E
100
AcDbEntity
8
0
100
AcDbLine
62
7
6
BYLAYER
10
209.0000000000
20
82.0000000000
11
209.0000000000
21
10.0000000000
0
LINE
5
28F
100
AcDbEntity
8
0
100
AcDbLine
62
7
6
BYLAYER
10
209.0000000000
20
73.0000000000
11
410.0000000000
21
73.0000000000
0
LINE
5
290
100
AcDbEntity
8
0
100
AcDbLine
62
7
6
BYLAYER
10
209.0000000000
20
64.0000000000
11
410.0000000000
21
64.0000000000
0
LINE
5
291
100
AcDbEntity
8
0
100
AcDbLine
62
7
6
BYLAYER
10
209.0000000000
20
55.0000000000
11
410.0000000000
21
55.0000000000
0
LINE
5
292
100
AcDbEntity
8
0
100
AcDbLine
62
7
6
BYLAYER
10
209.0000000000
20
46.0000000000
11
410.0000000000
21
46.0000000000
0
LINE
5
293
100
AcDbEntity
8
0
100
AcDbLine
62
7
6
BYLAYER
10
209.0000000000
20
21.0000000000
11
410.0000000000
21
21.0000000000
0
LINE
5
294
100
AcDbEntity
8
0
100
AcDbLine
62
7
6
BYLAYER
10
209.0000000000
20
10.0000000000
11
410.0000000000
21
10.0000000000
0
LINE
5
295
100
AcDbEntity
8
0
100
AcDbLine
62
7
6
BYLAYER
10
224.0000000000
20
82.0000000000
11
224.0000000000
21
64.0000000000
0
LINE
5
296
100
AcDbEntity
8
0
100
AcDbLine
62
7
6
BYLAYER
10
224.0000000000
20
21.0000000000
11
224.0000000000
21
10.0000000000
0
LINE
5
297
100
AcDbEntity
8
0
100
AcDbLine
62
7
6
BYLAYER
10
253.5000000000
20
82.0000000000
11
253.5000000000
21
64.0000000000
0
LINE
5
298
100
AcDbEntity
8
0
100
AcDbLine
62
7
6
BYLAYER
10
283.0000000000
20
82.0000000000
11
283.0000000000
21
64.0000000000
0
LINE
5
299
100
AcDbEntity
8
0
100
AcDbLine
62
7
6
BYLAYER
10
315.5000000000
20
82.0000000000
11
315.5000000000
21
64.0000000000
0
LINE
5
29A
100
AcDbEntity
8
0
100
AcDbLine
62
7
6
BYLAYER
10
344.0000000000
20
21.0000000000
11
344.0000000000
21
10.0000000000
0
LINE
5
29B
100
AcDbEntity
8
0
100
AcDbLine
62
7
6
BYLAYER
10
348.0000000000
20
82.0000000000
11
348.0000000000
21
64.0000000000
0
LINE
5
29C
100
AcDbEntity
8
0
100
AcDbLine
62
7
6
BYLAYER
10
365.0000000000
20
64.0000000000
11
365.0000000000
21
55.0000000000
0
LINE
5
29D
100
AcDbEntity
8
0
100
AcDbLine
62
7
6
BYLAYER
10
380.5000000000
20
82.0000000000
11
380.5000000000
21
64.0000000000
0
LINE
5
29E
100
AcDbEntity
8
0
100
AcDbLine
62
7
6
BYLAYER
10
410.0000000000
20
82.0000000000
11
410.0000000000
21
10.0000000000
0
TEXT
5
29F
100
AcDbEntity
8
0
100
AcDbText
62
7
6
BYLAYER
10
215.3000000000
20
76.0000000000
7
STANDARD
40
3.0000000000
1
D
41
0.8000000000
72
1
11
216.5000000000
21
76.0000000000
100
AcDbText
0
TEXT
5
2A0
100
AcDbEntity
8
0
100
AcDbText
62
7
6
BYLAYER
10
227.9500000000
20
76.0000000000
7
STANDARD
40
3.0000000000
1
29/MAY/03
41
0.8000000000
72
1
11
238.7500000000
21
76.0000000000
100
AcDbText
0
TEXT
5
2A1
100
AcDbEntity
8
0
100
AcDbText
62
7
6
BYLAYER
10
259.8500000000
20
76.0000000000
7
STANDARD
40
3.0000000000
1
------
41
0.8000000000
72
1
11
267.0500000000
21
76.0000000000
100
AcDbText
0
TEXT
5
2A2
100
AcDbEntity
8
0
100
AcDbText
62
7
6
BYLAYER
10
274.2500000000
20
76.0000000000
7
STANDARD
40
3.0000000000
1
.
41
0.8000000000
72
1
11
275.4500000000
21
76.0000000000
100
AcDbText
0
TEXT
5
2A3
100
AcDbEntity
8
0
100
AcDbText
62
7
6
BYLAYER
10
289.6500000000
20
76.0000000000
7
STANDARD
40
3.0000000000
1
J NOVISS
41
0.8000000000
72
1
11
299.2500000000
21
76.0000000000
100
AcDbText
0
TEXT
5
2A4
100
AcDbEntity
8
0
100
AcDbText
62
7
6
BYLAYER
10
329.3500000000
20
76.0000000000
7
STANDARD
40
3.0000000000
1
IW
41
0.8000000000
72
1
11
331.7500000000
21
76.0000000000
100
AcDbText
0
TEXT
5
2A5
100
AcDbEntity
8
0
100
AcDbText
62
7
6
BYLAYER
10
361.8500000000
20
76.0000000000
7
STANDARD
40
3.0000000000
1
DG
41
0.8000000000
72
1
11
364.2500000000
21
76.0000000000
100
AcDbText
0
TEXT
5
2A6
100
AcDbEntity
8
0
100
AcDbText
62
7
6
BYLAYER
10
391.6500000000
20
76.0000000000
7
STANDARD
40
3.0000000000
1
REL
41
0.8000000000
72
1
11
395.2500000000
21
76.0000000000
100
AcDbText
0
TEXT
5
2A7
100
AcDbEntity
8
0
100
AcDbText
62
7
6
BYLAYER
10
210.5000000000
20
67.0000000000
7
STANDARD
40
3.0000000000
1
ISSUE
41
0.8000000000
72
1
11
216.5000000000
21
67.0000000000
100
AcDbText
0
TEXT
5
2A8
100
AcDbEntity
8
0
100
AcDbText
62
7
6
BYLAYER
10
227.9500000000
20
67.0000000000
7
STANDARD
40
3.0000000000
1
DATE APPD
41
0.8000000000
72
1
11
238.7500000000
21
67.0000000000
100
AcDbText
0
TEXT
5
2A9
100
AcDbEntity
8
0
100
AcDbText
62
7
6
BYLAYER
10
258.6500000000
20
67.0000000000
7
STANDARD
40
3.0000000000
1
MOD. No.
41
0.8000000000
72
1
11
268.2500000000
21
67.0000000000
100
AcDbText
0
TEXT
5
2AA
100
AcDbEntity
8
0
100
AcDbText
62
7
6
BYLAYER
10
290.8500000000
20
67.0000000000
7
STANDARD
40
3.0000000000
1
DRN. BY
41
0.8000000000
72
1
11
299.2500000000
21
67.0000000000
100
AcDbText
0
TEXT
5
2AB
100
AcDbEntity
8
0
100
AcDbText
62
7
6
BYLAYER
10
322.1500000000
20
67.0000000000
7
STANDARD
40
3.0000000000
1
CHKD BY.
41
0.8000000000
72
1
11
331.7500000000
21
67.0000000000
100
AcDbText
0
TEXT
5
2AC
100
AcDbEntity
8
0
100
AcDbText
62
7
6
BYLAYER
10
354.6500000000
20
67.0000000000
7
STANDARD
40
3.0000000000
1
APPD BY.
41
0.8000000000
72
1
11
364.2500000000
21
67.0000000000
100
AcDbText
0
TEXT
5
2AD
100
AcDbEntity
8
0
100
AcDbText
62
7
6
BYLAYER
10
388.0500000000
20
67.0000000000
7
STANDARD
40
3.0000000000
1
STATUS
41
0.8000000000
72
1
11
395.2500000000
21
67.0000000000
100
AcDbText
0
TEXT
5
2AE
100
AcDbEntity
8
0
100
AcDbText
62
7
6
BYLAYER
10
210.4000000000
20
57.5000000000
7
STANDARD
40
4.0000000000
1
USED ON
41
0.8000000000
72
0
100
AcDbText
0
TEXT
5
2AF
100
AcDbEntity
8
0
100
AcDbText
62
7
6
BYLAYER
10
254.9000000000
20
57.5000000000
7
STANDARD
40
4.0000000000
1
 
41
0.8000000000
72
0
100
AcDbText
0
INSERT
5
2B0
100
AcDbEntity
8
0
100
AcDbBlockReference
62
7
6
BYLAYER
2
COPYRIGHT_BL4
10
0.0000000000
20
0.0000000000
0
TEXT
5
2B1
100
AcDbEntity
8
0
100
AcDbText
62
7
6
BYLAYER
10
371.0554457271
20
57.3835313102
7
TEXTSTYLE_1
40
5.0000000000
1
 CLRC
41
0.7800000000
72
1
11
380.8054457271
21
57.3835313102
100
AcDbText
0
TEXT
5
2B2
100
AcDbEntity
8
0
100
AcDbText
62
7
6
BYLAYER
10
390.5554457271
20
57.3835313102
7
TEXTSTYLE_1
40
5.0000000000
1
 
41
0.8000000000
72
1
11
392.5554457271
21
57.3835313102
100
AcDbText
0
TEXT
5
2B3
100
AcDbEntity
8
0
100
AcDbText
62
7
6
BYLAYER
10
394.5554457271
20
57.3835313102
7
TEXTSTYLE_1
40
5.0000000000
1
2002
41
0.7333333333
72
1
11
401.8887790604
21
57.3835313102
100
AcDbText
0
TEXT
5
2B4
100
AcDbEntity
8
0
100
AcDbText
62
7
6
BYLAYER
10
367.1926306113
20
57.5014920980
7
TEXTSTYLE_1
40
3.5000000000
1
C
41
0.8000000000
72
0
100
AcDbText
0
TEXT
5
2B5
100
AcDbEntity
8
0
100
AcDbText
62
7
6
BYLAYER
10
210.4000000000
20
48.5000000000
7
TEXTSTYLE_1
40
3.0000000000
1
CENTRAL LABORATORY OF THE RESEARCH COUNCILS
41
0.7620155039
72
0
100
AcDbText
0
TEXT
5
2B6
100
AcDbEntity
8
0
100
AcDbText
62
7
6
BYLAYER
10
308.7000000000
20
48.5000000000
7
STANDARD
40
4.0000000000
1
 
41
0.8000000000
72
0
100
AcDbText
0
TEXT
5
2B7
100
AcDbEntity
8
0
100
AcDbText
62
7
6
BYLAYER
10
311.9000000000
20
48.5000000000
7
STANDARD
40
2.0000000000
1
RUTHERFORD APPLETON LABORATORY, CHILTON, OXON OX110QX
41
0.8000000000
72
0
100
AcDbText
0
TEXT
5
2B8
100
AcDbEntity
8
0
100
AcDbText
62
7
6
BYLAYER
10
210.4000000000
20
41.5000000000
7
STANDARD
40
3.0000000000
1
TITLE
41
0.8000000000
72
0
100
AcDbText
0
TEXT
5
2B9
100
AcDbEntity
8
0
100
AcDbText
62
7
6
BYLAYER
10
271.0000000000
20
36.5000000000
7
TEXTSTYLE_1
40
6.0000000000
1
POWER TAPE W7
41
0.9871794872
72
1
11
309.5000000000
21
36.5000000000
100
AcDbText
0
TEXT
5
2BA
100
AcDbEntity
8
0
100
AcDbText
62
7
6
BYLAYER
10
259.9375000000
20
27.5000000000
7
TEXTSTYLE_1
40
6.0000000000
1
WHEELS 1,2,3,4,5,6,7,8
41
0.7509469697
72
1
11
309.5000000000
21
27.5000000000
100
AcDbText
0
TEXT
5
2BB
100
AcDbEntity
8
0
100
AcDbText
62
7
6
BYLAYER
10
210.4000000000
20
24.2500000000
7
STANDARD
40
4.0000000000
1
ATLAS_ID
41
0.8000000000
72
0
100
AcDbText
0
TEXT
5
2BC
100
AcDbEntity
8
0
100
AcDbText
62
7
6
BYLAYER
10
389.4000000000
20
24.2500000000
7
STANDARD
40
4.0000000000
1
TDL008
41
0.8000000000
72
2
11
408.6000000000
21
24.2500000000
100
AcDbText
0
TEXT
5
2BD
100
AcDbEntity
8
0
100
AcDbText
62
7
6
BYLAYER
10
211.1333333333
20
12.0000000000
7
TEXTSTYLE_1
40
7.0000000000
1
A3
41
0.7666666667
72
1
11
216.5000000000
21
12.0000000000
100
AcDbText
0
TEXT
5
2BE
100
AcDbEntity
8
0
100
AcDbText
62
7
6
BYLAYER
10
225.4000000000
20
12.0000000000
7
TEXTSTYLE_1
40
5.0000000000
1
 
41
1.0000000000
72
0
100
AcDbText
0
TEXT
5
2BF
100
AcDbEntity
8
0
100
AcDbText
62
7
6
BYLAYER
10
230.4000000000
20
12.0000000000
7
TEXTSTYLE_1
40
7.0000000000
1
TD-1002-938
41
0.7992424242
72
0
100
AcDbText
0
TEXT
5
2C0
100
AcDbEntity
8
0
100
AcDbText
62
7
6
BYLAYER
10
345.4000000000
20
16.7500000000
7
STANDARD
40
2.5000000000
1
SHEET
41
0.8000000000
72
0
100
AcDbText
0
TEXT
5
2C1
100
AcDbEntity
8
0
100
AcDbText
62
7
6
BYLAYER
10
366.7666666667
20
12.0000000000
7
STANDARD
40
3.0000000000
1
 
41
0.8000000000
72
1
11
367.9666666667
21
12.0000000000
100
AcDbText
0
TEXT
5
2C2
100
AcDbEntity
8
0
100
AcDbText
62
7
6
BYLAYER
10
369.1666666667
20
12.0000000000
7
TEXTSTYLE_1
40
7.0000000000
1
1
41
0.3333333333
72
1
11
370.3333333333
21
12.0000000000
100
AcDbText
0
TEXT
5
2C3
100
AcDbEntity
8
0
100
AcDbText
62
7
6
BYLAYER
10
371.5000000000
20
12.0000000000
7
STANDARD
40
4.0000000000
1
 OF 
41
0.8000000000
72
1
11
377.9000000000
21
12.0000000000
100
AcDbText
0
TEXT
5
2C4
100
AcDbEntity
8
0
100
AcDbText
62
7
6
BYLAYER
10
384.3000000000
20
12.0000000000
7
TEXTSTYLE_1
40
7.0000000000
1
1
41
0.3333333333
72
1
11
385.4666666667
21
12.0000000000
100
AcDbText
0
TEXT
5
2C5
100
AcDbEntity
8
0
100
AcDbText
62
7
6
BYLAYER
10
386.6333333333
20
12.0000000000
7
STANDARD
40
4.0000000000
1
     
41
0.8000000000
72
1
11
394.6333333333
21
12.0000000000
100
AcDbText
0
TEXT
5
2C6
100
AcDbEntity
8
0
100
AcDbText
62
7
6
BYLAYER
10
402.6333333333
20
12.0000000000
7
TEXTSTYLE_1
40
7.0000000000
1
D
41
0.8000000000
72
1
11
405.4333333333
21
12.0000000000
100
AcDbText
0
LINE
5
2C7
100
AcDbEntity
8
0
100
AcDbLine
62
7
6
BYLAYER
10
20.0371621622
20
45.9172297297
11
209.0371621622
21
45.9172297297
0
LINE
5
2C8
100
AcDbEntity
8
0
100
AcDbLine
62
7
6
BYLAYER
10
20.0371621622
20
45.9172297297
11
20.0371621622
21
9.9172297297
0
LINE
5
2C9
100
AcDbEntity
8
0
100
AcDbLine
62
7
6
BYLAYER
10
20.0371621622
20
27.9172297297
11
209.0371621622
21
27.9172297297
0
LINE
5
2CA
100
AcDbEntity
8
0
100
AcDbLine
62
7
6
BYLAYER
10
20.0371621622
20
9.9172297297
11
209.0371621622
21
9.9172297297
0
LINE
5
2CB
100
AcDbEntity
8
0
100
AcDbLine
62
7
6
BYLAYER
10
83.0371621622
20
45.9172297297
11
83.0371621622
21
9.9172297297
0
LINE
5
2CC
100
AcDbEntity
8
0
100
AcDbLine
62
7
6
BYLAYER
10
146.0371621622
20
45.9172297297
11
146.0371621622
21
9.9172297297
0
LINE
5
2CD
100
AcDbEntity
8
0
100
AcDbLine
62
7
6
BYLAYER
10
209.0371621622
20
45.9172297297
11
209.0371621622
21
9.9172297297
0
TEXT
5
2CE
100
AcDbEntity
8
0
100
AcDbText
62
7
6
BYLAYER
10
21.4371621622
20
41.6672297297
7
STANDARD
40
2.5000000000
1
TOLERANCES UNLESS STATED
41
0.8000000000
72
0
100
AcDbText
0
TEXT
5
2CF
100
AcDbEntity
8
0
100
AcDbText
62
7
6
BYLAYER
10
84.4371621622
20
41.6672297297
7
STANDARD
40
2.5000000000
1
FINISH
41
0.8000000000
72
0
100
AcDbText
0
TEXT
5
2D0
100
AcDbEntity
8
0
100
AcDbText
62
7
6
BYLAYER
10
147.4371621622
20
41.6672297297
7
STANDARD
40
2.5000000000
1
ORIGINAL SCALE
41
0.8000000000
72
0
100
AcDbText
0
TEXT
5
2D1
100
AcDbEntity
8
0
100
AcDbText
62
7
6
BYLAYER
10
44.9871621622
20
34.1672297297
7
STANDARD
40
3.0000000000
1
%%p
41
1.1666666667
72
1
11
46.7371621622
21
34.1672297297
100
AcDbText
0
TEXT
5
2D2
100
AcDbEntity
8
0
100
AcDbText
62
7
6
BYLAYER
10
48.4871621622
20
34.1672297297
7
STANDARD
40
3.0000000000
1
 
41
0.8000000000
72
1
11
49.6871621622
21
34.1672297297
100
AcDbText
0
TEXT
5
2D3
100
AcDbEntity
8
0
100
AcDbText
62
7
6
BYLAYER
10
50.8871621622
20
34.1672297297
7
STANDARD
40
3.0000000000
1
 mm
41
0.8000000000
72
1
11
54.4871621622
21
34.1672297297
100
AcDbText
0
TEXT
5
2D4
100
AcDbEntity
8
0
100
AcDbText
62
7
6
BYLAYER
10
46.3871621622
20
29.6672297297
7
STANDARD
40
3.0000000000
1
%%p
41
1.1666666667
72
1
11
48.1371621622
21
29.6672297297
100
AcDbText
0
TEXT
5
2D5
100
AcDbEntity
8
0
100
AcDbText
62
7
6
BYLAYER
10
49.8871621622
20
29.6672297297
7
STANDARD
40
3.0000000000
1
 
41
0.8000000000
72
1
11
51.0871621622
21
29.6672297297
100
AcDbText
0
TEXT
5
2D6
100
AcDbEntity
8
0
100
AcDbText
62
7
6
BYLAYER
10
52.2871621622
20
29.6672297297
7
STANDARD
40
3.0000000000
1
 %%d
41
0.7333333333
72
1
11
54.4871621622
21
29.6672297297
100
AcDbText
0
TEXT
5
2D7
100
AcDbEntity
8
0
100
AcDbText
62
7
6
BYLAYER
10
102.5371621622
20
34.1672297297
7
STANDARD
40
3.0000000000
1
SEE NOTE 3
41
0.8000000000
72
1
11
114.5371621622
21
34.1672297297
100
AcDbText
0
TEXT
5
2D8
100
AcDbEntity
8
0
100
AcDbText
62
7
6
BYLAYER
10
95.3371621622
20
29.6672297297
7
STANDARD
40
3.0000000000
1
REMOVE ALL BURRS
41
0.8000000000
72
1
11
114.5371621622
21
29.6672297297
100
AcDbText
0
TEXT
5
2D9
100
AcDbEntity
8
0
100
AcDbText
62
7
6
BYLAYER
10
173.9371621622
20
34.1672297297
7
STANDARD
40
3.0000000000
1
1:1
41
0.8000000000
72
1
11
177.5371621622
21
34.1672297297
100
AcDbText
0
TEXT
5
2DA
100
AcDbEntity
8
0
100
AcDbText
62
7
6
BYLAYER
10
163.1371621622
20
29.6672297297
7
STANDARD
40
3.0000000000
1
DO NOT SCALE
41
0.8000000000
72
1
11
177.5371621622
21
29.6672297297
100
AcDbText
0
TEXT
5
2DB
100
AcDbEntity
8
0
100
AcDbText
62
7
6
BYLAYER
10
21.4371621622
20
23.6672297297
7
STANDARD
40
2.5000000000
1
MATERIAL 
41
0.8000000000
72
0
100
AcDbText
0
TEXT
5
2DC
100
AcDbEntity
8
0
100
AcDbText
62
7
6
BYLAYER
10
39.4371621622
20
23.6672297297
7
STANDARD
40
2.5000000000
1
& SPEC.
41
0.8000000000
72
0
100
AcDbText
0
INSERT
5
2DD
100
AcDbEntity
8
0
100
AcDbBlockReference
62
7
6
BYLAYER
2
MICRO_U_BL5
10
0.0000000000
20
0.0000000000
0
TEXT
5
2DE
100
AcDbEntity
8
0
100
AcDbText
62
7
6
BYLAYER
10
84.4371621622
20
24.0083581219
7
STANDARD
40
2.5000000000
1
SURFACE TEXTURE 
41
0.8000000000
72
0
100
AcDbText
0
TEXT
5
2DF
100
AcDbEntity
8
0
100
AcDbText
62
7
6
BYLAYER
10
116.4894190556
20
24.0082838118
7
STANDARD
40
1.8178175258
1
um
41
0.8000000000
72
0
100
AcDbText
0
TEXT
5
2E0
100
AcDbEntity
8
0
100
AcDbText
62
7
6
BYLAYER
10
39.5371621622
20
16.1672297297
7
STANDARD
40
3.0000000000
1
SEE NOTE 3
41
0.8000000000
72
1
11
51.5371621622
21
16.1672297297
100
AcDbText
0
TEXT
5
2E1
100
AcDbEntity
8
0
100
AcDbText
62
7
6
BYLAYER
10
41.9371621622
20
11.6672297297
7
STANDARD
40
3.0000000000
1
--------
41
0.8000000000
72
1
11
51.5371621622
21
11.6672297297
100
AcDbText
0
INSERT
5
2E2
100
AcDbEntity
8
0
100
AcDbBlockReference
62
7
6
BYLAYER
2
SURFACE_FINISH_BL6
10
0.0000000000
20
0.0000000000
0
TEXT
5
2E3
100
AcDbEntity
8
0
100
AcDbText
62
7
6
BYLAYER
10
102.5371621622
20
18.5810150021
7
STANDARD
40
3.0000000000
1
SEE NOTE 3
41
0.8000000000
72
1
11
114.5371621622
21
18.5810150021
100
AcDbText
0
TEXT
5
2E4
100
AcDbEntity
8
0
100
AcDbText
62
7
6
BYLAYER
10
99.8402817594
20
11.6672297297
7
STANDARD
40
3.0000000000
1
 UNLESS STATED
41
0.8000000000
72
1
11
116.6402817594
21
11.6672297297
100
AcDbText
0
TEXT
5
2E5
100
AcDbEntity
8
0
100
AcDbText
62
7
6
BYLAYER
10
95.6340425649
20
12.5409220665
7
STANDARD
40
3.5000000000
1
-
41
0.8000000000
72
0
100
AcDbText
0
LINE
5
2E6
100
AcDbEntity
8
0
100
AcDbLine
62
7
6
BYLAYER
10
10.0000000000
20
10.0000000000
11
10.0000000000
21
116.2000000000
0
LINE
5
2E7
100
AcDbEntity
8
0
100
AcDbLine
62
7
6
BYLAYER
10
10.0000000000
20
10.0000000000
11
20.0000000000
21
10.0000000000
0
LINE
5
2E8
100
AcDbEntity
8
0
100
AcDbLine
62
7
6
BYLAYER
10
20.0000000000
20
10.0000000000
11
20.0000000000
21
116.2000000000
0
LINE
5
2E9
100
AcDbEntity
8
0
100
AcDbLine
62
7
6
BYLAYER
10
10.0000000000
20
25.0000000000
11
20.0000000000
21
25.0000000000
0
LINE
5
2EA
100
AcDbEntity
8
0
100
AcDbLine
62
7
6
BYLAYER
10
10.0000000000
20
78.2000000000
11
20.0000000000
21
78.2000000000
0
LINE
5
2EB
100
AcDbEntity
8
0
100
AcDbLine
62
7
6
BYLAYER
10
10.0000000000
20
106.2000000000
11
20.0000000000
21
106.2000000000
0
LINE
5
2EC
100
AcDbEntity
8
0
100
AcDbLine
62
7
6
BYLAYER
10
10.0000000000
20
116.2000000000
11
20.0000000000
21
116.2000000000
0
TEXT
5
2ED
100
AcDbEntity
8
0
100
AcDbText
62
7
6
BYLAYER
10
17.5000000000
20
12.5000000000
7
STANDARD
40
5.0000000000
1
A3
50
90.0000000000
41
1.0000000000
72
1
11
17.5000000000
21
17.5000000000
100
AcDbText
0
TEXT
5
2EE
100
AcDbEntity
8
0
100
AcDbText
62
7
6
BYLAYER
10
17.5000000000
20
26.4000000000
7
TEXTSTYLE_1
40
5.0000000000
1
 
50
90.0000000000
41
1.0000000000
72
0
100
AcDbText
0
TEXT
5
2EF
100
AcDbEntity
8
0
100
AcDbText
62
7
6
BYLAYER
10
17.5000000000
20
31.4000000000
7
TEXTSTYLE_1
40
5.0000000000
1
TD-1002-938
50
90.0000000000
41
0.7992424242
72
0
100
AcDbText
0
TEXT
5
2F0
100
AcDbEntity
8
0
100
AcDbText
62
7
6
BYLAYER
10
16.5000000000
20
79.6000000000
7
TEXTSTYLE_1
40
3.0000000000
1
Sheet 
50
90.0000000000
41
0.6666666667
72
0
100
AcDbText
0
TEXT
5
2F1
100
AcDbEntity
8
0
100
AcDbText
62
7
6
BYLAYER
10
16.5000000000
20
91.6000000000
7
TEXTSTYLE_1
40
3.0000000000
1
1
50
90.0000000000
41
0.3333333333
72
0
100
AcDbText
0
TEXT
5
2F2
100
AcDbEntity
8
0
100
AcDbText
62
7
6
BYLAYER
10
16.5000000000
20
92.6000000000
7
TEXTSTYLE_1
40
3.0000000000
1
 OF 
50
90.0000000000
41
0.7833333333
72
0
100
AcDbText
0
TEXT
5
2F3
100
AcDbEntity
8
0
100
AcDbText
62
7
6
BYLAYER
10
16.5000000000
20
102.0000000000
7
TEXTSTYLE_1
40
3.0000000000
1
1
50
90.0000000000
41
0.3333333333
72
0
100
AcDbText
0
TEXT
5
2F4
100
AcDbEntity
8
0
100
AcDbText
62
7
6
BYLAYER
10
17.5000000000
20
109.2000000000
7
TEXTSTYLE_1
40
5.0000000000
1
D
50
90.0000000000
41
0.8000000000
72
1
11
17.5000000000
21
111.2000000000
100
AcDbText
0
LINE
5
2F5
100
AcDbEntity
8
0
100
AcDbLine
62
7
6
BYLAYER
10
10.0000000000
20
287.0000000000
11
116.2000000000
21
287.0000000000
0
LINE
5
2F6
100
AcDbEntity
8
0
100
AcDbLine
62
7
6
BYLAYER
10
10.0000000000
20
287.0000000000
11
10.0000000000
21
277.0000000000
0
LINE
5
2F7
100
AcDbEntity
8
0
100
AcDbLine
62
7
6
BYLAYER
10
10.0000000000
20
277.0000000000
11
116.2000000000
21
277.0000000000
0
LINE
5
2F8
100
AcDbEntity
8
0
100
AcDbLine
62
7
6
BYLAYER
10
25.0000000000
20
287.0000000000
11
25.0000000000
21
277.0000000000
0
LINE
5
2F9
100
AcDbEntity
8
0
100
AcDbLine
62
7
6
BYLAYER
10
78.2000000000
20
287.0000000000
11
78.2000000000
21
277.0000000000
0
LINE
5
2FA
100
AcDbEntity
8
0
100
AcDbLine
62
7
6
BYLAYER
10
106.2000000000
20
287.0000000000
11
106.2000000000
21
277.0000000000
0
LINE
5
2FB
100
AcDbEntity
8
0
100
AcDbLine
62
7
6
BYLAYER
10
116.2000000000
20
287.0000000000
11
116.2000000000
21
277.0000000000
0
TEXT
5
2FC
100
AcDbEntity
8
0
100
AcDbText
62
7
6
BYLAYER
10
12.5000000000
20
279.5000000000
7
STANDARD
40
5.0000000000
1
A3
41
1.0000000000
72
1
11
17.5000000000
21
279.5000000000
100
AcDbText
0
TEXT
5
2FD
100
AcDbEntity
8
0
100
AcDbText
62
7
6
BYLAYER
10
26.4000000000
20
279.5000000000
7
TEXTSTYLE_1
40
5.0000000000
1
 
41
1.0000000000
72
0
100
AcDbText
0
TEXT
5
2FE
100
AcDbEntity
8
0
100
AcDbText
62
7
6
BYLAYER
10
31.4000000000
20
279.5000000000
7
TEXTSTYLE_1
40
5.0000000000
1
TD-1002-938
41
0.7992424242
72
0
100
AcDbText
0
TEXT
5
2FF
100
AcDbEntity
8
0
100
AcDbText
62
7
6
BYLAYER
10
79.6000000000
20
280.5000000000
7
TEXTSTYLE_1
40
3.0000000000
1
Sheet 
41
0.6666666667
72
0
100
AcDbText
0
TEXT
5
300
100
AcDbEntity
8
0
100
AcDbText
62
7
6
BYLAYER
10
91.6000000000
20
280.5000000000
7
TEXTSTYLE_1
40
3.0000000000
1
1
41
0.3333333333
72
0
100
AcDbText
0
TEXT
5
301
100
AcDbEntity
8
0
100
AcDbText
62
7
6
BYLAYER
10
92.6000000000
20
280.5000000000
7
TEXTSTYLE_1
40
3.0000000000
1
 OF 
41
0.7833333333
72
0
100
AcDbText
0
TEXT
5
302
100
AcDbEntity
8
0
100
AcDbText
62
7
6
BYLAYER
10
102.0000000000
20
280.5000000000
7
TEXTSTYLE_1
40
3.0000000000
1
1
41
0.3333333333
72
0
100
AcDbText
0
TEXT
5
303
100
AcDbEntity
8
0
100
AcDbText
62
7
6
BYLAYER
10
109.2000000000
20
279.5000000000
7
TEXTSTYLE_1
40
5.0000000000
1
D
41
0.8000000000
72
1
11
111.2000000000
21
279.5000000000
100
AcDbText
0
LINE
5
304
100
AcDbEntity
8
0
100
AcDbLine
62
7
6
BYLAYER
10
331.0000000000
20
287.0000000000
11
410.0000000000
21
287.0000000000
0
LINE
5
305
100
AcDbEntity
8
0
100
AcDbLine
62
7
6
BYLAYER
10
331.0000000000
20
287.0000000000
11
331.0000000000
21
277.0000000000
0
LINE
5
306
100
AcDbEntity
8
0
100
AcDbLine
62
7
6
BYLAYER
10
331.0000000000
20
277.0000000000
11
410.0000000000
21
277.0000000000
0
LINE
5
307
100
AcDbEntity
8
0
100
AcDbLine
62
7
6
BYLAYER
10
410.0000000000
20
287.0000000000
11
410.0000000000
21
277.0000000000
0
TEXT
5
308
100
AcDbEntity
8
0
100
AcDbText
62
7
6
BYLAYER
10
336.5000000000
20
280.7500000000
7
STANDARD
40
2.5000000000
1
THIS DRAWING CONFORMS TO B.S. 8888
41
0.8000000000
72
1
11
370.5000000000
21
280.7500000000
100
AcDbText
0
LINE
5
309
100
AcDbEntity
8
0
100
AcDbLine
62
7
6
BYLAYER
10
236.4999835399
20
286.9999994947
11
330.9999835399
21
286.9999994947
0
LINE
5
30A
100
AcDbEntity
8
0
100
AcDbLine
62
7
6
BYLAYER
10
236.4999835399
20
286.9999994947
11
236.4999835399
21
273.4999994947
0
LINE
5
30B
100
AcDbEntity
8
0
100
AcDbLine
62
7
6
BYLAYER
10
236.4999835399
20
273.4999994947
11
330.9999835399
21
273.4999994947
0
LINE
5
30C
100
AcDbEntity
8
0
100
AcDbLine
62
7
6
BYLAYER
10
330.9999835399
20
286.9999994947
11
330.9999835399
21
273.4999994947
0
INSERT
5
30D
100
AcDbEntity
8
0
100
AcDbBlockReference
62
7
6
BYLAYER
2
PROJECTION_BL7
10
0.0000000000
20
0.0000000000
0
TEXT
5
30E
100
AcDbEntity
8
0
100
AcDbText
62
7
6
BYLAYER
10
254.3534835399
20
278.9781218886
7
STANDARD
40
3.5000000000
1
PROJECTION 
41
0.8000000000
72
1
11
269.7534835399
21
278.9781218886
100
AcDbText
0
TEXT
5
30F
100
AcDbEntity
8
0
100
AcDbText
62
7
6
BYLAYER
10
290.7970347322
20
278.8891837883
7
STANDARD
40
3.5000000000
1
l
41
0.8000000000
72
0
100
AcDbText
0
LINE
5
310
100
AcDbEntity
8
0
100
AcDbLine
62
7
6
BYLAYER
10
159.0509538372
20
70.9185125895
11
209.0509538372
21
70.9185125895
0
LINE
5
311
100
AcDbEntity
8
0
100
AcDbLine
62
7
6
BYLAYER
10
159.0509538372
20
70.9185125895
11
159.0509538372
21
45.9185125895
0
LINE
5
312
100
AcDbEntity
8
0
100
AcDbLine
62
7
6
BYLAYER
10
159.0509538372
20
45.9185125895
11
209.0509538372
21
45.9185125895
0
LINE
5
313
100
AcDbEntity
8
0
100
AcDbLine
62
7
6
BYLAYER
10
209.0509538372
20
70.9185125895
11
209.0509538372
21
45.9185125895
0
TEXT
5
314
100
AcDbEntity
8
0
100
AcDbText
62
7
6
BYLAYER
10
98.2138660400
20
125.2701968273
7
STANDARD
40
4.0000000000
1
3D-VIEW
41
0.8000000000
72
0
100
AcDbText
0
TEXT
5
315
100
AcDbEntity
8
0
100
AcDbText
62
7
6
BYLAYER
10
221.1499048563
20
172.3465915432
7
STANDARD
40
4.0000000000
1
DEVELOPED VIEW
41
0.8000000000
72
0
100
AcDbText
0
TEXT
5
316
100
AcDbEntity
8
0
100
AcDbText
62
7
6
BYLAYER
10
22.2091656874
20
258.2816539365
7
STANDARD
40
3.5000000000
1
NOTES -
41
0.8000000000
72
0
100
AcDbText
0
TEXT
5
317
100
AcDbEntity
8
0
100
AcDbText
62
7
6
BYLAYER
10
22.2091656874
20
253.0316539365
7
STANDARD
40
3.5000000000
1
 
41
0.8000000000
72
0
100
AcDbText
0
TEXT
5
318
100
AcDbEntity
8
0
100
AcDbText
62
7
6
BYLAYER
10
22.2091656874
20
247.7816539365
7
STANDARD
40
3.5000000000
1
1 - ALL OUTER MODULE TAPE ENDS SET FOR HIGH MODULES
41
0.8000000000
72
0
100
AcDbText
0
TEXT
5
319
100
AcDbEntity
8
0
100
AcDbText
62
7
6
BYLAYER
10
22.2091656874
20
242.5316539365
7
STANDARD
40
3.5000000000
1
2 - TAPE DESIGN SET TO ZERO MODULE ROTATION
41
0.8000000000
72
0
100
AcDbText
0
TEXT
5
31A
100
AcDbEntity
8
0
100
AcDbText
62
7
6
BYLAYER
10
22.2091656874
20
237.2816539365
7
STANDARD
40
3.5000000000
1
3 - FOR TAPE SPECIFICATIONS REFER TO DOCUMENT ATL-IS-ER-0034
41
0.8000000000
72
0
100
AcDbText
0
TEXT
5
31B
100
AcDbEntity
8
0
100
AcDbText
62
7
6
BYLAYER
10
22.2091656874
20
232.0316539365
7
STANDARD
40
3.5000000000
1
4 - ALL TWISTED PAIR WIRES TO LIE ONE WIRE DEEP 4mm EITHER SIDE
41
0.8000000000
72
0
100
AcDbText
0
TEXT
5
31C
100
AcDbEntity
8
0
100
AcDbText
62
7
6
BYLAYER
10
22.2091656874
20
226.7816539365
7
STANDARD
40
3.5000000000
1
    OF PIPE CENTER LINES 
41
0.8000000000
72
0
100
AcDbText
0
TEXT
5
31D
100
AcDbEntity
8
0
100
AcDbText
62
7
6
BYLAYER
10
22.2091656874
20
221.5316539365
7
STANDARD
40
3.5000000000
1
5 - ANY CUTS  BETWEEN TAPE LEGS MUST NOT BE SHORTENED
41
0.8000000000
72
0
100
AcDbText
0
TEXT
5
31E
100
AcDbEntity
8
0
100
AcDbText
62
7
6
BYLAYER
10
22.2091656874
20
216.2816539365
7
STANDARD
40
3.5000000000
1
6 - TAPE ENDS TO INCLUDE TEXT AS SHOWN ON 3D-VIEW
41
0.8000000000
72
0
100
AcDbText
0
TEXT
5
31F
100
AcDbEntity
8
0
100
AcDbText
62
7
6
BYLAYER
10
22.2091656874
20
211.0316539365
7
STANDARD
40
3.5000000000
1
7 - TEXT 'TD-1002-938 (W7)' TO BE LOCATED VISIBLY ON TAPE
41
0.8000000000
72
0
100
AcDbText
0
TEXT
5
320
100
AcDbEntity
8
0
100
AcDbText
62
7
6
BYLAYER
10
22.2091656874
20
205.7816539365
7
STANDARD
40
3.5000000000
1
8 - FOR CONNECTOR POSITIONS REFER TO DRAWING TD-1010-345
41
0.8000000000
72
0
100
AcDbText
0
TEXT
5
321
100
AcDbEntity
8
0
100
AcDbText
62
7
6
BYLAYER
10
174.4086918104
20
147.6540546796
7
TEXTSTYLE_2
40
4.0000000000
1
M6
41
1.0233463035
72
0
100
AcDbText
0
CIRCLE
5
322
100
AcDbEntity
8
0
100
AcDbCircle
62
7
6
BYLAYER
10
113.0163879144
20
163.0269956376
40
0.8000000000
0
TEXT
5
323
100
AcDbEntity
8
0
100
AcDbText
62
7
6
BYLAYER
10
92.1966221863
20
171.7744444999
7
TEXTSTYLE_2
40
4.0000000000
1
M7
41
1.0233463035
72
0
100
AcDbText
0
LINE
5
324
100
AcDbEntity
8
0
100
AcDbLine
62
7
6
BYLAYER
10
0.0000000000
20
297.0000000000
11
0.0000000000
21
0.0000000000
0
LINE
5
325
100
AcDbEntity
8
0
100
AcDbLine
62
7
6
BYLAYER
10
10.0000000000
20
10.0000000000
11
10.0000000000
21
287.0000000000
0
LINE
5
326
100
AcDbEntity
8
0
100
AcDbLine
62
7
6
BYLAYER
10
10.0010000000
20
106.2230000000
11
10.0010000000
21
276.9990000000
0
LINE
5
327
100
AcDbEntity
8
0
100
AcDbLine
62
7
6
BYLAYER
10
0.0000000000
20
0.0000000000
11
420.0000000000
21
0.0000000000
0
LINE
5
328
100
AcDbEntity
8
0
100
AcDbLine
62
7
6
BYLAYER
10
160.0381492713
20
3.8460928114
11
260.0381492713
21
3.8460928114
0
LINE
5
329
100
AcDbEntity
8
0
100
AcDbLine
62
7
6
BYLAYER
10
160.0381492713
20
3.8460928114
11
160.0381492713
21
8.8460928114
0
LINE
5
32A
100
AcDbEntity
8
0
100
AcDbLine
62
7
6
BYLAYER
10
260.0381492713
20
3.8460928114
11
260.0381492713
21
8.8460928114
0
LINE
5
32B
100
AcDbEntity
8
0
100
AcDbLine
62
7
6
BYLAYER
10
106.2230000000
20
286.9990000000
11
237.9920000000
21
286.9990000000
0
LINE
5
32C
100
AcDbEntity
8
0
100
AcDbLine
62
7
6
BYLAYER
10
10.0000000000
20
287.0000000000
11
410.0000000000
21
287.0000000000
0
LINE
5
32D
100
AcDbEntity
8
0
100
AcDbLine
62
7
6
BYLAYER
10
0.0000000000
20
297.0000000000
11
420.0000000000
21
297.0000000000
0
LINE
5
32E
100
AcDbEntity
8
0
100
AcDbLine
62
7
6
BYLAYER
10
401.4430414976
20
21.0017763982
11
401.4430414976
21
10.0350776605
0
LINE
5
32F
100
AcDbEntity
8
0
100
AcDbLine
62
7
6
BYLAYER
10
410.0000000000
20
287.0000000000
11
410.0000000000
21
10.0000000000
0
LINE
5
330
100
AcDbEntity
8
0
100
AcDbLine
62
7
6
BYLAYER
10
420.0000000000
20
297.0000000000
11
420.0000000000
21
0.0000000000
0
LINE
5
331
100
AcDbEntity
8
0
100
AcDbLine
62
7
6
BYLAYER
10
60.5834286581
20
151.1164010072
11
62.4428944815
21
126.4344904988
0
LINE
5
332
100
AcDbEntity
8
0
100
AcDbLine
62
7
6
BYLAYER
10
79.3846465356
20
150.5246368034
11
79.3701194589
21
150.7174642292
0
LINE
5
333
100
AcDbEntity
8
0
100
AcDbLine
62
7
6
BYLAYER
10
82.3997378260
20
141.1880785659
11
84.2592036494
21
116.5061680575
0
LINE
5
334
100
AcDbEntity
8
0
100
AcDbLine
62
7
6
BYLAYER
10
82.5540054973
20
141.3197829504
11
84.4134713207
21
116.6378724420
0
LINE
5
335
100
AcDbEntity
8
0
100
AcDbLine
62
7
6
BYLAYER
10
88.0236361254
20
157.9000823359
11
88.0091090487
21
158.0929097618
0
LINE
5
336
100
AcDbEntity
8
0
100
AcDbLine
62
7
6
BYLAYER
10
91.5672431082
20
160.9253991300
11
91.5527160314
21
161.1182265558
0
LINE
5
337
100
AcDbEntity
8
0
100
AcDbLine
62
7
6
BYLAYER
10
95.7544048444
20
161.6509992706
11
95.7398777677
21
161.8438266965
0
LINE
5
338
100
AcDbEntity
8
0
100
AcDbLine
62
7
6
BYLAYER
10
105.8419593374
20
156.9438192191
11
105.2151277826
21
158.7406538211
0
LINE
5
339
100
AcDbEntity
8
0
100
AcDbLine
62
7
6
BYLAYER
10
104.1769873375
20
161.7165197603
11
104.0945580481
21
161.9528062048
0
LINE
5
33A
100
AcDbEntity
8
0
100
AcDbLine
62
7
6
BYLAYER
10
90.0467569178
20
164.4369047819
11
90.0207449886
21
164.6346380790
0
LINE
5
33B
100
AcDbEntity
8
0
100
AcDbLine
62
7
6
BYLAYER
10
104.1090851249
20
161.7599787790
11
104.0945580481
21
161.9528062048
0
LINE
5
33C
100
AcDbEntity
8
0
100
AcDbLine
62
7
6
BYLAYER
10
105.8564864142
20
156.7509917932
11
105.8419593374
21
156.9438192191
0
LINE
5
33D
100
AcDbEntity
8
0
100
AcDbLine
62
7
6
BYLAYER
10
106.0338300383
20
156.9347867335
11
106.0193029616
21
157.1276141594
0
LINE
5
33E
100
AcDbEntity
8
0
100
AcDbLine
62
7
6
BYLAYER
10
108.7134725859
20
155.7140036804
11
108.6989455091
21
155.9068311063
0
LINE
5
33F
100
AcDbEntity
8
0
100
AcDbLine
62
7
6
BYLAYER
10
108.8908162100
20
155.8977986207
11
108.8762891333
21
156.0906260466
0
LINE
5
340
100
AcDbEntity
8
0
100
AcDbLine
62
7
6
BYLAYER
10
123.9901244252
20
164.7264274405
11
123.9755973485
21
164.9192548664
0
LINE
5
341
100
AcDbEntity
8
0
100
AcDbLine
62
7
6
BYLAYER
10
62.4428944815
20
126.4344904988
11
84.2592036494
21
116.5061680575
0
LINE
5
342
100
AcDbEntity
8
0
100
AcDbLine
62
7
6
BYLAYER
10
100.7889121514
20
157.0787674225
11
96.9086562064
21
161.2959238477
0
LINE
5
343
100
AcDbEntity
8
0
100
AcDbLine
62
7
6
BYLAYER
10
100.9676578089
20
157.2434225733
11
97.3692826686
21
161.1542240921
0
LINE
5
344
100
AcDbEntity
8
0
100
AcDbLine
62
7
6
BYLAYER
10
101.5598482892
20
157.7776436837
11
98.8808684872
21
160.6892240136
0
LINE
5
345
100
AcDbEntity
8
0
100
AcDbLine
62
7
6
BYLAYER
10
95.7539555877
20
164.0876289157
11
95.4829991970
21
164.3821109035
0
LINE
5
346
100
AcDbEntity
8
0
100
AcDbLine
62
7
6
BYLAYER
10
112.6450075066
20
163.7355692701
11
107.3833926143
21
173.7744444999
0
LINE
5
347
100
AcDbEntity
8
0
100
AcDbLine
62
7
6
BYLAYER
10
141.7207375209
20
147.5106520678
11
141.7062104441
21
147.7034794936
0
LINE
5
348
100
AcDbEntity
8
0
100
AcDbLine
62
7
6
BYLAYER
10
142.1115429059
20
147.4051670885
11
142.0970158292
21
147.5979945143
0
LINE
5
349
100
AcDbEntity
8
0
100
AcDbLine
62
7
6
BYLAYER
10
148.8409326136
20
145.8311100504
11
148.8264055368
21
146.0239374762
0
LINE
5
34A
100
AcDbEntity
8
0
100
AcDbLine
62
7
6
BYLAYER
10
153.6588169228
20
135.5282075953
11
153.2166127067
21
141.3978744381
0
LINE
5
34B
100
AcDbEntity
8
0
100
AcDbLine
62
7
6
BYLAYER
10
153.8873831846
20
135.4747441538
11
153.4451789684
21
141.3444109966
0
LINE
5
34C
100
AcDbEntity
8
0
100
AcDbLine
62
7
6
BYLAYER
10
155.2505366344
20
137.5128957230
11
154.8083324183
21
143.3825625658
0
LINE
5
34D
100
AcDbEntity
8
0
100
AcDbLine
62
7
6
BYLAYER
10
60.5834286581
20
151.1164010072
11
66.5475995097
21
148.4021833614
0
LINE
5
34E
100
AcDbEntity
8
0
100
AcDbLine
62
7
6
BYLAYER
10
66.5475995097
20
148.4021833614
11
76.4355669743
21
143.9022962117
0
LINE
5
34F
100
AcDbEntity
8
0
100
AcDbLine
62
7
6
BYLAYER
10
76.4355669743
20
143.9022962117
11
82.3997378260
21
141.1880785659
0
LINE
5
350
100
AcDbEntity
8
0
100
AcDbLine
62
7
6
BYLAYER
10
60.7376963293
20
151.2481053917
11
66.6237209158
21
148.5694511087
0
LINE
5
351
100
AcDbEntity
8
0
100
AcDbLine
62
7
6
BYLAYER
10
76.5898346456
20
144.0340005962
11
82.5540054973
21
141.3197829504
0
LINE
5
352
100
AcDbEntity
8
0
100
AcDbLine
62
7
6
BYLAYER
10
69.4821519943
20
155.2173513789
11
79.3701194589
21
150.7174642292
0
LINE
5
353
100
AcDbEntity
8
0
100
AcDbLine
62
7
6
BYLAYER
10
78.1211415841
20
162.5927969114
11
81.7310344680
21
160.9499809679
0
LINE
5
354
100
AcDbEntity
8
0
100
AcDbLine
62
7
6
BYLAYER
10
81.7310344680
20
160.9499809679
11
84.3992161648
21
159.7357257053
0
LINE
5
355
100
AcDbEntity
8
0
100
AcDbLine
62
7
6
BYLAYER
10
84.3992161648
20
159.7357257053
11
85.3409273519
21
159.3071650244
0
LINE
5
356
100
AcDbEntity
8
0
100
AcDbLine
62
7
6
BYLAYER
10
175.3170298740
20
131.7711118748
11
172.4380843802
21
136.3323901647
0
LINE
5
357
100
AcDbEntity
8
0
100
AcDbLine
62
7
6
BYLAYER
10
175.3936758661
20
131.8194885840
11
172.4235573034
21
136.5252175905
0
LINE
5
358
100
AcDbEntity
8
0
100
AcDbLine
62
7
6
BYLAYER
10
158.0344970159
20
131.0949719830
11
158.0199699391
21
131.2877994088
0
LINE
5
359
100
AcDbEntity
8
0
100
AcDbLine
62
7
6
BYLAYER
10
169.7462322684
20
128.3555052403
11
169.7317051917
21
128.5483326662
0
LINE
5
35A
100
AcDbEntity
8
0
100
AcDbLine
62
7
6
BYLAYER
10
172.4380843802
20
136.3323901647
11
172.4235573034
21
136.5252175905
0
LINE
5
35B
100
AcDbEntity
8
0
100
AcDbLine
62
7
6
BYLAYER
10
178.5518912398
20
130.8962827776
11
178.5373641630
21
131.0891102034
0
LINE
5
35C
100
AcDbEntity
8
0
100
AcDbLine
62
7
6
BYLAYER
10
169.7462322684
20
128.3555052403
11
158.0344970159
21
131.0949719830
0
LINE
5
35D
100
AcDbEntity
8
0
100
AcDbLine
62
7
6
BYLAYER
10
169.7317051917
20
128.5483326662
11
158.0199699391
21
131.2877994088
0
LINE
5
35E
100
AcDbEntity
8
0
100
AcDbLine
62
7
6
BYLAYER
10
171.0948586415
20
130.5864842354
11
159.3831233890
21
133.3259509780
0
LINE
5
35F
100
AcDbEntity
8
0
100
AcDbLine
62
7
6
BYLAYER
10
153.6588169228
20
135.5282075953
11
153.8873831846
21
135.4747441538
0
LINE
5
360
100
AcDbEntity
8
0
100
AcDbLine
62
7
6
BYLAYER
10
141.7207375209
20
147.5106520678
11
95.7544048444
21
161.6509992706
0
LINE
5
361
100
AcDbEntity
8
0
100
AcDbLine
62
7
6
BYLAYER
10
141.7062104441
20
147.7034794936
11
95.7398777677
21
161.8438266965
0
LINE
5
362
100
AcDbEntity
8
0
100
AcDbLine
62
7
6
BYLAYER
10
143.3520741725
20
149.6653227799
11
97.3857414960
21
163.8056699828
0
LINE
5
363
100
AcDbEntity
8
0
100
AcDbLine
62
7
6
BYLAYER
10
106.0193029616
20
157.1276141594
11
108.8762891333
21
156.0906260466
0
LINE
5
364
100
AcDbEntity
8
0
100
AcDbLine
62
7
6
BYLAYER
10
87.3687496911
20
165.6929504008
11
90.0207449886
21
164.6346380790
0
LINE
5
365
100
AcDbEntity
8
0
100
AcDbLine
62
7
6
BYLAYER
10
186.1520600857
20
133.1245836744
11
186.1375330090
21
133.3174111003
0
LINE
5
366
100
AcDbEntity
8
0
100
AcDbLine
62
7
6
BYLAYER
10
191.5645811365
20
141.2172443169
11
191.5500540598
21
141.4100717427
0
LINE
5
367
100
AcDbEntity
8
0
100
AcDbLine
62
7
6
BYLAYER
10
104.0945580481
20
161.9528062048
11
111.3712465910
21
169.4942024227
0
LINE
5
368
100
AcDbEntity
8
0
100
AcDbLine
62
7
6
BYLAYER
10
106.0193029616
20
157.1276141594
11
105.8419593374
21
156.9438192191
0
LINE
5
369
100
AcDbEntity
8
0
100
AcDbLine
62
7
6
BYLAYER
10
108.6989455091
20
155.9068311063
11
108.8762891333
21
156.0906260466
0
LINE
5
36A
100
AcDbEntity
8
0
100
AcDbLine
62
7
6
BYLAYER
10
123.9755973485
20
164.9192548664
11
117.0609750108
21
157.7530959140
0
LINE
5
36B
100
AcDbEntity
8
0
100
AcDbLine
62
7
6
BYLAYER
10
123.9901244252
20
164.7264274405
11
117.2156496613
21
157.7055142790
0
LINE
5
36C
100
AcDbEntity
8
0
100
AcDbLine
62
7
6
BYLAYER
10
100.7889121514
20
157.0787674225
11
100.9676578089
21
157.2434225734
0
LINE
5
36D
100
AcDbEntity
8
0
100
AcDbLine
62
7
6
BYLAYER
10
95.4829991970
20
164.3821109035
11
95.2525939878
21
164.1742599994
0
LINE
5
36E
100
AcDbEntity
8
0
100
AcDbLine
62
7
6
BYLAYER
10
101.5598482892
20
157.7776436837
11
100.9676578089
21
157.2434225734
0
LINE
5
36F
100
AcDbEntity
8
0
100
AcDbLine
62
7
6
BYLAYER
10
60.7376963293
20
151.2481053917
11
60.5834286581
21
151.1164010072
0
LINE
5
370
100
AcDbEntity
8
0
100
AcDbLine
62
7
6
BYLAYER
10
78.1211415841
20
162.5927969114
11
69.4821519943
21
155.2173513789
0
LINE
5
371
100
AcDbEntity
8
0
100
AcDbLine
62
7
6
BYLAYER
10
88.8845343346
20
162.3324818184
11
85.3409273519
21
159.3071650244
0
LINE
5
372
100
AcDbEntity
8
0
100
AcDbLine
62
7
6
BYLAYER
10
91.5527160314
20
161.1182265558
11
79.3701194589
21
150.7174642292
0
LINE
5
373
100
AcDbEntity
8
0
100
AcDbLine
62
7
6
BYLAYER
10
91.5672431082
20
160.9253991300
11
79.3846465356
21
150.5246368034
0
LINE
5
374
100
AcDbEntity
8
0
100
AcDbLine
62
7
6
BYLAYER
10
76.5898346456
20
144.0340005962
11
76.4355669743
21
143.9022962117
0
LINE
5
375
100
AcDbEntity
8
0
100
AcDbLine
62
7
6
BYLAYER
10
153.2166127067
20
141.3978744381
11
153.4451789684
21
141.3444109966
0
LINE
5
376
100
AcDbEntity
8
0
100
AcDbLine
62
7
6
BYLAYER
10
148.8409326136
20
145.8311100504
11
142.1115429059
21
147.4051670885
0
LINE
5
377
100
AcDbEntity
8
0
100
AcDbLine
62
7
6
BYLAYER
10
148.8264055368
20
146.0239374762
11
142.0970158292
21
147.5979945143
0
LINE
5
378
100
AcDbEntity
8
0
100
AcDbLine
62
7
6
BYLAYER
10
150.1895589867
20
148.0620890454
11
143.4601692790
21
149.6361460835
0
LINE
5
379
100
AcDbEntity
8
0
100
AcDbLine
62
7
6
BYLAYER
10
177.8360783542
20
144.6178782329
11
191.5500540598
21
141.4100717427
0
LINE
5
37A
100
AcDbEntity
8
0
100
AcDbLine
62
7
6
BYLAYER
10
123.9755973485
20
164.9192548664
11
111.3712465910
21
169.4942024227
0
LINE
5
37B
100
AcDbEntity
8
0
100
AcDbLine
62
7
6
BYLAYER
10
150.1895589867
20
148.0620890454
11
148.8264055368
21
146.0239374762
0
LINE
5
37C
100
AcDbEntity
8
0
100
AcDbLine
62
7
6
BYLAYER
10
154.8083324183
20
143.3825625658
11
153.4451789684
21
141.3444109966
0
LINE
5
37D
100
AcDbEntity
8
0
100
AcDbLine
62
7
6
BYLAYER
10
155.2505366344
20
137.5128957230
11
153.8873831846
21
135.4747441538
0
LINE
5
37E
100
AcDbEntity
8
0
100
AcDbLine
62
7
6
BYLAYER
10
159.3831233890
20
133.3259509780
11
158.0199699391
21
131.2877994088
0
LINE
5
37F
100
AcDbEntity
8
0
100
AcDbLine
62
7
6
BYLAYER
10
82.5540054973
20
141.3197829504
11
82.3997378260
21
141.1880785659
0
LINE
5
380
100
AcDbEntity
8
0
100
AcDbLine
62
7
6
BYLAYER
10
84.4134713207
20
116.6378724420
11
84.2592036494
21
116.5061680575
0
LINE
5
381
100
AcDbEntity
8
0
100
AcDbLine
62
7
6
BYLAYER
10
172.4235573034
20
136.5252175905
11
177.8360783542
21
144.6178782329
0
LINE
5
382
100
AcDbEntity
8
0
100
AcDbLine
62
7
6
BYLAYER
10
191.5500540598
20
141.4100717427
11
186.1375330090
21
133.3174111003
0
LINE
5
383
100
AcDbEntity
8
0
100
AcDbLine
62
7
6
BYLAYER
10
191.5645811365
20
141.2172443168
11
186.1520600857
21
133.1245836744
0
LINE
5
384
100
AcDbEntity
8
0
100
AcDbLine
62
7
6
BYLAYER
10
112.6818596953
20
156.4437078703
11
108.7134725859
21
155.7140036804
0
LINE
5
385
100
AcDbEntity
8
0
100
AcDbLine
62
7
6
BYLAYER
10
112.2841031409
20
156.5660673333
11
108.6989455091
21
155.9068311063
0
LINE
5
386
100
AcDbEntity
8
0
100
AcDbLine
62
7
6
BYLAYER
10
107.3833926143
20
173.7744444999
11
100.3833926143
21
173.7744444999
0
LINE
5
387
100
AcDbEntity
8
0
100
AcDbLine
62
7
6
BYLAYER
10
186.1375330090
20
133.3174111003
11
178.4883781974
21
131.0747479605
0
LINE
5
388
100
AcDbEntity
8
0
100
AcDbLine
62
7
6
BYLAYER
10
186.1520600857
20
133.1245836744
11
178.5029052741
21
130.8819205346
0
LINE
5
389
100
AcDbEntity
8
0
100
AcDbLine
62
7
6
BYLAYER
10
234.9816812074
20
227.1351519881
11
234.9816812074
21
199.3351519881
0
LINE
5
38A
100
AcDbEntity
8
0
100
AcDbLine
62
7
6
BYLAYER
10
266.9816812074
20
227.1351519881
11
266.9816812074
21
219.5351519881
0
LINE
5
38B
100
AcDbEntity
8
0
100
AcDbLine
62
7
6
BYLAYER
10
266.9816812074
20
219.5351519881
11
266.9816812074
21
206.9351519881
0
LINE
5
38C
100
AcDbEntity
8
0
100
AcDbLine
62
7
6
BYLAYER
10
266.9816812074
20
206.9351519881
11
266.9816812074
21
199.3351519881
0
LINE
5
38D
100
AcDbEntity
8
0
100
AcDbLine
62
7
6
BYLAYER
10
274.9606628414
20
219.5351519881
11
274.9606628414
21
206.9351519881
0
LINE
5
38E
100
AcDbEntity
8
0
100
AcDbLine
62
7
6
BYLAYER
10
288.9606628414
20
219.5351519881
11
288.9606628414
21
214.9351519881
0
LINE
5
38F
100
AcDbEntity
8
0
100
AcDbLine
62
7
6
BYLAYER
10
288.9606628414
20
214.9351519881
11
288.9606628414
21
211.5351519881
0
LINE
5
390
100
AcDbEntity
8
0
100
AcDbLine
62
7
6
BYLAYER
10
288.9606628414
20
211.5351519881
11
288.9606628414
21
210.3351519881
0
LINE
5
391
100
AcDbEntity
8
0
100
AcDbLine
62
7
6
BYLAYER
10
298.1024143670
20
214.9468906759
11
298.1024143670
21
211.5527468129
0
LINE
5
392
100
AcDbEntity
8
0
100
AcDbLine
62
7
6
BYLAYER
10
302.6673885645
20
208.5194159828
11
302.6673885645
21
208.5340827391
0
LINE
5
393
100
AcDbEntity
8
0
100
AcDbLine
62
7
6
BYLAYER
10
306.1681389300
20
200.2697351967
11
306.1681389300
21
200.2844019530
0
LINE
5
394
100
AcDbEntity
8
0
100
AcDbLine
62
7
6
BYLAYER
10
313.5964592152
20
198.8722576255
11
313.5964592152
21
198.8869243818
0
LINE
5
395
100
AcDbEntity
8
0
100
AcDbLine
62
7
6
BYLAYER
10
313.9232189307
20
198.9106477316
11
313.9232189307
21
198.9253144879
0
LINE
5
396
100
AcDbEntity
8
0
100
AcDbLine
62
7
6
BYLAYER
10
313.9938623961
20
195.5013783873
11
313.9938623961
21
195.5160451436
0
LINE
5
397
100
AcDbEntity
8
0
100
AcDbLine
62
7
6
BYLAYER
10
314.3206221115
20
195.5397684934
11
314.3206221115
21
195.5544352497
0
LINE
5
398
100
AcDbEntity
8
0
100
AcDbLine
62
7
6
BYLAYER
10
320.4320302823
20
190.4278104040
11
320.4320302823
21
190.4424771603
0
LINE
5
399
100
AcDbEntity
8
0
100
AcDbLine
62
7
6
BYLAYER
10
333.8394966577
20
192.0030169921
11
333.8394966577
21
192.0176837484
0
LINE
5
39A
100
AcDbEntity
8
0
100
AcDbLine
62
7
6
BYLAYER
10
313.5964592152
20
198.8869243818
11
318.6787809552
21
205.3140032112
0
LINE
5
39B
100
AcDbEntity
8
0
100
AcDbLine
62
7
6
BYLAYER
10
316.9030821989
20
111.3150152769
11
306.4434815076
21
151.7592902374
0
LINE
5
39C
100
AcDbEntity
8
0
100
AcDbLine
62
7
6
BYLAYER
10
320.1947841762
20
112.1663072906
11
309.7351834848
21
152.6105822512
0
LINE
5
39D
100
AcDbEntity
8
0
100
AcDbLine
62
7
6
BYLAYER
10
306.3538801092
20
152.1868289479
11
297.9610890090
21
204.1612192473
0
LINE
5
39E
100
AcDbEntity
8
0
100
AcDbLine
62
7
6
BYLAYER
10
309.7104001193
20
152.7288376392
11
301.3176090191
21
204.7032279387
0
LINE
5
39F
100
AcDbEntity
8
0
100
AcDbLine
62
7
6
BYLAYER
10
313.9232189307
20
198.9253144879
11
314.3206221115
21
195.5544352497
0
LINE
5
3A0
100
AcDbEntity
8
0
100
AcDbLine
62
7
6
BYLAYER
10
324.1437551054
20
109.7935759643
11
328.2966851441
21
116.8438521281
0
LINE
5
3A1
100
AcDbEntity
8
0
100
AcDbLine
62
7
6
BYLAYER
10
305.7980680143
20
209.8580134589
11
302.6673885645
21
208.5340827391
0
LINE
5
3A2
100
AcDbEntity
8
0
100
AcDbLine
62
7
6
BYLAYER
10
309.2988183798
20
201.6083326729
11
306.1681389300
21
200.2844019530
0
LINE
5
3A3
100
AcDbEntity
8
0
100
AcDbLine
62
7
6
BYLAYER
10
306.1681389300
20
200.2697351967
11
302.6673885645
21
208.5194159828
0
LINE
5
3A4
100
AcDbEntity
8
0
100
AcDbLine
62
7
6
BYLAYER
10
309.2988183798
20
201.6083326729
11
305.7980680143
21
209.8580134589
0
LINE
5
3A5
100
AcDbEntity
8
0
100
AcDbLine
62
7
6
BYLAYER
10
341.3666782892
20
120.2239821829
11
345.1223783500
21
105.7017675772
0
LINE
5
3A6
100
AcDbEntity
8
0
100
AcDbLine
62
7
6
BYLAYER
10
333.8394966577
20
192.0176837484
11
332.0862473305
21
206.8892097994
0
LINE
5
3A7
100
AcDbEntity
8
0
100
AcDbLine
62
7
6
BYLAYER
10
332.0523852049
20
102.3216375225
11
324.9654330167
21
106.4961713905
0
LINE
5
3A8
100
AcDbEntity
8
0
100
AcDbLine
62
7
6
BYLAYER
10
320.4320302823
20
190.4278104040
11
313.9938623961
21
195.5013783873
0
LINE
5
3A9
100
AcDbEntity
8
0
100
AcDbLine
62
7
6
BYLAYER
10
345.1223783500
20
105.7017675772
11
332.0523852049
21
102.3216375225
0
LINE
5
3AA
100
AcDbEntity
8
0
100
AcDbLine
62
7
6
BYLAYER
10
328.2966851441
20
116.8438521281
11
341.3666782892
21
120.2239821829
0
LINE
5
3AB
100
AcDbEntity
8
0
100
AcDbLine
62
7
6
BYLAYER
10
316.9874163242
20
124.5682785639
11
313.6957143470
21
123.7169865501
0
LINE
5
3AC
100
AcDbEntity
8
0
100
AcDbLine
62
7
6
BYLAYER
10
315.2846108634
20
131.1525387375
11
311.9929088861
21
130.3012467237
0
LINE
5
3AD
100
AcDbEntity
8
0
100
AcDbLine
62
7
6
BYLAYER
10
313.3792190325
20
138.5201422807
11
310.0875170552
21
137.6688502669
0
LINE
5
3AE
100
AcDbEntity
8
0
100
AcDbLine
62
7
6
BYLAYER
10
311.5780895740
20
145.4845931436
11
308.2863875967
21
144.6333011299
0
LINE
5
3AF
100
AcDbEntity
8
0
100
AcDbLine
62
7
6
BYLAYER
10
266.9816812074
20
199.3351519881
11
234.9816812074
21
199.3351519881
0
LINE
5
3B0
100
AcDbEntity
8
0
100
AcDbLine
62
7
6
BYLAYER
10
333.8394966577
20
192.0030169921
11
320.4320302823
21
190.4278104040
0
LINE
5
3B1
100
AcDbEntity
8
0
100
AcDbLine
62
7
6
BYLAYER
10
313.9938623961
20
195.5160451436
11
314.3206221115
21
195.5544352497
0
LINE
5
3B2
100
AcDbEntity
8
0
100
AcDbLine
62
7
6
BYLAYER
10
313.9232189307
20
198.9106477316
11
313.5964592152
21
198.8722576255
0
LINE
5
3B3
100
AcDbEntity
8
0
100
AcDbLine
62
7
6
BYLAYER
10
318.6787809552
20
205.3140032112
11
332.0862473305
21
206.8892097994
0
LINE
5
3B4
100
AcDbEntity
8
0
100
AcDbLine
62
7
6
BYLAYER
10
294.7032901756
20
206.9351519881
11
266.9816812074
21
206.9351519881
0
LINE
5
3B5
100
AcDbEntity
8
0
100
AcDbLine
62
7
6
BYLAYER
10
294.7032901756
20
210.3351519881
11
288.9606628414
21
210.3351519881
0
LINE
5
3B6
100
AcDbEntity
8
0
100
AcDbLine
62
7
6
BYLAYER
10
290.9604377195
20
211.5351519578
11
288.9631690588
21
211.5351519881
0
LINE
5
3B7
100
AcDbEntity
8
0
100
AcDbLine
62
7
6
BYLAYER
10
290.9604377339
20
214.9351520184
11
288.9606628414
21
214.9351519881
0
LINE
5
3B8
100
AcDbEntity
8
0
100
AcDbLine
62
7
6
BYLAYER
10
288.9606628414
20
219.5351519881
11
266.9816812074
21
219.5351519881
0
LINE
5
3B9
100
AcDbEntity
8
0
100
AcDbLine
62
7
6
BYLAYER
10
266.9816812074
20
227.1351519881
11
234.9816812074
21
227.1351519881
0
ARC
5
3BA
100
AcDbEntity
8
0
100
AcDbCircle
62
7
6
BYLAYER
10
310.9937754173
20
152.9360762565
40
1.3000000000
100
AcDbArc
50
189.1729029620
51
194.5000000001
0
ARC
5
3BB
100
AcDbEntity
8
0
100
AcDbCircle
62
7
6
BYLAYER
10
294.7032901756
20
203.6351519881
40
6.7000000000
100
AcDbArc
50
9.1729029621
51
90.0000000000
0
ARC
5
3BC
100
AcDbEntity
8
0
100
AcDbCircle
62
7
6
BYLAYER
10
310.9937754173
20
152.9360762565
40
4.7000000000
100
AcDbArc
50
189.1729029621
51
194.5000000000
0
ARC
5
3BD
100
AcDbEntity
8
0
100
AcDbCircle
62
7
6
BYLAYER
10
294.7032901756
20
203.6351519881
40
3.3000000000
100
AcDbArc
50
9.1729029621
51
90.0000000000
0
ARC
5
3BE
100
AcDbEntity
8
0
100
AcDbCircle
62
7
6
BYLAYER
10
323.3896713894
20
112.9925613040
40
6.7000000000
100
AcDbArc
50
194.5000000000
51
283.9565748309
0
ARC
5
3BF
100
AcDbEntity
8
0
100
AcDbCircle
62
7
6
BYLAYER
10
323.3896713894
20
112.9925613040
40
3.3000000000
100
AcDbArc
50
194.5000000000
51
283.2639594634
0
SPLINE
5
3C0
100
AcDbEntity
8
0
100
AcDbSpline
62
7
6
BYLAYER
70
0
71
3
72
11
73
7
74
5
42
0.0000001000
43
0.0000001000
44
0.0000000001
40
0.0000000000
40
0.0000000000
40
0.0000000000
40
0.0000000000
40
0.2308613892
40
0.4864850207
40
0.7491896125
40
1.0000000000
40
1.0000000000
40
1.0000000000
40
1.0000000000
10
69.4821519943
20
155.2173513789
30
0.0000000000
10
69.1164399995
20
154.9051286508
30
0.0000000000
10
68.4282524865
20
154.1495527569
30
0.0000000000
10
67.5920829619
20
152.8250680241
30
0.0000000000
10
66.9546750289
20
151.3476330413
30
0.0000000000
10
66.6902748071
20
150.3068927655
30
0.0000000000
10
66.6118864666
20
149.7888768437
30
0.0000000000
11
69.4821519943
21
155.2173513789
31
0.0000000000
11
68.4959851408
21
154.1644840594
31
0.0000000000
11
67.6362134113
21
152.8182975980
31
0.0000000000
11
66.9869972529
21
151.3105661049
31
0.0000000000
11
66.6118864666
21
149.7888768437
31
0.0000000000
0
SPLINE
5
3C1
100
AcDbEntity
8
0
100
AcDbSpline
62
7
6
BYLAYER
70
0
71
3
72
8
73
4
74
2
42
0.0000001000
43
0.0000001000
44
0.0000000001
40
0.0000000000
40
0.0000000000
40
0.0000000000
40
0.0000000000
40
1.0000000000
40
1.0000000000
40
1.0000000000
40
1.0000000000
10
66.6118864666
20
149.7888768437
30
0.0000000000
10
66.5523217845
20
149.3952538442
30
0.0000000000
10
66.5220598443
20
148.9960308018
30
0.0000000000
10
66.5366088290
20
148.5991821431
30
0.0000000000
11
66.6118864666
21
149.7888768437
31
0.0000000000
11
66.5366088290
21
148.5991821431
31
0.0000000000
0
SPLINE
5
3C2
100
AcDbEntity
8
0
100
AcDbSpline
62
7
6
BYLAYER
70
0
71
3
72
8
73
4
74
2
42
0.0000001000
43
0.0000001000
44
0.0000000001
40
0.0000000000
40
0.0000000000
40
0.0000000000
40
0.0000000000
40
1.0000000000
40
1.0000000000
40
1.0000000000
40
1.0000000000
10
66.5366088290
20
148.5991821431
30
0.0000000000
10
66.5390190711
20
148.5334386332
30
0.0000000000
10
66.5426591283
20
148.4677602872
30
0.0000000000
10
66.5475995097
20
148.4021833614
30
0.0000000000
11
66.5366088290
21
148.5991821431
31
0.0000000000
11
66.5475995097
21
148.4021833614
31
0.0000000000
0
SPLINE
5
3C3
100
AcDbEntity
8
0
100
AcDbSpline
62
7
6
BYLAYER
70
0
71
3
72
12
73
8
74
6
42
0.0000001000
43
0.0000001000
44
0.0000000001
40
0.0000000000
40
0.0000000000
40
0.0000000000
40
0.0000000000
40
0.1751634284
40
0.3701083461
40
0.5791576416
40
0.7926992347
40
1.0000000000
40
1.0000000000
40
1.0000000000
40
1.0000000000
10
154.8083324183
20
143.3825625658
30
0.0000000000
10
154.7778113883
20
143.7876882323
30
0.0000000000
10
154.5481871239
20
144.6335257838
30
0.0000000000
10
153.8397611883
20
145.7902492267
30
0.0000000000
10
152.8197580986
20
146.8133313959
30
0.0000000000
10
151.5826350224
20
147.6096879479
30
0.0000000000
10
150.6577349137
20
147.9525790237
30
0.0000000000
10
150.1895589867
20
148.0620890454
30
0.0000000000
11
154.8083324183
21
143.3825625658
31
0.0000000000
11
154.5104895069
21
144.5644317000
31
0.0000000000
11
153.8167020289
21
145.7300453579
31
0.0000000000
11
152.7948827363
21
146.7653051531
31
0.0000000000
11
151.5450544211
21
147.5688726439
31
0.0000000000
11
150.1895589867
21
148.0620890454
31
0.0000000000
0
SPLINE
5
3C4
100
AcDbEntity
8
0
100
AcDbSpline
62
7
6
BYLAYER
70
0
71
3
72
9
73
5
74
3
42
0.0000001000
43
0.0000001000
44
0.0000000001
40
0.0000000000
40
0.0000000000
40
0.0000000000
40
0.0000000000
40
0.7792964625
40
1.0000000000
40
1.0000000000
40
1.0000000000
40
1.0000000000
10
87.3687496911
20
165.6929504008
30
0.0000000000
10
85.9128151108
20
164.4499617290
30
0.0000000000
10
84.0091110314
20
162.8969196023
30
0.0000000000
10
82.1396104167
20
161.3032502991
30
0.0000000000
10
81.7294886847
20
160.9486509590
30
0.0000000000
11
87.3687496911
21
165.6929504008
31
0.0000000000
11
82.9664872672
21
162.0047282529
31
0.0000000000
11
81.7294886847
21
160.9486509590
31
0.0000000000
0
SPLINE
5
3C5
100
AcDbEntity
8
0
100
AcDbSpline
62
7
6
BYLAYER
70
0
71
3
72
8
73
4
74
2
42
0.0000001000
43
0.0000001000
44
0.0000000001
40
0.0000000000
40
0.0000000000
40
0.0000000000
40
0.0000000000
40
1.0000000000
40
1.0000000000
40
1.0000000000
40
1.0000000000
10
95.4829991970
20
164.3821109035
30
0.0000000000
10
95.4520952589
20
164.4156980542
30
0.0000000000
10
95.4208719440
20
164.4490235910
30
0.0000000000
10
95.3893366809
20
164.4820816513
30
0.0000000000
11
95.4829991970
21
164.3821109035
31
0.0000000000
11
95.3893366809
21
164.4820816513
31
0.0000000000
0
SPLINE
5
3C6
100
AcDbEntity
8
0
100
AcDbSpline
62
7
6
BYLAYER
70
0
71
3
72
8
73
4
74
2
42
0.0000001000
43
0.0000001000
44
0.0000000001
40
0.0000000000
40
0.0000000000
40
0.0000000000
40
0.0000000000
40
1.0000000000
40
1.0000000000
40
1.0000000000
40
1.0000000000
10
95.3893366809
20
164.4820816513
30
0.0000000000
10
94.9669327167
20
164.9248829598
30
0.0000000000
10
94.4885600277
20
165.3196944880
30
0.0000000000
10
93.9720713234
20
165.6524269594
30
0.0000000000
11
95.3893366809
21
164.4820816513
31
0.0000000000
11
93.9720713234
21
165.6524269594
31
0.0000000000
0
SPLINE
5
3C7
100
AcDbEntity
8
0
100
AcDbSpline
62
7
6
BYLAYER
70
0
71
3
72
14
73
10
74
8
42
0.0000001000
43
0.0000001000
44
0.0000000001
40
0.0000000000
40
0.0000000000
40
0.0000000000
40
0.0000000000
40
0.0688682288
40
0.2382977764
40
0.4018655802
40
0.5589687483
40
0.7102730664
40
0.8567283772
40
1.0000000000
40
1.0000000000
40
1.0000000000
40
1.0000000000
10
93.9720713234
20
165.6524269594
30
0.0000000000
10
93.8351316247
20
165.7406462836
30
0.0000000000
10
93.3520216091
20
166.0308024809
30
0.0000000000
10
92.4899216784
20
166.4267058833
30
0.0000000000
10
91.3684059221
20
166.7249800428
30
0.0000000000
10
90.2525304728
20
166.7967178177
30
0.0000000000
10
89.1844213893
20
166.6490069277
30
0.0000000000
10
88.2017871359
20
166.2904917394
30
0.0000000000
10
87.6252101007
20
165.9119007494
30
0.0000000000
10
87.3687496911
20
165.6929504008
30
0.0000000000
11
93.9720713234
21
165.6524269594
31
0.0000000000
11
93.5535466409
21
165.9037304089
31
0.0000000000
11
92.4650112668
21
166.4000184251
31
0.0000000000
11
91.3472777385
21
166.6908187988
31
0.0000000000
11
90.2401061911
21
166.7594470387
31
0.0000000000
11
89.1822735693
21
166.6099001406
31
0.0000000000
11
88.2123110203
21
166.2513454720
31
0.0000000000
11
87.3687496911
21
165.6929504008
31
0.0000000000
0
SPLINE
5
3C8
100
AcDbEntity
8
0
100
AcDbSpline
62
7
6
BYLAYER
70
0
71
3
72
10
73
6
74
4
42
0.0000001000
43
0.0000001000
44
0.0000000001
40
0.0000000000
40
0.0000000000
40
0.0000000000
40
0.0000000000
40
0.3363652698
40
0.6697471769
40
1.0000000000
40
1.0000000000
40
1.0000000000
40
1.0000000000
10
143.4601692790
20
149.6361460835
30
0.0000000000
10
143.4479435400
20
149.6390057798
30
0.0000000000
10
143.4236626922
20
149.6449700251
30
0.0000000000
10
143.3876208573
20
149.6546942696
30
0.0000000000
10
143.3638568356
20
149.6616981499
30
0.0000000000
10
143.3520741725
20
149.6653227799
30
0.0000000000
11
143.4601692790
21
149.6361460835
31
0.0000000000
11
143.4235903336
21
149.6451349521
31
0.0000000000
11
143.3875470926
21
149.6548636320
31
0.0000000000
11
143.3520741725
21
149.6653227799
31
0.0000000000
0
SPLINE
5
3C9
100
AcDbEntity
8
0
100
AcDbSpline
62
7
6
BYLAYER
70
0
71
3
72
8
73
4
74
2
42
0.0000001000
43
0.0000001000
44
0.0000000001
40
0.0000000000
40
0.0000000000
40
0.0000000000
40
0.0000000000
40
1.0000000000
40
1.0000000000
40
1.0000000000
40
1.0000000000
10
97.3857414960
20
163.8056699828
30
0.0000000000
10
96.6679159005
20
164.0264903650
30
0.0000000000
10
95.9180803639
20
164.1490553908
30
0.0000000000
10
95.1655730901
20
164.1892964814
30
0.0000000000
11
97.3857414960
21
163.8056699828
31
0.0000000000
11
95.1655730901
21
164.1892964814
31
0.0000000000
0
SPLINE
5
3CA
100
AcDbEntity
8
0
100
AcDbSpline
62
7
6
BYLAYER
70
0
71
3
72
8
73
4
74
2
42
0.0000001000
43
0.0000001000
44
0.0000000001
40
0.0000000000
40
0.0000000000
40
0.0000000000
40
0.0000000000
40
1.0000000000
40
1.0000000000
40
1.0000000000
40
1.0000000000
10
95.1655730901
20
164.1892964814
30
0.0000000000
10
95.0678421045
20
164.1945227452
30
0.0000000000
10
94.9700660541
20
164.1983604341
30
0.0000000000
10
94.8722787317
20
164.2008159656
30
0.0000000000
11
95.1655730901
21
164.1892964814
31
0.0000000000
11
94.8722787317
21
164.2008159656
31
0.0000000000
0
SPLINE
5
3CB
100
AcDbEntity
8
0
100
AcDbSpline
62
7
6
BYLAYER
70
0
71
3
72
8
73
4
74
2
42
0.0000001000
43
0.0000001000
44
0.0000000001
40
0.0000000000
40
0.0000000000
40
0.0000000000
40
0.0000000000
40
1.0000000000
40
1.0000000000
40
1.0000000000
40
1.0000000000
10
94.8722787317
20
164.2008159656
30
0.0000000000
10
94.1846462193
20
164.2180830637
30
0.0000000000
10
93.4964563289
20
164.1670054038
30
0.0000000000
10
92.8194592423
20
164.0498143854
30
0.0000000000
11
94.8722787317
21
164.2008159656
31
0.0000000000
11
92.8194592423
21
164.0498143854
31
0.0000000000
0
SPLINE
5
3CC
100
AcDbEntity
8
0
100
AcDbSpline
62
7
6
BYLAYER
70
0
71
3
72
8
73
4
74
2
42
0.0000001000
43
0.0000001000
44
0.0000000001
40
0.0000000000
40
0.0000000000
40
0.0000000000
40
0.0000000000
40
1.0000000000
40
1.0000000000
40
1.0000000000
40
1.0000000000
10
92.8194592423
20
164.0498143854
30
0.0000000000
10
92.0703999112
20
163.9201490920
30
0.0000000000
10
91.3350430145
20
163.7095466207
30
0.0000000000
10
90.6361962889
20
163.4043933296
30
0.0000000000
11
92.8194592423
21
164.0498143854
31
0.0000000000
11
90.6361962889
21
163.4043933296
31
0.0000000000
0
SPLINE
5
3CD
100
AcDbEntity
8
0
100
AcDbSpline
62
7
6
BYLAYER
70
0
71
3
72
8
73
4
74
2
42
0.0000001000
43
0.0000001000
44
0.0000000001
40
0.0000000000
40
0.0000000000
40
0.0000000000
40
0.0000000000
40
1.0000000000
40
1.0000000000
40
1.0000000000
40
1.0000000000
10
90.6361962889
20
163.4043933296
30
0.0000000000
10
90.0058188152
20
163.1291373204
30
0.0000000000
10
89.4051478335
20
162.7769500592
30
0.0000000000
10
88.8845343346
20
162.3324818184
30
0.0000000000
11
90.6361962889
21
163.4043933296
31
0.0000000000
11
88.8845343346
21
162.3324818184
31
0.0000000000
0
SPLINE
5
3CE
100
AcDbEntity
8
0
100
AcDbSpline
62
7
6
BYLAYER
70
0
71
3
72
12
73
8
74
6
42
0.0000001000
43
0.0000001000
44
0.0000000001
40
0.0000000000
40
0.0000000000
40
0.0000000000
40
0.0000000000
40
0.2073007653
40
0.4208423584
40
0.6298916539
40
0.8248365716
40
1.0000000000
40
1.0000000000
40
1.0000000000
40
1.0000000000
10
159.3831233890
20
133.3259509780
30
0.0000000000
10
158.9642291385
20
133.4239336290
30
0.0000000000
10
158.1366869360
20
133.7307309074
30
0.0000000000
10
157.0297873415
20
134.4432604539
30
0.0000000000
10
156.1171529980
20
135.3586497632
30
0.0000000000
10
155.4832982136
20
136.3936128437
30
0.0000000000
10
155.2778449244
20
137.1504148635
30
0.0000000000
10
155.2505366344
20
137.5128957230
30
0.0000000000
11
159.3831233890
21
133.3259509780
31
0.0000000000
11
158.1703116845
21
133.7672498636
31
0.0000000000
11
157.0520442445
21
134.4862313028
31
0.0000000000
11
156.1377848775
21
135.4125163827
31
0.0000000000
11
155.5170276603
21
136.4554338660
31
0.0000000000
11
155.2505366344
21
137.5128957230
31
0.0000000000
0
SPLINE
5
3CF
100
AcDbEntity
8
0
100
AcDbSpline
62
7
6
BYLAYER
70
0
71
3
72
8
73
4
74
2
42
0.0000001000
43
0.0000001000
44
0.0000000001
40
0.0000000000
40
0.0000000000
40
0.0000000000
40
0.0000000000
40
1.0000000000
40
1.0000000000
40
1.0000000000
40
1.0000000000
10
175.3936758661
20
131.8194885840
30
0.0000000000
10
175.3761551227
20
131.7945782142
30
0.0000000000
10
175.3581074186
20
131.7700253778
30
0.0000000000
10
175.3395610872
20
131.7458330499
30
0.0000000000
11
175.3936758661
21
131.8194885840
31
0.0000000000
11
175.3395610872
21
131.7458330499
31
0.0000000000
0
SPLINE
5
3D0
100
AcDbEntity
8
0
100
AcDbSpline
62
7
6
BYLAYER
70
0
71
3
72
8
73
4
74
2
42
0.0000001000
43
0.0000001000
44
0.0000000001
40
0.0000000000
40
0.0000000000
40
0.0000000000
40
0.0000000000
40
1.0000000000
40
1.0000000000
40
1.0000000000
40
1.0000000000
10
175.3395610872
20
131.7458330499
30
0.0000000000
10
175.1630650401
20
131.5156069125
30
0.0000000000
10
174.9414114813
20
131.3180297457
30
0.0000000000
10
174.6990194544
20
131.1556656458
30
0.0000000000
11
175.3395610872
21
131.7458330499
31
0.0000000000
11
174.6990194544
21
131.1556656458
31
0.0000000000
0
SPLINE
5
3D1
100
AcDbEntity
8
0
100
AcDbSpline
62
7
6
BYLAYER
70
0
71
3
72
10
73
6
74
4
42
0.0000001000
43
0.0000001000
44
0.0000000001
40
0.0000000000
40
0.0000000000
40
0.0000000000
40
0.0000000000
40
0.3185534861
40
0.6620011260
40
1.0000000000
40
1.0000000000
40
1.0000000000
40
1.0000000000
10
174.6990194544
20
131.1556656458
30
0.0000000000
10
174.3677095829
20
130.9337407345
30
0.0000000000
10
173.5986822613
20
130.6092618243
30
0.0000000000
10
172.3598167718
20
130.4153290493
30
0.0000000000
10
171.5041347898
20
130.4907513339
30
0.0000000000
10
171.0948586415
20
130.5864842354
30
0.0000000000
11
174.6990194544
21
131.1556656458
31
0.0000000000
11
173.6157680971
21
130.6668697603
31
0.0000000000
11
172.3501551254
21
130.4669998283
31
0.0000000000
11
171.0948586415
21
130.5864842354
31
0.0000000000
0
SPLINE
5
3D2
100
AcDbEntity
8
0
100
AcDbSpline
62
7
6
BYLAYER
70
0
71
3
72
8
73
4
74
2
42
0.0000001000
43
0.0000001000
44
0.0000000001
40
0.0000000000
40
0.0000000000
40
0.0000000000
40
0.0000000000
40
1.0000000000
40
1.0000000000
40
1.0000000000
40
1.0000000000
10
106.0193029616
20
157.1276141594
30
0.0000000000
10
105.9541217786
20
157.0600618485
30
0.0000000000
10
105.8838316333
20
156.9969458445
30
0.0000000000
10
105.8093738890
20
156.9385984849
30
0.0000000000
11
106.0193029616
21
157.1276141594
31
0.0000000000
11
105.8093738890
21
156.9385984849
31
0.0000000000
0
SPLINE
5
3D3
100
AcDbEntity
8
0
100
AcDbSpline
62
7
6
BYLAYER
70
0
71
3
72
8
73
4
74
2
42
0.0000001000
43
0.0000001000
44
0.0000000001
40
0.0000000000
40
0.0000000000
40
0.0000000000
40
0.0000000000
40
1.0000000000
40
1.0000000000
40
1.0000000000
40
1.0000000000
10
105.8093738890
20
156.9385984849
30
0.0000000000
10
105.5932835755
20
156.7692635235
30
0.0000000000
10
105.3420908661
20
156.6400933778
30
0.0000000000
10
105.0788066639
20
156.5592117781
30
0.0000000000
11
105.8093738890
21
156.9385984849
31
0.0000000000
11
105.0788066639
21
156.5592117781
31
0.0000000000
0
SPLINE
5
3D4
100
AcDbEntity
8
0
100
AcDbSpline
62
7
6
BYLAYER
70
0
71
3
72
8
73
4
74
2
42
0.0000001000
43
0.0000001000
44
0.0000000001
40
0.0000000000
40
0.0000000000
40
0.0000000000
40
0.0000000000
40
1.0000000000
40
1.0000000000
40
1.0000000000
40
1.0000000000
10
105.0788066639
20
156.5592117781
30
0.0000000000
10
104.6960186651
20
156.4416182977
30
0.0000000000
10
104.2876714846
20
156.4260978816
30
0.0000000000
10
103.8929499426
20
156.4835242982
30
0.0000000000
11
105.0788066639
21
156.5592117781
31
0.0000000000
11
103.8929499426
21
156.4835242982
31
0.0000000000
0
SPLINE
5
3D5
100
AcDbEntity
8
0
100
AcDbSpline
62
7
6
BYLAYER
70
0
71
3
72
8
73
4
74
2
42
0.0000001000
43
0.0000001000
44
0.0000000001
40
0.0000000000
40
0.0000000000
40
0.0000000000
40
0.0000000000
40
1.0000000000
40
1.0000000000
40
1.0000000000
40
1.0000000000
10
103.8929499426
20
156.4835242982
30
0.0000000000
10
103.4571511008
20
156.5469268825
30
0.0000000000
10
103.0379614067
20
156.6992489490
30
0.0000000000
10
102.6532315933
20
156.9127741585
30
0.0000000000
11
103.8929499426
21
156.4835242982
31
0.0000000000
11
102.6532315933
21
156.9127741585
31
0.0000000000
0
SPLINE
5
3D6
100
AcDbEntity
8
0
100
AcDbSpline
62
7
6
BYLAYER
70
0
71
3
72
8
73
4
74
2
42
0.0000001000
43
0.0000001000
44
0.0000000001
40
0.0000000000
40
0.0000000000
40
0.0000000000
40
0.0000000000
40
1.0000000000
40
1.0000000000
40
1.0000000000
40
1.0000000000
10
102.6532315933
20
156.9127741585
30
0.0000000000
10
102.2444076326
20
157.1396716299
30
0.0000000000
10
101.8744948850
20
157.4356781196
30
0.0000000000
10
101.5598482892
20
157.7776436837
30
0.0000000000
11
102.6532315933
21
156.9127741585
31
0.0000000000
11
101.5598482892
21
157.7776436837
31
0.0000000000
0
SPLINE
5
3D7
100
AcDbEntity
8
0
100
AcDbSpline
62
7
6
BYLAYER
70
0
71
3
72
8
73
4
74
2
42
0.0000001000
43
0.0000001000
44
0.0000000001
40
0.0000000000
40
0.0000000000
40
0.0000000000
40
0.0000000000
40
1.0000000000
40
1.0000000000
40
1.0000000000
40
1.0000000000
10
153.4451789684
20
141.3444109966
30
0.0000000000
10
153.4425081582
20
141.3798624138
30
0.0000000000
10
153.4392388779
20
141.4152769909
30
0.0000000000
10
153.4353900133
20
141.4506419459
30
0.0000000000
11
153.4451789684
21
141.3444109966
31
0.0000000000
11
153.4353900133
21
141.4506419459
31
0.0000000000
0
SPLINE
5
3D8
100
AcDbEntity
8
0
100
AcDbSpline
62
7
6
BYLAYER
70
0
71
3
72
12
73
8
74
6
42
0.0000001000
43
0.0000001000
44
0.0000000001
40
0.0000000000
40
0.0000000000
40
0.0000000000
40
0.0000000000
40
0.1623234697
40
0.3603030306
40
0.5726065275
40
0.7894722521
40
1.0000000000
40
1.0000000000
40
1.0000000000
40
1.0000000000
10
153.4353900133
20
141.4506419459
30
0.0000000000
10
153.3952554784
20
141.8194145995
30
0.0000000000
10
153.1662843791
20
142.6259882110
30
0.0000000000
10
152.4766077385
20
143.7520976575
30
0.0000000000
10
151.4566046487
20
144.7751798267
30
0.0000000000
10
150.2194815725
20
145.5715363787
30
0.0000000000
10
149.2945814639
20
145.9144274545
30
0.0000000000
10
148.8264055368
20
146.0239374762
30
0.0000000000
11
153.4353900133
21
141.4506419459
31
0.0000000000
11
153.1473360571
21
142.5262801308
31
0.0000000000
11
152.4535485790
21
143.6918937887
31
0.0000000000
11
151.4317292865
21
144.7271535839
31
0.0000000000
11
150.1819009712
21
145.5307210747
31
0.0000000000
11
148.8264055368
21
146.0239374762
31
0.0000000000
0
SPLINE
5
3D9
100
AcDbEntity
8
0
100
AcDbSpline
62
7
6
BYLAYER
70
0
71
3
72
8
73
4
74
2
42
0.0000001000
43
0.0000001000
44
0.0000000001
40
0.0000000000
40
0.0000000000
40
0.0000000000
40
0.0000000000
40
1.0000000000
40
1.0000000000
40
1.0000000000
40
1.0000000000
10
90.0207449886
20
164.6346380790
30
0.0000000000
10
89.9927841807
20
164.6107668364
30
0.0000000000
10
89.9648375391
20
164.5868792595
30
0.0000000000
10
89.9369045950
20
164.5629758876
30
0.0000000000
11
90.0207449886
21
164.6346380790
31
0.0000000000
11
89.9369045950
21
164.5629758876
31
0.0000000000
0
SPLINE
5
3DA
100
AcDbEntity
8
0
100
AcDbSpline
62
7
6
BYLAYER
70
0
71
3
72
8
73
4
74
2
42
0.0000001000
43
0.0000001000
44
0.0000000001
40
0.0000000000
40
0.0000000000
40
0.0000000000
40
0.0000000000
40
1.0000000000
40
1.0000000000
40
1.0000000000
40
1.0000000000
10
89.9369045950
20
164.5629758876
30
0.0000000000
10
89.3648299418
20
164.0734280204
30
0.0000000000
10
88.7985006282
20
163.5772550613
30
0.0000000000
10
88.2338908011
20
163.0790904411
30
0.0000000000
11
89.9369045950
21
164.5629758876
31
0.0000000000
11
88.2338908011
21
163.0790904411
31
0.0000000000
0
SPLINE
5
3DB
100
AcDbEntity
8
0
100
AcDbSpline
62
7
6
BYLAYER
70
0
71
3
72
8
73
4
74
2
42
0.0000001000
43
0.0000001000
44
0.0000000001
40
0.0000000000
40
0.0000000000
40
0.0000000000
40
0.0000000000
40
1.0000000000
40
1.0000000000
40
1.0000000000
40
1.0000000000
10
88.2338908011
20
163.0790904411
30
0.0000000000
10
88.1880401494
20
163.0386356503
30
0.0000000000
10
88.1422008372
20
162.9981677250
30
0.0000000000
10
88.0963707085
20
162.9576891468
30
0.0000000000
11
88.2338908011
21
163.0790904411
31
0.0000000000
11
88.0963707085
21
162.9576891468
31
0.0000000000
0
SPLINE
5
3DC
100
AcDbEntity
8
0
100
AcDbSpline
62
7
6
BYLAYER
70
0
71
3
72
8
73
4
74
2
42
0.0000001000
43
0.0000001000
44
0.0000000001
40
0.0000000000
40
0.0000000000
40
0.0000000000
40
0.0000000000
40
1.0000000000
40
1.0000000000
40
1.0000000000
40
1.0000000000
10
88.0963707085
20
162.9576891468
30
0.0000000000
10
87.4737517588
20
162.4077729548
30
0.0000000000
10
86.8528277299
20
161.8558906234
30
0.0000000000
10
86.2281927850
20
161.3082638330
30
0.0000000000
11
88.0963707085
21
162.9576891468
31
0.0000000000
11
86.2281927850
21
161.3082638330
31
0.0000000000
0
SPLINE
5
3DD
100
AcDbEntity
8
0
100
AcDbSpline
62
7
6
BYLAYER
70
0
71
3
72
9
73
5
74
3
42
0.0000001000
43
0.0000001000
44
0.0000000001
40
0.0000000000
40
0.0000000000
40
0.0000000000
40
0.0000000000
40
0.4000514169
40
1.0000000000
40
1.0000000000
40
1.0000000000
40
1.0000000000
10
86.2281927850
20
161.3082638330
30
0.0000000000
10
86.0299091551
20
161.1344256116
30
0.0000000000
10
85.5333290611
20
160.7009578295
30
0.0000000000
10
85.0333319699
20
160.2714130235
30
0.0000000000
10
84.7315921143
20
160.0158018263
30
0.0000000000
11
86.2281927850
21
161.3082638330
31
0.0000000000
11
85.6320471545
21
160.7882346483
31
0.0000000000
11
84.7315921143
21
160.0158018263
31
0.0000000000
0
SPLINE
5
3DE
100
AcDbEntity
8
0
100
AcDbSpline
62
7
6
BYLAYER
70
0
71
3
72
8
73
4
74
2
42
0.0000001000
43
0.0000001000
44
0.0000000001
40
0.0000000000
40
0.0000000000
40
0.0000000000
40
0.0000000000
40
1.0000000000
40
1.0000000000
40
1.0000000000
40
1.0000000000
10
84.7315921143
20
160.0158018263
30
0.0000000000
10
84.6215595770
20
159.9225905781
30
0.0000000000
10
84.5112920281
20
159.8296577309
30
0.0000000000
10
84.4007634081
20
159.7370363349
30
0.0000000000
11
84.7315921143
21
160.0158018263
31
0.0000000000
11
84.4007634081
21
159.7370363349
31
0.0000000000
0
SPLINE
5
3DF
100
AcDbEntity
8
0
100
AcDbSpline
62
7
6
BYLAYER
70
0
71
3
72
8
73
4
74
2
42
0.0000001000
43
0.0000001000
44
0.0000000001
40
0.0000000000
40
0.0000000000
40
0.0000000000
40
0.0000000000
40
1.0000000000
40
1.0000000000
40
1.0000000000
40
1.0000000000
10
94.5426301113
20
164.1883211837
30
0.0000000000
10
94.2945896185
20
164.4066060196
30
0.0000000000
10
94.0226653707
20
164.5991819174
30
0.0000000000
10
93.7332042174
20
164.7609068465
30
0.0000000000
11
94.5426301113
21
164.1883211837
31
0.0000000000
11
93.7332042174
21
164.7609068465
31
0.0000000000
0
SPLINE
5
3E0
100
AcDbEntity
8
0
100
AcDbSpline
62
7
6
BYLAYER
70
0
71
3
72
9
73
5
74
3
42
0.0000001000
43
0.0000001000
44
0.0000000001
40
0.0000000000
40
0.0000000000
40
0.0000000000
40
0.0000000000
40
0.5193274629
40
1.0000000000
40
1.0000000000
40
1.0000000000
40
1.0000000000
10
93.7332042174
20
164.7609068465
30
0.0000000000
10
93.3211554236
20
164.9911227535
30
0.0000000000
10
92.4593007061
20
165.3140522042
30
0.0000000000
10
91.5329982816
20
165.2921935191
30
0.0000000000
10
91.1078213312
20
165.1846311748
30
0.0000000000
11
93.7332042174
21
164.7609068465
31
0.0000000000
11
92.4086041641
21
165.2335453084
31
0.0000000000
11
91.1078213312
21
165.1846311748
31
0.0000000000
0
SPLINE
5
3E1
100
AcDbEntity
8
0
100
AcDbSpline
62
7
6
BYLAYER
70
0
71
3
72
8
73
4
74
2
42
0.0000001000
43
0.0000001000
44
0.0000000001
40
0.0000000000
40
0.0000000000
40
0.0000000000
40
0.0000000000
40
1.0000000000
40
1.0000000000
40
1.0000000000
40
1.0000000000
10
91.1078213312
20
165.1846311748
30
0.0000000000
10
90.7099010986
20
165.0839643042
30
0.0000000000
10
90.3295901360
20
164.8983113406
30
0.0000000000
10
90.0207449886
20
164.6346380790
30
0.0000000000
11
91.1078213312
21
165.1846311748
31
0.0000000000
11
90.0207449886
21
164.6346380790
31
0.0000000000
0
SPLINE
5
3E2
100
AcDbEntity
8
0
100
AcDbSpline
62
7
6
BYLAYER
70
0
71
3
72
9
73
5
74
3
42
0.0000001000
43
0.0000001000
44
0.0000000001
40
0.0000000000
40
0.0000000000
40
0.0000000000
40
0.0000000000
40
0.5022272306
40
1.0000000000
40
1.0000000000
40
1.0000000000
40
1.0000000000
10
142.0970158292
20
147.5979945143
30
0.0000000000
10
142.0528150806
20
147.6083334161
30
0.0000000000
10
141.9650304768
20
147.6298964571
30
0.0000000000
10
141.8777590070
20
147.6534426808
30
0.0000000000
10
141.8344586936
20
147.6656656513
30
0.0000000000
11
142.0970158292
21
147.5979945143
31
0.0000000000
11
141.9647688726
21
147.6304927313
31
0.0000000000
11
141.8344586936
21
147.6656656513
31
0.0000000000
0
SPLINE
5
3E3
100
AcDbEntity
8
0
100
AcDbSpline
62
7
6
BYLAYER
70
0
71
3
72
8
73
4
74
2
42
0.0000001000
43
0.0000001000
44
0.0000000001
40
0.0000000000
40
0.0000000000
40
0.0000000000
40
0.0000000000
40
1.0000000000
40
1.0000000000
40
1.0000000000
40
1.0000000000
10
141.8344586936
20
147.6656656513
30
0.0000000000
10
141.7915647920
20
147.6777738984
30
0.0000000000
10
141.7488093031
20
147.6903750621
30
0.0000000000
10
141.7062104441
20
147.7034794936
30
0.0000000000
11
141.8344586936
21
147.6656656513
31
0.0000000000
11
141.7062104441
21
147.7034794936
31
0.0000000000
0
SPLINE
5
3E4
100
AcDbEntity
8
0
100
AcDbSpline
62
7
6
BYLAYER
70
0
71
3
72
12
73
8
74
6
42
0.0000001000
43
0.0000001000
44
0.0000000001
40
0.0000000000
40
0.0000000000
40
0.0000000000
40
0.0000000000
40
0.2073007653
40
0.4208423584
40
0.6298916539
40
0.8248365716
40
1.0000000000
40
1.0000000000
40
1.0000000000
40
1.0000000000
10
158.0199699391
20
131.2877994088
30
0.0000000000
10
157.6010756886
20
131.3857820598
30
0.0000000000
10
156.7735334861
20
131.6925793382
30
0.0000000000
10
155.6666338916
20
132.4051088847
30
0.0000000000
10
154.7539995482
20
133.3204981940
30
0.0000000000
10
154.1201447638
20
134.3554612745
30
0.0000000000
10
153.9146914745
20
135.1122632943
30
0.0000000000
10
153.8873831846
20
135.4747441538
30
0.0000000000
11
158.0199699391
21
131.2877994088
31
0.0000000000
11
156.8071582347
21
131.7290982944
31
0.0000000000
11
155.6888907947
21
132.4480797336
31
0.0000000000
11
154.7746314277
21
133.3743648135
31
0.0000000000
11
154.1538742105
21
134.4172822968
31
0.0000000000
11
153.8873831846
21
135.4747441538
31
0.0000000000
0
SPLINE
5
3E5
100
AcDbEntity
8
0
100
AcDbSpline
62
7
6
BYLAYER
70
0
71
3
72
8
73
4
74
2
42
0.0000001000
43
0.0000001000
44
0.0000000001
40
0.0000000000
40
0.0000000000
40
0.0000000000
40
0.0000000000
40
1.0000000000
40
1.0000000000
40
1.0000000000
40
1.0000000000
10
79.3701194589
20
150.7174642292
30
0.0000000000
10
79.3370907530
20
150.6892663227
30
0.0000000000
10
79.3043812338
20
150.6606904783
30
0.0000000000
10
79.2719861654
20
150.6317534974
30
0.0000000000
11
79.3701194589
21
150.7174642292
31
0.0000000000
11
79.2719861654
21
150.6317534974
31
0.0000000000
0
SPLINE
5
3E6
100
AcDbEntity
8
0
100
AcDbSpline
62
7
6
BYLAYER
70
0
71
3
72
12
73
8
74
6
42
0.0000001000
43
0.0000001000
44
0.0000000001
40
0.0000000000
40
0.0000000000
40
0.0000000000
40
0.0000000000
40
0.1780958010
40
0.3948719985
40
0.6176530541
40
0.8303474822
40
1.0000000000
40
1.0000000000
40
1.0000000000
40
1.0000000000
10
79.2719861654
20
150.6317534974
30
0.0000000000
10
78.9456852212
20
150.3402843126
30
0.0000000000
10
78.2929494227
20
149.6128053071
30
0.0000000000
10
77.4800504266
20
148.3251808745
30
0.0000000000
10
76.8426424935
20
146.8477458916
30
0.0000000000
10
76.4752372462
20
145.4015540698
30
0.0000000000
10
76.4070914239
20
144.4564438795
30
0.0000000000
10
76.4270797388
20
144.0401387124
30
0.0000000000
11
79.2719861654
21
150.6317534974
31
0.0000000000
11
78.3839526054
21
149.6645969098
31
0.0000000000
11
77.5241808759
21
148.3184104483
31
0.0000000000
11
76.8749647175
21
146.8106789553
31
0.0000000000
11
76.4998539312
21
145.2889896940
31
0.0000000000
11
76.4270797388
21
144.0401387124
31
0.0000000000
0
SPLINE
5
3E7
100
AcDbEntity
8
0
100
AcDbSpline
62
7
6
BYLAYER
70
0
71
3
72
8
73
4
74
2
42
0.0000001000
43
0.0000001000
44
0.0000000001
40
0.0000000000
40
0.0000000000
40
0.0000000000
40
0.0000000000
40
1.0000000000
40
1.0000000000
40
1.0000000000
40
1.0000000000
10
76.4270797388
20
144.0401387124
30
0.0000000000
10
76.4292878321
20
143.9941498100
30
0.0000000000
10
76.4321088501
20
143.9481981650
30
0.0000000000
10
76.4355669743
20
143.9022962117
30
0.0000000000
11
76.4270797388
21
144.0401387124
31
0.0000000000
11
76.4355669743
21
143.9022962117
31
0.0000000000
0
SPLINE
5
3E8
100
AcDbEntity
8
0
100
AcDbSpline
62
7
6
BYLAYER
70
0
71
3
72
8
73
4
74
2
42
0.0000001000
43
0.0000001000
44
0.0000000001
40
0.0000000000
40
0.0000000000
40
0.0000000000
40
0.0000000000
40
1.0000000000
40
1.0000000000
40
1.0000000000
40
1.0000000000
10
108.8762891333
20
156.0906260466
30
0.0000000000
10
108.8190685648
20
156.0313239374
30
0.0000000000
10
108.7596890134
20
155.9739044058
30
0.0000000000
10
108.6983456192
20
155.9184615537
30
0.0000000000
11
108.8762891333
21
156.0906260466
31
0.0000000000
11
108.6983456192
21
155.9184615537
31
0.0000000000
0
SPLINE
5
3E9
100
AcDbEntity
8
0
100
AcDbSpline
62
7
6
BYLAYER
70
0
71
3
72
8
73
4
74
2
42
0.0000001000
43
0.0000001000
44
0.0000000001
40
0.0000000000
40
0.0000000000
40
0.0000000000
40
0.0000000000
40
1.0000000000
40
1.0000000000
40
1.0000000000
40
1.0000000000
10
108.6983456192
20
155.9184615537
30
0.0000000000
10
108.6744741292
20
155.8968862316
30
0.0000000000
10
108.6503052466
20
155.8756102460
30
0.0000000000
10
108.6258504710
20
155.8546391424
30
0.0000000000
11
108.6983456192
21
155.9184615537
31
0.0000000000
11
108.6258504710
21
155.8546391424
31
0.0000000000
0
SPLINE
5
3EA
100
AcDbEntity
8
0
100
AcDbSpline
62
7
6
BYLAYER
70
0
71
3
72
8
73
4
74
2
42
0.0000001000
43
0.0000001000
44
0.0000000001
40
0.0000000000
40
0.0000000000
40
0.0000000000
40
0.0000000000
40
1.0000000000
40
1.0000000000
40
1.0000000000
40
1.0000000000
10
108.6258504710
20
155.8546391424
30
0.0000000000
10
108.3172865244
20
155.5900312551
30
0.0000000000
10
107.9632063193
20
155.3739627997
30
0.0000000000
10
107.5867106202
20
155.2175735923
30
0.0000000000
11
108.6258504710
21
155.8546391424
31
0.0000000000
11
107.5867106202
21
155.2175735923
31
0.0000000000
0
SPLINE
5
3EB
100
AcDbEntity
8
0
100
AcDbSpline
62
7
6
BYLAYER
70
0
71
3
72
9
73
5
74
3
42
0.0000001000
43
0.0000001000
44
0.0000000001
40
0.0000000000
40
0.0000000000
40
0.0000000000
40
0.0000000000
40
0.4798044980
40
1.0000000000
40
1.0000000000
40
1.0000000000
40
1.0000000000
10
107.5867106202
20
155.2175735923
30
0.0000000000
10
107.0776663944
20
155.0061262286
30
0.0000000000
10
105.9313221071
20
154.7928102201
30
0.0000000000
10
104.7865068043
20
154.9750904938
30
0.0000000000
10
104.2171699486
20
155.1491601886
30
0.0000000000
11
107.5867106202
21
155.2175735923
31
0.0000000000
11
105.9779760950
21
154.8924974202
31
0.0000000000
11
104.2171699486
21
155.1491601886
31
0.0000000000
0
SPLINE
5
3EC
100
AcDbEntity
8
0
100
AcDbSpline
62
7
6
BYLAYER
70
0
71
3
72
8
73
4
74
2
42
0.0000001000
43
0.0000001000
44
0.0000000001
40
0.0000000000
40
0.0000000000
40
0.0000000000
40
0.0000000000
40
1.0000000000
40
1.0000000000
40
1.0000000000
40
1.0000000000
10
104.2171699486
20
155.1491601886
30
0.0000000000
10
103.6057391016
20
155.3360997478
30
0.0000000000
10
103.0245151973
20
155.6144392948
30
0.0000000000
10
102.4871708459
20
155.9609047072
30
0.0000000000
11
104.2171699486
21
155.1491601886
31
0.0000000000
11
102.4871708459
21
155.9609047072
31
0.0000000000
0
SPLINE
5
3ED
100
AcDbEntity
8
0
100
AcDbSpline
62
7
6
BYLAYER
70
0
71
3
72
8
73
4
74
2
42
0.0000001000
43
0.0000001000
44
0.0000000001
40
0.0000000000
40
0.0000000000
40
0.0000000000
40
0.0000000000
40
1.0000000000
40
1.0000000000
40
1.0000000000
40
1.0000000000
10
102.4871708459
20
155.9609047072
30
0.0000000000
10
101.9582147023
20
156.3019616253
30
0.0000000000
10
101.4717788420
20
156.7090340542
30
0.0000000000
10
101.0408334817
20
157.1649571097
30
0.0000000000
11
102.4871708459
21
155.9609047072
31
0.0000000000
11
101.0408334817
21
157.1649571097
31
0.0000000000
0
SPLINE
5
3EE
100
AcDbEntity
8
0
100
AcDbSpline
62
7
6
BYLAYER
70
0
71
3
72
8
73
4
74
2
42
0.0000001000
43
0.0000001000
44
0.0000000001
40
0.0000000000
40
0.0000000000
40
0.0000000000
40
0.0000000000
40
1.0000000000
40
1.0000000000
40
1.0000000000
40
1.0000000000
10
101.0408334817
20
157.1649571097
30
0.0000000000
10
101.0162603650
20
157.1909544901
30
0.0000000000
10
100.9918676725
20
157.2171107054
30
0.0000000000
10
100.9676578089
20
157.2434225734
30
0.0000000000
11
101.0408334817
21
157.1649571097
31
0.0000000000
11
100.9676578089
21
157.2434225734
31
0.0000000000
0
SPLINE
5
3EF
100
AcDbEntity
8
0
100
AcDbSpline
62
7
6
BYLAYER
70
0
71
3
72
8
73
4
74
2
42
0.0000001000
43
0.0000001000
44
0.0000000001
40
0.0000000000
40
0.0000000000
40
0.0000000000
40
0.0000000000
40
1.0000000000
40
1.0000000000
40
1.0000000000
40
1.0000000000
10
178.4883781974
20
131.0747479605
30
0.0000000000
10
178.4643520248
20
131.0397041676
30
0.0000000000
10
178.4397821727
20
131.0050209591
30
0.0000000000
10
178.4146915341
20
130.9707001457
30
0.0000000000
11
178.4883781974
21
131.0747479605
31
0.0000000000
11
178.4146915341
21
130.9707001457
31
0.0000000000
0
SPLINE
5
3F0
100
AcDbEntity
8
0
100
AcDbSpline
62
7
6
BYLAYER
70
0
71
3
72
8
73
4
74
2
42
0.0000001000
43
0.0000001000
44
0.0000000001
40
0.0000000000
40
0.0000000000
40
0.0000000000
40
0.0000000000
40
1.0000000000
40
1.0000000000
40
1.0000000000
40
1.0000000000
10
178.4146915341
20
130.9707001457
30
0.0000000000
10
178.1351026106
20
130.5882579358
30
0.0000000000
10
177.7908476487
20
130.2508142963
30
0.0000000000
10
177.4136023147
20
129.9608744273
30
0.0000000000
11
178.4146915341
21
130.9707001457
31
0.0000000000
11
177.4136023147
21
129.9608744273
31
0.0000000000
0
SPLINE
5
3F1
100
AcDbEntity
8
0
100
AcDbSpline
62
7
6
BYLAYER
70
0
71
3
72
11
73
7
74
5
42
0.0000001000
43
0.0000001000
44
0.0000000001
40
0.0000000000
40
0.0000000000
40
0.0000000000
40
0.0000000000
40
0.2317325561
40
0.4848138371
40
0.7459487367
40
1.0000000000
40
1.0000000000
40
1.0000000000
40
1.0000000000
10
177.4136023147
20
129.9608744273
30
0.0000000000
10
176.9195619213
20
129.5811692489
30
0.0000000000
10
175.7675939772
20
128.9572264644
30
0.0000000000
10
173.8360480083
20
128.4016667765
30
0.0000000000
10
171.7748398468
20
128.2336879404
30
0.0000000000
10
170.3936040550
20
128.3935093301
30
0.0000000000
10
169.7317051917
20
128.5483326662
30
0.0000000000
11
177.4136023147
21
129.9608744273
31
0.0000000000
11
175.7946972151
21
129.0447585436
31
0.0000000000
11
173.8452495700
21
128.4731980922
31
0.0000000000
11
171.7560848974
21
128.3021413925
31
0.0000000000
11
169.7317051917
21
128.5483326662
31
0.0000000000
0
SPLINE
5
3F2
100
AcDbEntity
8
0
100
AcDbSpline
62
7
6
BYLAYER
70
0
71
3
72
8
73
4
74
2
42
0.0000001000
43
0.0000001000
44
0.0000000001
40
0.0000000000
40
0.0000000000
40
0.0000000000
40
0.0000000000
40
1.0000000000
40
1.0000000000
40
1.0000000000
40
1.0000000000
10
95.7398777677
20
161.8438266965
30
0.0000000000
10
95.3863218773
20
161.9525889743
30
0.0000000000
10
95.0169998966
20
162.0129568228
30
0.0000000000
10
94.6463619856
20
162.0327770615
30
0.0000000000
11
95.7398777677
21
161.8438266965
31
0.0000000000
11
94.6463619856
21
162.0327770615
31
0.0000000000
0
SPLINE
5
3F3
100
AcDbEntity
8
0
100
AcDbSpline
62
7
6
BYLAYER
70
0
71
3
72
8
73
4
74
2
42
0.0000001000
43
0.0000001000
44
0.0000000001
40
0.0000000000
40
0.0000000000
40
0.0000000000
40
0.0000000000
40
1.0000000000
40
1.0000000000
40
1.0000000000
40
1.0000000000
10
94.6463619856
20
162.0327770615
30
0.0000000000
10
94.2597362797
20
162.0534522638
30
0.0000000000
10
93.8716786672
20
162.0300062949
30
0.0000000000
10
93.4908133740
20
161.9640769246
30
0.0000000000
11
94.6463619856
21
162.0327770615
31
0.0000000000
11
93.4908133740
21
161.9640769246
31
0.0000000000
0
SPLINE
5
3F4
100
AcDbEntity
8
0
100
AcDbSpline
62
7
6
BYLAYER
70
0
71
3
72
9
73
5
74
3
42
0.0000001000
43
0.0000001000
44
0.0000000001
40
0.0000000000
40
0.0000000000
40
0.0000000000
40
0.0000000000
40
0.5257553436
40
1.0000000000
40
1.0000000000
40
1.0000000000
40
1.0000000000
10
93.4908133740
20
161.9640769246
30
0.0000000000
10
93.1218737035
20
161.9002119294
30
0.0000000000
10
92.4329777850
20
161.7029156457
30
0.0000000000
10
91.8091376055
20
161.3371437490
30
0.0000000000
10
91.5527160314
20
161.1182265558
30
0.0000000000
11
93.4908133740
21
161.9640769246
31
0.0000000000
11
92.4154749045
21
161.6461829718
31
0.0000000000
11
91.5527160314
21
161.1182265558
31
0.0000000000
0
SPLINE
5
3F5
100
AcDbEntity
8
0
100
AcDbSpline
62
7
6
BYLAYER
70
0
71
3
72
12
73
8
74
6
42
0.0000001000
43
0.0000001000
44
0.0000000001
40
0.0000000000
40
0.0000000000
40
0.0000000000
40
0.0000000000
40
0.2107108542
40
0.4277651976
40
0.6402533452
40
0.8384050987
40
1.0000000000
40
1.0000000000
40
1.0000000000
40
1.0000000000
10
158.0344970159
20
131.0949719830
30
0.0000000000
10
157.5909619271
20
131.1987183193
30
0.0000000000
10
156.7147407715
20
131.5235624964
30
0.0000000000
10
155.5427294362
20
132.2780055457
30
0.0000000000
10
154.5764107196
20
133.2472412850
30
0.0000000000
10
153.9240244221
20
134.3124627657
30
0.0000000000
10
153.7071603429
20
135.0745188404
30
0.0000000000
10
153.6687064515
20
135.4219572720
30
0.0000000000
11
158.0344970159
21
131.0949719830
31
0.0000000000
11
156.7503434464
21
131.5622296266
31
0.0000000000
11
155.5662955688
21
132.3235040915
31
0.0000000000
11
154.5982562390
21
133.3042765291
31
0.0000000000
11
153.9409838914
21
134.4085420997
31
0.0000000000
11
153.6687064515
21
135.4219572720
31
0.0000000000
0
SPLINE
5
3F6
100
AcDbEntity
8
0
100
AcDbSpline
62
7
6
BYLAYER
70
0
71
3
72
8
73
4
74
2
42
0.0000001000
43
0.0000001000
44
0.0000000001
40
0.0000000000
40
0.0000000000
40
0.0000000000
40
0.0000000000
40
1.0000000000
40
1.0000000000
40
1.0000000000
40
1.0000000000
10
153.6687064515
20
135.4219572720
30
0.0000000000
10
153.6647919413
20
135.4573256383
30
0.0000000000
10
153.6614884121
20
135.4927471635
30
0.0000000000
10
153.6588169228
20
135.5282075953
30
0.0000000000
11
153.6687064515
21
135.4219572720
31
0.0000000000
11
153.6588169228
21
135.5282075953
31
0.0000000000
0
SPLINE
5
3F7
100
AcDbEntity
8
0
100
AcDbSpline
62
7
6
BYLAYER
70
0
71
3
72
8
73
4
74
2
42
0.0000001000
43
0.0000001000
44
0.0000000001
40
0.0000000000
40
0.0000000000
40
0.0000000000
40
0.0000000000
40
1.0000000000
40
1.0000000000
40
1.0000000000
40
1.0000000000
10
94.1831325812
20
164.1717113530
30
0.0000000000
10
94.0004087162
20
164.3150002503
30
0.0000000000
10
93.8062772807
20
164.4443636695
30
0.0000000000
10
93.6031290326
20
164.5578646891
30
0.0000000000
11
94.1831325812
21
164.1717113530
31
0.0000000000
11
93.6031290326
21
164.5578646891
31
0.0000000000
0
SPLINE
5
3F8
100
AcDbEntity
8
0
100
AcDbSpline
62
7
6
BYLAYER
70
0
71
3
72
9
73
5
74
3
42
0.0000001000
43
0.0000001000
44
0.0000000001
40
0.0000000000
40
0.0000000000
40
0.0000000000
40
0.0000000000
40
0.5193274629
40
1.0000000000
40
1.0000000000
40
1.0000000000
40
1.0000000000
10
93.6031290326
20
164.5578646891
30
0.0000000000
10
93.2084044714
20
164.7784013688
30
0.0000000000
10
92.3827856846
20
165.0877535322
30
0.0000000000
10
91.4954288385
20
165.0668138764
30
0.0000000000
10
91.0881280826
20
164.9637738972
30
0.0000000000
11
93.6031290326
21
164.5578646891
31
0.0000000000
11
92.3342206346
21
165.0106314786
31
0.0000000000
11
91.0881280826
21
164.9637738972
31
0.0000000000
0
SPLINE
5
3F9
100
AcDbEntity
8
0
100
AcDbSpline
62
7
6
BYLAYER
70
0
71
3
72
8
73
4
74
2
42
0.0000001000
43
0.0000001000
44
0.0000000001
40
0.0000000000
40
0.0000000000
40
0.0000000000
40
0.0000000000
40
1.0000000000
40
1.0000000000
40
1.0000000000
40
1.0000000000
10
91.0881280826
20
164.9637738972
30
0.0000000000
10
90.7069380595
20
164.8673394774
30
0.0000000000
10
90.3426169400
20
164.6894921310
30
0.0000000000
10
90.0467569178
20
164.4369047819
30
0.0000000000
11
91.0881280826
21
164.9637738972
31
0.0000000000
11
90.0467569178
21
164.4369047819
31
0.0000000000
0
SPLINE
5
3FA
100
AcDbEntity
8
0
100
AcDbSpline
62
7
6
BYLAYER
70
0
71
3
72
8
73
4
74
2
42
0.0000001000
43
0.0000001000
44
0.0000000001
40
0.0000000000
40
0.0000000000
40
0.0000000000
40
0.0000000000
40
1.0000000000
40
1.0000000000
40
1.0000000000
40
1.0000000000
10
178.5029052741
20
130.8819205346
30
0.0000000000
10
178.2111516900
20
130.4563782582
30
0.0000000000
10
177.8392291651
20
130.0840064150
30
0.0000000000
10
177.4281293914
20
129.7680470015
30
0.0000000000
11
178.5029052741
21
130.8819205346
31
0.0000000000
11
177.4281293914
21
129.7680470015
31
0.0000000000
0
SPLINE
5
3FB
100
AcDbEntity
8
0
100
AcDbSpline
62
7
6
BYLAYER
70
0
71
3
72
11
73
7
74
5
42
0.0000001000
43
0.0000001000
44
0.0000000001
40
0.0000000000
40
0.0000000000
40
0.0000000000
40
0.0000000000
40
0.2317325561
40
0.4848138371
40
0.7459487367
40
1.0000000000
40
1.0000000000
40
1.0000000000
40
1.0000000000
10
177.4281293914
20
129.7680470015
30
0.0000000000
10
176.9340889980
20
129.3883418230
30
0.0000000000
10
175.7821210539
20
128.7643990385
30
0.0000000000
10
173.8505750851
20
128.2088393507
30
0.0000000000
10
171.7893669236
20
128.0408605145
30
0.0000000000
10
170.4081311318
20
128.2006819042
30
0.0000000000
10
169.7462322684
20
128.3555052403
30
0.0000000000
11
177.4281293914
21
129.7680470015
31
0.0000000000
11
175.8092242918
21
128.8519311177
31
0.0000000000
11
173.8597766467
21
128.2803706664
31
0.0000000000
11
171.7706119742
21
128.1093139667
31
0.0000000000
11
169.7462322684
21
128.3555052403
31
0.0000000000
0
SPLINE
5
3FC
100
AcDbEntity
8
0
100
AcDbSpline
62
7
6
BYLAYER
70
0
71
3
72
11
73
7
74
5
42
0.0000001000
43
0.0000001000
44
0.0000000001
40
0.0000000000
40
0.0000000000
40
0.0000000000
40
0.0000000000
40
0.2308613892
40
0.4864850207
40
0.7491896125
40
1.0000000000
40
1.0000000000
40
1.0000000000
40
1.0000000000
10
79.3846465356
20
150.5246368034
30
0.0000000000
10
79.0363493978
20
150.2272818242
30
0.0000000000
10
78.3809327187
20
149.5076857348
30
0.0000000000
10
77.5845807906
20
148.2462717036
30
0.0000000000
10
76.9775256162
20
146.8391907676
30
0.0000000000
10
76.7257158812
20
145.8480095526
30
0.0000000000
10
76.6510603188
20
145.3546610556
30
0.0000000000
11
79.3846465356
21
150.5246368034
31
0.0000000000
11
78.4454400085
21
149.5219060229
31
0.0000000000
11
77.6266097899
21
148.2398236787
31
0.0000000000
11
77.0083086867
21
146.8038889234
31
0.0000000000
11
76.6510603188
21
145.3546610556
31
0.0000000000
0
SPLINE
5
3FD
100
AcDbEntity
8
0
100
AcDbSpline
62
7
6
BYLAYER
70
0
71
3
72
8
73
4
74
2
42
0.0000001000
43
0.0000001000
44
0.0000000001
40
0.0000000000
40
0.0000000000
40
0.0000000000
40
0.0000000000
40
1.0000000000
40
1.0000000000
40
1.0000000000
40
1.0000000000
10
76.6510603188
20
145.3546610556
30
0.0000000000
10
76.5849342220
20
144.9176780708
30
0.0000000000
10
76.5567278939
20
144.4734482443
30
0.0000000000
10
76.5898346456
20
144.0340005962
30
0.0000000000
11
76.6510603188
21
145.3546610556
31
0.0000000000
11
76.5898346456
21
144.0340005962
31
0.0000000000
0
SPLINE
5
3FE
100
AcDbEntity
8
0
100
AcDbSpline
62
7
6
BYLAYER
70
0
71
3
72
8
73
4
74
2
42
0.0000001000
43
0.0000001000
44
0.0000000001
40
0.0000000000
40
0.0000000000
40
0.0000000000
40
0.0000000000
40
1.0000000000
40
1.0000000000
40
1.0000000000
40
1.0000000000
10
153.2166127067
20
141.3978744381
30
0.0000000000
10
153.1876980467
20
141.7816777011
30
0.0000000000
10
153.0847421465
20
142.1609231905
30
0.0000000000
10
152.9344457380
20
142.5175399337
30
0.0000000000
11
153.2166127067
21
141.3978744381
31
0.0000000000
11
152.9344457380
21
142.5175399337
31
0.0000000000
0
SPLINE
5
3FF
100
AcDbEntity
8
0
100
AcDbSpline
62
7
6
BYLAYER
70
0
71
3
72
10
73
6
74
4
42
0.0000001000
43
0.0000001000
44
0.0000000001
40
0.0000000000
40
0.0000000000
40
0.0000000000
40
0.0000000000
40
0.3156819666
40
0.6542037062
40
1.0000000000
40
1.0000000000
40
1.0000000000
40
1.0000000000
10
152.9344457380
20
142.5175399337
30
0.0000000000
10
152.7671761131
20
142.9144299827
30
0.0000000000
10
152.2990189099
20
143.6788407484
30
0.0000000000
10
151.3327001933
20
144.6480764876
30
0.0000000000
10
150.5464041556
20
145.1542282307
30
0.0000000000
10
150.1250861830
20
145.3638524068
30
0.0000000000
11
152.9344457380
21
142.5175399337
31
0.0000000000
11
152.2771733904
21
143.6218055043
31
0.0000000000
11
151.3091340606
21
144.6025779418
31
0.0000000000
11
150.1250861830
21
145.3638524068
31
0.0000000000
0
SPLINE
5
400
100
AcDbEntity
8
0
100
AcDbSpline
62
7
6
BYLAYER
70
0
71
3
72
8
73
4
74
2
42
0.0000001000
43
0.0000001000
44
0.0000000001
40
0.0000000000
40
0.0000000000
40
0.0000000000
40
0.0000000000
40
1.0000000000
40
1.0000000000
40
1.0000000000
40
1.0000000000
10
150.1250861830
20
145.3638524068
30
0.0000000000
10
149.7160813755
20
145.5673502430
30
0.0000000000
10
149.2844677023
20
145.7273637140
30
0.0000000000
10
148.8409326136
20
145.8311100504
30
0.0000000000
11
150.1250861830
21
145.3638524068
31
0.0000000000
11
148.8409326136
21
145.8311100504
31
0.0000000000
0
SPLINE
5
401
100
AcDbEntity
8
0
100
AcDbSpline
62
7
6
BYLAYER
70
0
71
3
72
8
73
4
74
2
42
0.0000001000
43
0.0000001000
44
0.0000000001
40
0.0000000000
40
0.0000000000
40
0.0000000000
40
0.0000000000
40
1.0000000000
40
1.0000000000
40
1.0000000000
40
1.0000000000
10
90.0467569178
20
164.4369047819
30
0.0000000000
10
89.4744282847
20
163.9482852951
30
0.0000000000
10
88.9071489477
20
163.4538299694
30
0.0000000000
10
88.3415003888
20
162.9574836971
30
0.0000000000
11
90.0467569178
21
164.4369047819
31
0.0000000000
11
88.3415003888
21
162.9574836971
31
0.0000000000
0
SPLINE
5
402
100
AcDbEntity
8
0
100
AcDbSpline
62
7
6
BYLAYER
70
0
71
3
72
8
73
4
74
2
42
0.0000001000
43
0.0000001000
44
0.0000000001
40
0.0000000000
40
0.0000000000
40
0.0000000000
40
0.0000000000
40
1.0000000000
40
1.0000000000
40
1.0000000000
40
1.0000000000
10
88.3415003888
20
162.9574836971
30
0.0000000000
10
88.2680492725
20
162.8930316850
30
0.0000000000
10
88.1946256540
20
162.8285477881
30
0.0000000000
10
88.1212220483
20
162.7640406440
30
0.0000000000
11
88.3415003888
21
162.9574836971
31
0.0000000000
11
88.1212220483
21
162.7640406440
31
0.0000000000
0
SPLINE
5
403
100
AcDbEntity
8
0
100
AcDbSpline
62
7
6
BYLAYER
70
0
71
3
72
8
73
4
74
2
42
0.0000001000
43
0.0000001000
44
0.0000000001
40
0.0000000000
40
0.0000000000
40
0.0000000000
40
0.0000000000
40
1.0000000000
40
1.0000000000
40
1.0000000000
40
1.0000000000
10
88.1212220483
20
162.7640406440
30
0.0000000000
10
87.4962995394
20
162.2148582719
30
0.0000000000
10
86.8728275563
20
161.6639909463
30
0.0000000000
10
86.2461874036
20
161.1167685372
30
0.0000000000
11
88.1212220483
21
162.7640406440
31
0.0000000000
11
86.2461874036
21
161.1167685372
31
0.0000000000
0
SPLINE
5
404
100
AcDbEntity
8
0
100
AcDbSpline
62
7
6
BYLAYER
70
0
71
3
72
9
73
5
74
3
42
0.0000001000
43
0.0000001000
44
0.0000000001
40
0.0000000000
40
0.0000000000
40
0.0000000000
40
0.0000000000
40
0.4249319440
40
1.0000000000
40
1.0000000000
40
1.0000000000
40
1.0000000000
10
86.2461874036
20
161.1167685372
30
0.0000000000
10
86.0471222091
20
160.9429320301
30
0.0000000000
10
85.5779061099
20
160.5347050565
30
0.0000000000
10
85.1060994003
20
160.1294613963
30
0.0000000000
10
84.8335953105
20
159.8978152571
30
0.0000000000
11
86.2461874036
21
161.1167685372
31
0.0000000000
11
85.6478846115
21
160.5965333555
31
0.0000000000
11
84.8335953105
21
159.8978152571
31
0.0000000000
0
SPLINE
5
405
100
AcDbEntity
8
0
100
AcDbSpline
62
7
6
BYLAYER
70
0
71
3
72
8
73
4
74
2
42
0.0000001000
43
0.0000001000
44
0.0000000001
40
0.0000000000
40
0.0000000000
40
0.0000000000
40
0.0000000000
40
1.0000000000
40
1.0000000000
40
1.0000000000
40
1.0000000000
10
84.8335953105
20
159.8978152571
30
0.0000000000
10
84.7230782693
20
159.8038686087
30
0.0000000000
10
84.6123666284
20
159.7101516636
30
0.0000000000
10
84.5014386149
20
159.6166917684
30
0.0000000000
11
84.8335953105
21
159.8978152571
31
0.0000000000
11
84.5014386149
21
159.6166917684
31
0.0000000000
0
SPLINE
5
406
100
AcDbEntity
8
0
100
AcDbSpline
62
7
6
BYLAYER
70
0
71
3
72
9
73
5
74
3
42
0.0000001000
43
0.0000001000
44
0.0000000001
40
0.0000000000
40
0.0000000000
40
0.0000000000
40
0.0000000000
40
0.5022272306
40
1.0000000000
40
1.0000000000
40
1.0000000000
40
1.0000000000
10
142.1115429059
20
147.4051670885
30
0.0000000000
10
142.0673421573
20
147.4155059903
30
0.0000000000
10
141.9795575536
20
147.4370690312
30
0.0000000000
10
141.8922860837
20
147.4606152550
30
0.0000000000
10
141.8489857704
20
147.4728382255
30
0.0000000000
11
142.1115429059
21
147.4051670885
31
0.0000000000
11
141.9792959493
21
147.4376653055
31
0.0000000000
11
141.8489857704
21
147.4728382255
31
0.0000000000
0
SPLINE
5
407
100
AcDbEntity
8
0
100
AcDbSpline
62
7
6
BYLAYER
70
0
71
3
72
8
73
4
74
2
42
0.0000001000
43
0.0000001000
44
0.0000000001
40
0.0000000000
40
0.0000000000
40
0.0000000000
40
0.0000000000
40
1.0000000000
40
1.0000000000
40
1.0000000000
40
1.0000000000
10
141.8489857704
20
147.4728382255
30
0.0000000000
10
141.8060918688
20
147.4849464726
30
0.0000000000
10
141.7633363798
20
147.4975476363
30
0.0000000000
10
141.7207375209
20
147.5106520678
30
0.0000000000
11
141.8489857704
21
147.4728382255
31
0.0000000000
11
141.7207375209
21
147.5106520678
31
0.0000000000
0
SPLINE
5
408
100
AcDbEntity
8
0
100
AcDbSpline
62
7
6
BYLAYER
70
0
71
3
72
8
73
4
74
2
42
0.0000001000
43
0.0000001000
44
0.0000000001
40
0.0000000000
40
0.0000000000
40
0.0000000000
40
0.0000000000
40
1.0000000000
40
1.0000000000
40
1.0000000000
40
1.0000000000
10
108.8908162100
20
155.8977986207
30
0.0000000000
10
108.8557355654
20
155.8614418303
30
0.0000000000
10
108.8198627948
20
155.8257757532
30
0.0000000000
10
108.7832407453
20
155.7908210517
30
0.0000000000
11
108.8908162100
21
155.8977986207
31
0.0000000000
11
108.7832407453
21
155.7908210517
31
0.0000000000
0
SPLINE
5
409
100
AcDbEntity
8
0
100
AcDbSpline
62
7
6
BYLAYER
70
0
71
3
72
8
73
4
74
2
42
0.0000001000
43
0.0000001000
44
0.0000000001
40
0.0000000000
40
0.0000000000
40
0.0000000000
40
0.0000000000
40
1.0000000000
40
1.0000000000
40
1.0000000000
40
1.0000000000
10
108.7832407453
20
155.7908210517
30
0.0000000000
10
108.7601414861
20
155.7687734677
30
0.0000000000
10
108.7367441322
20
155.7470088989
30
0.0000000000
10
108.7130594355
20
155.7255325301
30
0.0000000000
11
108.7832407453
21
155.7908210517
31
0.0000000000
11
108.7130594355
21
155.7255325301
31
0.0000000000
0
SPLINE
5
40A
100
AcDbEntity
8
0
100
AcDbSpline
62
7
6
BYLAYER
70
0
71
3
72
8
73
4
74
2
42
0.0000001000
43
0.0000001000
44
0.0000000001
40
0.0000000000
40
0.0000000000
40
0.0000000000
40
0.0000000000
40
1.0000000000
40
1.0000000000
40
1.0000000000
40
1.0000000000
10
108.7130594355
20
155.7255325301
30
0.0000000000
10
108.3790428211
20
155.4226591567
30
0.0000000000
10
107.9878782444
20
155.1771042479
30
0.0000000000
10
107.5697227160
20
155.0034103337
30
0.0000000000
11
108.7130594355
21
155.7255325301
31
0.0000000000
11
107.5697227160
21
155.0034103337
31
0.0000000000
0
SPLINE
5
40B
100
AcDbEntity
8
0
100
AcDbSpline
62
7
6
BYLAYER
70
0
71
3
72
10
73
6
74
4
42
0.0000001000
43
0.0000001000
44
0.0000000001
40
0.0000000000
40
0.0000000000
40
0.0000000000
40
0.0000000000
40
0.3078321514
40
0.6415782944
40
1.0000000000
40
1.0000000000
40
1.0000000000
40
1.0000000000
10
107.5697227160
20
155.0034103337
30
0.0000000000
10
107.0482383644
20
154.7867955766
30
0.0000000000
10
105.8738794832
20
154.5682665083
30
0.0000000000
10
104.0458991083
20
154.8593219844
30
0.0000000000
10
102.8960354373
20
155.4099747207
30
0.0000000000
10
102.3455593558
20
155.7649071250
30
0.0000000000
11
107.5697227160
21
155.0034103337
31
0.0000000000
11
105.9216736107
21
154.6703898843
31
0.0000000000
11
104.1178365270
21
154.9333250294
31
0.0000000000
11
102.3455593558
21
155.7649071250
31
0.0000000000
0
SPLINE
5
40C
100
AcDbEntity
8
0
100
AcDbSpline
62
7
6
BYLAYER
70
0
71
3
72
8
73
4
74
2
42
0.0000001000
43
0.0000001000
44
0.0000000001
40
0.0000000000
40
0.0000000000
40
0.0000000000
40
0.0000000000
40
1.0000000000
40
1.0000000000
40
1.0000000000
40
1.0000000000
10
102.3455593558
20
155.7649071250
30
0.0000000000
10
101.8114423436
20
156.1092916346
30
0.0000000000
10
101.3196451575
20
156.5193804321
30
0.0000000000
10
100.8828918642
20
156.9783343902
30
0.0000000000
11
102.3455593558
21
155.7649071250
31
0.0000000000
11
100.8828918642
21
156.9783343902
31
0.0000000000
0
SPLINE
5
40D
100
AcDbEntity
8
0
100
AcDbSpline
62
7
6
BYLAYER
70
0
71
3
72
8
73
4
74
2
42
0.0000001000
43
0.0000001000
44
0.0000000001
40
0.0000000000
40
0.0000000000
40
0.0000000000
40
0.0000000000
40
1.0000000000
40
1.0000000000
40
1.0000000000
40
1.0000000000
10
100.8828918642
20
156.9783343902
30
0.0000000000
10
100.8512752361
20
157.0115581273
30
0.0000000000
10
100.8199470562
20
157.0450379341
30
0.0000000000
10
100.7889121514
20
157.0787674225
30
0.0000000000
11
100.8828918642
21
156.9783343902
31
0.0000000000
11
100.7889121514
21
157.0787674225
31
0.0000000000
0
SPLINE
5
40E
100
AcDbEntity
8
0
100
AcDbSpline
62
7
6
BYLAYER
70
0
71
3
72
8
73
4
74
2
42
0.0000001000
43
0.0000001000
44
0.0000000001
40
0.0000000000
40
0.0000000000
40
0.0000000000
40
0.0000000000
40
1.0000000000
40
1.0000000000
40
1.0000000000
40
1.0000000000
10
95.7544048444
20
161.6509992706
30
0.0000000000
10
95.4008489541
20
161.7597615485
30
0.0000000000
10
95.0315269734
20
161.8201293970
30
0.0000000000
10
94.6608890624
20
161.8399496357
30
0.0000000000
11
95.7544048444
21
161.6509992706
31
0.0000000000
11
94.6608890624
21
161.8399496357
31
0.0000000000
0
SPLINE
5
40F
100
AcDbEntity
8
0
100
AcDbSpline
62
7
6
BYLAYER
70
0
71
3
72
8
73
4
74
2
42
0.0000001000
43
0.0000001000
44
0.0000000001
40
0.0000000000
40
0.0000000000
40
0.0000000000
40
0.0000000000
40
1.0000000000
40
1.0000000000
40
1.0000000000
40
1.0000000000
10
94.6608890624
20
161.8399496357
30
0.0000000000
10
94.2742633564
20
161.8606248379
30
0.0000000000
10
93.8862057440
20
161.8371788691
30
0.0000000000
10
93.5053404508
20
161.7712494988
30
0.0000000000
11
94.6608890624
21
161.8399496357
31
0.0000000000
11
93.5053404508
21
161.7712494988
31
0.0000000000
0
SPLINE
5
410
100
AcDbEntity
8
0
100
AcDbSpline
62
7
6
BYLAYER
70
0
71
3
72
9
73
5
74
3
42
0.0000001000
43
0.0000001000
44
0.0000000001
40
0.0000000000
40
0.0000000000
40
0.0000000000
40
0.0000000000
40
0.5482592470
40
1.0000000000
40
1.0000000000
40
1.0000000000
40
1.0000000000
10
93.5053404508
20
161.7712494988
30
0.0000000000
10
93.1364007802
20
161.7073845035
30
0.0000000000
10
92.4757813519
20
161.5181864627
30
0.0000000000
10
91.8749866988
20
161.1740594976
30
0.0000000000
10
91.6346933924
20
160.9812247547
30
0.0000000000
11
93.5053404508
21
161.7712494988
31
0.0000000000
11
92.4300019812
21
161.4533555459
31
0.0000000000
11
91.6346933924
21
160.9812247547
31
0.0000000000
0
SPLINE
5
411
100
AcDbEntity
8
0
100
AcDbSpline
62
7
6
BYLAYER
70
0
71
3
72
8
73
4
74
2
42
0.0000001000
43
0.0000001000
44
0.0000000001
40
0.0000000000
40
0.0000000000
40
0.0000000000
40
0.0000000000
40
1.0000000000
40
1.0000000000
40
1.0000000000
40
1.0000000000
10
91.6346933924
20
160.9812247547
30
0.0000000000
10
91.6119253043
20
160.9629534242
30
0.0000000000
10
91.5894365166
20
160.9443465166
30
0.0000000000
10
91.5672431082
20
160.9253991300
30
0.0000000000
11
91.6346933924
21
160.9812247547
31
0.0000000000
11
91.5672431082
21
160.9253991300
31
0.0000000000
0
SPLINE
5
412
100
AcDbEntity
8
0
100
AcDbSpline
62
7
6
BYLAYER
70
0
71
3
72
8
73
4
74
2
42
0.0000001000
43
0.0000001000
44
0.0000000001
40
0.0000000000
40
0.0000000000
40
0.0000000000
40
0.0000000000
40
1.0000000000
40
1.0000000000
40
1.0000000000
40
1.0000000000
10
298.1024143670
20
214.9468906759
30
0.0000000000
10
295.7231698075
20
214.9468906759
30
0.0000000000
10
293.3439348392
20
214.9378092676
30
0.0000000000
10
290.9646903388
20
214.9351541105
30
0.0000000000
11
298.1024143670
21
214.9468906759
31
0.0000000000
11
290.9646903388
21
214.9351541105
31
0.0000000000
0
SPLINE
5
413
100
AcDbEntity
8
0
100
AcDbSpline
62
7
6
BYLAYER
70
0
71
3
72
11
73
7
74
5
42
0.0000001000
43
0.0000001000
44
0.0000000001
40
0.0000000000
40
0.0000000000
40
0.0000000000
40
0.0000000000
40
0.2498914973
40
0.4997901325
40
0.7498039169
40
1.0000000000
40
1.0000000000
40
1.0000000000
40
1.0000000000
10
305.7980680143
20
209.8580134589
30
0.0000000000
10
305.4812351988
20
210.6046447001
30
0.0000000000
10
304.6184681997
20
212.0100536377
30
0.0000000000
10
302.7848303772
20
213.6612674514
30
0.0000000000
10
300.5465951228
20
214.7022821488
30
0.0000000000
10
298.9144770922
20
214.9468906759
30
0.0000000000
10
298.1024143670
20
214.9468906759
30
0.0000000000
11
305.7980680143
21
209.8580134589
31
0.0000000000
11
304.5286169220
21
211.9338422365
31
0.0000000000
11
302.7178557300
21
213.5592816648
31
0.0000000000
11
300.5122768018
21
214.5897130267
31
0.0000000000
11
298.1024143670
21
214.9468906759
31
0.0000000000
0
SPLINE
5
414
100
AcDbEntity
8
0
100
AcDbSpline
62
7
6
BYLAYER
70
0
71
3
72
8
73
4
74
2
42
0.0000001000
43
0.0000001000
44
0.0000000001
40
0.0000000000
40
0.0000000000
40
0.0000000000
40
0.0000000000
40
1.0000000000
40
1.0000000000
40
1.0000000000
40
1.0000000000
10
313.9232189307
20
198.9253144879
30
0.0000000000
10
313.8163565869
20
198.9127595231
30
0.0000000000
10
313.7088713293
20
198.9042172614
30
0.0000000000
10
313.6010897447
20
198.8996362669
30
0.0000000000
11
313.9232189307
21
198.9253144879
31
0.0000000000
11
313.6010897447
21
198.8996362669
31
0.0000000000
0
SPLINE
5
415
100
AcDbEntity
8
0
100
AcDbSpline
62
7
6
BYLAYER
70
0
71
3
72
11
73
7
74
5
42
0.0000001000
43
0.0000001000
44
0.0000000001
40
0.0000000000
40
0.0000000000
40
0.0000000000
40
0.0000000000
40
0.2052692669
40
0.4702529366
40
0.7351101311
40
1.0000000000
40
1.0000000000
40
1.0000000000
40
1.0000000000
10
313.6010897447
20
198.8996362669
30
0.0000000000
10
313.2320214249
20
198.8839499141
30
0.0000000000
10
312.3785601618
20
198.9544199311
30
0.0000000000
10
311.1234817878
20
199.4286984342
30
0.0000000000
10
310.0048091292
20
200.3521146075
30
0.0000000000
10
309.4845452602
20
201.1706586554
30
0.0000000000
10
309.2988183798
20
201.6083326729
30
0.0000000000
11
313.6010897447
21
198.8996362669
31
0.0000000000
11
312.4965736966
21
198.9898533358
31
0.0000000000
11
311.1629859990
21
199.4972606203
31
0.0000000000
11
310.0612018080
21
200.4028250264
31
0.0000000000
11
309.2988183798
21
201.6083326729
31
0.0000000000
0
SPLINE
5
416
100
AcDbEntity
8
0
100
AcDbSpline
62
7
6
BYLAYER
70
0
71
3
72
8
73
4
74
2
42
0.0000001000
43
0.0000001000
44
0.0000000001
40
0.0000000000
40
0.0000000000
40
0.0000000000
40
0.0000000000
40
1.0000000000
40
1.0000000000
40
1.0000000000
40
1.0000000000
10
314.3206221115
20
195.5544352497
30
0.0000000000
10
314.2131048817
20
195.5418033441
30
0.0000000000
10
314.1052299673
20
195.5314755809
30
0.0000000000
10
313.9971043944
20
195.5234351039
30
0.0000000000
11
314.3206221115
21
195.5544352497
31
0.0000000000
11
313.9971043944
21
195.5234351039
31
0.0000000000
0
SPLINE
5
417
100
AcDbEntity
8
0
100
AcDbSpline
62
7
6
BYLAYER
70
0
71
3
72
11
73
7
74
5
42
0.0000001000
43
0.0000001000
44
0.0000000001
40
0.0000000000
40
0.0000000000
40
0.0000000000
40
0.0000000000
40
0.2252077995
40
0.4835434496
40
0.7417557974
40
1.0000000000
40
1.0000000000
40
1.0000000000
40
1.0000000000
10
313.9971043944
20
195.5234351039
30
0.0000000000
10
313.2670319039
20
195.4691451616
30
0.0000000000
10
311.6749576294
20
195.5764759886
30
0.0000000000
10
309.3848883404
20
196.4418646820
30
0.0000000000
10
307.4127494795
20
198.0697805037
30
0.0000000000
10
306.4955619661
20
199.5128143651
30
0.0000000000
10
306.1681389300
20
200.2844019530
30
0.0000000000
11
313.9971043944
21
195.5234351039
31
0.0000000000
11
311.8055499095
21
195.6682125634
31
0.0000000000
11
309.4545314030
21
196.5627348496
31
0.0000000000
11
307.5121656872
21
198.1591792988
31
0.0000000000
11
306.1681389300
21
200.2844019530
31
0.0000000000
0
SPLINE
5
418
100
AcDbEntity
8
0
100
AcDbSpline
62
7
6
BYLAYER
70
0
71
3
72
8
73
4
74
2
42
0.0000001000
43
0.0000001000
44
0.0000000001
40
0.0000000000
40
0.0000000000
40
0.0000000000
40
0.0000000000
40
1.0000000000
40
1.0000000000
40
1.0000000000
40
1.0000000000
10
298.1024143670
20
211.5527468129
30
0.0000000000
10
295.7203344293
20
211.5527468129
30
0.0000000000
10
293.3382748243
20
211.5384393921
30
0.0000000000
10
290.9561962227
20
211.5351487490
30
0.0000000000
11
298.1024143670
21
211.5527468129
31
0.0000000000
11
290.9561962227
21
211.5351487490
31
0.0000000000
0
SPLINE
5
419
100
AcDbEntity
8
0
100
AcDbSpline
62
7
6
BYLAYER
70
0
71
3
72
8
73
4
74
2
42
0.0000001000
43
0.0000001000
44
0.0000000001
40
0.0000000000
40
0.0000000000
40
0.0000000000
40
0.0000000000
40
1.0000000000
40
1.0000000000
40
1.0000000000
40
1.0000000000
10
314.3206221115
20
195.5397684934
30
0.0000000000
10
314.2832433712
20
195.5353769673
30
0.0000000000
10
314.2458214000
20
195.5312639267
30
0.0000000000
10
314.2083606951
20
195.5274286632
30
0.0000000000
11
314.3206221115
21
195.5397684934
31
0.0000000000
11
314.2083606951
21
195.5274286632
31
0.0000000000
0
SPLINE
5
41A
100
AcDbEntity
8
0
100
AcDbSpline
62
7
6
BYLAYER
70
0
71
3
72
8
73
4
74
2
42
0.0000001000
43
0.0000001000
44
0.0000000001
40
0.0000000000
40
0.0000000000
40
0.0000000000
40
0.0000000000
40
1.0000000000
40
1.0000000000
40
1.0000000000
40
1.0000000000
10
314.2083606951
20
195.5274286632
30
0.0000000000
10
314.1380122217
20
195.5202263180
30
0.0000000000
10
314.0675271495
20
195.5140035846
30
0.0000000000
10
313.9969352613
20
195.5087557723
30
0.0000000000
11
314.2083606951
21
195.5274286632
31
0.0000000000
11
313.9969352613
21
195.5087557723
31
0.0000000000
0
SPLINE
5
41B
100
AcDbEntity
8
0
100
AcDbSpline
62
7
6
BYLAYER
70
0
71
3
72
11
73
7
74
5
42
0.0000001000
43
0.0000001000
44
0.0000000001
40
0.0000000000
40
0.0000000000
40
0.0000000000
40
0.0000000000
40
0.2251943248
40
0.4835344677
40
0.7417513062
40
1.0000000000
40
1.0000000000
40
1.0000000000
40
1.0000000000
10
313.9969352613
20
195.5087557723
30
0.0000000000
10
313.2669173838
20
195.4544861264
30
0.0000000000
10
311.6749039371
20
195.5618295220
30
0.0000000000
10
309.3848883404
20
196.4271979257
30
0.0000000000
10
307.4127494795
20
198.0551137474
30
0.0000000000
10
306.4955619661
20
199.4981476088
30
0.0000000000
10
306.1681389300
20
200.2697351967
30
0.0000000000
11
313.9969352613
21
195.5087557723
31
0.0000000000
11
311.8055499095
21
195.6535458071
31
0.0000000000
11
309.4545314030
21
196.5480680933
31
0.0000000000
11
307.5121656872
21
198.1445125425
31
0.0000000000
11
306.1681389300
21
200.2697351967
31
0.0000000000
0
SPLINE
5
41C
100
AcDbEntity
8
0
100
AcDbSpline
62
7
6
BYLAYER
70
0
71
3
72
9
73
5
74
3
42
0.0000001000
43
0.0000001000
44
0.0000000001
40
0.0000000000
40
0.0000000000
40
0.0000000000
40
0.0000000000
40
0.4997809769
40
1.0000000000
40
1.0000000000
40
1.0000000000
40
1.0000000000
10
302.6673885645
20
208.5194159828
30
0.0000000000
10
302.2954558940
20
209.3958925906
30
0.0000000000
10
301.0036484009
20
210.9638845023
30
0.0000000000
10
299.0553755324
20
211.5380800566
30
0.0000000000
10
298.1024143670
20
211.5380800566
30
0.0000000000
11
302.6673885645
21
208.5194159828
31
0.0000000000
11
300.8402416781
21
210.7149661767
31
0.0000000000
11
298.1024143670
21
211.5380800566
31
0.0000000000
0
SPLINE
5
41D
100
AcDbEntity
8
0
100
AcDbSpline
62
7
6
BYLAYER
70
0
71
3
72
8
73
4
74
2
42
0.0000001000
43
0.0000001000
44
0.0000000001
40
0.0000000000
40
0.0000000000
40
0.0000000000
40
0.0000000000
40
1.0000000000
40
1.0000000000
40
1.0000000000
40
1.0000000000
10
298.1024143670
20
211.5380800566
30
0.0000000000
10
295.7217552844
20
211.5380800566
30
0.0000000000
10
293.3410967364
20
211.5354721199
30
0.0000000000
10
290.9604377195
20
211.5351519578
30
0.0000000000
11
298.1024143670
21
211.5380800566
31
0.0000000000
11
290.9604377195
21
211.5351519578
31
0.0000000000
0
ENDSEC
0
SECTION
2
OBJECTS
0
DICTIONARY
5
41E
100
AcDbDictionary
3
ACAD_GROUP
350
41F
3
ACAD_MLINESTYLE
350
420
0
DICTIONARY
5
41F
102
{ACAD_REACTORS
330
41E
102
}
100
AcDbDictionary
0
DICTIONARY
5
420
102
{ACAD_REACTORS
330
41E
102
}
100
AcDbDictionary
3
STANDARD
350
421
0
MLINESTYLE
5
421
102
{ACAD_REACTORS
330
420
102
}
100
AcDbMlineStyle
2
STANDARD
70
0
3

62
256
51
90.0
52
90.0
71
2
49
0.5
62
256
6
BYLAYER
49
-0.5
62
256
6
BYLAYER
0
ENDSEC
0
EOF
