999
DXF file: td-1002-941.dxf
999
Pro/ENGINEER 2003060 by Parametric Technology Corporation
0
SECTION
2
HEADER
9
$ACADVER
1
AC1014
9
$HANDSEED
5
       501
9
$EXTMAX
10
420.0000000000
20
297.0000000000
9
$EXTMIN
10
0.0000000000
20
0.0000000000
9
$LIMMIN
10
0.0000000000
20
0.0000000000
9
$LIMMAX
10
420.0000000000
20
297.0000000000
9
$VIEWCTR
10
210.0000000000
20
148.5000000000
9
$VIEWSIZE
40
297.0000000000
9
$CLAYER
8
0
9
$LTSCALE
40
23.1000000000
9
$CELTYPE
6
BYLAYER
9
$DIMSCALE
40
1
9
$DIMASZ
40
5.0000000000
9
$DIMEXO
40
2.6250000000
9
$DIMDLI
40
15.9600000000
9
$DIMEXE
40
7.5600000000
9
$DIMCEN
40
3.7800000000
9
$DIMLFAC
40
1.0000000000
9
$DIMTXT
40
4.0000000000
9
$DIMTOL
70
1
9
$DIMLIM
70
0
9
$DIMTFAC
40
1.0000000000
9
$DIMTP
40
0.0100000000
9
$DIMTM
40
0.0100000000
0
ENDSEC
0
SECTION
2
CLASSES
0
ENDSEC
0
SECTION
2
TABLES
0
TABLE
2
VPORT
5
8
100
AcDbSymbolTable
70
2
0
VPORT
5
1F4
100
AcDbSymbolTableRecord
100
AcDbViewportTableRecord
2
*ACTIVE
70
0
10
0.0
20
0.0
11
1.0
21
1.0
12
210.0000000000
22
148.5000000000
13
0.0
23
0.0
14
1.0
24
1.0
15
0.0
25
0.0
16
0.0
26
0.0
36
1.0
17
0.0
27
0.0
37
0.0
40
297.0000000000
41
1.4141414141
42
50.0
43
0.0
44
0.0
50
0.0
51
0.0
71
0
72
100
73
1
74
1
75
0
76
0
77
0
78
0
0
ENDTAB
0
TABLE
2
LTYPE
5
5
100
AcDbSymbolTable
70
6
0
LTYPE
5
14
100
AcDbSymbolTableRecord
100
AcDbLinetypeTableRecord
2
BYBLOCK
70
0
3

72
65
73
0
40
0.0
0
LTYPE
5
15
100
AcDbSymbolTableRecord
100
AcDbLinetypeTableRecord
2
BYLAYER
70
0
3

72
65
73
0
40
0.0
0
LTYPE
5
16
100
AcDbSymbolTableRecord
100
AcDbLinetypeTableRecord
2
CONTINUOUS
70
64
3
Solid line
72
65
73
0
40
0
0
LTYPE
5
1F5
100
AcDbSymbolTableRecord
100
AcDbLinetypeTableRecord
2
CENTER
70
64
3
____ _ ____ _ ____ _ ____ _ ____ _ ____ _ ____
72
65
73
4
40
0.6
49
0.375
74
0
49
-0.075
74
0
49
0.075
74
0
49
-0.075
74
0
0
LTYPE
5
1F6
100
AcDbSymbolTableRecord
100
AcDbLinetypeTableRecord
2
HIDDEN
70
64
3
- - - - - - - - - - - - - - - - - - - -
72
65
73
2
40
0.2
49
0.1
74
0
49
-0.1
74
0
0
LTYPE
5
1F7
100
AcDbSymbolTableRecord
100
AcDbLinetypeTableRecord
2
PHANTOM
70
64
3
_____ _ _ _____ _ _ _____ _ _ _____
72
65
73
6
40
0.8
49
0.45
74
0
49
-0.05
74
0
49
0.1
74
0
49
-0.05
74
0
49
0.1
74
0
49
-0.05
74
0
0
LTYPE
5
1F8
100
AcDbSymbolTableRecord
100
AcDbLinetypeTableRecord
2
DOT
70
64
3
. . . . . . . . . . . . . . . . . . . .
72
65
73
2
40
0.2
49
0.1
74
0
49
-0.1
74
0
0
LTYPE
5
1F9
100
AcDbSymbolTableRecord
100
AcDbLinetypeTableRecord
2
DASHED
70
64
3
- - - - - - - - - - - - - - - - - - - -
72
65
73
2
40
0.2
49
0.1
74
0
49
-0.1
74
0
0
ENDTAB
0
TABLE
2
LAYER
5
2
100
AcDbSymbolTable
70
36
0
LAYER
5
10
100
AcDbSymbolTableRecord
100
AcDbLayerTableRecord
2
0
70
0
62
7
6
CONTINUOUS
0
LAYER
5
1FA
100
AcDbSymbolTableRecord
100
AcDbLayerTableRecord
2
DEFAULT_1
70
0
62
7
6
CENTER
0
LAYER
5
1FB
100
AcDbSymbolTableRecord
100
AcDbLayerTableRecord
2
DEFAULT_2
70
0
62
7
6
HIDDEN
0
LAYER
5
1FC
100
AcDbSymbolTableRecord
100
AcDbLayerTableRecord
2
DEFAULT_3
70
0
62
7
6
PHANTOM
0
LAYER
5
1FD
100
AcDbSymbolTableRecord
100
AcDbLayerTableRecord
2
AXIS
70
0
62
7
6
CONTINUOUS
0
LAYER
5
1FE
100
AcDbSymbolTableRecord
100
AcDbLayerTableRecord
2
CSYS
70
0
62
7
6
CONTINUOUS
0
LAYER
5
1FF
100
AcDbSymbolTableRecord
100
AcDbLayerTableRecord
2
CURVES
70
0
62
7
6
CONTINUOUS
0
LAYER
5
200
100
AcDbSymbolTableRecord
100
AcDbLayerTableRecord
2
DTMS
70
0
62
7
6
CONTINUOUS
0
LAYER
5
201
100
AcDbSymbolTableRecord
100
AcDbLayerTableRecord
2
GEOM
70
0
62
7
6
CONTINUOUS
0
LAYER
5
202
100
AcDbSymbolTableRecord
100
AcDbLayerTableRecord
2
PLANES
70
0
62
7
6
CONTINUOUS
0
LAYER
5
203
100
AcDbSymbolTableRecord
100
AcDbLayerTableRecord
2
POINTS
70
0
62
7
6
CONTINUOUS
0
LAYER
5
204
100
AcDbSymbolTableRecord
100
AcDbLayerTableRecord
2
SKELETON
70
0
62
7
6
CONTINUOUS
0
ENDTAB
0
TABLE
2
STYLE
5
3
100
AcDbSymbolTable
70
1
0
STYLE
5
11
100
AcDbSymbolTableRecord
100
AcDbTextStyleTableRecord
2
STANDARD
70
0
40
0.0
41
0.8000000000
50
0.0
71
0
42
0.2
3
txt
4

0
STYLE
5
205
100
AcDbSymbolTableRecord
100
AcDbTextStyleTableRecord
2
TEXTSTYLE_1
70
0
40
0.0
41
0.8000000000
50
0.0
71
0
42
0.2
3
txt
4

0
STYLE
5
206
100
AcDbSymbolTableRecord
100
AcDbTextStyleTableRecord
2
TEXTSTYLE_2
70
0
40
0.0
41
0.8000000000
50
0.0
71
0
42
0.2
3
cgtime.ttf
4

0
ENDTAB
0
TABLE
2
VIEW
5
6
100
AcDbSymbolTable
70
0
0
ENDTAB
0
TABLE
2
UCS
5
7
100
AcDbSymbolTable
70
0
0
ENDTAB
0
TABLE
2
APPID
5
9
100
AcDbSymbolTable
70
1
0
APPID
5
207
100
AcDbSymbolTableRecord
100
AcDbRegAppTableRecord
2
ACAD
70
0
0
ENDTAB
0
TABLE
2
DIMSTYLE
5
A
100
AcDbSymbolTable
70
1
0
DIMSTYLE
105
208
100
AcDbSymbolTableRecord
100
AcDbDimStyleTableRecord
2
STANDARD
70
0
3

4

5

6

7

40
1.0
41
5.0000000000
42
0.0625
43
0.38
44
0.18
45
0.0
46
0.0
47
0.0100000000
48
0.0100000000
140
4.0000000000
141
0.09
142
0.0
143
25.4
144
1.0000000000
145
0.0
146
1.0000000000
147
0.09
71
1
72
0
73
0
74
0
75
0
76
0
77
1
78
0
170
0
171
2
172
0
173
0
174
0
175
0
176
0
177
0
178
0
270
2
271
2
272
2
273
2
274
2
340
11
275
0
280
0
281
0
282
0
283
1
284
0
285
0
286
0
287
3
288
0
0
DIMSTYLE
105
209
100
AcDbSymbolTableRecord
100
AcDbDimStyleTableRecord
2
DIMSTYLE_1
70
0
3

4

5

6

7

40
1.0
41
5.0000000000
42
0.0625
43
0.38
44
0.18
45
0.0
46
0.0
47
0.2000000000
48
0.2000000000
140
4.0000000000
141
0.09
142
0.0
143
25.4
144
1.0000000000
145
0.0
146
1.0000000000
147
0.09
71
0
72
0
73
0
74
0
75
0
76
0
77
1
78
0
170
0
171
2
172
0
173
0
174
0
175
0
176
0
177
0
178
0
270
2
271
2
272
2
273
2
274
2
340
11
275
0
280
0
281
0
282
0
283
1
284
0
285
0
286
0
287
3
288
0
0
DIMSTYLE
105
20A
100
AcDbSymbolTableRecord
100
AcDbDimStyleTableRecord
2
DIMSTYLE_2
70
0
3

4

5

6

7

40
1.0
41
5.0000000000
42
0.0625
43
0.38
44
0.18
45
0.0
46
0.0
47
0.3000000000
48
0.3000000000
140
4.0000000000
141
0.09
142
0.0
143
25.4
144
1.0000000000
145
0.0
146
1.0000000000
147
0.09
71
0
72
0
73
0
74
0
75
0
76
0
77
1
78
0
170
0
171
2
172
0
173
0
174
0
175
0
176
0
177
0
178
0
270
2
271
2
272
2
273
2
274
2
340
11
275
0
280
0
281
0
282
0
283
1
284
0
285
0
286
0
287
3
288
0
0
DIMSTYLE
105
20B
100
AcDbSymbolTableRecord
100
AcDbDimStyleTableRecord
2
DIMSTYLE_3
70
0
3

4

5

6

7

40
1.0
41
5.0000000000
42
0.0625
43
0.38
44
0.18
45
0.0
46
0.0
47
0.5000000000
48
0.5000000000
140
4.0000000000
141
0.09
142
0.0
143
25.4
144
1.0000000000
145
0.0
146
1.0000000000
147
0.09
71
0
72
0
73
0
74
0
75
0
76
0
77
1
78
0
170
0
171
2
172
0
173
0
174
0
175
0
176
0
177
0
178
0
270
2
271
1
272
1
273
2
274
2
340
11
275
0
280
0
281
0
282
0
283
1
284
0
285
0
286
0
287
3
288
0
0
ENDTAB
0
TABLE
2
BLOCK_RECORD
5
1
100
AcDbSymbolTable
70
0
0
BLOCK_RECORD
5
1B
100
AcDbSymbolTableRecord
100
AcDbBlockTableRecord
2
*MODEL_SPACE
0
BLOCK_RECORD
5
1C
100
AcDbSymbolTableRecord
100
AcDbBlockTableRecord
2
*PAPER_SPACE
0
BLOCK_RECORD
5
20C
100
AcDbSymbolTableRecord
100
AcDbBlockTableRecord
2
COPYRIGHT_BL0
0
BLOCK_RECORD
5
20D
100
AcDbSymbolTableRecord
100
AcDbBlockTableRecord
2
MICRO_U_BL1
0
BLOCK_RECORD
5
20E
100
AcDbSymbolTableRecord
100
AcDbBlockTableRecord
2
PROJECTION_BL2
0
BLOCK_RECORD
5
20F
100
AcDbSymbolTableRecord
100
AcDbBlockTableRecord
2
SURFACE_FINISH_BL3
0
BLOCK_RECORD
5
210
100
AcDbSymbolTableRecord
100
AcDbBlockTableRecord
2
*D0
0
BLOCK_RECORD
5
211
100
AcDbSymbolTableRecord
100
AcDbBlockTableRecord
2
*D1
0
BLOCK_RECORD
5
212
100
AcDbSymbolTableRecord
100
AcDbBlockTableRecord
2
*D2
0
BLOCK_RECORD
5
213
100
AcDbSymbolTableRecord
100
AcDbBlockTableRecord
2
*D3
0
BLOCK_RECORD
5
214
100
AcDbSymbolTableRecord
100
AcDbBlockTableRecord
2
*D4
0
BLOCK_RECORD
5
215
100
AcDbSymbolTableRecord
100
AcDbBlockTableRecord
2
*D5
0
BLOCK_RECORD
5
216
100
AcDbSymbolTableRecord
100
AcDbBlockTableRecord
2
*D6
0
BLOCK_RECORD
5
217
100
AcDbSymbolTableRecord
100
AcDbBlockTableRecord
2
*D7
0
BLOCK_RECORD
5
218
100
AcDbSymbolTableRecord
100
AcDbBlockTableRecord
2
*D8
0
BLOCK_RECORD
5
219
100
AcDbSymbolTableRecord
100
AcDbBlockTableRecord
2
*D9
0
BLOCK_RECORD
5
21A
100
AcDbSymbolTableRecord
100
AcDbBlockTableRecord
2
COPYRIGHT_BL4
0
BLOCK_RECORD
5
21B
100
AcDbSymbolTableRecord
100
AcDbBlockTableRecord
2
MICRO_U_BL5
0
BLOCK_RECORD
5
21C
100
AcDbSymbolTableRecord
100
AcDbBlockTableRecord
2
SURFACE_FINISH_BL6
0
BLOCK_RECORD
5
21D
100
AcDbSymbolTableRecord
100
AcDbBlockTableRecord
2
PROJECTION_BL7
0
ENDTAB
0
ENDSEC
0
SECTION
2
BLOCKS
0
BLOCK
5
1E
100
AcDbEntity
8
0
100
AcDbBlockBegin
2
*MODEL_SPACE
70
0
10
0.0
20
0.0
30
0.0
3
*MODEL_SPACE
1

0
ENDBLK
5
1F
100
AcDbEntity
8
0
100
AcDbBlockEnd
0
BLOCK
5
20
100
AcDbEntity
8
0
100
AcDbBlockBegin
2
*PAPER_SPACE
70
0
10
0.0
20
0.0
30
0.0
3
*PAPER_SPACE
1

0
ENDBLK
5
21
100
AcDbEntity
8
0
100
AcDbBlockEnd
0
BLOCK
5
21E
100
AcDbEntity
8
0
100
AcDbBlockBegin
62
7
6
BYLAYER
2
COPYRIGHT_BL0
70
64
10
0.0000000000
20
0.0000000000
3
COPYRIGHT_BL0
1

0
TEXT
5
21F
100
AcDbEntity
8
0
100
AcDbText
62
7
6
BYLAYER
10
409.9593803245
20
9.9568590072
7
TEXTSTYLE_1
40
0.1000000000
1
C
41
0.8000000000
72
0
100
AcDbText
0
CIRCLE
5
220
100
AcDbEntity
8
0
100
AcDbCircle
62
7
6
BYLAYER
10
409.9943527832
20
10.0069663115
40
0.0753936874
0
ENDBLK
5
221
100
AcDbEntity
8
0
100
AcDbBlockEnd
0
BLOCK
5
222
100
AcDbEntity
8
0
100
AcDbBlockBegin
62
7
6
BYLAYER
2
MICRO_U_BL1
70
64
10
0.0000000000
20
0.0000000000
3
MICRO_U_BL1
1

0
TEXT
5
223
100
AcDbEntity
8
0
100
AcDbText
62
7
6
BYLAYER
10
409.9173172813
20
9.9658183152
7
STANDARD
40
0.1000000000
1
um
41
0.8000000000
72
0
100
AcDbText
0
ARC
5
224
100
AcDbEntity
8
0
100
AcDbCircle
62
7
6
BYLAYER
10
409.8795565990
20
9.9804558390
40
0.0627552936
100
AcDbArc
50
303.7730668774
51
1.5957171757
0
ENDBLK
5
225
100
AcDbEntity
8
0
100
AcDbBlockEnd
0
BLOCK
5
226
100
AcDbEntity
8
0
100
AcDbBlockBegin
62
7
6
BYLAYER
2
PROJECTION_BL2
70
64
10
0.0000000000
20
0.0000000000
3
PROJECTION_BL2
1

0
LINE
5
227
100
AcDbEntity
8
0
100
AcDbLine
62
7
6
BYLAYER
10
409.6178469936
20
9.9332236616
11
409.6178469936
21
10.0582236616
0
LINE
5
228
100
AcDbEntity
8
0
100
AcDbLine
62
7
6
BYLAYER
10
409.6178469936
20
10.0582236616
11
409.7928469936
21
10.1207236616
0
LINE
5
229
100
AcDbEntity
8
0
100
AcDbLine
62
7
6
BYLAYER
10
409.7928469936
20
10.1207236616
11
409.7928469936
21
9.8707236616
0
LINE
5
22A
100
AcDbEntity
8
0
100
AcDbLine
62
7
6
BYLAYER
10
409.7928469936
20
9.8707236616
11
409.6178469936
21
9.9332236616
0
ARC
5
22B
100
AcDbEntity
8
0
100
AcDbCircle
62
7
6
BYLAYER
10
409.2678469936
20
9.9957236616
40
0.0625000000
100
AcDbArc
50
180.0000000000
51
360.0000000000
0
ARC
5
22C
100
AcDbEntity
8
0
100
AcDbCircle
62
7
6
BYLAYER
10
409.2678469936
20
9.9957236616
40
0.0625000000
100
AcDbArc
50
0.0000000000
51
180.0000000000
0
ARC
5
22D
100
AcDbEntity
8
0
100
AcDbCircle
62
7
6
BYLAYER
10
409.2678469936
20
9.9957236616
40
0.1250000000
100
AcDbArc
50
180.0000000000
51
360.0000000000
0
ARC
5
22E
100
AcDbEntity
8
0
100
AcDbCircle
62
7
6
BYLAYER
10
409.2678469936
20
9.9957236616
40
0.1250000000
100
AcDbArc
50
0.0000000000
51
180.0000000000
0
LINE
5
22F
100
AcDbEntity
8
0
100
AcDbLine
62
7
6
BYLAYER
10
409.0671219936
20
9.9957236616
11
409.4456219936
21
9.9957236616
0
LINE
5
230
100
AcDbEntity
8
0
100
AcDbLine
62
7
6
BYLAYER
10
409.5241469936
20
9.9957236616
11
409.8669219936
21
9.9957236616
0
LINE
5
231
100
AcDbEntity
8
0
100
AcDbLine
62
7
6
BYLAYER
10
409.2678469936
20
10.1398736616
11
409.2678469936
21
9.8515736616
0
TEXT
5
232
100
AcDbEntity
8
0
100
AcDbText
62
7
6
BYLAYER
10
409.2283663134
20
9.9568432128
7
STANDARD
40
0.1000000000
1
l
41
0.8000000000
72
0
100
AcDbText
0
ENDBLK
5
233
100
AcDbEntity
8
0
100
AcDbBlockEnd
0
BLOCK
5
234
100
AcDbEntity
8
0
100
AcDbBlockBegin
62
7
6
BYLAYER
2
SURFACE_FINISH_BL3
70
64
10
0.0000000000
20
0.0000000000
3
SURFACE_FINISH_BL3
1

0
LINE
5
235
100
AcDbEntity
8
0
100
AcDbLine
62
7
6
BYLAYER
10
409.9768652881
20
9.9666906703
11
410.0571314064
21
10.1057156653
0
LINE
5
236
100
AcDbEntity
8
0
100
AcDbLine
62
7
6
BYLAYER
10
409.9768652881
20
9.9666906703
11
409.9405459599
21
10.0295975921
0
LINE
5
237
100
AcDbEntity
8
0
100
AcDbLine
62
7
6
BYLAYER
10
409.9405459599
20
10.0295975921
11
410.0131846164
21
10.0295975921
0
TEXT
5
238
100
AcDbEntity
8
0
100
AcDbText
62
7
6
BYLAYER
10
409.9369531437
20
9.9795701528
7
STANDARD
40
0.1000000000
1
-
41
0.8000000000
72
0
100
AcDbText
0
ENDBLK
5
239
100
AcDbEntity
8
0
100
AcDbBlockEnd
0
BLOCK
5
23A
100
AcDbEntity
8
0
100
AcDbBlockBegin
62
7
6
BYLAYER
2
*D0
70
65
10
0.0000000000
20
0.0000000000
3
*D0
1

0
TEXT
5
23B
100
AcDbEntity
8
0
100
AcDbText
62
7
6
BYLAYER
10
96.9098935072
20
84.8873452361
7
STANDARD
40
4.0000000000
1
27.80
50
90.0000000000
41
0.8000000000
72
0
100
AcDbText
0
LINE
5
23C
100
AcDbEntity
8
0
100
AcDbLine
62
7
6
BYLAYER
10
109.0951289521
20
106.6147955425
11
94.9098935072
21
106.6147955425
0
LINE
5
23D
100
AcDbEntity
8
0
100
AcDbLine
62
7
6
BYLAYER
10
109.0951289521
20
78.8147955425
11
94.9098935072
21
78.8147955425
0
LINE
5
23E
100
AcDbEntity
8
0
100
AcDbLine
62
7
6
BYLAYER
10
97.9098935072
20
106.6147955425
11
97.9098935072
21
92.7147955425
0
LINE
5
23F
100
AcDbEntity
8
0
100
AcDbLine
62
7
6
BYLAYER
10
97.9098935072
20
78.8147955425
11
97.9098935072
21
92.7147955425
0
SOLID
5
240
100
AcDbEntity
8
0
100
AcDbTrace
62
7
6
BYLAYER
10
98.7098935072
20
101.6147955425
11
97.9098935072
21
106.6147955425
12
97.1098935072
22
101.6147955425
13
97.1098935072
23
101.6147955425
0
SOLID
5
241
100
AcDbEntity
8
0
100
AcDbTrace
62
7
6
BYLAYER
10
97.1098935072
20
83.8147955425
11
97.9098935072
21
78.8147955425
12
98.7098935072
22
83.8147955425
13
98.7098935072
23
83.8147955425
0
ENDBLK
5
242
100
AcDbEntity
8
0
100
AcDbBlockEnd
0
BLOCK
5
243
100
AcDbEntity
8
0
100
AcDbBlockBegin
62
7
6
BYLAYER
2
*D1
70
65
10
0.0000000000
20
0.0000000000
3
*D1
1

0
TEXT
5
244
100
AcDbEntity
8
0
100
AcDbText
62
7
6
BYLAYER
10
123.8237043447
20
118.5198766831
7
STANDARD
40
4.0000000000
1
40.00
41
0.8000000000
72
0
100
AcDbText
0
LINE
5
245
100
AcDbEntity
8
0
100
AcDbLine
62
7
6
BYLAYER
10
151.0951289521
20
108.6147955425
11
151.0951289521
21
120.5198766831
0
LINE
5
246
100
AcDbEntity
8
0
100
AcDbLine
62
7
6
BYLAYER
10
111.0951289521
20
108.6147955425
11
111.0951289521
21
120.5198766831
0
LINE
5
247
100
AcDbEntity
8
0
100
AcDbLine
62
7
6
BYLAYER
10
151.0951289521
20
117.5198766831
11
131.0951289521
21
117.5198766831
0
LINE
5
248
100
AcDbEntity
8
0
100
AcDbLine
62
7
6
BYLAYER
10
111.0951289521
20
117.5198766831
11
131.0951289521
21
117.5198766831
0
SOLID
5
249
100
AcDbEntity
8
0
100
AcDbTrace
62
7
6
BYLAYER
10
146.0951289521
20
116.7198766831
11
151.0951289521
21
117.5198766831
12
146.0951289521
22
118.3198766831
13
146.0951289521
23
118.3198766831
0
SOLID
5
24A
100
AcDbEntity
8
0
100
AcDbTrace
62
7
6
BYLAYER
10
116.0951289521
20
118.3198766831
11
111.0951289521
21
117.5198766831
12
116.0951289521
22
116.7198766831
13
116.0951289521
23
116.7198766831
0
ENDBLK
5
24B
100
AcDbEntity
8
0
100
AcDbBlockEnd
0
BLOCK
5
24C
100
AcDbEntity
8
0
100
AcDbBlockBegin
62
7
6
BYLAYER
2
*D2
70
65
10
0.0000000000
20
0.0000000000
3
*D2
1

0
TEXT
5
24D
100
AcDbEntity
8
0
100
AcDbText
62
7
6
BYLAYER
10
171.3798753758
20
109.9306324142
7
STANDARD
40
4.0000000000
1
86.3%%d
50
36.9329317441
41
0.7733333333
72
0
100
AcDbText
0
LINE
5
24E
100
AcDbEntity
8
0
100
AcDbLine
62
7
6
BYLAYER
10
188.9025688754
20
104.5243453509
11
188.1934229354
21
115.4495873027
0
LINE
5
24F
100
AcDbEntity
8
0
100
AcDbLine
62
7
6
BYLAYER
10
183.7390439988
20
99.0147955425
11
172.7908112797
21
99.0147955425
0
ARC
5
250
100
AcDbEntity
8
0
100
AcDbCircle
62
7
6
BYLAYER
10
189.2601879464
20
99.0147955425
40
13.4693766667
100
AcDbArc
50
93.7137988823
51
136.8568994412
0
ARC
5
251
100
AcDbEntity
8
0
100
AcDbCircle
62
7
6
BYLAYER
10
189.2601879464
20
99.0147955425
40
13.4693766667
100
AcDbArc
50
136.8568994412
51
180.0000000000
0
SOLID
5
252
100
AcDbEntity
8
0
100
AcDbTrace
62
7
6
BYLAYER
10
188.3877408563
20
112.4558871598
11
183.7419559509
21
110.4417663560
12
183.3454519824
22
111.9918581607
13
183.3454519824
23
111.9918581607
0
SOLID
5
253
100
AcDbEntity
8
0
100
AcDbTrace
62
7
6
BYLAYER
10
175.7908112797
20
99.0147955425
11
175.9272634765
21
104.0765522335
12
177.4997827712
22
103.7812844433
13
177.4997827712
23
103.7812844433
0
ENDBLK
5
254
100
AcDbEntity
8
0
100
AcDbBlockEnd
0
BLOCK
5
255
100
AcDbEntity
8
0
100
AcDbBlockBegin
62
7
6
BYLAYER
2
*D3
70
65
10
0.0000000000
20
0.0000000000
3
*D3
1

0
TEXT
5
256
100
AcDbEntity
8
0
100
AcDbText
62
7
6
BYLAYER
10
216.2263368736
20
103.2504877781
7
STANDARD
40
4.0000000000
1
40.6%%d
50
-68.8459783018
41
0.7733333333
72
0
100
AcDbText
0
LINE
5
257
100
AcDbEntity
8
0
100
AcDbLine
62
7
6
BYLAYER
10
196.1471256740
20
86.4147955425
11
217.8141025518
21
86.4147955425
0
LINE
5
258
100
AcDbEntity
8
0
100
AcDbLine
62
7
6
BYLAYER
10
198.3898670182
20
90.0489660986
11
212.1215929547
21
101.8110392569
0
ARC
5
259
100
AcDbEntity
8
0
100
AcDbCircle
62
7
6
BYLAYER
10
194.1471256740
20
86.4147955425
40
20.6669768778
100
AcDbArc
50
0.0000000000
51
20.2910501343
0
ARC
5
25A
100
AcDbEntity
8
0
100
AcDbCircle
62
7
6
BYLAYER
10
194.1471256740
20
86.4147955425
40
20.6669768778
100
AcDbArc
50
20.2910501343
51
40.5821002686
0
SOLID
5
25B
100
AcDbEntity
8
0
100
AcDbTrace
62
7
6
BYLAYER
10
214.8141025518
20
86.4147955425
11
213.4165928643
21
91.2817213354
12
215.0049009276
22
91.4747951453
13
215.0049009276
23
91.4747951453
0
SOLID
5
25C
100
AcDbEntity
8
0
100
AcDbTrace
62
7
6
BYLAYER
10
209.8431692202
20
99.8594283105
11
213.2797926073
21
96.1406086462
12
211.9479113573
22
95.2539901624
13
211.9479113573
23
95.2539901624
0
ENDBLK
5
25D
100
AcDbEntity
8
0
100
AcDbBlockEnd
0
BLOCK
5
25E
100
AcDbEntity
8
0
100
AcDbBlockBegin
62
7
6
BYLAYER
2
*D4
70
65
10
0.0000000000
20
0.0000000000
3
*D4
1

0
TEXT
5
25F
100
AcDbEntity
8
0
100
AcDbText
62
7
6
BYLAYER
10
167.4619419816
20
162.5676703872
7
STANDARD
40
4.0000000000
1
18.2%%d
50
26.9708340499
41
0.7733333333
72
0
100
AcDbText
0
LINE
5
260
100
AcDbEntity
8
0
100
AcDbLine
62
7
6
BYLAYER
10
187.2199174064
20
145.2813190538
11
192.3768800017
21
165.2218138511
0
LINE
5
261
100
AcDbEntity
8
0
100
AcDbLine
62
7
6
BYLAYER
10
186.3207055851
20
144.3010394578
11
184.9170476902
21
165.9260693062
0
ARC
5
262
100
AcDbEntity
8
0
100
AcDbCircle
62
7
6
BYLAYER
10
186.4502508658
20
142.3052393625
40
20.6705369437
100
AcDbArc
50
47.7814266175
51
75.5000000000
0
ARC
5
263
100
AcDbEntity
8
0
100
AcDbCircle
62
7
6
BYLAYER
10
186.4502508658
20
142.3052393625
40
20.6705369437
100
AcDbArc
50
93.7137988823
51
116.9708340499
0
SOLID
5
264
100
AcDbEntity
8
0
100
AcDbTrace
62
7
6
BYLAYER
10
191.6257399895
20
162.3173709299
11
196.5723613087
21
161.2352722630
12
195.9877878054
22
159.7458852014
13
195.9877878054
23
159.7458852014
0
SOLID
5
265
100
AcDbEntity
8
0
100
AcDbTrace
62
7
6
BYLAYER
10
185.1113656112
20
162.9323691633
11
180.3451449019
21
161.2226498440
12
180.0496303915
22
162.7951227926
13
180.0496303915
23
162.7951227926
0
ENDBLK
5
266
100
AcDbEntity
8
0
100
AcDbBlockEnd
0
BLOCK
5
267
100
AcDbEntity
8
0
100
AcDbBlockBegin
62
7
6
BYLAYER
2
*D5
70
65
10
0.0000000000
20
0.0000000000
3
*D5
1

0
TEXT
5
268
100
AcDbEntity
8
0
100
AcDbText
62
7
6
BYLAYER
10
241.6069140553
20
161.1163013010
7
STANDARD
40
4.0000000000
1
55.1%%d
50
-77.5433855655
41
0.7733333333
72
0
100
AcDbText
0
LINE
5
269
100
AcDbEntity
8
0
100
AcDbLine
62
7
6
BYLAYER
10
264.2055213091
20
159.1170624012
11
234.7563181505
21
166.7331441833
0
LINE
5
26A
100
AcDbEntity
8
0
100
AcDbLine
62
7
6
BYLAYER
10
258.9593626279
20
152.4640860332
11
241.5211004991
21
137.5271352186
0
ARC
5
26B
100
AcDbEntity
8
0
100
AcDbCircle
62
7
6
BYLAYER
10
266.1418165898
20
158.6163023931
40
29.4180911365
100
AcDbArc
50
165.5000000000
51
193.0410501343
0
ARC
5
26C
100
AcDbEntity
8
0
100
AcDbCircle
62
7
6
BYLAYER
10
266.1418165898
20
158.6163023931
40
29.4180911365
100
AcDbArc
50
193.0410501343
51
220.5821002686
0
SOLID
5
26D
100
AcDbEntity
8
0
100
AcDbTrace
62
7
6
BYLAYER
10
237.6607610716
20
165.9820041711
11
237.6129829142
21
160.9186340239
12
236.0355334159
22
161.1863149540
13
236.0355334159
23
161.1863149540
0
SOLID
5
26E
100
AcDbEntity
8
0
100
AcDbTrace
62
7
6
BYLAYER
10
243.7995242336
20
139.4787461651
11
240.2313356907
21
143.0715209315
12
241.5304573548
22
144.0054817990
13
241.5304573548
23
144.0054817990
0
ENDBLK
5
26F
100
AcDbEntity
8
0
100
AcDbBlockEnd
0
BLOCK
5
270
100
AcDbEntity
8
0
100
AcDbBlockBegin
62
7
6
BYLAYER
2
*D6
70
65
10
0.0000000000
20
0.0000000000
3
*D6
1

0
TEXT
5
271
100
AcDbEntity
8
0
100
AcDbText
62
7
6
BYLAYER
10
330.0297706057
20
158.3142472579
7
STANDARD
40
4.0000000000
1
60.1%%d
50
-74.4752131557
41
0.7733333333
72
0
100
AcDbText
0
LINE
5
272
100
AcDbEntity
8
0
100
AcDbLine
62
7
6
BYLAYER
10
301.2850852290
20
141.2644326537
11
329.3526713680
21
134.0056613277
0
LINE
5
273
100
AcDbEntity
8
0
100
AcDbLine
62
7
6
BYLAYER
10
303.4603759823
20
145.9611999389
11
321.0389411053
21
163.9006973897
0
ARC
5
274
100
AcDbEntity
8
0
100
AcDbCircle
62
7
6
BYLAYER
10
299.3487899482
20
141.7651926618
40
27.9910184856
100
AcDbArc
50
345.5000000000
51
15.5411080417
0
ARC
5
275
100
AcDbEntity
8
0
100
AcDbCircle
62
7
6
BYLAYER
10
299.3487899482
20
141.7651926618
40
27.9910184856
100
AcDbArc
50
15.5411080417
51
45.5822160834
0
SOLID
5
276
100
AcDbEntity
8
0
100
AcDbTrace
62
7
6
BYLAYER
10
326.4482284468
20
134.7568013399
11
326.4740684494
21
139.8203309680
12
328.0526629042
22
139.5594870544
13
328.0526629042
23
139.5594870544
0
SOLID
5
277
100
AcDbEntity
8
0
100
AcDbTrace
62
7
6
BYLAYER
10
318.9392858938
20
161.7579309551
11
322.7928381616
21
158.4730968772
12
321.5755519086
22
157.4347259520
13
321.5755519086
23
157.4347259520
0
ENDBLK
5
278
100
AcDbEntity
8
0
100
AcDbBlockEnd
0
BLOCK
5
279
100
AcDbEntity
8
0
100
AcDbBlockBegin
62
7
6
BYLAYER
2
*D7
70
65
10
0.0000000000
20
0.0000000000
3
*D7
1

0
TEXT
5
27A
100
AcDbEntity
8
0
100
AcDbText
62
7
6
BYLAYER
10
344.6645009932
20
157.1430859353
7
STANDARD
40
4.0000000000
1
64.3%%d
50
-83.7611260657
41
0.7733333333
72
0
100
AcDbText
0
LINE
5
27B
100
AcDbEntity
8
0
100
AcDbLine
62
7
6
BYLAYER
10
301.6570442294
20
141.1682375155
11
341.2090411405
21
130.9393956179
0
LINE
5
27C
100
AcDbEntity
8
0
100
AcDbLine
62
7
6
BYLAYER
10
299.4694795972
20
152.2621094300
11
324.8827455988
21
182.3006146130
0
ARC
5
27D
100
AcDbEntity
8
0
100
AcDbCircle
62
7
6
BYLAYER
10
292.1614179539
20
143.6239734449
40
47.6613053020
100
AcDbArc
50
345.5000000000
51
17.6340055867
0
ARC
5
27E
100
AcDbEntity
8
0
100
AcDbCircle
62
7
6
BYLAYER
10
292.1614179539
20
143.6239734449
40
47.6613053020
100
AcDbArc
50
17.6340055867
51
49.7680111734
0
SOLID
5
27F
100
AcDbEntity
8
0
100
AcDbTrace
62
7
6
BYLAYER
10
338.3045982193
20
131.6905356301
11
338.5170247216
21
136.7496734006
12
340.0849340914
22
136.4308314207
13
340.0849340914
23
136.4308314207
0
SOLID
5
280
100
AcDbEntity
8
0
100
AcDbTrace
62
7
6
BYLAYER
10
322.9450935319
20
180.0103079813
11
327.1357223960
21
177.1680149418
12
326.0396869334
22
176.0023793793
13
326.0396869334
23
176.0023793793
0
ENDBLK
5
281
100
AcDbEntity
8
0
100
AcDbBlockEnd
0
BLOCK
5
282
100
AcDbEntity
8
0
100
AcDbBlockBegin
62
7
6
BYLAYER
2
*D8
70
65
10
0.0000000000
20
0.0000000000
3
*D8
1

0
TEXT
5
283
100
AcDbEntity
8
0
100
AcDbText
62
7
6
BYLAYER
10
351.0874281974
20
207.2878487919
7
STANDARD
40
4.0000000000
1
68.8%%d
50
-68.8905540583
41
0.7733333333
72
0
100
AcDbText
0
LINE
5
284
100
AcDbEntity
8
0
100
AcDbLine
62
7
6
BYLAYER
10
339.8353583670
20
184.9416578101
11
351.4059511676
21
180.9575832067
0
LINE
5
285
100
AcDbEntity
8
0
100
AcDbLine
62
7
6
BYLAYER
10
327.8291623963
20
191.0473851090
11
343.5251129648
21
209.6000139790
0
ARC
5
286
100
AcDbEntity
8
0
100
AcDbCircle
62
7
6
BYLAYER
10
326.5373943516
20
189.5205140211
40
23.3014999998
100
AcDbArc
50
341.0000000000
51
15.3840055867
0
ARC
5
287
100
AcDbEntity
8
0
100
AcDbCircle
62
7
6
BYLAYER
10
326.5373943516
20
189.5205140211
40
23.3014999998
100
AcDbArc
50
15.3840055867
51
49.7680111734
0
SOLID
5
288
100
AcDbEntity
8
0
100
AcDbTrace
62
7
6
BYLAYER
10
348.5693954408
20
181.9342876701
11
348.9016730317
21
186.9869692950
12
350.4615847978
22
186.6310545833
13
350.4615847978
23
186.6310545833
0
SOLID
5
289
100
AcDbEntity
8
0
100
AcDbTrace
62
7
6
BYLAYER
10
341.5874608978
20
207.3097073473
11
345.6160095570
21
204.2420053245
12
344.4577350458
22
203.1381936754
13
344.4577350458
23
203.1381936754
0
ENDBLK
5
28A
100
AcDbEntity
8
0
100
AcDbBlockEnd
0
BLOCK
5
28B
100
AcDbEntity
8
0
100
AcDbBlockBegin
62
7
6
BYLAYER
2
*D9
70
65
10
0.0000000000
20
0.0000000000
3
*D9
1

0
TEXT
5
28C
100
AcDbEntity
8
0
100
AcDbText
62
7
6
BYLAYER
10
340.0999663353
20
182.7277901779
7
STANDARD
40
4.0000000000
1
60.1%%d
50
-73.3464030142
41
0.7733333333
72
0
100
AcDbText
0
LINE
5
28D
100
AcDbEntity
8
0
100
AcDbLine
62
7
6
BYLAYER
10
335.1389455853
20
165.4587490263
11
339.6330715410
21
164.2964890279
0
LINE
5
28E
100
AcDbEntity
8
0
100
AcDbLine
62
7
6
BYLAYER
10
322.7096882597
20
170.4636896601
11
334.5559365869
21
182.5531713772
0
ARC
5
28F
100
AcDbEntity
8
0
100
AcDbCircle
62
7
6
BYLAYER
10
321.3099181188
20
169.0351787037
40
15.9259908902
100
AcDbArc
50
345.5000000000
51
15.5411080417
0
ARC
5
290
100
AcDbEntity
8
0
100
AcDbCircle
62
7
6
BYLAYER
10
321.3099181188
20
169.0351787037
40
15.9259908902
100
AcDbArc
50
15.5411080417
51
45.5822160834
0
SOLID
5
291
100
AcDbEntity
8
0
100
AcDbTrace
62
7
6
BYLAYER
10
336.7286286198
20
165.0476290401
11
336.4120636247
21
170.1013194346
12
338.0046816570
22
169.9478013479
13
338.0046816570
23
169.9478013479
0
SOLID
5
292
100
AcDbEntity
8
0
100
AcDbTrace
62
7
6
BYLAYER
10
332.4562813754
20
180.4104049426
11
336.0789279701
21
176.8725480136
12
334.7942227021
22
175.9188539462
13
334.7942227021
23
175.9188539462
0
ENDBLK
5
293
100
AcDbEntity
8
0
100
AcDbBlockEnd
0
BLOCK
5
294
100
AcDbEntity
8
0
100
AcDbBlockBegin
62
7
6
BYLAYER
2
COPYRIGHT_BL4
70
64
10
0.0000000000
20
0.0000000000
3
COPYRIGHT_BL4
1

0
CIRCLE
5
295
100
AcDbEntity
8
0
100
AcDbCircle
62
7
6
BYLAYER
10
368.4166666667
20
59.2552477502
40
2.6387790604
0
ENDBLK
5
296
100
AcDbEntity
8
0
100
AcDbBlockEnd
0
BLOCK
5
297
100
AcDbEntity
8
0
100
AcDbBlockBegin
62
7
6
BYLAYER
2
MICRO_U_BL5
70
64
10
0.0000000000
20
0.0000000000
3
MICRO_U_BL5
1

0
ARC
5
298
100
AcDbEntity
8
0
100
AcDbCircle
62
7
6
BYLAYER
10
115.8029987548
20
24.2743672858
40
1.1407767248
100
AcDbArc
50
303.7730668774
51
1.5957171757
0
ENDBLK
5
299
100
AcDbEntity
8
0
100
AcDbBlockEnd
0
BLOCK
5
29A
100
AcDbEntity
8
0
100
AcDbBlockBegin
62
7
6
BYLAYER
2
SURFACE_FINISH_BL6
70
64
10
0.0000000000
20
0.0000000000
3
SURFACE_FINISH_BL6
1

0
LINE
5
29B
100
AcDbEntity
8
0
100
AcDbLine
62
7
6
BYLAYER
10
97.0309676193
20
12.0901401771
11
99.8402817594
21
16.9560150021
0
LINE
5
29C
100
AcDbEntity
8
0
100
AcDbLine
62
7
6
BYLAYER
10
97.0309676193
20
12.0901401771
11
95.7597911309
21
14.2918824404
0
LINE
5
29D
100
AcDbEntity
8
0
100
AcDbLine
62
7
6
BYLAYER
10
95.7597911309
20
14.2918824404
11
98.3021441078
21
14.2918824404
0
ENDBLK
5
29E
100
AcDbEntity
8
0
100
AcDbBlockEnd
0
BLOCK
5
29F
100
AcDbEntity
8
0
100
AcDbBlockBegin
62
7
6
BYLAYER
2
PROJECTION_BL7
70
64
10
0.0000000000
20
0.0000000000
3
PROJECTION_BL7
1

0
LINE
5
2A0
100
AcDbEntity
8
0
100
AcDbLine
62
7
6
BYLAYER
10
304.4288585399
20
278.0624994947
11
304.4288585399
21
282.4374994947
0
LINE
5
2A1
100
AcDbEntity
8
0
100
AcDbLine
62
7
6
BYLAYER
10
304.4288585399
20
282.4374994947
11
310.5538585399
21
284.6249994947
0
LINE
5
2A2
100
AcDbEntity
8
0
100
AcDbLine
62
7
6
BYLAYER
10
310.5538585399
20
284.6249994947
11
310.5538585399
21
275.8749994947
0
LINE
5
2A3
100
AcDbEntity
8
0
100
AcDbLine
62
7
6
BYLAYER
10
310.5538585399
20
275.8749994947
11
304.4288585399
21
278.0624994947
0
ARC
5
2A4
100
AcDbEntity
8
0
100
AcDbCircle
62
7
6
BYLAYER
10
292.1788585399
20
280.2499994947
40
2.1875000000
100
AcDbArc
50
180.0000000000
51
360.0000000000
0
ARC
5
2A5
100
AcDbEntity
8
0
100
AcDbCircle
62
7
6
BYLAYER
10
292.1788585399
20
280.2499994947
40
2.1875000000
100
AcDbArc
50
0.0000000000
51
180.0000000000
0
ARC
5
2A6
100
AcDbEntity
8
0
100
AcDbCircle
62
7
6
BYLAYER
10
292.1788585399
20
280.2499994947
40
4.3750000000
100
AcDbArc
50
180.0000000000
51
360.0000000000
0
ARC
5
2A7
100
AcDbEntity
8
0
100
AcDbCircle
62
7
6
BYLAYER
10
292.1788585399
20
280.2499994947
40
4.3750000000
100
AcDbArc
50
0.0000000000
51
180.0000000000
0
LINE
5
2A8
100
AcDbEntity
8
0
100
AcDbLine
62
7
6
BYLAYER
10
285.1534835399
20
280.2499994947
11
298.4009835399
21
280.2499994947
0
LINE
5
2A9
100
AcDbEntity
8
0
100
AcDbLine
62
7
6
BYLAYER
10
301.1493585399
20
280.2499994947
11
313.1464835399
21
280.2499994947
0
LINE
5
2AA
100
AcDbEntity
8
0
100
AcDbLine
62
7
6
BYLAYER
10
292.1788585399
20
285.2952494947
11
292.1788585399
21
275.2047494947
0
ENDBLK
5
2AB
100
AcDbEntity
8
0
100
AcDbBlockEnd
0
ENDSEC
0
SECTION
2
ENTITIES
0
INSERT
5
2AC
100
AcDbEntity
8
0
100
AcDbBlockReference
62
7
6
BYLAYER
2
COPYRIGHT_BL0
10
0.0000000000
20
0.0000000000
0
INSERT
5
2AD
100
AcDbEntity
8
0
100
AcDbBlockReference
62
7
6
BYLAYER
2
MICRO_U_BL1
10
0.0000000000
20
0.0000000000
0
INSERT
5
2AE
100
AcDbEntity
8
0
100
AcDbBlockReference
62
7
6
BYLAYER
2
PROJECTION_BL2
10
0.0000000000
20
0.0000000000
0
INSERT
5
2AF
100
AcDbEntity
8
0
100
AcDbBlockReference
62
7
6
BYLAYER
2
SURFACE_FINISH_BL3
10
0.0000000000
20
0.0000000000
0
DIMENSION
5
2B0
100
AcDbEntity
8
0
100
AcDbDimension
62
7
6
BYLAYER
2
*D0
10
97.9098935072
20
78.8147955425
11
94.9098935072
21
92.8873452361
70
160
3
DIMSTYLE_1
100
AcDbAlignedDimension
13
109.0951289521
23
106.6147955425
14
109.0951289521
24
78.8147955425
50
270.000000
100
AcDbRotatedDimension
0
DIMENSION
5
2B1
100
AcDbEntity
8
0
100
AcDbDimension
62
7
6
BYLAYER
2
*D1
10
111.0951289521
20
117.5198766831
11
131.8237043447
21
120.5198766831
70
160
3
DIMSTYLE_2
100
AcDbAlignedDimension
13
151.0951289521
23
108.6147955425
14
111.0951289521
24
108.6147955425
50
180.000000
100
AcDbRotatedDimension
0
DIMENSION
5
2B2
100
AcDbEntity
8
0
100
AcDbDimension
62
7
6
BYLAYER
2
*D2
10
183.7390439988
20
99.0147955425
11
176.3596740741
21
116.1761147309
70
162
3
DIMSTYLE_3
100
AcDb2LineAngularDimension
13
188.9025688754
23
104.5243453509
14
188.1934229354
24
115.4495873027
15
172.7908112797
25
99.0147955425
16
179.4322831273
26
108.2254629806
0
DIMENSION
5
2B3
100
AcDbEntity
8
0
100
AcDbDimension
62
7
6
BYLAYER
2
*D3
10
198.3898670182
20
90.0489660986
11
220.8823409004
21
96.7600277831
70
162
3
DIMSTYLE_3
100
AcDb2LineAngularDimension
13
196.1471256740
23
86.4147955425
14
217.8141025518
24
86.4147955425
15
212.1215929547
25
101.8110392569
16
213.5315743676
26
93.5818787786
0
DIMENSION
5
2B4
100
AcDbEntity
8
0
100
AcDbDimension
62
7
6
BYLAYER
2
*D4
10
186.3207055851
20
144.3010394578
11
173.4471049545
21
167.8574972872
70
162
3
DIMSTYLE_3
100
AcDb2LineAngularDimension
13
187.2199174064
23
145.2813190538
14
192.3768800017
24
165.2218138511
15
184.9170476902
25
165.9260693062
16
200.3400393024
26
157.6135663360
0
DIMENSION
5
2B5
100
AcDbEntity
8
0
100
AcDbDimension
62
7
6
BYLAYER
2
*D5
10
258.9593626279
20
152.4640860332
11
245.2279154614
21
153.9964141346
70
162
3
DIMSTYLE_3
100
AcDb2LineAngularDimension
13
264.2055213091
23
159.1170624012
14
234.7563181505
24
166.7331441833
15
241.5211004991
25
137.5271352186
16
237.4824578474
26
151.9781367890
0
DIMENSION
5
2B6
100
AcDbEntity
8
0
100
AcDbDimension
62
7
6
BYLAYER
2
*D6
10
303.4603759823
20
145.9611999389
11
334.0266672165
21
151.3983769637
70
162
3
DIMSTYLE_3
100
AcDb2LineAngularDimension
13
301.2850852290
23
141.2644326537
14
329.3526713680
24
134.0056613277
15
321.0389411053
25
163.9006973897
16
326.3164139579
26
149.2648173947
0
DIMENSION
5
2B7
100
AcDbEntity
8
0
100
AcDbDimension
62
7
6
BYLAYER
2
*D7
10
299.4694795972
20
152.2621094300
11
347.4930669463
21
149.6729012593
70
162
3
DIMSTYLE_3
100
AcDb2LineAngularDimension
13
301.6570442294
23
141.1682375155
14
341.2090411405
24
130.9393956179
15
324.8827455988
25
182.3006146130
16
337.5831681129
26
158.0622779015
0
DIMENSION
5
2B8
100
AcDbEntity
8
0
100
AcDbDimension
62
7
6
BYLAYER
2
*D8
10
327.8291623963
20
191.0473851090
11
355.7383812785
21
200.7937684196
70
162
3
DIMSTYLE_3
100
AcDb2LineAngularDimension
13
339.8353583670
23
184.9416578101
14
351.4059511676
24
180.9575832067
15
343.5251129648
25
209.6000139790
16
349.0039899098
26
195.7020984673
0
DIMENSION
5
2B9
100
AcDbEntity
8
0
100
AcDbDimension
62
7
6
BYLAYER
2
*D9
10
322.7096882597
20
170.4636896601
11
344.2323311625
21
175.8920016074
70
162
3
DIMSTYLE_3
100
AcDb2LineAngularDimension
13
335.1389455853
23
165.4587490263
14
339.6330715410
24
164.2964890279
15
334.5559365869
25
182.5531713772
16
336.6536304074
26
173.3022244076
0
LINE
5
2BA
100
AcDbEntity
8
0
100
AcDbLine
62
7
6
BYLAYER
10
209.0000000000
20
82.0000000000
11
410.0000000000
21
82.0000000000
0
LINE
5
2BB
100
AcDbEntity
8
0
100
AcDbLine
62
7
6
BYLAYER
10
209.0000000000
20
82.0000000000
11
209.0000000000
21
10.0000000000
0
LINE
5
2BC
100
AcDbEntity
8
0
100
AcDbLine
62
7
6
BYLAYER
10
209.0000000000
20
73.0000000000
11
410.0000000000
21
73.0000000000
0
LINE
5
2BD
100
AcDbEntity
8
0
100
AcDbLine
62
7
6
BYLAYER
10
209.0000000000
20
64.0000000000
11
410.0000000000
21
64.0000000000
0
LINE
5
2BE
100
AcDbEntity
8
0
100
AcDbLine
62
7
6
BYLAYER
10
209.0000000000
20
55.0000000000
11
410.0000000000
21
55.0000000000
0
LINE
5
2BF
100
AcDbEntity
8
0
100
AcDbLine
62
7
6
BYLAYER
10
209.0000000000
20
46.0000000000
11
410.0000000000
21
46.0000000000
0
LINE
5
2C0
100
AcDbEntity
8
0
100
AcDbLine
62
7
6
BYLAYER
10
209.0000000000
20
21.0000000000
11
410.0000000000
21
21.0000000000
0
LINE
5
2C1
100
AcDbEntity
8
0
100
AcDbLine
62
7
6
BYLAYER
10
209.0000000000
20
10.0000000000
11
410.0000000000
21
10.0000000000
0
LINE
5
2C2
100
AcDbEntity
8
0
100
AcDbLine
62
7
6
BYLAYER
10
224.0000000000
20
82.0000000000
11
224.0000000000
21
64.0000000000
0
LINE
5
2C3
100
AcDbEntity
8
0
100
AcDbLine
62
7
6
BYLAYER
10
224.0000000000
20
21.0000000000
11
224.0000000000
21
10.0000000000
0
LINE
5
2C4
100
AcDbEntity
8
0
100
AcDbLine
62
7
6
BYLAYER
10
253.5000000000
20
82.0000000000
11
253.5000000000
21
64.0000000000
0
LINE
5
2C5
100
AcDbEntity
8
0
100
AcDbLine
62
7
6
BYLAYER
10
283.0000000000
20
82.0000000000
11
283.0000000000
21
64.0000000000
0
LINE
5
2C6
100
AcDbEntity
8
0
100
AcDbLine
62
7
6
BYLAYER
10
315.5000000000
20
82.0000000000
11
315.5000000000
21
64.0000000000
0
LINE
5
2C7
100
AcDbEntity
8
0
100
AcDbLine
62
7
6
BYLAYER
10
344.0000000000
20
21.0000000000
11
344.0000000000
21
10.0000000000
0
LINE
5
2C8
100
AcDbEntity
8
0
100
AcDbLine
62
7
6
BYLAYER
10
348.0000000000
20
82.0000000000
11
348.0000000000
21
64.0000000000
0
LINE
5
2C9
100
AcDbEntity
8
0
100
AcDbLine
62
7
6
BYLAYER
10
365.0000000000
20
64.0000000000
11
365.0000000000
21
55.0000000000
0
LINE
5
2CA
100
AcDbEntity
8
0
100
AcDbLine
62
7
6
BYLAYER
10
380.5000000000
20
82.0000000000
11
380.5000000000
21
64.0000000000
0
LINE
5
2CB
100
AcDbEntity
8
0
100
AcDbLine
62
7
6
BYLAYER
10
410.0000000000
20
82.0000000000
11
410.0000000000
21
10.0000000000
0
TEXT
5
2CC
100
AcDbEntity
8
0
100
AcDbText
62
7
6
BYLAYER
10
215.3000000000
20
76.0000000000
7
STANDARD
40
3.0000000000
1
D
41
0.8000000000
72
1
11
216.5000000000
21
76.0000000000
100
AcDbText
0
TEXT
5
2CD
100
AcDbEntity
8
0
100
AcDbText
62
7
6
BYLAYER
10
227.9500000000
20
76.0000000000
7
STANDARD
40
3.0000000000
1
29/MAY/03
41
0.8000000000
72
1
11
238.7500000000
21
76.0000000000
100
AcDbText
0
TEXT
5
2CE
100
AcDbEntity
8
0
100
AcDbText
62
7
6
BYLAYER
10
259.8500000000
20
76.0000000000
7
STANDARD
40
3.0000000000
1
------
41
0.8000000000
72
1
11
267.0500000000
21
76.0000000000
100
AcDbText
0
TEXT
5
2CF
100
AcDbEntity
8
0
100
AcDbText
62
7
6
BYLAYER
10
274.2500000000
20
76.0000000000
7
STANDARD
40
3.0000000000
1
.
41
0.8000000000
72
1
11
275.4500000000
21
76.0000000000
100
AcDbText
0
TEXT
5
2D0
100
AcDbEntity
8
0
100
AcDbText
62
7
6
BYLAYER
10
289.6500000000
20
76.0000000000
7
STANDARD
40
3.0000000000
1
J NOVISS
41
0.8000000000
72
1
11
299.2500000000
21
76.0000000000
100
AcDbText
0
TEXT
5
2D1
100
AcDbEntity
8
0
100
AcDbText
62
7
6
BYLAYER
10
329.3500000000
20
76.0000000000
7
STANDARD
40
3.0000000000
1
IW
41
0.8000000000
72
1
11
331.7500000000
21
76.0000000000
100
AcDbText
0
TEXT
5
2D2
100
AcDbEntity
8
0
100
AcDbText
62
7
6
BYLAYER
10
361.8500000000
20
76.0000000000
7
STANDARD
40
3.0000000000
1
DG
41
0.8000000000
72
1
11
364.2500000000
21
76.0000000000
100
AcDbText
0
TEXT
5
2D3
100
AcDbEntity
8
0
100
AcDbText
62
7
6
BYLAYER
10
391.6500000000
20
76.0000000000
7
STANDARD
40
3.0000000000
1
REL
41
0.8000000000
72
1
11
395.2500000000
21
76.0000000000
100
AcDbText
0
TEXT
5
2D4
100
AcDbEntity
8
0
100
AcDbText
62
7
6
BYLAYER
10
210.5000000000
20
67.0000000000
7
STANDARD
40
3.0000000000
1
ISSUE
41
0.8000000000
72
1
11
216.5000000000
21
67.0000000000
100
AcDbText
0
TEXT
5
2D5
100
AcDbEntity
8
0
100
AcDbText
62
7
6
BYLAYER
10
227.9500000000
20
67.0000000000
7
STANDARD
40
3.0000000000
1
DATE APPD
41
0.8000000000
72
1
11
238.7500000000
21
67.0000000000
100
AcDbText
0
TEXT
5
2D6
100
AcDbEntity
8
0
100
AcDbText
62
7
6
BYLAYER
10
258.6500000000
20
67.0000000000
7
STANDARD
40
3.0000000000
1
MOD. No.
41
0.8000000000
72
1
11
268.2500000000
21
67.0000000000
100
AcDbText
0
TEXT
5
2D7
100
AcDbEntity
8
0
100
AcDbText
62
7
6
BYLAYER
10
290.8500000000
20
67.0000000000
7
STANDARD
40
3.0000000000
1
DRN. BY
41
0.8000000000
72
1
11
299.2500000000
21
67.0000000000
100
AcDbText
0
TEXT
5
2D8
100
AcDbEntity
8
0
100
AcDbText
62
7
6
BYLAYER
10
322.1500000000
20
67.0000000000
7
STANDARD
40
3.0000000000
1
CHKD BY.
41
0.8000000000
72
1
11
331.7500000000
21
67.0000000000
100
AcDbText
0
TEXT
5
2D9
100
AcDbEntity
8
0
100
AcDbText
62
7
6
BYLAYER
10
354.6500000000
20
67.0000000000
7
STANDARD
40
3.0000000000
1
APPD BY.
41
0.8000000000
72
1
11
364.2500000000
21
67.0000000000
100
AcDbText
0
TEXT
5
2DA
100
AcDbEntity
8
0
100
AcDbText
62
7
6
BYLAYER
10
388.0500000000
20
67.0000000000
7
STANDARD
40
3.0000000000
1
STATUS
41
0.8000000000
72
1
11
395.2500000000
21
67.0000000000
100
AcDbText
0
TEXT
5
2DB
100
AcDbEntity
8
0
100
AcDbText
62
7
6
BYLAYER
10
210.4000000000
20
57.5000000000
7
STANDARD
40
4.0000000000
1
USED ON
41
0.8000000000
72
0
100
AcDbText
0
TEXT
5
2DC
100
AcDbEntity
8
0
100
AcDbText
62
7
6
BYLAYER
10
254.9000000000
20
57.5000000000
7
STANDARD
40
4.0000000000
1
 
41
0.8000000000
72
0
100
AcDbText
0
INSERT
5
2DD
100
AcDbEntity
8
0
100
AcDbBlockReference
62
7
6
BYLAYER
2
COPYRIGHT_BL4
10
0.0000000000
20
0.0000000000
0
TEXT
5
2DE
100
AcDbEntity
8
0
100
AcDbText
62
7
6
BYLAYER
10
371.0554457271
20
57.3835313102
7
TEXTSTYLE_1
40
5.0000000000
1
 CLRC
41
0.7800000000
72
1
11
380.8054457271
21
57.3835313102
100
AcDbText
0
TEXT
5
2DF
100
AcDbEntity
8
0
100
AcDbText
62
7
6
BYLAYER
10
390.5554457271
20
57.3835313102
7
TEXTSTYLE_1
40
5.0000000000
1
 
41
0.8000000000
72
1
11
392.5554457271
21
57.3835313102
100
AcDbText
0
TEXT
5
2E0
100
AcDbEntity
8
0
100
AcDbText
62
7
6
BYLAYER
10
394.5554457271
20
57.3835313102
7
TEXTSTYLE_1
40
5.0000000000
1
2002
41
0.7333333333
72
1
11
401.8887790604
21
57.3835313102
100
AcDbText
0
TEXT
5
2E1
100
AcDbEntity
8
0
100
AcDbText
62
7
6
BYLAYER
10
367.1926306113
20
57.5014920980
7
TEXTSTYLE_1
40
3.5000000000
1
C
41
0.8000000000
72
0
100
AcDbText
0
TEXT
5
2E2
100
AcDbEntity
8
0
100
AcDbText
62
7
6
BYLAYER
10
210.4000000000
20
48.5000000000
7
TEXTSTYLE_1
40
3.0000000000
1
CENTRAL LABORATORY OF THE RESEARCH COUNCILS
41
0.7620155039
72
0
100
AcDbText
0
TEXT
5
2E3
100
AcDbEntity
8
0
100
AcDbText
62
7
6
BYLAYER
10
308.7000000000
20
48.5000000000
7
STANDARD
40
4.0000000000
1
 
41
0.8000000000
72
0
100
AcDbText
0
TEXT
5
2E4
100
AcDbEntity
8
0
100
AcDbText
62
7
6
BYLAYER
10
311.9000000000
20
48.5000000000
7
STANDARD
40
2.0000000000
1
RUTHERFORD APPLETON LABORATORY, CHILTON, OXON OX110QX
41
0.8000000000
72
0
100
AcDbText
0
TEXT
5
2E5
100
AcDbEntity
8
0
100
AcDbText
62
7
6
BYLAYER
10
210.4000000000
20
41.5000000000
7
STANDARD
40
3.0000000000
1
TITLE
41
0.8000000000
72
0
100
AcDbText
0
TEXT
5
2E6
100
AcDbEntity
8
0
100
AcDbText
62
7
6
BYLAYER
10
271.0000000000
20
36.5000000000
7
TEXTSTYLE_1
40
6.0000000000
1
POWER TAPE W6
41
0.9871794872
72
1
11
309.5000000000
21
36.5000000000
100
AcDbText
0
TEXT
5
2E7
100
AcDbEntity
8
0
100
AcDbText
62
7
6
BYLAYER
10
270.2500000000
20
27.5000000000
7
TEXTSTYLE_1
40
6.0000000000
1
WHEELS 2,3,4,5,6
41
0.8177083333
72
1
11
309.5000000000
21
27.5000000000
100
AcDbText
0
TEXT
5
2E8
100
AcDbEntity
8
0
100
AcDbText
62
7
6
BYLAYER
10
210.4000000000
20
24.2500000000
7
STANDARD
40
4.0000000000
1
ATLAS_ID
41
0.8000000000
72
0
100
AcDbText
0
TEXT
5
2E9
100
AcDbEntity
8
0
100
AcDbText
62
7
6
BYLAYER
10
389.4000000000
20
24.2500000000
7
STANDARD
40
4.0000000000
1
TDL008
41
0.8000000000
72
2
11
408.6000000000
21
24.2500000000
100
AcDbText
0
TEXT
5
2EA
100
AcDbEntity
8
0
100
AcDbText
62
7
6
BYLAYER
10
211.1333333333
20
12.0000000000
7
TEXTSTYLE_1
40
7.0000000000
1
A3
41
0.7666666667
72
1
11
216.5000000000
21
12.0000000000
100
AcDbText
0
TEXT
5
2EB
100
AcDbEntity
8
0
100
AcDbText
62
7
6
BYLAYER
10
225.4000000000
20
12.0000000000
7
TEXTSTYLE_1
40
5.0000000000
1
 
41
1.0000000000
72
0
100
AcDbText
0
TEXT
5
2EC
100
AcDbEntity
8
0
100
AcDbText
62
7
6
BYLAYER
10
230.4000000000
20
12.0000000000
7
TEXTSTYLE_1
40
7.0000000000
1
TD-1002-941
41
0.7613636364
72
0
100
AcDbText
0
TEXT
5
2ED
100
AcDbEntity
8
0
100
AcDbText
62
7
6
BYLAYER
10
345.4000000000
20
16.7500000000
7
STANDARD
40
2.5000000000
1
SHEET
41
0.8000000000
72
0
100
AcDbText
0
TEXT
5
2EE
100
AcDbEntity
8
0
100
AcDbText
62
7
6
BYLAYER
10
366.7666666667
20
12.0000000000
7
STANDARD
40
3.0000000000
1
 
41
0.8000000000
72
1
11
367.9666666667
21
12.0000000000
100
AcDbText
0
TEXT
5
2EF
100
AcDbEntity
8
0
100
AcDbText
62
7
6
BYLAYER
10
369.1666666667
20
12.0000000000
7
TEXTSTYLE_1
40
7.0000000000
1
1
41
0.3333333333
72
1
11
370.3333333333
21
12.0000000000
100
AcDbText
0
TEXT
5
2F0
100
AcDbEntity
8
0
100
AcDbText
62
7
6
BYLAYER
10
371.5000000000
20
12.0000000000
7
STANDARD
40
4.0000000000
1
 OF 
41
0.8000000000
72
1
11
377.9000000000
21
12.0000000000
100
AcDbText
0
TEXT
5
2F1
100
AcDbEntity
8
0
100
AcDbText
62
7
6
BYLAYER
10
384.3000000000
20
12.0000000000
7
TEXTSTYLE_1
40
7.0000000000
1
1
41
0.3333333333
72
1
11
385.4666666667
21
12.0000000000
100
AcDbText
0
TEXT
5
2F2
100
AcDbEntity
8
0
100
AcDbText
62
7
6
BYLAYER
10
386.6333333333
20
12.0000000000
7
STANDARD
40
4.0000000000
1
     
41
0.8000000000
72
1
11
394.6333333333
21
12.0000000000
100
AcDbText
0
TEXT
5
2F3
100
AcDbEntity
8
0
100
AcDbText
62
7
6
BYLAYER
10
402.6333333333
20
12.0000000000
7
TEXTSTYLE_1
40
7.0000000000
1
D
41
0.8000000000
72
1
11
405.4333333333
21
12.0000000000
100
AcDbText
0
LINE
5
2F4
100
AcDbEntity
8
0
100
AcDbLine
62
7
6
BYLAYER
10
20.0371621622
20
45.9172297297
11
209.0371621622
21
45.9172297297
0
LINE
5
2F5
100
AcDbEntity
8
0
100
AcDbLine
62
7
6
BYLAYER
10
20.0371621622
20
45.9172297297
11
20.0371621622
21
9.9172297297
0
LINE
5
2F6
100
AcDbEntity
8
0
100
AcDbLine
62
7
6
BYLAYER
10
20.0371621622
20
27.9172297297
11
209.0371621622
21
27.9172297297
0
LINE
5
2F7
100
AcDbEntity
8
0
100
AcDbLine
62
7
6
BYLAYER
10
20.0371621622
20
9.9172297297
11
209.0371621622
21
9.9172297297
0
LINE
5
2F8
100
AcDbEntity
8
0
100
AcDbLine
62
7
6
BYLAYER
10
83.0371621622
20
45.9172297297
11
83.0371621622
21
9.9172297297
0
LINE
5
2F9
100
AcDbEntity
8
0
100
AcDbLine
62
7
6
BYLAYER
10
146.0371621622
20
45.9172297297
11
146.0371621622
21
9.9172297297
0
LINE
5
2FA
100
AcDbEntity
8
0
100
AcDbLine
62
7
6
BYLAYER
10
209.0371621622
20
45.9172297297
11
209.0371621622
21
9.9172297297
0
TEXT
5
2FB
100
AcDbEntity
8
0
100
AcDbText
62
7
6
BYLAYER
10
21.4371621622
20
41.6672297297
7
STANDARD
40
2.5000000000
1
TOLERANCES UNLESS STATED
41
0.8000000000
72
0
100
AcDbText
0
TEXT
5
2FC
100
AcDbEntity
8
0
100
AcDbText
62
7
6
BYLAYER
10
84.4371621622
20
41.6672297297
7
STANDARD
40
2.5000000000
1
FINISH
41
0.8000000000
72
0
100
AcDbText
0
TEXT
5
2FD
100
AcDbEntity
8
0
100
AcDbText
62
7
6
BYLAYER
10
147.4371621622
20
41.6672297297
7
STANDARD
40
2.5000000000
1
ORIGINAL SCALE
41
0.8000000000
72
0
100
AcDbText
0
TEXT
5
2FE
100
AcDbEntity
8
0
100
AcDbText
62
7
6
BYLAYER
10
44.9871621622
20
34.1672297297
7
STANDARD
40
3.0000000000
1
%%p
41
1.1666666667
72
1
11
46.7371621622
21
34.1672297297
100
AcDbText
0
TEXT
5
2FF
100
AcDbEntity
8
0
100
AcDbText
62
7
6
BYLAYER
10
48.4871621622
20
34.1672297297
7
STANDARD
40
3.0000000000
1
 
41
0.8000000000
72
1
11
49.6871621622
21
34.1672297297
100
AcDbText
0
TEXT
5
300
100
AcDbEntity
8
0
100
AcDbText
62
7
6
BYLAYER
10
50.8871621622
20
34.1672297297
7
STANDARD
40
3.0000000000
1
 mm
41
0.8000000000
72
1
11
54.4871621622
21
34.1672297297
100
AcDbText
0
TEXT
5
301
100
AcDbEntity
8
0
100
AcDbText
62
7
6
BYLAYER
10
46.3871621622
20
29.6672297297
7
STANDARD
40
3.0000000000
1
%%p
41
1.1666666667
72
1
11
48.1371621622
21
29.6672297297
100
AcDbText
0
TEXT
5
302
100
AcDbEntity
8
0
100
AcDbText
62
7
6
BYLAYER
10
49.8871621622
20
29.6672297297
7
STANDARD
40
3.0000000000
1
 
41
0.8000000000
72
1
11
51.0871621622
21
29.6672297297
100
AcDbText
0
TEXT
5
303
100
AcDbEntity
8
0
100
AcDbText
62
7
6
BYLAYER
10
52.2871621622
20
29.6672297297
7
STANDARD
40
3.0000000000
1
 %%d
41
0.7333333333
72
1
11
54.4871621622
21
29.6672297297
100
AcDbText
0
TEXT
5
304
100
AcDbEntity
8
0
100
AcDbText
62
7
6
BYLAYER
10
102.5371621622
20
34.1672297297
7
STANDARD
40
3.0000000000
1
SEE NOTE 3
41
0.8000000000
72
1
11
114.5371621622
21
34.1672297297
100
AcDbText
0
TEXT
5
305
100
AcDbEntity
8
0
100
AcDbText
62
7
6
BYLAYER
10
95.3371621622
20
29.6672297297
7
STANDARD
40
3.0000000000
1
REMOVE ALL BURRS
41
0.8000000000
72
1
11
114.5371621622
21
29.6672297297
100
AcDbText
0
TEXT
5
306
100
AcDbEntity
8
0
100
AcDbText
62
7
6
BYLAYER
10
173.9371621622
20
34.1672297297
7
STANDARD
40
3.0000000000
1
1:1
41
0.8000000000
72
1
11
177.5371621622
21
34.1672297297
100
AcDbText
0
TEXT
5
307
100
AcDbEntity
8
0
100
AcDbText
62
7
6
BYLAYER
10
163.1371621622
20
29.6672297297
7
STANDARD
40
3.0000000000
1
DO NOT SCALE
41
0.8000000000
72
1
11
177.5371621622
21
29.6672297297
100
AcDbText
0
TEXT
5
308
100
AcDbEntity
8
0
100
AcDbText
62
7
6
BYLAYER
10
21.4371621622
20
23.6672297297
7
STANDARD
40
2.5000000000
1
MATERIAL 
41
0.8000000000
72
0
100
AcDbText
0
TEXT
5
309
100
AcDbEntity
8
0
100
AcDbText
62
7
6
BYLAYER
10
39.4371621622
20
23.6672297297
7
STANDARD
40
2.5000000000
1
& SPEC.
41
0.8000000000
72
0
100
AcDbText
0
INSERT
5
30A
100
AcDbEntity
8
0
100
AcDbBlockReference
62
7
6
BYLAYER
2
MICRO_U_BL5
10
0.0000000000
20
0.0000000000
0
TEXT
5
30B
100
AcDbEntity
8
0
100
AcDbText
62
7
6
BYLAYER
10
84.4371621622
20
24.0083581219
7
STANDARD
40
2.5000000000
1
SURFACE TEXTURE 
41
0.8000000000
72
0
100
AcDbText
0
TEXT
5
30C
100
AcDbEntity
8
0
100
AcDbText
62
7
6
BYLAYER
10
116.4894190556
20
24.0082838118
7
STANDARD
40
1.8178175258
1
um
41
0.8000000000
72
0
100
AcDbText
0
TEXT
5
30D
100
AcDbEntity
8
0
100
AcDbText
62
7
6
BYLAYER
10
43.1371621622
20
16.1672297297
7
STANDARD
40
3.0000000000
1
-------
41
0.8000000000
72
1
11
51.5371621622
21
16.1672297297
100
AcDbText
0
TEXT
5
30E
100
AcDbEntity
8
0
100
AcDbText
62
7
6
BYLAYER
10
39.5371621622
20
11.6672297297
7
STANDARD
40
3.0000000000
1
SEE NOTE 3
41
0.8000000000
72
1
11
51.5371621622
21
11.6672297297
100
AcDbText
0
INSERT
5
30F
100
AcDbEntity
8
0
100
AcDbBlockReference
62
7
6
BYLAYER
2
SURFACE_FINISH_BL6
10
0.0000000000
20
0.0000000000
0
TEXT
5
310
100
AcDbEntity
8
0
100
AcDbText
62
7
6
BYLAYER
10
102.5371621622
20
18.5810150021
7
STANDARD
40
3.0000000000
1
SEE NOTE 3
41
0.8000000000
72
1
11
114.5371621622
21
18.5810150021
100
AcDbText
0
TEXT
5
311
100
AcDbEntity
8
0
100
AcDbText
62
7
6
BYLAYER
10
99.8402817594
20
11.6672297297
7
STANDARD
40
3.0000000000
1
 UNLESS STATED
41
0.8000000000
72
1
11
116.6402817594
21
11.6672297297
100
AcDbText
0
TEXT
5
312
100
AcDbEntity
8
0
100
AcDbText
62
7
6
BYLAYER
10
95.6340425649
20
12.5409220665
7
STANDARD
40
3.5000000000
1
-
41
0.8000000000
72
0
100
AcDbText
0
LINE
5
313
100
AcDbEntity
8
0
100
AcDbLine
62
7
6
BYLAYER
10
10.0000000000
20
10.0000000000
11
10.0000000000
21
116.2000000000
0
LINE
5
314
100
AcDbEntity
8
0
100
AcDbLine
62
7
6
BYLAYER
10
10.0000000000
20
10.0000000000
11
20.0000000000
21
10.0000000000
0
LINE
5
315
100
AcDbEntity
8
0
100
AcDbLine
62
7
6
BYLAYER
10
20.0000000000
20
10.0000000000
11
20.0000000000
21
116.2000000000
0
LINE
5
316
100
AcDbEntity
8
0
100
AcDbLine
62
7
6
BYLAYER
10
10.0000000000
20
25.0000000000
11
20.0000000000
21
25.0000000000
0
LINE
5
317
100
AcDbEntity
8
0
100
AcDbLine
62
7
6
BYLAYER
10
10.0000000000
20
78.2000000000
11
20.0000000000
21
78.2000000000
0
LINE
5
318
100
AcDbEntity
8
0
100
AcDbLine
62
7
6
BYLAYER
10
10.0000000000
20
106.2000000000
11
20.0000000000
21
106.2000000000
0
LINE
5
319
100
AcDbEntity
8
0
100
AcDbLine
62
7
6
BYLAYER
10
10.0000000000
20
116.2000000000
11
20.0000000000
21
116.2000000000
0
TEXT
5
31A
100
AcDbEntity
8
0
100
AcDbText
62
7
6
BYLAYER
10
17.5000000000
20
12.5000000000
7
STANDARD
40
5.0000000000
1
A3
50
90.0000000000
41
1.0000000000
72
1
11
17.5000000000
21
17.5000000000
100
AcDbText
0
TEXT
5
31B
100
AcDbEntity
8
0
100
AcDbText
62
7
6
BYLAYER
10
17.5000000000
20
26.4000000000
7
TEXTSTYLE_1
40
5.0000000000
1
 
50
90.0000000000
41
1.0000000000
72
0
100
AcDbText
0
TEXT
5
31C
100
AcDbEntity
8
0
100
AcDbText
62
7
6
BYLAYER
10
17.5000000000
20
31.4000000000
7
TEXTSTYLE_1
40
5.0000000000
1
TD-1002-941
50
90.0000000000
41
0.7613636364
72
0
100
AcDbText
0
TEXT
5
31D
100
AcDbEntity
8
0
100
AcDbText
62
7
6
BYLAYER
10
16.5000000000
20
79.6000000000
7
TEXTSTYLE_1
40
3.0000000000
1
Sheet 
50
90.0000000000
41
0.6666666667
72
0
100
AcDbText
0
TEXT
5
31E
100
AcDbEntity
8
0
100
AcDbText
62
7
6
BYLAYER
10
16.5000000000
20
91.6000000000
7
TEXTSTYLE_1
40
3.0000000000
1
1
50
90.0000000000
41
0.3333333333
72
0
100
AcDbText
0
TEXT
5
31F
100
AcDbEntity
8
0
100
AcDbText
62
7
6
BYLAYER
10
16.5000000000
20
92.6000000000
7
TEXTSTYLE_1
40
3.0000000000
1
 OF 
50
90.0000000000
41
0.7833333333
72
0
100
AcDbText
0
TEXT
5
320
100
AcDbEntity
8
0
100
AcDbText
62
7
6
BYLAYER
10
16.5000000000
20
102.0000000000
7
TEXTSTYLE_1
40
3.0000000000
1
1
50
90.0000000000
41
0.3333333333
72
0
100
AcDbText
0
TEXT
5
321
100
AcDbEntity
8
0
100
AcDbText
62
7
6
BYLAYER
10
17.5000000000
20
109.2000000000
7
TEXTSTYLE_1
40
5.0000000000
1
D
50
90.0000000000
41
0.8000000000
72
1
11
17.5000000000
21
111.2000000000
100
AcDbText
0
LINE
5
322
100
AcDbEntity
8
0
100
AcDbLine
62
7
6
BYLAYER
10
10.0000000000
20
287.0000000000
11
116.2000000000
21
287.0000000000
0
LINE
5
323
100
AcDbEntity
8
0
100
AcDbLine
62
7
6
BYLAYER
10
10.0000000000
20
287.0000000000
11
10.0000000000
21
277.0000000000
0
LINE
5
324
100
AcDbEntity
8
0
100
AcDbLine
62
7
6
BYLAYER
10
10.0000000000
20
277.0000000000
11
116.2000000000
21
277.0000000000
0
LINE
5
325
100
AcDbEntity
8
0
100
AcDbLine
62
7
6
BYLAYER
10
25.0000000000
20
287.0000000000
11
25.0000000000
21
277.0000000000
0
LINE
5
326
100
AcDbEntity
8
0
100
AcDbLine
62
7
6
BYLAYER
10
78.2000000000
20
287.0000000000
11
78.2000000000
21
277.0000000000
0
LINE
5
327
100
AcDbEntity
8
0
100
AcDbLine
62
7
6
BYLAYER
10
106.2000000000
20
287.0000000000
11
106.2000000000
21
277.0000000000
0
LINE
5
328
100
AcDbEntity
8
0
100
AcDbLine
62
7
6
BYLAYER
10
116.2000000000
20
287.0000000000
11
116.2000000000
21
277.0000000000
0
TEXT
5
329
100
AcDbEntity
8
0
100
AcDbText
62
7
6
BYLAYER
10
12.5000000000
20
279.5000000000
7
STANDARD
40
5.0000000000
1
A3
41
1.0000000000
72
1
11
17.5000000000
21
279.5000000000
100
AcDbText
0
TEXT
5
32A
100
AcDbEntity
8
0
100
AcDbText
62
7
6
BYLAYER
10
26.4000000000
20
279.5000000000
7
TEXTSTYLE_1
40
5.0000000000
1
 
41
1.0000000000
72
0
100
AcDbText
0
TEXT
5
32B
100
AcDbEntity
8
0
100
AcDbText
62
7
6
BYLAYER
10
31.4000000000
20
279.5000000000
7
TEXTSTYLE_1
40
5.0000000000
1
TD-1002-941
41
0.7613636364
72
0
100
AcDbText
0
TEXT
5
32C
100
AcDbEntity
8
0
100
AcDbText
62
7
6
BYLAYER
10
79.6000000000
20
280.5000000000
7
TEXTSTYLE_1
40
3.0000000000
1
Sheet 
41
0.6666666667
72
0
100
AcDbText
0
TEXT
5
32D
100
AcDbEntity
8
0
100
AcDbText
62
7
6
BYLAYER
10
91.6000000000
20
280.5000000000
7
TEXTSTYLE_1
40
3.0000000000
1
1
41
0.3333333333
72
0
100
AcDbText
0
TEXT
5
32E
100
AcDbEntity
8
0
100
AcDbText
62
7
6
BYLAYER
10
92.6000000000
20
280.5000000000
7
TEXTSTYLE_1
40
3.0000000000
1
 OF 
41
0.7833333333
72
0
100
AcDbText
0
TEXT
5
32F
100
AcDbEntity
8
0
100
AcDbText
62
7
6
BYLAYER
10
102.0000000000
20
280.5000000000
7
TEXTSTYLE_1
40
3.0000000000
1
1
41
0.3333333333
72
0
100
AcDbText
0
TEXT
5
330
100
AcDbEntity
8
0
100
AcDbText
62
7
6
BYLAYER
10
109.2000000000
20
279.5000000000
7
TEXTSTYLE_1
40
5.0000000000
1
D
41
0.8000000000
72
1
11
111.2000000000
21
279.5000000000
100
AcDbText
0
LINE
5
331
100
AcDbEntity
8
0
100
AcDbLine
62
7
6
BYLAYER
10
331.0000000000
20
287.0000000000
11
410.0000000000
21
287.0000000000
0
LINE
5
332
100
AcDbEntity
8
0
100
AcDbLine
62
7
6
BYLAYER
10
331.0000000000
20
287.0000000000
11
331.0000000000
21
277.0000000000
0
LINE
5
333
100
AcDbEntity
8
0
100
AcDbLine
62
7
6
BYLAYER
10
331.0000000000
20
277.0000000000
11
410.0000000000
21
277.0000000000
0
LINE
5
334
100
AcDbEntity
8
0
100
AcDbLine
62
7
6
BYLAYER
10
410.0000000000
20
287.0000000000
11
410.0000000000
21
277.0000000000
0
TEXT
5
335
100
AcDbEntity
8
0
100
AcDbText
62
7
6
BYLAYER
10
336.5000000000
20
280.7500000000
7
STANDARD
40
2.5000000000
1
THIS DRAWING CONFORMS TO B.S. 8888
41
0.8000000000
72
1
11
370.5000000000
21
280.7500000000
100
AcDbText
0
LINE
5
336
100
AcDbEntity
8
0
100
AcDbLine
62
7
6
BYLAYER
10
236.4999835399
20
286.9999994947
11
330.9999835399
21
286.9999994947
0
LINE
5
337
100
AcDbEntity
8
0
100
AcDbLine
62
7
6
BYLAYER
10
236.4999835399
20
286.9999994947
11
236.4999835399
21
273.4999994947
0
LINE
5
338
100
AcDbEntity
8
0
100
AcDbLine
62
7
6
BYLAYER
10
236.4999835399
20
273.4999994947
11
330.9999835399
21
273.4999994947
0
LINE
5
339
100
AcDbEntity
8
0
100
AcDbLine
62
7
6
BYLAYER
10
330.9999835399
20
286.9999994947
11
330.9999835399
21
273.4999994947
0
INSERT
5
33A
100
AcDbEntity
8
0
100
AcDbBlockReference
62
7
6
BYLAYER
2
PROJECTION_BL7
10
0.0000000000
20
0.0000000000
0
TEXT
5
33B
100
AcDbEntity
8
0
100
AcDbText
62
7
6
BYLAYER
10
254.3534835399
20
278.9781218886
7
STANDARD
40
3.5000000000
1
PROJECTION 
41
0.8000000000
72
1
11
269.7534835399
21
278.9781218886
100
AcDbText
0
TEXT
5
33C
100
AcDbEntity
8
0
100
AcDbText
62
7
6
BYLAYER
10
290.7970347322
20
278.8891837883
7
STANDARD
40
3.5000000000
1
l
41
0.8000000000
72
0
100
AcDbText
0
LINE
5
33D
100
AcDbEntity
8
0
100
AcDbLine
62
7
6
BYLAYER
10
159.0509538372
20
70.9185125895
11
209.0509538372
21
70.9185125895
0
LINE
5
33E
100
AcDbEntity
8
0
100
AcDbLine
62
7
6
BYLAYER
10
159.0509538372
20
70.9185125895
11
159.0509538372
21
45.9185125895
0
LINE
5
33F
100
AcDbEntity
8
0
100
AcDbLine
62
7
6
BYLAYER
10
159.0509538372
20
45.9185125895
11
209.0509538372
21
45.9185125895
0
LINE
5
340
100
AcDbEntity
8
0
100
AcDbLine
62
7
6
BYLAYER
10
209.0509538372
20
70.9185125895
11
209.0509538372
21
45.9185125895
0
TEXT
5
341
100
AcDbEntity
8
0
100
AcDbText
62
7
6
BYLAYER
10
117.1690911356
20
188.1800778170
7
STANDARD
40
4.0000000000
1
3D-VIEW
41
0.8000000000
72
0
100
AcDbText
0
TEXT
5
342
100
AcDbEntity
8
0
100
AcDbText
62
7
6
BYLAYER
10
229.9882491187
20
267.6588572268
7
STANDARD
40
3.5000000000
1
NOTES -
41
0.8000000000
72
0
100
AcDbText
0
TEXT
5
343
100
AcDbEntity
8
0
100
AcDbText
62
7
6
BYLAYER
10
229.9882491187
20
262.4088572268
7
STANDARD
40
3.5000000000
1
 
41
0.8000000000
72
0
100
AcDbText
0
TEXT
5
344
100
AcDbEntity
8
0
100
AcDbText
62
7
6
BYLAYER
10
229.9882491187
20
257.1588572268
7
STANDARD
40
3.5000000000
1
1 - ALL OUTER MODULE TAPE ENDS SET FOR HIGH MODULES
41
0.8000000000
72
0
100
AcDbText
0
TEXT
5
345
100
AcDbEntity
8
0
100
AcDbText
62
7
6
BYLAYER
10
229.9882491187
20
251.9088572268
7
STANDARD
40
3.5000000000
1
2 - TAPE DESIGN SET TO ZERO MODULE ROTATION
41
0.8000000000
72
0
100
AcDbText
0
TEXT
5
346
100
AcDbEntity
8
0
100
AcDbText
62
7
6
BYLAYER
10
229.9882491187
20
246.6588572268
7
STANDARD
40
3.5000000000
1
3 - FOR TAPE SPECIFICATIONS REFER TO DOCUMENT ATL-IS-ER-0034
41
0.8000000000
72
0
100
AcDbText
0
TEXT
5
347
100
AcDbEntity
8
0
100
AcDbText
62
7
6
BYLAYER
10
229.9882491187
20
241.4088572268
7
STANDARD
40
3.5000000000
1
4 - ALL TWISTED PAIR WIRES TO LIE ONE WIRE DEEP 4mm EITHER SIDE
41
0.8000000000
72
0
100
AcDbText
0
TEXT
5
348
100
AcDbEntity
8
0
100
AcDbText
62
7
6
BYLAYER
10
229.9882491187
20
236.1588572268
7
STANDARD
40
3.5000000000
1
    OF PIPE CENTER LINES 
41
0.8000000000
72
0
100
AcDbText
0
TEXT
5
349
100
AcDbEntity
8
0
100
AcDbText
62
7
6
BYLAYER
10
229.9882491187
20
230.9088572268
7
STANDARD
40
3.5000000000
1
5 - ANY CUTS  BETWEEN TAPE LEGS MUST NOT BE SHORTENED
41
0.8000000000
72
0
100
AcDbText
0
TEXT
5
34A
100
AcDbEntity
8
0
100
AcDbText
62
7
6
BYLAYER
10
229.9882491187
20
225.6588572268
7
STANDARD
40
3.5000000000
1
6 - TAPE ENDS TO INCLUDE TEXT AS SHOWN ON 3D-VIEW
41
0.8000000000
72
0
100
AcDbText
0
TEXT
5
34B
100
AcDbEntity
8
0
100
AcDbText
62
7
6
BYLAYER
10
229.9882491187
20
220.4088572268
7
STANDARD
40
3.5000000000
1
7 - TEXT 'TD-1002-941 (W6)' TO BE LOCATED VISIBLY ON TAPE
41
0.8000000000
72
0
100
AcDbText
0
TEXT
5
34C
100
AcDbEntity
8
0
100
AcDbText
62
7
6
BYLAYER
10
229.9882491187
20
215.1588572268
7
STANDARD
40
3.5000000000
1
8 - FOR CONNECTOR POSITIONS REFER TO DRAWING TD-1010-345
41
0.8000000000
72
0
100
AcDbText
0
CIRCLE
5
34D
100
AcDbEntity
8
0
100
AcDbCircle
62
7
6
BYLAYER
10
142.8268286266
20
235.0744320162
40
0.8000000000
0
TEXT
5
34E
100
AcDbEntity
8
0
100
AcDbText
62
7
6
BYLAYER
10
153.1284023401
20
240.6348352922
7
TEXTSTYLE_2
40
4.0000000000
1
I5
41
0.6070038911
72
0
100
AcDbText
0
CIRCLE
5
34F
100
AcDbEntity
8
0
100
AcDbCircle
62
7
6
BYLAYER
10
120.5903113996
20
228.5943521837
40
0.8000000000
0
TEXT
5
350
100
AcDbEntity
8
0
100
AcDbText
62
7
6
BYLAYER
10
103.9771927602
20
234.9489068643
7
TEXTSTYLE_2
40
4.0000000000
1
O6
41
0.8891050584
72
0
100
AcDbText
0
CIRCLE
5
351
100
AcDbEntity
8
0
100
AcDbCircle
62
7
6
BYLAYER
10
39.2524345337
20
184.9785775141
40
0.8000000000
0
TEXT
5
352
100
AcDbEntity
8
0
100
AcDbText
62
7
6
BYLAYER
10
16.7416226581
20
166.3887624513
7
TEXTSTYLE_2
40
4.0000000000
1
M5
41
1.0233463035
72
0
100
AcDbText
0
TEXT
5
353
100
AcDbEntity
8
0
100
AcDbText
62
7
6
BYLAYER
10
260.1527912021
20
102.8491346695
7
STANDARD
40
4.0000000000
1
DEVELOPED VIEW
41
0.8000000000
72
0
100
AcDbText
0
SOLID
5
354
100
AcDbEntity
8
0
100
AcDbTrace
62
7
6
BYLAYER
10
300.4933315828
20
168.3390288373
11
297.1988968648
21
172.1843766615
12
298.5631581375
22
173.0203139676
13
298.5631581375
23
173.0203139676
0
POLYLINE
5
355
100
AcDbEntity
8
0
100
AcDb2dPolyline
62
7
6
BYLAYER
66
1
70
0
0
VERTEX
5
356
100
AcDbEntity
8
0
100
AcDbVertex
62
7
6
BYLAYER
100
AcDb2dVertex
10
284.1999060059
20
180.8206585693
0
VERTEX
5
357
100
AcDbEntity
8
0
100
AcDbVertex
62
7
6
BYLAYER
100
AcDb2dVertex
10
283.1999194336
20
181.1539874268
0
VERTEX
5
358
100
AcDbEntity
8
0
100
AcDbVertex
62
7
6
BYLAYER
100
AcDb2dVertex
10
282.1999072266
20
180.8206585693
0
VERTEX
5
359
100
AcDbEntity
8
0
100
AcDbVertex
62
7
6
BYLAYER
100
AcDb2dVertex
10
281.5332495117
20
180.1539880371
0
VERTEX
5
35A
100
AcDbEntity
8
0
100
AcDbVertex
62
7
6
BYLAYER
100
AcDb2dVertex
10
281.1999206543
20
179.1539886475
0
VERTEX
5
35B
100
AcDbEntity
8
0
100
AcDbVertex
62
7
6
BYLAYER
100
AcDb2dVertex
10
281.5332495117
20
178.1539892578
0
VERTEX
5
35C
100
AcDbEntity
8
0
100
AcDbVertex
62
7
6
BYLAYER
100
AcDb2dVertex
10
282.1999072266
20
177.4873187256
0
VERTEX
5
35D
100
AcDbEntity
8
0
100
AcDbVertex
62
7
6
BYLAYER
100
AcDb2dVertex
10
283.1999194336
20
177.1539898682
0
VERTEX
5
35E
100
AcDbEntity
8
0
100
AcDbVertex
62
7
6
BYLAYER
100
AcDb2dVertex
10
284.1999060059
20
177.4873187256
0
SEQEND
5
35F
100
AcDbEntity
8
0
0
POLYLINE
5
360
100
AcDbEntity
8
0
100
AcDb2dPolyline
62
7
6
BYLAYER
66
1
70
0
0
VERTEX
5
361
100
AcDbEntity
8
0
100
AcDbVertex
62
7
6
BYLAYER
100
AcDb2dVertex
10
282.8665649414
20
182.3206512451
0
VERTEX
5
362
100
AcDbEntity
8
0
100
AcDbVertex
62
7
6
BYLAYER
100
AcDb2dVertex
10
282.8665649414
20
176.1539904785
0
VERTEX
5
363
100
AcDbEntity
8
0
100
AcDbVertex
62
7
6
BYLAYER
100
AcDb2dVertex
10
285.5332470703
20
176.1539904785
0
SEQEND
5
364
100
AcDbEntity
8
0
0
TEXT
5
365
100
AcDbEntity
8
0
100
AcDbText
62
7
6
BYLAYER
10
265.1999079715
20
177.1539880417
7
STANDARD
40
4.0000000000
1
PIPE 
41
0.8000000000
72
0
100
AcDbText
0
LINE
5
366
100
AcDbEntity
8
0
100
AcDbLine
62
7
6
BYLAYER
10
0.0000000000
20
297.0000000000
11
0.0000000000
21
0.0000000000
0
LINE
5
367
100
AcDbEntity
8
0
100
AcDbLine
62
7
6
BYLAYER
10
10.0000000000
20
10.0000000000
11
10.0000000000
21
287.0000000000
0
LINE
5
368
100
AcDbEntity
8
0
100
AcDbLine
62
7
6
BYLAYER
10
10.0010000000
20
106.2230000000
11
10.0010000000
21
276.9990000000
0
LINE
5
369
100
AcDbEntity
8
0
100
AcDbLine
62
7
6
BYLAYER
10
0.0000000000
20
0.0000000000
11
420.0000000000
21
0.0000000000
0
LINE
5
36A
100
AcDbEntity
8
0
100
AcDbLine
62
7
6
BYLAYER
10
160.0381492713
20
3.8460928114
11
260.0381492713
21
3.8460928114
0
LINE
5
36B
100
AcDbEntity
8
0
100
AcDbLine
62
7
6
BYLAYER
10
160.0381492713
20
3.8460928114
11
160.0381492713
21
8.8460928114
0
LINE
5
36C
100
AcDbEntity
8
0
100
AcDbLine
62
7
6
BYLAYER
10
260.0381492713
20
3.8460928114
11
260.0381492713
21
8.8460928114
0
LINE
5
36D
100
AcDbEntity
8
0
100
AcDbLine
62
7
6
BYLAYER
10
106.2230000000
20
286.9990000000
11
237.9920000000
21
286.9990000000
0
LINE
5
36E
100
AcDbEntity
8
0
100
AcDbLine
62
7
6
BYLAYER
10
10.0000000000
20
287.0000000000
11
410.0000000000
21
287.0000000000
0
LINE
5
36F
100
AcDbEntity
8
0
100
AcDbLine
62
7
6
BYLAYER
10
0.0000000000
20
297.0000000000
11
420.0000000000
21
297.0000000000
0
LINE
5
370
100
AcDbEntity
8
0
100
AcDbLine
62
7
6
BYLAYER
10
401.4430414976
20
21.0017763982
11
401.4430414976
21
10.0350776605
0
LINE
5
371
100
AcDbEntity
8
0
100
AcDbLine
62
7
6
BYLAYER
10
410.0000000000
20
287.0000000000
11
410.0000000000
21
10.0000000000
0
LINE
5
372
100
AcDbEntity
8
0
100
AcDbLine
62
7
6
BYLAYER
10
420.0000000000
20
297.0000000000
11
420.0000000000
21
0.0000000000
0
LINE
5
373
100
AcDbEntity
8
0
100
AcDbLine
62
7
6
BYLAYER
10
23.3975085416
20
182.3930514716
11
23.4052326789
21
182.6366835108
0
LINE
5
374
100
AcDbEntity
8
0
100
AcDbLine
62
7
6
BYLAYER
10
28.0232015302
20
183.5563595810
11
28.0309256676
21
183.7999916202
0
LINE
5
375
100
AcDbEntity
8
0
100
AcDbLine
62
7
6
BYLAYER
10
28.8487579027
20
183.6189804309
11
28.8564820400
21
183.8626124701
0
LINE
5
376
100
AcDbEntity
8
0
100
AcDbLine
62
7
6
BYLAYER
10
28.7738896088
20
179.7234570617
11
28.7816137461
21
179.9670891009
0
LINE
5
377
100
AcDbEntity
8
0
100
AcDbLine
62
7
6
BYLAYER
10
30.7408936438
20
183.2011716684
11
30.8196798447
21
185.6862184685
0
LINE
5
378
100
AcDbEntity
8
0
100
AcDbLine
62
7
6
BYLAYER
10
30.8484212652
20
183.1477797802
11
30.9272074661
21
185.6328265803
0
LINE
5
379
100
AcDbEntity
8
0
100
AcDbLine
62
7
6
BYLAYER
10
33.0017391225
20
189.0571492988
11
33.0094632598
21
189.3007813380
0
LINE
5
37A
100
AcDbEntity
8
0
100
AcDbLine
62
7
6
BYLAYER
10
33.9160624304
20
183.3804692771
11
33.9948486314
21
185.8655160772
0
LINE
5
37B
100
AcDbEntity
8
0
100
AcDbLine
62
7
6
BYLAYER
10
36.5764336468
20
182.7772295312
11
36.5841577842
21
183.0208615705
0
LINE
5
37C
100
AcDbEntity
8
0
100
AcDbLine
62
7
6
BYLAYER
10
43.5915630823
20
167.1517425785
11
42.3557011070
21
128.1706163024
0
LINE
5
37D
100
AcDbEntity
8
0
100
AcDbLine
62
7
6
BYLAYER
10
45.3452701375
20
182.9280782779
11
45.3529942748
21
183.1717103171
0
LINE
5
37E
100
AcDbEntity
8
0
100
AcDbLine
62
7
6
BYLAYER
10
46.5488742383
20
182.5038041492
11
46.5565983757
21
182.7474361884
0
LINE
5
37F
100
AcDbEntity
8
0
100
AcDbLine
62
7
6
BYLAYER
10
48.7567735678
20
183.7011437103
11
48.7644977051
21
183.9447757495
0
LINE
5
380
100
AcDbEntity
8
0
100
AcDbLine
62
7
6
BYLAYER
10
38.9293375438
20
184.2467248411
11
31.9283930861
21
168.3887624513
0
LINE
5
381
100
AcDbEntity
8
0
100
AcDbLine
62
7
6
BYLAYER
10
60.7413545985
20
168.8224585019
11
60.7490787358
21
169.0660905412
0
LINE
5
382
100
AcDbEntity
8
0
100
AcDbLine
62
7
6
BYLAYER
10
61.4479245185
20
161.8800454333
11
60.2120625431
21
122.8989191572
0
LINE
5
383
100
AcDbEntity
8
0
100
AcDbLine
62
7
6
BYLAYER
10
61.6393789254
20
161.9099782377
11
60.4035169501
21
122.9288519616
0
LINE
5
384
100
AcDbEntity
8
0
100
AcDbLine
62
7
6
BYLAYER
10
69.7319429483
20
177.3485027477
11
69.7180395010
21
176.9099650771
0
LINE
5
385
100
AcDbEntity
8
0
100
AcDbLine
62
7
6
BYLAYER
10
71.4628013874
20
170.4986955469
11
71.4705255247
21
170.7423275862
0
LINE
5
386
100
AcDbEntity
8
0
100
AcDbLine
62
7
6
BYLAYER
10
74.8704642249
20
175.8314675980
11
74.8565607776
21
175.3929299274
0
LINE
5
387
100
AcDbEntity
8
0
100
AcDbLine
62
7
6
BYLAYER
10
75.0619186318
20
175.8614004024
11
75.0480151846
21
175.4228627318
0
LINE
5
388
100
AcDbEntity
8
0
100
AcDbLine
62
7
6
BYLAYER
10
75.2525311814
20
173.7596738662
11
75.2602553187
21
174.0033059054
0
LINE
5
389
100
AcDbEntity
8
0
100
AcDbLine
62
7
6
BYLAYER
10
78.6471324290
20
180.7855675872
11
78.6548565664
21
181.0291996264
0
LINE
5
38A
100
AcDbEntity
8
0
100
AcDbLine
62
7
6
BYLAYER
10
42.3557011070
20
128.1706163024
11
60.2120625431
21
122.8989191572
0
LINE
5
38B
100
AcDbEntity
8
0
100
AcDbLine
62
7
6
BYLAYER
10
80.9768497372
20
181.1498055985
11
80.9845738745
21
181.3934376377
0
LINE
5
38C
100
AcDbEntity
8
0
100
AcDbLine
62
7
6
BYLAYER
10
84.3107355054
20
182.3477582642
11
84.3184596427
21
182.5913903034
0
LINE
5
38D
100
AcDbEntity
8
0
100
AcDbLine
62
7
6
BYLAYER
10
23.3975085416
20
182.3930514716
11
28.7738896088
21
179.7234570617
0
LINE
5
38E
100
AcDbEntity
8
0
100
AcDbLine
62
7
6
BYLAYER
10
23.4052326789
20
182.6366835108
11
28.7816137461
21
179.9670891009
0
LINE
5
38F
100
AcDbEntity
8
0
100
AcDbLine
62
7
6
BYLAYER
10
26.4728738442
20
182.8693730078
11
30.3200905520
21
180.9590716194
0
LINE
5
390
100
AcDbEntity
8
0
100
AcDbLine
62
7
6
BYLAYER
10
30.8484212652
20
183.1477797802
11
30.7408936438
21
183.2011716684
0
LINE
5
391
100
AcDbEntity
8
0
100
AcDbLine
62
7
6
BYLAYER
10
99.1489400319
20
201.7637011151
11
99.1566641693
21
202.0073331543
0
LINE
5
392
100
AcDbEntity
8
0
100
AcDbLine
62
7
6
BYLAYER
10
102.6511367309
20
202.6925632486
11
102.6588608683
21
202.9361952878
0
LINE
5
393
100
AcDbEntity
8
0
100
AcDbLine
62
7
6
BYLAYER
10
113.4138930681
20
229.4731008584
11
113.4061689308
21
229.2294688191
0
LINE
5
394
100
AcDbEntity
8
0
100
AcDbLine
62
7
6
BYLAYER
10
91.2685463828
20
202.5363661055
11
76.4303418563
21
183.1204232546
0
LINE
5
395
100
AcDbEntity
8
0
100
AcDbLine
62
7
6
BYLAYER
10
99.1566641693
20
202.0073331543
11
84.3184596427
21
182.5913903034
0
LINE
5
396
100
AcDbEntity
8
0
100
AcDbLine
62
7
6
BYLAYER
10
99.1489400319
20
201.7637011151
11
84.3107355054
21
182.3477582642
0
LINE
5
397
100
AcDbEntity
8
0
100
AcDbLine
62
7
6
BYLAYER
10
27.3941063897
20
184.5887421496
11
30.1325005036
21
186.2243748624
0
LINE
5
398
100
AcDbEntity
8
0
100
AcDbLine
62
7
6
BYLAYER
10
60.4035169501
20
122.9288519616
11
60.2120625431
21
122.8989191572
0
LINE
5
399
100
AcDbEntity
8
0
100
AcDbLine
62
7
6
BYLAYER
10
43.5915630823
20
167.1517425785
11
48.4731582951
21
165.7105591863
0
LINE
5
39A
100
AcDbEntity
8
0
100
AcDbLine
62
7
6
BYLAYER
10
48.4731582951
20
165.7105591863
11
56.5663293057
21
163.3212288255
0
LINE
5
39B
100
AcDbEntity
8
0
100
AcDbLine
62
7
6
BYLAYER
10
56.5663293057
20
163.3212288255
11
61.4479245185
21
161.8800454333
0
LINE
5
39C
100
AcDbEntity
8
0
100
AcDbLine
62
7
6
BYLAYER
10
43.7830174892
20
167.1816753829
11
48.4966360637
21
165.7900833908
0
LINE
5
39D
100
AcDbEntity
8
0
100
AcDbLine
62
7
6
BYLAYER
10
56.7577837127
20
163.3511616299
11
61.6393789254
21
161.9099782377
0
LINE
5
39E
100
AcDbEntity
8
0
100
AcDbLine
62
7
6
BYLAYER
10
52.6559077252
20
171.4554209019
11
60.7490787358
21
169.0660905412
0
LINE
5
39F
100
AcDbEntity
8
0
100
AcDbLine
62
7
6
BYLAYER
10
30.9272074661
20
185.6328265803
11
30.8196798447
21
185.6862184685
0
LINE
5
3A0
100
AcDbEntity
8
0
100
AcDbLine
62
7
6
BYLAYER
10
33.0017391225
20
189.0571492988
11
45.3452701375
21
182.9280782779
0
LINE
5
3A1
100
AcDbEntity
8
0
100
AcDbLine
62
7
6
BYLAYER
10
33.0094632598
20
189.3007813380
11
45.3529942748
21
183.1717103171
0
LINE
5
3A2
100
AcDbEntity
8
0
100
AcDbLine
62
7
6
BYLAYER
10
36.0771044251
20
189.5334708350
11
48.4206354401
21
183.4043998141
0
LINE
5
3A3
100
AcDbEntity
8
0
100
AcDbLine
62
7
6
BYLAYER
10
48.7644977051
20
183.9447757495
11
42.3128404245
21
187.1482890414
0
LINE
5
3A4
100
AcDbEntity
8
0
100
AcDbLine
62
7
6
BYLAYER
10
118.8720045214
20
216.2076632965
11
118.6872300069
21
206.5812421289
0
LINE
5
3A5
100
AcDbEntity
8
0
100
AcDbLine
62
7
6
BYLAYER
10
122.2703504081
20
216.1020200999
11
122.0855758936
21
206.4755989323
0
LINE
5
3A6
100
AcDbEntity
8
0
100
AcDbLine
62
7
6
BYLAYER
10
118.2628515846
20
205.0092435297
11
118.2705757219
21
205.2528755689
0
LINE
5
3A7
100
AcDbEntity
8
0
100
AcDbLine
62
7
6
BYLAYER
10
118.9246478536
20
203.9269563581
11
118.9323719910
21
204.1705883973
0
LINE
5
3A8
100
AcDbEntity
8
0
100
AcDbLine
62
7
6
BYLAYER
10
119.8655503487
20
226.2695875665
11
119.8578262114
21
226.0259555272
0
LINE
5
3A9
100
AcDbEntity
8
0
100
AcDbLine
62
7
6
BYLAYER
10
124.3796370337
20
216.4761720099
11
124.3873611710
21
216.7198040492
0
LINE
5
3AA
100
AcDbEntity
8
0
100
AcDbLine
62
7
6
BYLAYER
10
125.0128012471
20
216.5110938308
11
125.0205253845
21
216.7547258700
0
LINE
5
3AB
100
AcDbEntity
8
0
100
AcDbLine
62
7
6
BYLAYER
10
125.2403796645
20
204.4060229694
11
125.2481038019
21
204.6496550086
0
LINE
5
3AC
100
AcDbEntity
8
0
100
AcDbLine
62
7
6
BYLAYER
10
128.0526727812
20
226.6475584538
11
127.9008040901
21
221.8573693019
0
LINE
5
3AD
100
AcDbEntity
8
0
100
AcDbLine
62
7
6
BYLAYER
10
129.2963761212
20
226.7418969663
11
129.1179873724
21
221.1152214304
0
LINE
5
3AE
100
AcDbEntity
8
0
100
AcDbLine
62
7
6
BYLAYER
10
129.5298326283
20
226.7596053208
11
129.3512904108
21
221.1280891300
0
LINE
5
3AF
100
AcDbEntity
8
0
100
AcDbLine
62
7
6
BYLAYER
10
129.0354321311
20
205.5206848792
11
129.0431562685
21
205.7643169184
0
LINE
5
3B0
100
AcDbEntity
8
0
100
AcDbLine
62
7
6
BYLAYER
10
132.0458902697
20
227.1935017455
11
132.0381661323
21
226.9498697063
0
LINE
5
3B1
100
AcDbEntity
8
0
100
AcDbLine
62
7
6
BYLAYER
10
122.0855758936
20
206.4755989323
11
122.0853687434
21
206.4713666187
0
LINE
5
3B2
100
AcDbEntity
8
0
100
AcDbLine
62
7
6
BYLAYER
10
118.8722343284
20
216.2119095945
11
118.8720045214
21
216.2076632965
0
LINE
5
3B3
100
AcDbEntity
8
0
100
AcDbLine
62
7
6
BYLAYER
10
118.6872300069
20
206.5812421289
11
118.6870605886
21
206.5791214927
0
LINE
5
3B4
100
AcDbEntity
8
0
100
AcDbLine
62
7
6
BYLAYER
10
122.2705457571
20
216.1041522099
11
122.2703504081
21
216.1020200999
0
LINE
5
3B5
100
AcDbEntity
8
0
100
AcDbLine
62
7
6
BYLAYER
10
127.7471467645
20
211.8659651158
11
125.6549330978
21
205.9247972706
0
LINE
5
3B6
100
AcDbEntity
8
0
100
AcDbLine
62
7
6
BYLAYER
10
131.1353699352
20
211.7054847636
11
129.0431562685
21
205.7643169184
0
LINE
5
3B7
100
AcDbEntity
8
0
100
AcDbLine
62
7
6
BYLAYER
10
129.1126146727
20
205.7398567742
11
129.0354321311
21
205.5206848792
0
LINE
5
3B8
100
AcDbEntity
8
0
100
AcDbLine
62
7
6
BYLAYER
10
143.1469869051
20
235.8075750286
11
146.1284023401
21
242.6348352922
0
LINE
5
3B9
100
AcDbEntity
8
0
100
AcDbLine
62
7
6
BYLAYER
10
132.0458902697
20
227.1935017455
11
134.7842843835
21
228.8291344583
0
LINE
5
3BA
100
AcDbEntity
8
0
100
AcDbLine
62
7
6
BYLAYER
10
132.0381661323
20
226.9498697063
11
134.7765602462
21
228.5855024190
0
LINE
5
3BB
100
AcDbEntity
8
0
100
AcDbLine
62
7
6
BYLAYER
10
134.0452073327
20
234.5122132410
11
137.3814663423
21
236.0767608295
0
LINE
5
3BC
100
AcDbEntity
8
0
100
AcDbLine
62
7
6
BYLAYER
10
28.7738896088
20
179.7234570617
11
29.2552408139
21
179.6221036646
0
LINE
5
3BD
100
AcDbEntity
8
0
100
AcDbLine
62
7
6
BYLAYER
10
28.7816137461
20
179.9670891009
11
29.2362232176
21
179.8713664481
0
LINE
5
3BE
100
AcDbEntity
8
0
100
AcDbLine
62
7
6
BYLAYER
10
46.5488742383
20
182.5038041492
11
69.5964061520
21
176.4471135498
0
LINE
5
3BF
100
AcDbEntity
8
0
100
AcDbLine
62
7
6
BYLAYER
10
46.5565983757
20
182.7474361884
11
69.6567936375
21
176.6769061199
0
LINE
5
3C0
100
AcDbEntity
8
0
100
AcDbLine
62
7
6
BYLAYER
10
49.0134553704
20
183.1954289746
11
69.8308316022
21
177.7248038595
0
LINE
5
3C1
100
AcDbEntity
8
0
100
AcDbLine
62
7
6
BYLAYER
10
75.1820534030
20
176.3185493895
11
75.7981972391
21
176.1566321571
0
LINE
5
3C2
100
AcDbEntity
8
0
100
AcDbLine
62
7
6
BYLAYER
10
65.5612260566
20
172.4869180083
11
66.3320042481
21
172.2593627359
0
LINE
5
3C3
100
AcDbEntity
8
0
100
AcDbLine
62
7
6
BYLAYER
10
66.3320042481
20
172.2593627359
11
71.4705255247
21
170.7423275862
0
LINE
5
3C4
100
AcDbEntity
8
0
100
AcDbLine
62
7
6
BYLAYER
10
69.7180395010
20
176.9099650771
11
74.8565607776
21
175.3929299274
0
LINE
5
3C5
100
AcDbEntity
8
0
100
AcDbLine
62
7
6
BYLAYER
10
69.7319429483
20
177.3485027477
11
74.8704642249
21
175.8314675980
0
LINE
5
3C6
100
AcDbEntity
8
0
100
AcDbLine
62
7
6
BYLAYER
10
73.5163352898
20
182.5462347761
11
78.6548565664
21
181.0291996264
0
LINE
5
3C7
100
AcDbEntity
8
0
100
AcDbLine
62
7
6
BYLAYER
10
132.9968507441
20
212.0108653068
11
133.0045748814
21
212.2544973460
0
LINE
5
3C8
100
AcDbEntity
8
0
100
AcDbLine
62
7
6
BYLAYER
10
133.9341712802
20
233.4536021504
11
133.9418954175
21
233.6972341896
0
LINE
5
3C9
100
AcDbEntity
8
0
100
AcDbLine
62
7
6
BYLAYER
10
134.7842843835
20
228.8291344583
11
134.7765602462
21
228.5855024190
0
LINE
5
3CA
100
AcDbEntity
8
0
100
AcDbLine
62
7
6
BYLAYER
10
134.9782675748
20
228.8438486470
11
134.9705434375
21
228.6002166078
0
LINE
5
3CB
100
AcDbEntity
8
0
100
AcDbLine
62
7
6
BYLAYER
10
134.4480827874
20
212.1209454746
11
134.4558069248
21
212.3645775138
0
LINE
5
3CC
100
AcDbEntity
8
0
100
AcDbLine
62
7
6
BYLAYER
10
135.2546664776
20
233.5264333302
11
135.2623906150
21
233.7700653694
0
LINE
5
3CD
100
AcDbEntity
8
0
100
AcDbLine
62
7
6
BYLAYER
10
137.2114089090
20
225.4754634916
11
136.9592930660
21
217.5233137313
0
LINE
5
3CE
100
AcDbEntity
8
0
100
AcDbLine
62
7
6
BYLAYER
10
138.6737845592
20
224.7493338121
11
138.4216687163
21
216.7971840518
0
LINE
5
3CF
100
AcDbEntity
8
0
100
AcDbLine
62
7
6
BYLAYER
10
138.8993464096
20
224.7664433340
11
138.6472305666
21
216.8142935737
0
LINE
5
3D0
100
AcDbEntity
8
0
100
AcDbLine
62
7
6
BYLAYER
10
142.7436684506
20
232.5589470041
11
142.7513925879
21
232.8025790433
0
LINE
5
3D1
100
AcDbEntity
8
0
100
AcDbLine
62
7
6
BYLAYER
10
31.9283930861
20
168.3887624513
11
24.9283930861
21
168.3887624513
0
LINE
5
3D2
100
AcDbEntity
8
0
100
AcDbLine
62
7
6
BYLAYER
10
36.5764336468
20
182.7772295312
11
33.8823192514
21
183.0706907596
0
LINE
5
3D3
100
AcDbEntity
8
0
100
AcDbLine
62
7
6
BYLAYER
10
30.7636835313
20
183.4103937324
11
28.8487579027
21
183.6189804309
0
LINE
5
3D4
100
AcDbEntity
8
0
100
AcDbLine
62
7
6
BYLAYER
10
36.5841577842
20
183.0208615705
11
33.9086366966
21
183.3122974895
0
LINE
5
3D5
100
AcDbEntity
8
0
100
AcDbLine
62
7
6
BYLAYER
10
30.7900009764
20
183.6520004623
11
28.8564820400
21
183.8626124701
0
LINE
5
3D6
100
AcDbEntity
8
0
100
AcDbLine
62
7
6
BYLAYER
10
32.5203879173
20
189.1585026959
11
33.0017391225
21
189.0571492988
0
LINE
5
3D7
100
AcDbEntity
8
0
100
AcDbLine
62
7
6
BYLAYER
10
32.5013703211
20
189.4077654794
11
33.0094632598
21
189.3007813380
0
LINE
5
3D8
100
AcDbEntity
8
0
100
AcDbLine
62
7
6
BYLAYER
10
35.5690114863
20
189.6404549764
11
36.0771044251
21
189.5334708350
0
LINE
5
3D9
100
AcDbEntity
8
0
100
AcDbLine
62
7
6
BYLAYER
10
151.1425778336
20
233.0221841904
11
151.1503019709
21
233.2658162297
0
LINE
5
3DA
100
AcDbEntity
8
0
100
AcDbLine
62
7
6
BYLAYER
10
61.6393789254
20
161.9099782377
11
61.4479245185
21
161.8800454333
0
LINE
5
3DB
100
AcDbEntity
8
0
100
AcDbLine
62
7
6
BYLAYER
10
56.7577837127
20
163.3511616299
11
56.5663293057
21
163.3212288255
0
LINE
5
3DC
100
AcDbEntity
8
0
100
AcDbLine
62
7
6
BYLAYER
10
71.4628013874
20
170.4986955469
11
60.7413545985
21
168.8224585019
0
LINE
5
3DD
100
AcDbEntity
8
0
100
AcDbLine
62
7
6
BYLAYER
10
71.4705255247
20
170.7423275862
11
60.7490787358
21
169.0660905412
0
LINE
5
3DE
100
AcDbEntity
8
0
100
AcDbLine
62
7
6
BYLAYER
10
43.7830174892
20
167.1816753829
11
43.5915630823
21
167.1517425785
0
LINE
5
3DF
100
AcDbEntity
8
0
100
AcDbLine
62
7
6
BYLAYER
10
75.2525311814
20
173.7596738662
11
74.6858146195
21
173.6710709646
0
LINE
5
3E0
100
AcDbEntity
8
0
100
AcDbLine
62
7
6
BYLAYER
10
66.8621086883
20
172.4478791725
11
66.0980712943
21
172.3284262844
0
LINE
5
3E1
100
AcDbEntity
8
0
100
AcDbLine
62
7
6
BYLAYER
10
75.2602553187
20
174.0033059054
11
74.7910896496
21
173.9299545294
0
LINE
5
3E2
100
AcDbEntity
8
0
100
AcDbLine
62
7
6
BYLAYER
10
67.5757059611
20
172.8018704498
11
65.5612260566
21
172.4869180083
0
LINE
5
3E3
100
AcDbEntity
8
0
100
AcDbLine
62
7
6
BYLAYER
10
68.7197107786
20
173.9669048735
11
52.6559077252
21
171.4554209019
0
LINE
5
3E4
100
AcDbEntity
8
0
100
AcDbLine
62
7
6
BYLAYER
10
75.0480151846
20
175.4228627318
11
74.8565607776
21
175.3929299274
0
LINE
5
3E5
100
AcDbEntity
8
0
100
AcDbLine
62
7
6
BYLAYER
10
75.0619186318
20
175.8614004024
11
74.8704642249
21
175.8314675980
0
LINE
5
3E6
100
AcDbEntity
8
0
100
AcDbLine
62
7
6
BYLAYER
10
80.9768497372
20
181.1498055985
11
78.6471324290
21
180.7855675872
0
LINE
5
3E7
100
AcDbEntity
8
0
100
AcDbLine
62
7
6
BYLAYER
10
80.9845738745
20
181.3934376377
11
78.6548565664
21
181.0291996264
0
LINE
5
3E8
100
AcDbEntity
8
0
100
AcDbLine
62
7
6
BYLAYER
10
32.3209255683
20
179.8544134097
11
29.2532844030
21
179.6217239127
0
LINE
5
3E9
100
AcDbEntity
8
0
100
AcDbLine
62
7
6
BYLAYER
10
28.7816137461
20
179.9670891009
11
29.5696248963
21
180.0268620366
0
LINE
5
3EA
100
AcDbEntity
8
0
100
AcDbLine
62
7
6
BYLAYER
10
48.7567735678
20
183.7011437103
11
47.9467541305
21
183.6397013820
0
LINE
5
3EB
100
AcDbEntity
8
0
100
AcDbLine
62
7
6
BYLAYER
10
44.4467755031
20
183.3742178322
11
36.5764336468
21
182.7772295312
0
LINE
5
3EC
100
AcDbEntity
8
0
100
AcDbLine
62
7
6
BYLAYER
10
48.7644977051
20
183.9447757495
11
47.5221408057
21
183.8505393684
0
LINE
5
3ED
100
AcDbEntity
8
0
100
AcDbLine
62
7
6
BYLAYER
10
44.0221621784
20
183.5850558186
11
36.5841577842
21
183.0208615705
0
LINE
5
3EE
100
AcDbEntity
8
0
100
AcDbLine
62
7
6
BYLAYER
10
30.8484212652
20
183.1477797802
11
33.9160624304
21
183.3804692771
0
LINE
5
3EF
100
AcDbEntity
8
0
100
AcDbLine
62
7
6
BYLAYER
10
28.8487579027
20
183.6189804309
11
28.0232015302
21
183.5563595810
0
LINE
5
3F0
100
AcDbEntity
8
0
100
AcDbLine
62
7
6
BYLAYER
10
28.8564820400
20
183.8626124701
11
28.0309256676
21
183.7999916202
0
LINE
5
3F1
100
AcDbEntity
8
0
100
AcDbLine
62
7
6
BYLAYER
10
27.3941063897
20
184.5887421496
11
26.5685500173
21
184.5261212997
0
LINE
5
3F2
100
AcDbEntity
8
0
100
AcDbLine
62
7
6
BYLAYER
10
116.9538637583
20
205.1529991401
11
117.4699963407
21
204.8967180768
0
LINE
5
3F3
100
AcDbEntity
8
0
100
AcDbLine
62
7
6
BYLAYER
10
123.8033421021
20
217.4968737416
11
125.0205253845
21
216.7547258700
0
LINE
5
3F4
100
AcDbEntity
8
0
100
AcDbLine
62
7
6
BYLAYER
10
120.1144174322
20
229.2374112259
11
114.4075475920
21
236.9489068643
0
LINE
5
3F5
100
AcDbEntity
8
0
100
AcDbLine
62
7
6
BYLAYER
10
75.8460525979
20
182.9104727874
11
73.5163352898
21
182.5462347761
0
LINE
5
3F6
100
AcDbEntity
8
0
100
AcDbLine
62
7
6
BYLAYER
10
30.9272074661
20
185.6328265803
11
33.9948486314
21
185.8655160772
0
LINE
5
3F7
100
AcDbEntity
8
0
100
AcDbLine
62
7
6
BYLAYER
10
30.1325005036
20
186.2243748624
11
30.7751614636
21
186.2731225637
0
LINE
5
3F8
100
AcDbEntity
8
0
100
AcDbLine
62
7
6
BYLAYER
10
34.0640131085
20
186.5225915184
11
37.5705048978
21
186.7885691105
0
LINE
5
3F9
100
AcDbEntity
8
0
100
AcDbLine
62
7
6
BYLAYER
10
41.0704835251
20
187.0540526603
11
42.3128404245
21
187.1482890414
0
LINE
5
3FA
100
AcDbEntity
8
0
100
AcDbLine
62
7
6
BYLAYER
10
33.0094632598
20
189.3007813380
11
36.0771044251
21
189.5334708350
0
LINE
5
3FB
100
AcDbEntity
8
0
100
AcDbLine
62
7
6
BYLAYER
10
32.9724151095
20
189.4437398008
11
35.5710765867
21
189.6408558256
0
LINE
5
3FC
100
AcDbEntity
8
0
100
AcDbLine
62
7
6
BYLAYER
10
125.2403796645
20
204.4060229694
11
102.6511367309
21
202.6925632486
0
LINE
5
3FD
100
AcDbEntity
8
0
100
AcDbLine
62
7
6
BYLAYER
10
125.2481038019
20
204.6496550086
11
102.6588608683
21
202.9361952878
0
LINE
5
3FE
100
AcDbEntity
8
0
100
AcDbLine
62
7
6
BYLAYER
10
123.7857281516
20
205.3757846881
11
117.4699963407
21
204.8967180768
0
LINE
5
3FF
100
AcDbEntity
8
0
100
AcDbLine
62
7
6
BYLAYER
10
118.2628515846
20
205.0092435297
11
117.4660455120
21
204.9488034736
0
LINE
5
400
100
AcDbEntity
8
0
100
AcDbLine
62
7
6
BYLAYER
10
118.2705757219
20
205.2528755689
11
116.9538637583
21
205.1529991401
0
LINE
5
401
100
AcDbEntity
8
0
100
AcDbLine
62
7
6
BYLAYER
10
116.8082000717
20
205.9790052484
11
99.2179769853
21
204.6447357102
0
LINE
5
402
100
AcDbEntity
8
0
100
AcDbLine
62
7
6
BYLAYER
10
132.9934312745
20
213.0907071933
11
134.4558069248
21
212.3645775138
0
LINE
5
403
100
AcDbEntity
8
0
100
AcDbLine
62
7
6
BYLAYER
10
136.9592930660
20
217.5233137313
11
138.4216687163
21
216.7971840518
0
LINE
5
404
100
AcDbEntity
8
0
100
AcDbLine
62
7
6
BYLAYER
10
119.8578262114
20
226.0259555272
11
113.4061689308
21
229.2294688191
0
LINE
5
405
100
AcDbEntity
8
0
100
AcDbLine
62
7
6
BYLAYER
10
113.4138930681
20
229.4731008584
11
119.8655503487
21
226.2695875665
0
LINE
5
406
100
AcDbEntity
8
0
100
AcDbLine
62
7
6
BYLAYER
10
137.2114089090
20
225.4754634916
11
138.6737845592
21
224.7493338121
0
LINE
5
407
100
AcDbEntity
8
0
100
AcDbLine
62
7
6
BYLAYER
10
133.5158919246
20
229.5699783265
11
134.9782675748
21
228.8438486470
0
LINE
5
408
100
AcDbEntity
8
0
100
AcDbLine
62
7
6
BYLAYER
10
136.8405338702
20
228.4889551921
11
135.3781582199
21
229.2150848716
0
LINE
5
409
100
AcDbEntity
8
0
100
AcDbLine
62
7
6
BYLAYER
10
127.9008040901
20
221.8573693019
11
129.1179873724
21
221.1152214304
0
LINE
5
40A
100
AcDbEntity
8
0
100
AcDbLine
62
7
6
BYLAYER
10
132.7247121352
20
234.4393820611
11
133.9418954175
21
233.6972341896
0
LINE
5
40B
100
AcDbEntity
8
0
100
AcDbLine
62
7
6
BYLAYER
10
134.4480827874
20
212.1209454746
11
132.9968507441
21
212.0108653068
0
LINE
5
40C
100
AcDbEntity
8
0
100
AcDbLine
62
7
6
BYLAYER
10
134.4558069248
20
212.3645775138
11
133.0045748814
21
212.2544973460
0
LINE
5
40D
100
AcDbEntity
8
0
100
AcDbLine
62
7
6
BYLAYER
10
132.9934312745
20
213.0907071933
11
131.5421992311
21
212.9806270255
0
LINE
5
40E
100
AcDbEntity
8
0
100
AcDbLine
62
7
6
BYLAYER
10
138.6472305666
20
216.8142935737
11
138.4216687163
21
216.7971840518
0
LINE
5
40F
100
AcDbEntity
8
0
100
AcDbLine
62
7
6
BYLAYER
10
138.8993464096
20
224.7664433340
11
138.6737845592
21
224.7493338121
0
LINE
5
410
100
AcDbEntity
8
0
100
AcDbLine
62
7
6
BYLAYER
10
119.8578262114
20
226.0259555272
11
132.0381661323
21
226.9498697063
0
LINE
5
411
100
AcDbEntity
8
0
100
AcDbLine
62
7
6
BYLAYER
10
119.8655503487
20
226.2695875665
11
132.0458902697
21
227.1935017455
0
LINE
5
412
100
AcDbEntity
8
0
100
AcDbLine
62
7
6
BYLAYER
10
134.7765602462
20
228.5855024190
11
134.9705434375
21
228.6002166078
0
LINE
5
413
100
AcDbEntity
8
0
100
AcDbLine
62
7
6
BYLAYER
10
125.0128012471
20
216.5110938308
11
124.3796370337
21
216.4761720099
0
LINE
5
414
100
AcDbEntity
8
0
100
AcDbLine
62
7
6
BYLAYER
10
125.0205253845
20
216.7547258700
11
124.3873611710
21
216.7198040492
0
LINE
5
415
100
AcDbEntity
8
0
100
AcDbLine
62
7
6
BYLAYER
10
123.8033421021
20
217.4968737416
11
123.1701778887
21
217.4619519207
0
LINE
5
416
100
AcDbEntity
8
0
100
AcDbLine
62
7
6
BYLAYER
10
129.3512904108
20
221.1280891300
11
129.1179873724
21
221.1152214304
0
LINE
5
417
100
AcDbEntity
8
0
100
AcDbLine
62
7
6
BYLAYER
10
133.3219087332
20
229.5552641377
11
125.5942329891
21
230.3970150374
0
LINE
5
418
100
AcDbEntity
8
0
100
AcDbLine
62
7
6
BYLAYER
10
142.7436684506
20
232.5589470041
11
135.2546664776
21
233.5264333302
0
LINE
5
419
100
AcDbEntity
8
0
100
AcDbLine
62
7
6
BYLAYER
10
142.7513925879
20
232.8025790433
11
135.2623906150
21
233.7700653694
0
LINE
5
41A
100
AcDbEntity
8
0
100
AcDbLine
62
7
6
BYLAYER
10
151.1503019709
20
233.2658162297
11
145.7803757253
21
236.5399980159
0
LINE
5
41B
100
AcDbEntity
8
0
100
AcDbLine
62
7
6
BYLAYER
10
134.7842843835
20
228.8291344583
11
134.9782675748
21
228.8438486470
0
LINE
5
41C
100
AcDbEntity
8
0
100
AcDbLine
62
7
6
BYLAYER
10
133.3219087332
20
229.5552641377
11
133.5158919246
21
229.5699783265
0
LINE
5
41D
100
AcDbEntity
8
0
100
AcDbLine
62
7
6
BYLAYER
10
125.5942329891
20
230.3970150374
11
113.4138930681
21
229.4731008584
0
LINE
5
41E
100
AcDbEntity
8
0
100
AcDbLine
62
7
6
BYLAYER
10
151.1425778336
20
233.0221841904
11
142.7436684506
21
232.5589470041
0
LINE
5
41F
100
AcDbEntity
8
0
100
AcDbLine
62
7
6
BYLAYER
10
151.1503019709
20
233.2658162297
11
142.7513925879
21
232.8025790433
0
LINE
5
420
100
AcDbEntity
8
0
100
AcDbLine
62
7
6
BYLAYER
10
135.2546664776
20
233.5264333302
11
133.9341712802
21
233.4536021504
0
LINE
5
421
100
AcDbEntity
8
0
100
AcDbLine
62
7
6
BYLAYER
10
135.2623906150
20
233.7700653694
11
133.9418954175
21
233.6972341896
0
LINE
5
422
100
AcDbEntity
8
0
100
AcDbLine
62
7
6
BYLAYER
10
134.0452073327
20
234.5122132410
11
132.7247121352
21
234.4393820611
0
LINE
5
423
100
AcDbEntity
8
0
100
AcDbLine
62
7
6
BYLAYER
10
137.3814663423
20
236.0767608295
11
145.7803757253
21
236.5399980159
0
LINE
5
424
100
AcDbEntity
8
0
100
AcDbLine
62
7
6
BYLAYER
10
114.4075475920
20
236.9489068643
11
111.0900332271
21
236.9489068643
0
LINE
5
425
100
AcDbEntity
8
0
100
AcDbLine
62
7
6
BYLAYER
10
146.1284023401
20
242.6348352922
11
153.1284023401
21
242.6348352922
0
LINE
5
426
100
AcDbEntity
8
0
100
AcDbLine
62
7
6
BYLAYER
10
111.0951289521
20
106.6147955425
11
111.0951289521
21
78.8147955425
0
LINE
5
427
100
AcDbEntity
8
0
100
AcDbLine
62
7
6
BYLAYER
10
151.0951289521
20
106.6147955425
11
151.0951289521
21
78.8147955425
0
LINE
5
428
100
AcDbEntity
8
0
100
AcDbLine
62
7
6
BYLAYER
10
186.5198162697
20
141.2335010557
11
189.0321141560
21
102.5285452556
0
LINE
5
429
100
AcDbEntity
8
0
100
AcDbLine
62
7
6
BYLAYER
10
159.0741105861
20
99.0147955425
11
159.0741105861
21
86.4147955425
0
LINE
5
42A
100
AcDbEntity
8
0
100
AcDbLine
62
7
6
BYLAYER
10
173.0741105861
20
95.6147955425
11
173.0741105861
21
86.4147955425
0
LINE
5
42B
100
AcDbEntity
8
0
100
AcDbLine
62
7
6
BYLAYER
10
179.8749949750
20
94.4147955425
11
179.8749949750
21
86.4147955425
0
LINE
5
42C
100
AcDbEntity
8
0
100
AcDbLine
62
7
6
BYLAYER
10
180.3249949750
20
94.4147955425
11
180.3249949750
21
86.4147955425
0
LINE
5
42D
100
AcDbEntity
8
0
100
AcDbLine
62
7
6
BYLAYER
10
189.9126764316
20
141.4537280328
11
192.4249743180
21
102.7487722327
0
LINE
5
42E
100
AcDbEntity
8
0
100
AcDbLine
62
7
6
BYLAYER
10
187.5185784456
20
94.4147955425
11
187.5185784456
21
86.4147955425
0
LINE
5
42F
100
AcDbEntity
8
0
100
AcDbLine
62
7
6
BYLAYER
10
201.1768449815
20
199.2487536730
11
186.7191573983
21
143.3450237730
0
LINE
5
430
100
AcDbEntity
8
0
100
AcDbLine
62
7
6
BYLAYER
10
204.4685469588
20
198.3974616592
11
190.0108593755
21
142.4937317592
0
LINE
5
431
100
AcDbEntity
8
0
100
AcDbLine
62
7
6
BYLAYER
10
230.3642887729
20
204.6116213686
11
226.6085887121
21
190.0894067630
0
LINE
5
432
100
AcDbEntity
8
0
100
AcDbLine
62
7
6
BYLAYER
10
210.2268352901
20
203.8286991327
11
217.2942956278
21
207.9917514234
0
LINE
5
433
100
AcDbEntity
8
0
100
AcDbLine
62
7
6
BYLAYER
10
151.0951289521
20
78.8147955425
11
111.0951289521
21
78.8147955425
0
LINE
5
434
100
AcDbEntity
8
0
100
AcDbLine
62
7
6
BYLAYER
10
190.5607091352
20
86.4147955425
11
151.0951289521
21
86.4147955425
0
LINE
5
435
100
AcDbEntity
8
0
100
AcDbLine
62
7
6
BYLAYER
10
213.5385955670
20
193.4695368177
11
209.3755432763
21
200.5369971554
0
LINE
5
436
100
AcDbEntity
8
0
100
AcDbLine
62
7
6
BYLAYER
10
289.9722626464
20
148.9414689384
11
289.6718066415
21
147.7796917699
0
LINE
5
437
100
AcDbEntity
8
0
100
AcDbLine
62
7
6
BYLAYER
10
190.5607091352
20
94.4147955425
11
173.0741105861
21
94.4147955425
0
LINE
5
438
100
AcDbEntity
8
0
100
AcDbLine
62
7
6
BYLAYER
10
185.7390439988
20
95.6147955425
11
173.0741105861
21
95.6147955425
0
LINE
5
439
100
AcDbEntity
8
0
100
AcDbLine
62
7
6
BYLAYER
10
185.7390439988
20
99.0147955425
11
151.0951289521
21
99.0147955425
0
LINE
5
43A
100
AcDbEntity
8
0
100
AcDbLine
62
7
6
BYLAYER
10
151.0951289521
20
106.6147955425
11
111.0951289521
21
106.6147955425
0
LINE
5
43B
100
AcDbEntity
8
0
100
AcDbLine
62
7
6
BYLAYER
10
326.6183901310
20
167.6623144953
11
325.7670981172
21
164.3706125180
0
LINE
5
43C
100
AcDbEntity
8
0
100
AcDbLine
62
7
6
BYLAYER
10
331.5139586956
20
187.8069454982
11
330.4070269705
21
184.5921823411
0
LINE
5
43D
100
AcDbEntity
8
0
100
AcDbLine
62
7
6
BYLAYER
10
323.5761200627
20
186.0202849255
11
295.5820307032
21
152.9312440181
0
LINE
5
43E
100
AcDbEntity
8
0
100
AcDbLine
62
7
6
BYLAYER
10
326.1718009120
20
183.8242792496
11
298.1777115525
21
150.7352383422
0
LINE
5
43F
100
AcDbEntity
8
0
100
AcDbLine
62
7
6
BYLAYER
10
260.4783117842
20
153.7651599974
11
191.6666220048
21
94.8236887597
0
LINE
5
440
100
AcDbEntity
8
0
100
AcDbLine
62
7
6
BYLAYER
10
265.6826076413
20
147.6893633721
11
196.8709178619
21
88.7478921344
0
LINE
5
441
100
AcDbEntity
8
0
100
AcDbLine
62
7
6
BYLAYER
10
295.5975481104
20
142.7353297643
11
271.3583846542
21
149.0040036641
0
LINE
5
442
100
AcDbEntity
8
0
100
AcDbLine
62
7
6
BYLAYER
10
193.9046910011
20
171.1294206489
11
197.1963929784
21
170.2781286351
0
LINE
5
443
100
AcDbEntity
8
0
100
AcDbLine
62
7
6
BYLAYER
10
296.4488401242
20
146.0270317415
11
289.6718066415
21
147.7796917699
0
LINE
5
444
100
AcDbEntity
8
0
100
AcDbLine
62
7
6
BYLAYER
10
291.3851473812
20
148.5760721013
11
289.9722626464
21
148.9414689384
0
LINE
5
445
100
AcDbEntity
8
0
100
AcDbLine
62
7
6
BYLAYER
10
292.2364393950
20
151.8677740786
11
273.3614246867
21
156.7491847871
0
LINE
5
446
100
AcDbEntity
8
0
100
AcDbLine
62
7
6
BYLAYER
10
195.7058204596
20
178.0938715118
11
198.9975224369
21
177.2425794980
0
LINE
5
447
100
AcDbEntity
8
0
100
AcDbLine
62
7
6
BYLAYER
10
196.3442894699
20
180.5626479947
11
199.6359914472
21
179.7113559809
0
LINE
5
448
100
AcDbEntity
8
0
100
AcDbLine
62
7
6
BYLAYER
10
300.4933315828
20
168.3390288373
11
293.8665746381
21
179.1539880417
0
LINE
5
449
100
AcDbEntity
8
0
100
AcDbLine
62
7
6
BYLAYER
10
333.2026503046
20
165.9595090344
11
332.3513582908
21
162.6678070572
0
LINE
5
44A
100
AcDbEntity
8
0
100
AcDbLine
62
7
6
BYLAYER
10
341.1027350500
20
163.9164082014
11
340.2514430363
21
160.6247062241
0
LINE
5
44B
100
AcDbEntity
8
0
100
AcDbLine
62
7
6
BYLAYER
10
347.6869952236
20
162.2136027405
11
346.8357032098
21
158.9219007632
0
LINE
5
44C
100
AcDbEntity
8
0
100
AcDbLine
62
7
6
BYLAYER
10
337.9443212158
20
185.5927941190
11
336.8373894907
21
182.3780309620
0
LINE
5
44D
100
AcDbEntity
8
0
100
AcDbLine
62
7
6
BYLAYER
10
345.4233731488
20
183.0175500173
11
344.3164414237
21
179.8027868602
0
LINE
5
44E
100
AcDbEntity
8
0
100
AcDbLine
62
7
6
BYLAYER
10
352.2250399454
20
180.6755483228
11
351.1181082202
21
177.4607851658
0
LINE
5
44F
100
AcDbEntity
8
0
100
AcDbLine
62
7
6
BYLAYER
10
318.5981022256
20
166.2676823830
11
299.6321372156
21
146.9122982222
0
LINE
5
450
100
AcDbEntity
8
0
100
AcDbLine
62
7
6
BYLAYER
10
321.0265708515
20
163.8880731433
11
302.0606058414
21
144.5326889826
0
LINE
5
451
100
AcDbEntity
8
0
100
AcDbLine
62
7
6
BYLAYER
10
347.8951469663
20
162.1597710396
11
354.9626073040
21
166.3228233303
0
LINE
5
452
100
AcDbEntity
8
0
100
AcDbLine
62
7
6
BYLAYER
10
353.5629487298
20
180.2148693843
11
360.9352517642
21
183.8105818269
0
LINE
5
453
100
AcDbEntity
8
0
100
AcDbLine
62
7
6
BYLAYER
10
198.0470949308
20
187.1469081683
11
201.3387969081
21
186.2956161545
0
LINE
5
454
100
AcDbEntity
8
0
100
AcDbLine
62
7
6
BYLAYER
10
364.2769003883
20
148.4204786699
11
351.2069072432
21
151.8006087246
0
LINE
5
455
100
AcDbEntity
8
0
100
AcDbLine
62
7
6
BYLAYER
10
347.0438549525
20
158.8680690623
11
324.2098679429
21
164.7733396240
0
LINE
5
456
100
AcDbEntity
8
0
100
AcDbLine
62
7
6
BYLAYER
10
226.6085887121
20
190.0894067630
11
213.5385955670
21
193.4695368177
0
LINE
5
457
100
AcDbEntity
8
0
100
AcDbLine
62
7
6
BYLAYER
10
347.8951469663
20
162.1597710396
11
325.0611599566
21
168.0650416013
0
LINE
5
458
100
AcDbEntity
8
0
100
AcDbLine
62
7
6
BYLAYER
10
209.3755432763
20
200.5369971554
11
208.4896881854
21
200.7660948591
0
LINE
5
459
100
AcDbEntity
8
0
100
AcDbLine
62
7
6
BYLAYER
10
354.9626073040
20
166.3228233303
11
368.0326004491
21
162.9426932756
0
LINE
5
45A
100
AcDbEntity
8
0
100
AcDbLine
62
7
6
BYLAYER
10
210.2268352901
20
203.8286991327
11
209.3409801992
21
204.0577968364
0
LINE
5
45B
100
AcDbEntity
8
0
100
AcDbLine
62
7
6
BYLAYER
10
217.2942956278
20
207.9917514234
11
230.3642887729
21
204.6116213686
0
LINE
5
45C
100
AcDbEntity
8
0
100
AcDbLine
62
7
6
BYLAYER
10
364.5613966277
20
166.6976898028
11
356.0517294473
21
169.6278031929
0
LINE
5
45D
100
AcDbEntity
8
0
100
AcDbLine
62
7
6
BYLAYER
10
351.2069072432
20
151.8006087246
11
347.0438549525
21
158.8680690623
0
LINE
5
45E
100
AcDbEntity
8
0
100
AcDbLine
62
7
6
BYLAYER
10
356.0517294473
20
169.6278031929
11
352.4560170047
21
177.0001062272
0
LINE
5
45F
100
AcDbEntity
8
0
100
AcDbLine
62
7
6
BYLAYER
10
368.0326004491
20
162.9426932756
11
364.2769003883
21
148.4204786699
0
LINE
5
460
100
AcDbEntity
8
0
100
AcDbLine
62
7
6
BYLAYER
10
369.4449189446
20
180.8804684368
11
364.5613966277
21
166.6976898028
0
LINE
5
461
100
AcDbEntity
8
0
100
AcDbLine
62
7
6
BYLAYER
10
293.8665746381
20
179.1539880417
11
286.8665746381
21
179.1539880417
0
LINE
5
462
100
AcDbEntity
8
0
100
AcDbLine
62
7
6
BYLAYER
10
352.4560170047
20
177.0001062272
11
329.7655131166
21
184.8130732753
0
LINE
5
463
100
AcDbEntity
8
0
100
AcDbLine
62
7
6
BYLAYER
10
353.5629487298
20
180.2148693843
11
330.8724448418
21
188.0278364324
0
LINE
5
464
100
AcDbEntity
8
0
100
AcDbLine
62
7
6
BYLAYER
10
360.9352517642
20
183.8105818269
11
369.4449189446
21
180.8804684368
0
ARC
5
465
100
AcDbEntity
8
DEFAULT_1
100
AcDbCircle
62
7
6
BYLAYER
10
295.7354147950
20
148.2960193867
40
20.6000000000
100
AcDbArc
50
348.6411011552
51
76.6460000000
0
ARC
5
466
100
AcDbEntity
8
0
100
AcDbCircle
62
7
6
BYLAYER
10
328.6911382069
20
181.6928619759
40
6.7000000000
100
AcDbArc
50
71.0000000000
51
139.7680111734
0
ARC
5
467
100
AcDbEntity
8
0
100
AcDbCircle
62
7
6
BYLAYER
10
293.0626934084
20
155.0626612918
40
3.3000000000
100
AcDbArc
50
255.5000000000
51
319.7680111734
0
ARC
5
468
100
AcDbEntity
8
0
100
AcDbCircle
62
7
6
BYLAYER
10
269.7809906287
20
142.9046735297
40
14.3000000000
100
AcDbArc
50
75.5000000000
51
130.5821002686
0
ARC
5
469
100
AcDbEntity
8
0
100
AcDbCircle
62
7
6
BYLAYER
10
190.5607091352
20
96.1147955425
40
1.7000000000
100
AcDbArc
50
270.0000000000
51
310.5821002686
0
ARC
5
46A
100
AcDbEntity
8
0
100
AcDbCircle
62
7
6
BYLAYER
10
323.3836139295
20
161.5784524107
40
6.7000000000
100
AcDbArc
50
75.5000000000
51
135.5822160834
0
ARC
5
46B
100
AcDbEntity
8
0
100
AcDbCircle
62
7
6
BYLAYER
10
297.2750941375
20
149.2219189548
40
3.3000000000
100
AcDbArc
50
255.5000000000
51
315.5822160834
0
ARC
5
46C
100
AcDbEntity
8
0
100
AcDbCircle
62
7
6
BYLAYER
10
193.2057465888
20
141.6674777459
40
6.7000000000
100
AcDbArc
50
165.5000000000
51
183.7137988823
0
ARC
5
46D
100
AcDbEntity
8
0
100
AcDbCircle
62
7
6
BYLAYER
10
185.7390439988
20
102.3147955425
40
3.3000000000
100
AcDbArc
50
270.0000000000
51
3.7137988823
0
ARC
5
46E
100
AcDbEntity
8
0
100
AcDbCircle
62
7
6
BYLAYER
10
207.6634341720
20
197.5712076459
40
6.7000000000
100
AcDbArc
50
75.5000000000
51
165.5000000000
0
ARC
5
46F
100
AcDbEntity
8
0
100
AcDbCircle
62
7
6
BYLAYER
10
207.6634341720
20
197.5712076459
40
3.3000000000
100
AcDbArc
50
75.5000000000
51
165.5000000000
0
ARC
5
470
100
AcDbEntity
8
0
100
AcDbCircle
62
7
6
BYLAYER
10
185.7390439988
20
102.3147955425
40
6.7000000000
100
AcDbArc
50
270.0000000000
51
3.7137988823
0
ARC
5
471
100
AcDbEntity
8
0
100
AcDbCircle
62
7
6
BYLAYER
10
193.2057465888
20
141.6674777459
40
3.3000000000
100
AcDbArc
50
165.5000000000
51
183.7137988824
0
ARC
5
472
100
AcDbEntity
8
0
100
AcDbCircle
62
7
6
BYLAYER
10
190.5607091352
20
96.1147955425
40
9.7000000000
100
AcDbArc
50
270.0000000000
51
310.5821002686
0
ARC
5
473
100
AcDbEntity
8
0
100
AcDbCircle
62
7
6
BYLAYER
10
269.7809906287
20
142.9046735297
40
6.3000000000
100
AcDbArc
50
75.5000000000
51
130.5821002686
0
ARC
5
474
100
AcDbEntity
8
0
100
AcDbCircle
62
7
6
BYLAYER
10
297.2750941375
20
149.2219189548
40
6.7000000000
100
AcDbArc
50
255.5000000000
51
315.5822160834
0
ARC
5
475
100
AcDbEntity
8
0
100
AcDbCircle
62
7
6
BYLAYER
10
323.3836139295
20
161.5784524107
40
3.3000000000
100
AcDbArc
50
75.5000000000
51
135.5822160834
0
ARC
5
476
100
AcDbEntity
8
0
100
AcDbCircle
62
7
6
BYLAYER
10
293.0626934084
20
155.0626612918
40
6.7000000000
100
AcDbArc
50
255.5000000000
51
319.7680111734
0
ARC
5
477
100
AcDbEntity
8
0
100
AcDbCircle
62
7
6
BYLAYER
10
328.6911382069
20
181.6928619759
40
3.3000000000
100
AcDbArc
50
71.0000000000
51
139.7680111734
0
SPLINE
5
478
100
AcDbEntity
8
0
100
AcDbSpline
62
7
6
BYLAYER
70
0
71
3
72
8
73
4
74
2
42
0.0000001000
43
0.0000001000
44
0.0000000001
40
0.0000000000
40
0.0000000000
40
0.0000000000
40
0.0000000000
40
1.0000000000
40
1.0000000000
40
1.0000000000
40
1.0000000000
10
118.6871764198
20
206.5791178710
30
0.0000000000
10
118.6835686945
20
206.4637346320
30
0.0000000000
10
118.5672714173
20
206.3825195562
30
0.0000000000
10
118.4542100419
20
206.3206243044
30
0.0000000000
11
118.6871764198
21
206.5791178710
31
0.0000000000
11
118.4542100419
21
206.3206243044
31
0.0000000000
0
SPLINE
5
479
100
AcDbEntity
8
0
100
AcDbSpline
62
7
6
BYLAYER
70
0
71
3
72
9
73
5
74
3
42
0.0000001000
43
0.0000001000
44
0.0000000001
40
0.0000000000
40
0.0000000000
40
0.0000000000
40
0.0000000000
40
0.4085668175
40
1.0000000000
40
1.0000000000
40
1.0000000000
40
1.0000000000
10
118.4542100419
20
206.3206243044
30
0.0000000000
10
118.2298633795
20
206.1978061174
30
0.0000000000
10
117.7119417582
20
206.0833863784
30
0.0000000000
10
117.1399414888
20
206.0041687990
30
0.0000000000
10
116.8082000717
20
205.9790052484
30
0.0000000000
11
118.4542100419
21
206.3206243044
31
0.0000000000
11
117.7976250244
21
206.1101860856
31
0.0000000000
11
116.8082000717
21
205.9790052484
31
0.0000000000
0
SPLINE
5
47A
100
AcDbEntity
8
0
100
AcDbSpline
62
7
6
BYLAYER
70
0
71
3
72
8
73
4
74
2
42
0.0000001000
43
0.0000001000
44
0.0000000001
40
0.0000000000
40
0.0000000000
40
0.0000000000
40
0.0000000000
40
1.0000000000
40
1.0000000000
40
1.0000000000
40
1.0000000000
10
29.2361142508
20
179.8731383807
30
0.0000000000
10
29.2756146835
20
179.8755675004
30
0.0000000000
10
29.3147153465
20
179.8808943943
30
0.0000000000
10
29.3529141914
20
179.8893174997
30
0.0000000000
11
29.2361142508
21
179.8731383807
31
0.0000000000
11
29.3529141914
21
179.8893174997
31
0.0000000000
0
SPLINE
5
47B
100
AcDbEntity
8
0
100
AcDbSpline
62
7
6
BYLAYER
70
0
71
3
72
8
73
4
74
2
42
0.0000001000
43
0.0000001000
44
0.0000000001
40
0.0000000000
40
0.0000000000
40
0.0000000000
40
0.0000000000
40
1.0000000000
40
1.0000000000
40
1.0000000000
40
1.0000000000
10
29.3529141914
20
179.8893174997
30
0.0000000000
10
29.5575566152
20
179.9344425474
30
0.0000000000
10
29.7363163245
20
180.0684307033
30
0.0000000000
10
29.8811453392
20
180.2245815499
30
0.0000000000
11
29.3529141914
21
179.8893174997
31
0.0000000000
11
29.8811453392
21
180.2245815499
31
0.0000000000
0
SPLINE
5
47C
100
AcDbEntity
8
0
100
AcDbSpline
62
7
6
BYLAYER
70
0
71
3
72
8
73
4
74
2
42
0.0000001000
43
0.0000001000
44
0.0000000001
40
0.0000000000
40
0.0000000000
40
0.0000000000
40
0.0000000000
40
1.0000000000
40
1.0000000000
40
1.0000000000
40
1.0000000000
10
29.8811453392
20
180.2245815499
30
0.0000000000
10
30.0747940302
20
180.4333684914
30
0.0000000000
10
30.2077815587
20
180.6817778045
30
0.0000000000
10
30.3146002442
20
180.9400632703
30
0.0000000000
11
29.8811453392
21
180.2245815499
31
0.0000000000
11
30.3146002442
21
180.9400632703
31
0.0000000000
0
SPLINE
5
47D
100
AcDbEntity
8
0
100
AcDbSpline
62
7
6
BYLAYER
70
0
71
3
72
9
73
5
74
3
42
0.0000001000
43
0.0000001000
44
0.0000000001
40
0.0000000000
40
0.0000000000
40
0.0000000000
40
0.0000000000
40
0.4621880051
40
1.0000000000
40
1.0000000000
40
1.0000000000
40
1.0000000000
10
30.3146002442
20
180.9400632703
30
0.0000000000
10
30.4509221269
20
181.2696868825
30
0.0000000000
10
30.6536559049
20
182.0176698139
30
0.0000000000
10
30.7277718729
20
182.7872893590
30
0.0000000000
10
30.7408936438
20
183.2011716684
30
0.0000000000
11
30.3146002442
21
180.9400632703
31
0.0000000000
11
30.6108493203
21
181.9657263252
31
0.0000000000
11
30.7408936438
21
183.2011716684
31
0.0000000000
0
SPLINE
5
47E
100
AcDbEntity
8
0
100
AcDbSpline
62
7
6
BYLAYER
70
0
71
3
72
9
73
5
74
3
42
0.0000001000
43
0.0000001000
44
0.0000000001
40
0.0000000000
40
0.0000000000
40
0.0000000000
40
0.0000000000
40
0.2491909502
40
1.0000000000
40
1.0000000000
40
1.0000000000
40
1.0000000000
10
26.1589232963
20
183.1978106549
30
0.0000000000
10
26.1561315870
20
183.1838054634
30
0.0000000000
10
26.1522947268
20
183.1280724039
30
0.0000000000
10
26.1827513320
20
183.0762090462
30
0.0000000000
10
26.2164059986
20
183.0402305692
30
0.0000000000
11
26.1589232963
21
183.1978106549
31
0.0000000000
11
26.1563488568
21
183.1562694088
31
0.0000000000
11
26.2164059986
21
183.0402305692
31
0.0000000000
0
SPLINE
5
47F
100
AcDbEntity
8
0
100
AcDbSpline
62
7
6
BYLAYER
70
0
71
3
72
8
73
4
74
2
42
0.0000001000
43
0.0000001000
44
0.0000000001
40
0.0000000000
40
0.0000000000
40
0.0000000000
40
0.0000000000
40
1.0000000000
40
1.0000000000
40
1.0000000000
40
1.0000000000
10
26.2164059986
20
183.0402305692
30
0.0000000000
10
26.2820021347
20
182.9701051061
30
0.0000000000
10
26.3885799385
20
182.9112284002
30
0.0000000000
10
26.4728738442
20
182.8693730078
30
0.0000000000
11
26.2164059986
21
183.0402305692
31
0.0000000000
11
26.4728738442
21
182.8693730078
31
0.0000000000
0
SPLINE
5
480
100
AcDbEntity
8
0
100
AcDbSpline
62
7
6
BYLAYER
70
0
71
3
72
8
73
4
74
2
42
0.0000001000
43
0.0000001000
44
0.0000000001
40
0.0000000000
40
0.0000000000
40
0.0000000000
40
0.0000000000
40
1.0000000000
40
1.0000000000
40
1.0000000000
40
1.0000000000
10
134.9705434375
20
228.6002166078
30
0.0000000000
10
135.3640475490
20
228.6300650382
30
0.0000000000
10
135.7665241516
20
228.5937327614
30
0.0000000000
10
136.1490582182
20
228.4873864564
30
0.0000000000
11
134.9705434375
21
228.6002166078
31
0.0000000000
11
136.1490582182
21
228.4873864564
31
0.0000000000
0
SPLINE
5
481
100
AcDbEntity
8
0
100
AcDbSpline
62
7
6
BYLAYER
70
0
71
3
72
8
73
4
74
2
42
0.0000001000
43
0.0000001000
44
0.0000000001
40
0.0000000000
40
0.0000000000
40
0.0000000000
40
0.0000000000
40
1.0000000000
40
1.0000000000
40
1.0000000000
40
1.0000000000
10
136.1490582182
20
228.4873864564
30
0.0000000000
10
136.3491114511
20
228.4317706983
30
0.0000000000
10
136.5437104810
20
228.3570063863
30
0.0000000000
10
136.7295305511
20
228.2647336448
30
0.0000000000
11
136.1490582182
21
228.4873864564
31
0.0000000000
11
136.7295305511
21
228.2647336448
31
0.0000000000
0
SPLINE
5
482
100
AcDbEntity
8
0
100
AcDbSpline
62
7
6
BYLAYER
70
0
71
3
72
8
73
4
74
2
42
0.0000001000
43
0.0000001000
44
0.0000000001
40
0.0000000000
40
0.0000000000
40
0.0000000000
40
0.0000000000
40
1.0000000000
40
1.0000000000
40
1.0000000000
40
1.0000000000
10
135.9511189028
20
228.5365205029
30
0.0000000000
10
136.1819074647
20
228.3374758143
30
0.0000000000
10
136.3856075442
20
228.1067488383
30
0.0000000000
10
136.5562570249
20
227.8543702512
30
0.0000000000
11
135.9511189028
21
228.5365205029
31
0.0000000000
11
136.5562570249
21
227.8543702512
31
0.0000000000
0
SPLINE
5
483
100
AcDbEntity
8
0
100
AcDbSpline
62
7
6
BYLAYER
70
0
71
3
72
8
73
4
74
2
42
0.0000001000
43
0.0000001000
44
0.0000000001
40
0.0000000000
40
0.0000000000
40
0.0000000000
40
0.0000000000
40
1.0000000000
40
1.0000000000
40
1.0000000000
40
1.0000000000
10
136.5562570249
20
227.8543702512
30
0.0000000000
10
136.7857678732
20
227.5149398387
30
0.0000000000
10
136.9554959801
20
227.1363454557
30
0.0000000000
10
137.0643097272
20
226.7410971868
30
0.0000000000
11
136.5562570249
21
227.8543702512
31
0.0000000000
11
137.0643097272
21
226.7410971868
31
0.0000000000
0
SPLINE
5
484
100
AcDbEntity
8
0
100
AcDbSpline
62
7
6
BYLAYER
70
0
71
3
72
8
73
4
74
2
42
0.0000001000
43
0.0000001000
44
0.0000000001
40
0.0000000000
40
0.0000000000
40
0.0000000000
40
0.0000000000
40
1.0000000000
40
1.0000000000
40
1.0000000000
40
1.0000000000
10
137.0643097272
20
226.7410971868
30
0.0000000000
10
137.1776078885
20
226.3295600117
30
0.0000000000
10
137.2248674469
20
225.8999679910
30
0.0000000000
10
137.2114089090
20
225.4754634916
30
0.0000000000
11
137.0643097272
21
226.7410971868
31
0.0000000000
11
137.2114089090
21
225.4754634916
31
0.0000000000
0
SPLINE
5
485
100
AcDbEntity
8
0
100
AcDbSpline
62
7
6
BYLAYER
70
0
71
3
72
12
73
8
74
6
42
0.0000001000
43
0.0000001000
44
0.0000000001
40
0.0000000000
40
0.0000000000
40
0.0000000000
40
0.0000000000
40
0.2010658184
40
0.4047475755
40
0.6076548422
40
0.8066599831
40
1.0000000000
40
1.0000000000
40
1.0000000000
40
1.0000000000
10
127.9008040901
20
221.8573693019
30
0.0000000000
10
127.8869485112
20
221.4203414777
30
0.0000000000
10
127.7244847022
20
220.5400670583
30
0.0000000000
10
127.1190532761
20
219.3464770183
30
0.0000000000
10
126.2062902470
20
218.3716657846
30
0.0000000000
10
125.0723625559
20
217.7102629591
30
0.0000000000
10
124.2231505643
20
217.5200280443
30
0.0000000000
10
123.8033421021
20
217.4968737416
30
0.0000000000
11
127.9008040901
21
221.8573693019
31
0.0000000000
11
127.6661096863
21
220.5667933827
31
0.0000000000
11
127.0661542483
21
219.3811351649
31
0.0000000000
11
126.1596655946
21
218.4164551357
31
0.0000000000
11
125.0353771504
21
217.7671828978
31
0.0000000000
11
123.8033421021
21
217.4968737416
31
0.0000000000
0
SPLINE
5
486
100
AcDbEntity
8
0
100
AcDbSpline
62
7
6
BYLAYER
70
0
71
3
72
12
73
8
74
6
42
0.0000001000
43
0.0000001000
44
0.0000000001
40
0.0000000000
40
0.0000000000
40
0.0000000000
40
0.0000000000
40
0.1740985863
40
0.3651992781
40
0.5714478157
40
0.7860829124
40
1.0000000000
40
1.0000000000
40
1.0000000000
40
1.0000000000
10
73.5163352898
20
182.5462347761
30
0.0000000000
10
73.1209126811
20
182.4844127069
30
0.0000000000
10
72.3142486459
20
182.1833706806
30
0.0000000000
10
71.2810060295
20
181.3442578667
30
0.0000000000
10
70.4525643874
20
180.1884942673
30
0.0000000000
10
69.9010882463
20
178.8241380532
30
0.0000000000
10
69.7475260238
20
177.8400186657
30
0.0000000000
10
69.7319429483
20
177.3485027477
30
0.0000000000
11
73.5163352898
21
182.5462347761
31
0.0000000000
11
72.3850617697
21
182.1439298024
31
0.0000000000
11
71.3501594285
21
181.3278856144
31
0.0000000000
11
70.5129317181
21
180.1779823029
31
0.0000000000
11
69.9553323200
21
178.8067804158
31
0.0000000000
11
69.7319429483
21
177.3485027477
31
0.0000000000
0
SPLINE
5
487
100
AcDbEntity
8
0
100
AcDbSpline
62
7
6
BYLAYER
70
0
71
3
72
11
73
7
74
5
42
0.0000001000
43
0.0000001000
44
0.0000000001
40
0.0000000000
40
0.0000000000
40
0.0000000000
40
0.0000000000
40
0.3488383767
40
0.6389714166
40
0.8572531579
40
1.0000000000
40
1.0000000000
40
1.0000000000
40
1.0000000000
10
99.2179769853
20
204.6447357102
30
0.0000000000
10
98.2500657007
20
204.5713168265
30
0.0000000000
10
96.4820691610
20
204.3850512423
30
0.0000000000
10
94.1280313706
20
203.9373668835
30
0.0000000000
10
92.4126606474
20
203.3860786852
30
0.0000000000
10
91.5097383467
20
202.8519682647
30
0.0000000000
10
91.2685463828
20
202.5363661055
30
0.0000000000
11
99.2179769853
21
204.6447357102
31
0.0000000000
11
96.3236185309
21
204.3239983991
31
0.0000000000
11
93.9492199146
21
203.8461350707
31
0.0000000000
11
92.2312764742
21
203.2386163088
31
0.0000000000
11
91.2685463828
21
202.5363661055
31
0.0000000000
0
SPLINE
5
488
100
AcDbEntity
8
0
100
AcDbSpline
62
7
6
BYLAYER
70
0
71
3
72
10
73
6
74
4
42
0.0000001000
43
0.0000001000
44
0.0000000001
40
0.0000000000
40
0.0000000000
40
0.0000000000
40
0.0000000000
40
0.2201419563
40
0.5551403973
40
1.0000000000
40
1.0000000000
40
1.0000000000
40
1.0000000000
10
76.4303418563
20
183.1204232546
30
0.0000000000
10
76.4022964945
20
183.0837256109
30
0.0000000000
10
76.2980819697
20
183.0212342656
30
0.0000000000
10
76.0997559089
20
182.9563792684
30
0.0000000000
10
75.9382668323
20
182.9248899569
30
0.0000000000
10
75.8460525979
20
182.9104727874
30
0.0000000000
11
76.4303418563
21
183.1204232546
31
0.0000000000
11
76.3187182441
21
183.0383287755
31
0.0000000000
11
76.1202852464
21
182.9670265909
31
0.0000000000
11
75.8460525979
21
182.9104727874
31
0.0000000000
0
SPLINE
5
489
100
AcDbEntity
8
0
100
AcDbSpline
62
7
6
BYLAYER
70
0
71
3
72
8
73
4
74
2
42
0.0000001000
43
0.0000001000
44
0.0000000001
40
0.0000000000
40
0.0000000000
40
0.0000000000
40
0.0000000000
40
1.0000000000
40
1.0000000000
40
1.0000000000
40
1.0000000000
10
131.5421992311
20
212.9806270255
30
0.0000000000
10
131.3479193508
20
212.9658903320
30
0.0000000000
10
131.1539311080
20
212.9488697314
30
0.0000000000
10
130.9602174324
20
212.9288126753
30
0.0000000000
11
131.5421992311
21
212.9806270255
31
0.0000000000
11
130.9602174324
21
212.9288126753
31
0.0000000000
0
SPLINE
5
48A
100
AcDbEntity
8
0
100
AcDbSpline
62
7
6
BYLAYER
70
0
71
3
72
11
73
7
74
5
42
0.0000001000
43
0.0000001000
44
0.0000000001
40
0.0000000000
40
0.0000000000
40
0.0000000000
40
0.0000000000
40
0.2577140056
40
0.6034120150
40
0.8506401334
40
1.0000000000
40
1.0000000000
40
1.0000000000
40
1.0000000000
10
130.9602174324
20
212.9288126753
30
0.0000000000
10
130.6641871434
20
212.8981617876
30
0.0000000000
10
129.9725626472
20
212.8097924404
30
0.0000000000
10
129.0020525319
20
212.6096578165
30
0.0000000000
10
128.2042315526
20
212.3332460082
30
0.0000000000
10
127.8044651411
20
212.0287296083
30
0.0000000000
10
127.7471467645
20
211.8659651158
30
0.0000000000
11
130.9602174324
21
212.9288126753
31
0.0000000000
11
130.0739892749
21
212.8129007380
31
0.0000000000
11
128.9030295418
21
212.5588563494
31
0.0000000000
11
128.1093365894
21
212.2358537713
31
0.0000000000
11
127.7471467645
21
211.8659651158
31
0.0000000000
0
SPLINE
5
48B
100
AcDbEntity
8
0
100
AcDbSpline
62
7
6
BYLAYER
70
0
71
3
72
10
73
6
74
4
42
0.0000001000
43
0.0000001000
44
0.0000000001
40
0.0000000000
40
0.0000000000
40
0.0000000000
40
0.0000000000
40
0.1870787572
40
0.5270133551
40
1.0000000000
40
1.0000000000
40
1.0000000000
40
1.0000000000
10
125.6549330978
20
205.9247972706
30
0.0000000000
10
125.6137013831
20
205.8077133695
30
0.0000000000
10
125.2649434017
20
205.6172957794
30
0.0000000000
10
124.6440829397
20
205.4655200814
30
0.0000000000
10
124.0986684618
20
205.3995221201
30
0.0000000000
10
123.7857281516
20
205.3757846881
30
0.0000000000
11
125.6549330978
21
205.9247972706
31
0.0000000000
11
125.3688140582
21
205.6864400955
31
0.0000000000
11
124.7195721708
21
205.4957483440
31
0.0000000000
11
123.7857281516
21
205.3757846881
31
0.0000000000
0
SPLINE
5
48C
100
AcDbEntity
8
0
100
AcDbSpline
62
7
6
BYLAYER
70
0
71
3
72
8
73
4
74
2
42
0.0000001000
43
0.0000001000
44
0.0000000001
40
0.0000000000
40
0.0000000000
40
0.0000000000
40
0.0000000000
40
1.0000000000
40
1.0000000000
40
1.0000000000
40
1.0000000000
10
123.1701778887
20
217.4619519207
30
0.0000000000
10
122.5880839089
20
217.4298468503
30
0.0000000000
10
122.0080071292
20
217.3816141648
30
0.0000000000
10
121.4292595403
20
217.2946780860
30
0.0000000000
11
123.1701778887
21
217.4619519207
31
0.0000000000
11
121.4292595403
21
217.2946780860
31
0.0000000000
0
SPLINE
5
48D
100
AcDbEntity
8
0
100
AcDbSpline
62
7
6
BYLAYER
70
0
71
3
72
10
73
6
74
4
42
0.0000001000
43
0.0000001000
44
0.0000000001
40
0.0000000000
40
0.0000000000
40
0.0000000000
40
0.0000000000
40
0.4861677845
40
0.8177083403
40
1.0000000000
40
1.0000000000
40
1.0000000000
40
1.0000000000
10
121.4292595403
20
217.2946780860
30
0.0000000000
10
120.9660073064
20
217.2250910442
30
0.0000000000
10
120.1882740760
20
217.0663414791
30
0.0000000000
10
119.2961215218
20
216.7868968830
30
0.0000000000
10
118.8777966458
20
216.3863264817
30
0.0000000000
10
118.8721145383
20
216.2119134971
30
0.0000000000
11
121.4292595403
21
217.2946780860
31
0.0000000000
11
120.0582486955
21
217.0116647467
31
0.0000000000
11
119.1796599060
21
216.6382021859
31
0.0000000000
11
118.8721145383
21
216.2119134971
31
0.0000000000
0
SPLINE
5
48E
100
AcDbEntity
8
0
100
AcDbSpline
62
7
6
BYLAYER
70
0
71
3
72
12
73
8
74
6
42
0.0000001000
43
0.0000001000
44
0.0000000001
40
0.0000000000
40
0.0000000000
40
0.0000000000
40
0.0000000000
40
0.2033094375
40
0.4090321369
40
0.6126133379
40
0.8101986578
40
1.0000000000
40
1.0000000000
40
1.0000000000
40
1.0000000000
10
136.9592930660
20
217.5233137313
30
0.0000000000
10
136.9454127863
20
217.0855068041
30
0.0000000000
10
136.7874524818
20
216.2044384005
30
0.0000000000
10
136.2032385575
20
215.0034973289
30
0.0000000000
10
135.3226825198
20
214.0133851545
30
0.0000000000
10
134.2273758412
20
213.3299463691
30
0.0000000000
10
133.4011838509
20
213.1216364112
30
0.0000000000
10
132.9934312745
20
213.0907071933
30
0.0000000000
11
136.9592930660
21
217.5233137313
31
0.0000000000
11
136.7310396342
21
216.2292084497
31
0.0000000000
11
136.1497766253
21
215.0333076230
31
0.0000000000
11
135.2724021123
21
214.0526743566
31
0.0000000000
11
134.1847996256
21
213.3832998671
31
0.0000000000
11
132.9934312745
21
213.0907071933
31
0.0000000000
0
SPLINE
5
48F
100
AcDbEntity
8
0
100
AcDbSpline
62
7
6
BYLAYER
70
0
71
3
72
8
73
4
74
2
42
0.0000001000
43
0.0000001000
44
0.0000000001
40
0.0000000000
40
0.0000000000
40
0.0000000000
40
0.0000000000
40
1.0000000000
40
1.0000000000
40
1.0000000000
40
1.0000000000
10
26.5685500173
20
184.5261212997
30
0.0000000000
10
26.3661195894
20
184.5107663635
30
0.0000000000
10
26.1623991388
20
184.4935815101
30
0.0000000000
10
25.9590841591
20
184.4730517095
30
0.0000000000
11
26.5685500173
21
184.5261212997
31
0.0000000000
11
25.9590841591
21
184.4730517095
31
0.0000000000
0
SPLINE
5
490
100
AcDbEntity
8
0
100
AcDbSpline
62
7
6
BYLAYER
70
0
71
3
72
11
73
7
74
5
42
0.0000001000
43
0.0000001000
44
0.0000000001
40
0.0000000000
40
0.0000000000
40
0.0000000000
40
0.0000000000
40
0.3206074174
40
0.6942940526
40
0.9253941080
40
1.0000000000
40
1.0000000000
40
1.0000000000
40
1.0000000000
10
25.9590841591
20
184.4730517095
30
0.0000000000
10
25.5815622043
20
184.4349312991
30
0.0000000000
10
24.7670438402
20
184.3274043664
30
0.0000000000
10
23.7579944451
20
184.0513727120
30
0.0000000000
10
22.9089021030
20
183.7736339249
30
0.0000000000
10
22.7938204233
20
183.3960843353
30
0.0000000000
10
22.7867445802
20
183.3047961367
30
0.0000000000
11
25.9590841591
21
184.4730517095
31
0.0000000000
11
24.8415668970
21
184.3143927767
31
0.0000000000
11
23.5657177312
21
183.9833230002
31
0.0000000000
11
22.8658915257
21
183.5653193866
31
0.0000000000
11
22.7867445802
21
183.3047961367
31
0.0000000000
0
SPLINE
5
491
100
AcDbEntity
8
0
100
AcDbSpline
62
7
6
BYLAYER
70
0
71
3
72
8
73
4
74
2
42
0.0000001000
43
0.0000001000
44
0.0000000001
40
0.0000000000
40
0.0000000000
40
0.0000000000
40
0.0000000000
40
1.0000000000
40
1.0000000000
40
1.0000000000
40
1.0000000000
10
75.7981972391
20
176.1566321571
30
0.0000000000
10
76.2190562415
20
176.0460340778
30
0.0000000000
10
76.5914440892
20
175.9166893993
30
0.0000000000
10
77.0281478889
20
175.7191284262
30
0.0000000000
11
75.7981972391
21
176.1566321571
31
0.0000000000
11
77.0281478889
21
175.7191284262
31
0.0000000000
0
SPLINE
5
492
100
AcDbEntity
8
0
100
AcDbSpline
62
7
6
BYLAYER
70
0
71
3
72
9
73
5
74
3
42
0.0000001000
43
0.0000001000
44
0.0000000001
40
0.0000000000
40
0.0000000000
40
0.0000000000
40
0.0000000000
40
0.8152125512
40
1.0000000000
40
1.0000000000
40
1.0000000000
40
1.0000000000
10
77.0281478889
20
175.7191284262
30
0.0000000000
10
77.2825609968
20
175.6040341650
30
0.0000000000
10
77.6214193708
20
175.4344507746
30
0.0000000000
10
77.6279285803
20
175.1247095489
30
0.0000000000
10
77.6200098498
20
175.0664853084
30
0.0000000000
11
77.0281478889
21
175.7191284262
31
0.0000000000
11
77.6141744120
21
175.2343962450
31
0.0000000000
11
77.6200098498
21
175.0664853084
31
0.0000000000
0
SPLINE
5
493
100
AcDbEntity
8
0
100
AcDbSpline
62
7
6
BYLAYER
70
0
71
3
72
10
73
6
74
4
42
0.0000001000
43
0.0000001000
44
0.0000000001
40
0.0000000000
40
0.0000000000
40
0.0000000000
40
0.0000000000
40
0.2894505063
40
0.6235538981
40
1.0000000000
40
1.0000000000
40
1.0000000000
40
1.0000000000
10
48.4206354401
20
183.4043998141
30
0.0000000000
10
48.4750328696
20
183.3773892521
30
0.0000000000
10
48.5953572064
20
183.3254959722
30
0.0000000000
10
48.7936393338
20
183.2565185964
30
0.0000000000
10
48.9370609972
20
183.2155047503
30
0.0000000000
10
49.0134553704
20
183.1954289745
30
0.0000000000
11
48.4206354401
21
183.4043998141
31
0.0000000000
11
48.5874551049
21
183.3311259676
31
0.0000000000
11
48.7858034242
21
183.2612075780
31
0.0000000000
11
49.0134553704
21
183.1954289745
31
0.0000000000
0
SPLINE
5
494
100
AcDbEntity
8
0
100
AcDbSpline
62
7
6
BYLAYER
70
0
71
3
72
11
73
7
74
5
42
0.0000001000
43
0.0000001000
44
0.0000000001
40
0.0000000000
40
0.0000000000
40
0.0000000000
40
0.0000000000
40
0.2214761109
40
0.4645811177
40
0.7269561603
40
1.0000000000
40
1.0000000000
40
1.0000000000
40
1.0000000000
10
52.6559077252
20
171.4554209019
30
0.0000000000
10
52.2188616840
20
171.3870912465
30
0.0000000000
10
51.3272856451
20
171.0543605859
30
0.0000000000
10
50.1852806480
20
170.1269201074
30
0.0000000000
10
49.2696346226
20
168.8494971817
30
0.0000000000
10
48.8655083839
20
167.8496857594
30
0.0000000000
10
48.7200623375
20
167.3223397669
30
0.0000000000
11
52.6559077252
21
171.4554209019
31
0.0000000000
11
51.4055527819
21
171.0107680363
31
0.0000000000
11
50.2617133522
21
170.1088244601
31
0.0000000000
11
49.3363564091
21
168.8378786947
31
0.0000000000
11
48.7200623375
21
167.3223397669
31
0.0000000000
0
SPLINE
5
495
100
AcDbEntity
8
0
100
AcDbSpline
62
7
6
BYLAYER
70
0
71
3
72
8
73
4
74
2
42
0.0000001000
43
0.0000001000
44
0.0000000001
40
0.0000000000
40
0.0000000000
40
0.0000000000
40
0.0000000000
40
1.0000000000
40
1.0000000000
40
1.0000000000
40
1.0000000000
10
48.7200623375
20
167.3223397669
30
0.0000000000
10
48.5751028452
20
166.7967578813
30
0.0000000000
10
48.4903816943
20
166.2538136220
30
0.0000000000
10
48.4731582951
20
165.7105591863
30
0.0000000000
11
48.7200623375
21
167.3223397669
31
0.0000000000
11
48.4731582951
21
165.7105591863
31
0.0000000000
0
SPLINE
5
496
100
AcDbEntity
8
0
100
AcDbSpline
62
7
6
BYLAYER
70
0
71
3
72
12
73
8
74
6
42
0.0000001000
43
0.0000001000
44
0.0000000001
40
0.0000000000
40
0.0000000000
40
0.0000000000
40
0.0000000000
40
0.3194461548
40
0.5939736522
40
0.8090870722
40
0.9699694646
40
1.0000000000
40
1.0000000000
40
1.0000000000
40
1.0000000000
10
30.8196798447
20
185.6862184685
30
0.0000000000
10
30.8343453534
20
186.1487928143
30
0.0000000000
10
30.9171808471
20
187.0089558353
30
0.0000000000
10
31.2258255831
20
188.1476955003
30
0.0000000000
10
31.6753061836
20
188.9872867648
30
0.0000000000
10
32.1795261281
20
189.3652214839
30
0.0000000000
10
32.4573445651
20
189.4030701857
30
0.0000000000
10
32.5014921075
20
189.4057850841
30
0.0000000000
11
30.8196798447
21
185.6862184685
31
0.0000000000
11
30.9650235004
21
187.0670103227
31
0.0000000000
11
31.2961254090
21
188.2133396193
31
0.0000000000
11
31.7805750087
21
189.0129956598
31
0.0000000000
11
32.3709509974
21
189.3877025394
31
0.0000000000
11
32.5014921075
21
189.4057850841
31
0.0000000000
0
SPLINE
5
497
100
AcDbEntity
8
0
100
AcDbSpline
62
7
6
BYLAYER
70
0
71
3
72
8
73
4
74
2
42
0.0000001000
43
0.0000001000
44
0.0000000001
40
0.0000000000
40
0.0000000000
40
0.0000000000
40
0.0000000000
40
1.0000000000
40
1.0000000000
40
1.0000000000
40
1.0000000000
10
69.7180395010
20
176.9099650771
30
0.0000000000
10
69.7040967493
20
176.4701876768
30
0.0000000000
10
69.6355129604
20
176.0306613716
30
0.0000000000
10
69.5181648000
20
175.6051903214
30
0.0000000000
11
69.7180395010
21
176.9099650771
31
0.0000000000
11
69.5181648000
21
175.6051903214
31
0.0000000000
0
SPLINE
5
498
100
AcDbEntity
8
0
100
AcDbSpline
62
7
6
BYLAYER
70
0
71
3
72
10
73
6
74
4
42
0.0000001000
43
0.0000001000
44
0.0000000001
40
0.0000000000
40
0.0000000000
40
0.0000000000
40
0.0000000000
40
0.3507199246
40
0.6877359703
40
1.0000000000
40
1.0000000000
40
1.0000000000
40
1.0000000000
10
69.5181648000
20
175.6051903214
30
0.0000000000
10
69.4004227625
20
175.1782911846
30
0.0000000000
10
69.0732729502
20
174.3689200333
30
0.0000000000
10
68.3320356915
20
173.3348157601
30
0.0000000000
10
67.6892096990
20
172.8127665154
30
0.0000000000
10
67.3441963450
20
172.6193198176
30
0.0000000000
11
69.5181648000
21
175.6051903214
31
0.0000000000
11
69.0192600754
21
174.3783254751
31
0.0000000000
11
68.2701615976
21
173.3494646174
31
0.0000000000
11
67.3441963450
21
172.6193198176
31
0.0000000000
0
SPLINE
5
499
100
AcDbEntity
8
0
100
AcDbSpline
62
7
6
BYLAYER
70
0
71
3
72
8
73
4
74
2
42
0.0000001000
43
0.0000001000
44
0.0000000001
40
0.0000000000
40
0.0000000000
40
0.0000000000
40
0.0000000000
40
1.0000000000
40
1.0000000000
40
1.0000000000
40
1.0000000000
10
67.3441963450
20
172.6193198176
30
0.0000000000
10
67.1949837239
20
172.5356572912
30
0.0000000000
10
67.0390650191
20
172.4627734532
30
0.0000000000
10
66.8785834456
20
172.4033709967
30
0.0000000000
11
67.3441963450
21
172.6193198176
31
0.0000000000
11
66.8785834456
21
172.4033709967
31
0.0000000000
0
SPLINE
5
49A
100
AcDbEntity
8
0
100
AcDbSpline
62
7
6
BYLAYER
70
0
71
3
72
8
73
4
74
2
42
0.0000001000
43
0.0000001000
44
0.0000000001
40
0.0000000000
40
0.0000000000
40
0.0000000000
40
0.0000000000
40
1.0000000000
40
1.0000000000
40
1.0000000000
40
1.0000000000
10
66.8785834456
20
172.4033709967
30
0.0000000000
10
66.7010091309
20
172.3376416405
30
0.0000000000
10
66.5178482120
20
172.2884183795
30
0.0000000000
10
66.3320042481
20
172.2593627359
30
0.0000000000
11
66.8785834456
21
172.4033709967
31
0.0000000000
11
66.3320042481
21
172.2593627359
31
0.0000000000
0
SPLINE
5
49B
100
AcDbEntity
8
0
100
AcDbSpline
62
7
6
BYLAYER
70
0
71
3
72
12
73
8
74
6
42
0.0000001000
43
0.0000001000
44
0.0000000001
40
0.0000000000
40
0.0000000000
40
0.0000000000
40
0.0000000000
40
0.2091503654
40
0.4244291194
40
0.6439290949
40
0.8642668948
40
1.0000000000
40
1.0000000000
40
1.0000000000
40
1.0000000000
10
132.7247121352
20
234.4393820611
30
0.0000000000
10
132.2555144421
20
234.4135037227
30
0.0000000000
10
131.3063951575
20
234.2008882297
30
0.0000000000
10
130.0390642086
20
233.4616733071
30
0.0000000000
10
129.0189172937
20
232.3721783989
30
0.0000000000
10
128.4264360382
20
231.2041192346
30
0.0000000000
10
128.2378942416
20
230.4185014253
30
0.0000000000
10
128.1939036997
20
230.1156559511
30
0.0000000000
11
132.7247121352
21
234.4393820611
31
0.0000000000
11
131.3477317871
21
234.1372718277
31
0.0000000000
11
130.0911741142
21
233.4116146206
31
0.0000000000
11
129.0780397365
21
232.3334428233
31
0.0000000000
11
128.4075013059
21
231.0082954033
31
0.0000000000
11
128.1939036997
21
230.1156559511
31
0.0000000000
0
SPLINE
5
49C
100
AcDbEntity
8
0
100
AcDbSpline
62
7
6
BYLAYER
70
0
71
3
72
9
73
5
74
3
42
0.0000001000
43
0.0000001000
44
0.0000000001
40
0.0000000000
40
0.0000000000
40
0.0000000000
40
0.0000000000
40
0.5992728984
40
1.0000000000
40
1.0000000000
40
1.0000000000
40
1.0000000000
10
28.0309256676
20
183.7999916202
30
0.0000000000
10
27.6849748379
20
183.7737502444
30
0.0000000000
10
27.1085821518
20
183.6712886446
30
0.0000000000
10
26.5472777369
20
183.5938076862
30
0.0000000000
10
26.3412965898
20
183.4338713923
30
0.0000000000
11
28.0309256676
21
183.7999916202
31
0.0000000000
11
26.9995604275
21
183.6599165726
31
0.0000000000
11
26.3412965898
21
183.4338713923
31
0.0000000000
0
SPLINE
5
49D
100
AcDbEntity
8
0
100
AcDbSpline
62
7
6
BYLAYER
70
0
71
3
72
8
73
4
74
2
42
0.0000001000
43
0.0000001000
44
0.0000000001
40
0.0000000000
40
0.0000000000
40
0.0000000000
40
0.0000000000
40
1.0000000000
40
1.0000000000
40
1.0000000000
40
1.0000000000
10
26.3412965898
20
183.4338713923
30
0.0000000000
10
26.2568045934
20
183.3682666659
30
0.0000000000
10
26.1755008782
20
183.2809755503
30
0.0000000000
10
26.1589232963
20
183.1978106549
30
0.0000000000
11
26.3412965898
21
183.4338713923
31
0.0000000000
11
26.1589232963
21
183.1978106549
31
0.0000000000
0
SPLINE
5
49E
100
AcDbEntity
8
0
100
AcDbSpline
62
7
6
BYLAYER
70
0
71
3
72
12
73
8
74
6
42
0.0000001000
43
0.0000001000
44
0.0000000001
40
0.0000000000
40
0.0000000000
40
0.0000000000
40
0.0000000000
40
0.2033094375
40
0.4090321369
40
0.6126133379
40
0.8101986578
40
1.0000000000
40
1.0000000000
40
1.0000000000
40
1.0000000000
10
138.4216687163
20
216.7971840518
30
0.0000000000
10
138.4077884366
20
216.3593771246
30
0.0000000000
10
138.2498281321
20
215.4783087210
30
0.0000000000
10
137.6656142078
20
214.2773676494
30
0.0000000000
10
136.7850581701
20
213.2872554750
30
0.0000000000
10
135.6897514914
20
212.6038166896
30
0.0000000000
10
134.8635595012
20
212.3955067317
30
0.0000000000
10
134.4558069248
20
212.3645775138
30
0.0000000000
11
138.4216687163
21
216.7971840518
31
0.0000000000
11
138.1934152845
21
215.5030787702
31
0.0000000000
11
137.6121522755
21
214.3071779435
31
0.0000000000
11
136.7347777625
21
213.3265446771
31
0.0000000000
11
135.6471752759
21
212.6571701876
31
0.0000000000
11
134.4558069248
21
212.3645775138
31
0.0000000000
0
SPLINE
5
49F
100
AcDbEntity
8
0
100
AcDbSpline
62
7
6
BYLAYER
70
0
71
3
72
8
73
4
74
2
42
0.0000001000
43
0.0000001000
44
0.0000000001
40
0.0000000000
40
0.0000000000
40
0.0000000000
40
0.0000000000
40
1.0000000000
40
1.0000000000
40
1.0000000000
40
1.0000000000
10
136.7295305511
20
228.2647336448
30
0.0000000000
10
136.8937625075
20
228.1831809209
30
0.0000000000
10
137.0511368480
20
228.0879516240
30
0.0000000000
10
137.1993581904
20
227.9801780811
30
0.0000000000
11
136.7295305511
21
228.2647336448
31
0.0000000000
11
137.1993581904
21
227.9801780811
31
0.0000000000
0
SPLINE
5
4A0
100
AcDbEntity
8
0
100
AcDbSpline
62
7
6
BYLAYER
70
0
71
3
72
8
73
4
74
2
42
0.0000001000
43
0.0000001000
44
0.0000000001
40
0.0000000000
40
0.0000000000
40
0.0000000000
40
0.0000000000
40
1.0000000000
40
1.0000000000
40
1.0000000000
40
1.0000000000
10
137.1993581904
20
227.9801780811
30
0.0000000000
10
137.5195080944
20
227.7473931877
30
0.0000000000
10
137.7969559570
20
227.4560848564
30
0.0000000000
10
138.0186326751
20
227.1282405717
30
0.0000000000
11
137.1993581904
21
227.9801780811
31
0.0000000000
11
138.0186326751
21
227.1282405717
31
0.0000000000
0
SPLINE
5
4A1
100
AcDbEntity
8
0
100
AcDbSpline
62
7
6
BYLAYER
70
0
71
3
72
9
73
5
74
3
42
0.0000001000
43
0.0000001000
44
0.0000000001
40
0.0000000000
40
0.0000000000
40
0.0000000000
40
0.0000000000
40
0.4899050570
40
1.0000000000
40
1.0000000000
40
1.0000000000
40
1.0000000000
10
138.0186326751
20
227.1282405717
30
0.0000000000
10
138.2481435234
20
226.7888101592
30
0.0000000000
10
138.5945945440
20
226.0160188243
30
0.0000000000
10
138.6872430972
20
225.1738383115
30
0.0000000000
10
138.6737845592
20
224.7493338121
30
0.0000000000
11
138.0186326751
21
227.1282405717
31
0.0000000000
11
138.5266853775
21
226.0149675073
31
0.0000000000
11
138.6737845592
21
224.7493338121
31
0.0000000000
0
SPLINE
5
4A2
100
AcDbEntity
8
0
100
AcDbSpline
62
7
6
BYLAYER
70
0
71
3
72
8
73
4
74
2
42
0.0000001000
43
0.0000001000
44
0.0000000001
40
0.0000000000
40
0.0000000000
40
0.0000000000
40
0.0000000000
40
1.0000000000
40
1.0000000000
40
1.0000000000
40
1.0000000000
10
78.6548565664
20
181.0291996264
30
0.0000000000
10
78.6259414661
20
181.0246789154
30
0.0000000000
10
78.5970844792
20
181.0197213846
30
0.0000000000
10
78.5682943605
20
181.0143380741
30
0.0000000000
11
78.6548565664
21
181.0291996264
31
0.0000000000
11
78.5682943605
21
181.0143380741
31
0.0000000000
0
SPLINE
5
4A3
100
AcDbEntity
8
0
100
AcDbSpline
62
7
6
BYLAYER
70
0
71
3
72
12
73
8
74
6
42
0.0000001000
43
0.0000001000
44
0.0000000001
40
0.0000000000
40
0.0000000000
40
0.0000000000
40
0.0000000000
40
0.1634485495
40
0.3570134935
40
0.5659216156
40
0.7833244417
40
1.0000000000
40
1.0000000000
40
1.0000000000
40
1.0000000000
10
78.5682943605
20
181.0143380741
30
0.0000000000
10
78.2033710302
20
180.9461030108
30
0.0000000000
10
77.4297510428
20
180.6476415314
30
0.0000000000
10
76.4195273061
20
179.8272227170
30
0.0000000000
10
75.5910856640
20
178.6714591176
30
0.0000000000
10
75.0396095229
20
177.3071029035
30
0.0000000000
10
74.8860473004
20
176.3229835160
30
0.0000000000
10
74.8704642249
20
175.8314675980
30
0.0000000000
11
78.5682943605
21
181.0143380741
31
0.0000000000
11
77.5235830463
21
180.6268946527
31
0.0000000000
11
76.4886807052
21
179.8108504647
31
0.0000000000
11
75.6514529947
21
178.6609471532
31
0.0000000000
11
75.0938535966
21
177.2897452661
31
0.0000000000
11
74.8704642249
21
175.8314675980
31
0.0000000000
0
SPLINE
5
4A4
100
AcDbEntity
8
0
100
AcDbSpline
62
7
6
BYLAYER
70
0
71
3
72
8
73
4
74
2
42
0.0000001000
43
0.0000001000
44
0.0000000001
40
0.0000000000
40
0.0000000000
40
0.0000000000
40
0.0000000000
40
1.0000000000
40
1.0000000000
40
1.0000000000
40
1.0000000000
10
124.3873611710
20
216.7198040492
30
0.0000000000
10
124.0169248547
20
216.6993728397
30
0.0000000000
10
123.6371236135
20
216.6547079561
30
0.0000000000
10
123.2811848895
20
216.5967653426
30
0.0000000000
11
124.3873611710
21
216.7198040492
31
0.0000000000
11
123.2811848895
21
216.5967653426
31
0.0000000000
0
SPLINE
5
4A5
100
AcDbEntity
8
0
100
AcDbSpline
62
7
6
BYLAYER
70
0
71
3
72
8
73
4
74
2
42
0.0000001000
43
0.0000001000
44
0.0000000001
40
0.0000000000
40
0.0000000000
40
0.0000000000
40
0.0000000000
40
1.0000000000
40
1.0000000000
40
1.0000000000
40
1.0000000000
10
123.2811848895
20
216.5967653426
30
0.0000000000
10
123.0330334353
20
216.5563692215
30
0.0000000000
10
122.7964804171
20
216.5095194266
30
0.0000000000
10
122.5362995860
20
216.3793936634
30
0.0000000000
11
123.2811848895
21
216.5967653426
31
0.0000000000
11
122.5362995860
21
216.3793936634
31
0.0000000000
0
SPLINE
5
4A6
100
AcDbEntity
8
0
100
AcDbSpline
62
7
6
BYLAYER
70
0
71
3
72
8
73
4
74
2
42
0.0000001000
43
0.0000001000
44
0.0000000001
40
0.0000000000
40
0.0000000000
40
0.0000000000
40
0.0000000000
40
1.0000000000
40
1.0000000000
40
1.0000000000
40
1.0000000000
10
122.5362995860
20
216.3793936634
30
0.0000000000
10
122.4081692805
20
216.3153111030
30
0.0000000000
10
122.2743086844
20
216.2310321958
30
0.0000000000
10
122.2704037788
20
216.1041565796
30
0.0000000000
11
122.5362995860
21
216.3793936634
31
0.0000000000
11
122.2704037788
21
216.1041565796
31
0.0000000000
0
SPLINE
5
4A7
100
AcDbEntity
8
0
100
AcDbSpline
62
7
6
BYLAYER
70
0
71
3
72
12
73
8
74
6
42
0.0000001000
43
0.0000001000
44
0.0000000001
40
0.0000000000
40
0.0000000000
40
0.0000000000
40
0.0000000000
40
0.2139170876
40
0.4285521843
40
0.6348007219
40
0.8259014137
40
1.0000000000
40
1.0000000000
40
1.0000000000
40
1.0000000000
10
74.8565607776
20
175.3929299274
30
0.0000000000
10
74.8426180259
20
174.9531525271
30
0.0000000000
10
74.7052202478
20
174.0726246540
30
0.0000000000
10
74.2117942268
20
172.8518848836
30
0.0000000000
10
73.4705569681
20
171.8177806104
30
0.0000000000
10
72.5460767324
20
171.0669954611
30
0.0000000000
10
71.8243247009
20
170.7976420691
30
0.0000000000
10
71.4705255247
20
170.7423275862
30
0.0000000000
11
74.8565607776
21
175.3929299274
31
0.0000000000
11
74.6566860766
21
174.0881551717
31
0.0000000000
11
74.1577813520
21
172.8612903254
31
0.0000000000
11
73.4086828742
21
171.8324294677
31
0.0000000000
11
72.4827176216
21
171.1022846679
31
0.0000000000
11
71.4705255247
21
170.7423275862
31
0.0000000000
0
SPLINE
5
4A8
100
AcDbEntity
8
0
100
AcDbSpline
62
7
6
BYLAYER
70
0
71
3
72
8
73
4
74
2
42
0.0000001000
43
0.0000001000
44
0.0000000001
40
0.0000000000
40
0.0000000000
40
0.0000000000
40
0.0000000000
40
1.0000000000
40
1.0000000000
40
1.0000000000
40
1.0000000000
10
60.7490787358
20
169.0660905412
30
0.0000000000
10
60.7201762853
20
169.0615718079
30
0.0000000000
10
60.6913263674
20
169.0566582024
30
0.0000000000
10
60.6625361396
20
169.0513587502
30
0.0000000000
11
60.7490787358
21
169.0660905412
31
0.0000000000
11
60.6625361396
21
169.0513587502
31
0.0000000000
0
SPLINE
5
4A9
100
AcDbEntity
8
0
100
AcDbSpline
62
7
6
BYLAYER
70
0
71
3
72
12
73
8
74
6
42
0.0000001000
43
0.0000001000
44
0.0000000001
40
0.0000000000
40
0.0000000000
40
0.0000000000
40
0.0000000000
40
0.1644789172
40
0.3578054502
40
0.5664562633
40
0.7835913177
40
1.0000000000
40
1.0000000000
40
1.0000000000
40
1.0000000000
10
60.6625361396
20
169.0513587502
30
0.0000000000
10
60.2559772934
20
168.9765229705
30
0.0000000000
10
59.3974478463
20
168.6463444038
30
0.0000000000
10
58.2784516586
20
167.7375897466
30
0.0000000000
10
57.3628056332
20
166.4601668209
30
0.0000000000
10
56.7532793720
20
164.9521941632
30
0.0000000000
10
56.5835527049
20
163.8644832612
30
0.0000000000
10
56.5663293057
20
163.3212288255
30
0.0000000000
11
60.6625361396
21
169.0513587502
31
0.0000000000
11
59.4987237925
21
168.6214376755
31
0.0000000000
11
58.3548843629
21
167.7194940993
31
0.0000000000
11
57.4295274197
21
166.4485483339
31
0.0000000000
11
56.8132333481
21
164.9330094061
31
0.0000000000
11
56.5663293057
21
163.3212288255
31
0.0000000000
0
SPLINE
5
4AA
100
AcDbEntity
8
0
100
AcDbSpline
62
7
6
BYLAYER
70
0
71
3
72
9
73
5
74
3
42
0.0000001000
43
0.0000001000
44
0.0000000001
40
0.0000000000
40
0.0000000000
40
0.0000000000
40
0.0000000000
40
0.4641948470
40
1.0000000000
40
1.0000000000
40
1.0000000000
40
1.0000000000
10
45.3529942748
20
183.1717103171
30
0.0000000000
10
45.4634375408
20
183.1168706914
30
0.0000000000
10
45.7077324064
20
183.0115116079
30
0.0000000000
10
45.9587582477
20
182.9241860177
30
0.0000000000
10
46.0943959396
20
182.8809866864
30
0.0000000000
11
45.3529942748
21
183.1717103171
31
0.0000000000
11
45.6916887458
21
183.0229422045
31
0.0000000000
11
46.0943959396
21
182.8809866864
31
0.0000000000
0
SPLINE
5
4AB
100
AcDbEntity
8
0
100
AcDbSpline
62
7
6
BYLAYER
70
0
71
3
72
8
73
4
74
2
42
0.0000001000
43
0.0000001000
44
0.0000000001
40
0.0000000000
40
0.0000000000
40
0.0000000000
40
0.0000000000
40
1.0000000000
40
1.0000000000
40
1.0000000000
40
1.0000000000
10
46.0943959396
20
182.8809866864
30
0.0000000000
10
46.2472237217
20
182.8323124728
30
0.0000000000
10
46.4014946483
20
182.7881960967
30
0.0000000000
10
46.5565983757
20
182.7474361884
30
0.0000000000
11
46.0943959396
21
182.8809866864
31
0.0000000000
11
46.5565983757
21
182.7474361884
31
0.0000000000
0
SPLINE
5
4AC
100
AcDbEntity
8
0
100
AcDbSpline
62
7
6
BYLAYER
70
0
71
3
72
9
73
5
74
3
42
0.0000001000
43
0.0000001000
44
0.0000000001
40
0.0000000000
40
0.0000000000
40
0.0000000000
40
0.0000000000
40
0.5818357548
40
1.0000000000
40
1.0000000000
40
1.0000000000
40
1.0000000000
10
133.0045748814
20
212.2544973460
30
0.0000000000
10
132.6916345712
20
212.2307599141
30
0.0000000000
10
132.1462200933
20
212.1647619528
30
0.0000000000
10
131.6415094349
20
212.0413802638
30
0.0000000000
10
131.4214889748
20
211.9438419387
30
0.0000000000
11
133.0045748814
21
212.2544973460
31
0.0000000000
11
132.0707308622
21
212.1345336902
31
0.0000000000
11
131.4214889748
21
211.9438419387
31
0.0000000000
0
SPLINE
5
4AD
100
AcDbEntity
8
0
100
AcDbSpline
62
7
6
BYLAYER
70
0
71
3
72
8
73
4
74
2
42
0.0000001000
43
0.0000001000
44
0.0000000001
40
0.0000000000
40
0.0000000000
40
0.0000000000
40
0.0000000000
40
1.0000000000
40
1.0000000000
40
1.0000000000
40
1.0000000000
10
131.4214889748
20
211.9438419387
30
0.0000000000
10
131.3004034646
20
211.8901629406
30
0.0000000000
10
131.1766016499
20
211.8225686647
30
0.0000000000
10
131.1353699352
20
211.7054847636
30
0.0000000000
11
131.4214889748
21
211.9438419387
31
0.0000000000
11
131.1353699352
21
211.7054847636
31
0.0000000000
0
SPLINE
5
4AE
100
AcDbEntity
8
0
100
AcDbSpline
62
7
6
BYLAYER
70
0
71
3
72
9
73
5
74
3
42
0.0000001000
43
0.0000001000
44
0.0000000001
40
0.0000000000
40
0.0000000000
40
0.0000000000
40
0.0000000000
40
0.3615288166
40
1.0000000000
40
1.0000000000
40
1.0000000000
40
1.0000000000
10
122.0854656129
20
206.4713634336
30
0.0000000000
10
122.0802076622
20
206.3114507416
30
0.0000000000
10
121.7251061672
20
205.9385155966
30
0.0000000000
10
121.3136827913
20
205.7957901303
30
0.0000000000
10
121.0444852607
20
205.7159761587
30
0.0000000000
11
122.0854656129
21
206.4713634336
31
0.0000000000
11
121.8160873721
21
206.0718862536
31
0.0000000000
11
121.0444852607
21
205.7159761587
31
0.0000000000
0
SPLINE
5
4AF
100
AcDbEntity
8
0
100
AcDbSpline
62
7
6
BYLAYER
70
0
71
3
72
8
73
4
74
2
42
0.0000001000
43
0.0000001000
44
0.0000000001
40
0.0000000000
40
0.0000000000
40
0.0000000000
40
0.0000000000
40
1.0000000000
40
1.0000000000
40
1.0000000000
40
1.0000000000
10
121.0444852607
20
205.7159761587
30
0.0000000000
10
120.6499413235
20
205.5989984193
30
0.0000000000
10
120.2414014999
20
205.5063199277
30
0.0000000000
10
119.8310491176
20
205.4356732675
30
0.0000000000
11
121.0444852607
21
205.7159761587
31
0.0000000000
11
119.8310491176
21
205.4356732675
31
0.0000000000
0
SPLINE
5
4B0
100
AcDbEntity
8
0
100
AcDbSpline
62
7
6
BYLAYER
70
0
71
3
72
8
73
4
74
2
42
0.0000001000
43
0.0000001000
44
0.0000000001
40
0.0000000000
40
0.0000000000
40
0.0000000000
40
0.0000000000
40
1.0000000000
40
1.0000000000
40
1.0000000000
40
1.0000000000
10
119.8310491176
20
205.4356732675
30
0.0000000000
10
119.3133619933
20
205.3465477551
30
0.0000000000
10
118.7927900878
20
205.2924870461
30
0.0000000000
10
118.2705757219
20
205.2528755689
30
0.0000000000
11
119.8310491176
21
205.4356732675
31
0.0000000000
11
118.2705757219
21
205.2528755689
31
0.0000000000
0
SPLINE
5
4B1
100
AcDbEntity
8
0
100
AcDbSpline
62
7
6
BYLAYER
70
0
71
3
72
8
73
4
74
2
42
0.0000001000
43
0.0000001000
44
0.0000000001
40
0.0000000000
40
0.0000000000
40
0.0000000000
40
0.0000000000
40
1.0000000000
40
1.0000000000
40
1.0000000000
40
1.0000000000
10
129.0431562685
20
205.7643169184
30
0.0000000000
10
128.9858378919
20
205.6015524259
30
0.0000000000
10
128.8352809912
20
205.4868678399
30
0.0000000000
10
128.6809664436
20
205.3944282629
30
0.0000000000
11
129.0431562685
21
205.7643169184
31
0.0000000000
11
128.6809664436
21
205.3944282629
31
0.0000000000
0
SPLINE
5
4B2
100
AcDbEntity
8
0
100
AcDbSpline
62
7
6
BYLAYER
70
0
71
3
72
8
73
4
74
2
42
0.0000001000
43
0.0000001000
44
0.0000000001
40
0.0000000000
40
0.0000000000
40
0.0000000000
40
0.0000000000
40
1.0000000000
40
1.0000000000
40
1.0000000000
40
1.0000000000
10
128.6809664436
20
205.3944282629
30
0.0000000000
10
128.4255370828
20
205.2414175297
30
0.0000000000
10
128.1598123069
20
205.1493549396
30
0.0000000000
10
127.8872734912
20
205.0714256848
30
0.0000000000
11
128.6809664436
21
205.3944282629
31
0.0000000000
11
127.8872734912
21
205.0714256848
31
0.0000000000
0
SPLINE
5
4B3
100
AcDbEntity
8
0
100
AcDbSpline
62
7
6
BYLAYER
70
0
71
3
72
8
73
4
74
2
42
0.0000001000
43
0.0000001000
44
0.0000000001
40
0.0000000000
40
0.0000000000
40
0.0000000000
40
0.0000000000
40
1.0000000000
40
1.0000000000
40
1.0000000000
40
1.0000000000
10
127.8872734912
20
205.0714256848
30
0.0000000000
10
127.5061836432
20
204.9624575447
30
0.0000000000
10
127.1117707747
20
204.8811233372
30
0.0000000000
10
126.7163137581
20
204.8173812962
30
0.0000000000
11
127.8872734912
21
205.0714256848
31
0.0000000000
11
126.7163137581
21
204.8173812962
31
0.0000000000
0
SPLINE
5
4B4
100
AcDbEntity
8
0
100
AcDbSpline
62
7
6
BYLAYER
70
0
71
3
72
8
73
4
74
2
42
0.0000001000
43
0.0000001000
44
0.0000000001
40
0.0000000000
40
0.0000000000
40
0.0000000000
40
0.0000000000
40
1.0000000000
40
1.0000000000
40
1.0000000000
40
1.0000000000
10
126.7163137581
20
204.8173812962
30
0.0000000000
10
126.2285906067
20
204.7387672678
30
0.0000000000
10
125.7392792367
20
204.6869120927
30
0.0000000000
10
125.2481038019
20
204.6496550086
30
0.0000000000
11
126.7163137581
21
204.8173812962
31
0.0000000000
11
125.2481038019
21
204.6496550086
31
0.0000000000
0
SPLINE
5
4B5
100
AcDbEntity
8
0
100
AcDbSpline
62
7
6
BYLAYER
70
0
71
3
72
12
73
8
74
6
42
0.0000001000
43
0.0000001000
44
0.0000000001
40
0.0000000000
40
0.0000000000
40
0.0000000000
40
0.0000000000
40
0.2299676568
40
0.4666736771
40
0.7080210682
40
0.9502896745
40
1.0000000000
40
1.0000000000
40
1.0000000000
40
1.0000000000
10
133.9418954175
20
233.6972341896
30
0.0000000000
10
133.4726977245
20
233.6713558512
30
0.0000000000
10
132.5235784398
20
233.4587403582
30
0.0000000000
10
131.2562474910
20
232.7195254356
30
0.0000000000
10
130.2361005760
20
231.6300305273
30
0.0000000000
10
129.7368015855
20
230.6456774257
30
0.0000000000
10
129.5624459348
20
230.0717310043
30
0.0000000000
10
129.5357053410
20
229.9732128174
30
0.0000000000
11
133.9418954175
21
233.6972341896
31
0.0000000000
11
132.5649150694
21
233.3951239561
31
0.0000000000
11
131.3083573966
21
232.6694667491
31
0.0000000000
11
130.2952230189
21
231.5912949517
31
0.0000000000
11
129.6246845882
21
230.2661475318
31
0.0000000000
11
129.5357053410
21
229.9732128174
31
0.0000000000
0
SPLINE
5
4B6
100
AcDbEntity
8
0
100
AcDbSpline
62
7
6
BYLAYER
70
0
71
3
72
9
73
5
74
3
42
0.0000001000
43
0.0000001000
44
0.0000000001
40
0.0000000000
40
0.0000000000
40
0.0000000000
40
0.0000000000
40
0.2602480533
40
1.0000000000
40
1.0000000000
40
1.0000000000
40
1.0000000000
10
77.6200098498
20
175.0664853084
30
0.0000000000
10
77.6051761481
20
174.9574171922
30
0.0000000000
10
77.4251880139
20
174.5250033216
30
0.0000000000
10
76.9887468264
20
174.4100032406
30
0.0000000000
10
76.6807281639
20
174.3284429527
30
0.0000000000
11
77.6200098498
21
175.0664853084
31
0.0000000000
11
77.4941237035
21
174.7538455903
31
0.0000000000
11
76.6807281639
21
174.3284429527
31
0.0000000000
0
SPLINE
5
4B7
100
AcDbEntity
8
0
100
AcDbSpline
62
7
6
BYLAYER
70
0
71
3
72
8
73
4
74
2
42
0.0000001000
43
0.0000001000
44
0.0000000001
40
0.0000000000
40
0.0000000000
40
0.0000000000
40
0.0000000000
40
1.0000000000
40
1.0000000000
40
1.0000000000
40
1.0000000000
10
76.6807281639
20
174.3284429527
30
0.0000000000
10
76.2286616357
20
174.2087402181
30
0.0000000000
10
75.8085598739
20
174.0966007930
30
0.0000000000
10
75.3684915277
20
174.0210631659
30
0.0000000000
11
76.6807281639
21
174.3284429527
31
0.0000000000
11
75.3684915277
21
174.0210631659
31
0.0000000000
0
SPLINE
5
4B8
100
AcDbEntity
8
0
100
AcDbSpline
62
7
6
BYLAYER
70
0
71
3
72
8
73
4
74
2
42
0.0000001000
43
0.0000001000
44
0.0000000001
40
0.0000000000
40
0.0000000000
40
0.0000000000
40
0.0000000000
40
1.0000000000
40
1.0000000000
40
1.0000000000
40
1.0000000000
10
75.3684915277
20
174.0210631659
30
0.0000000000
10
75.3325553633
20
174.0148947319
30
0.0000000000
10
75.2964860534
20
174.0089703741
30
0.0000000000
10
75.2602553187
20
174.0033059054
30
0.0000000000
11
75.3684915277
21
174.0210631659
31
0.0000000000
11
75.2602553187
21
174.0033059054
31
0.0000000000
0
SPLINE
5
4B9
100
AcDbEntity
8
0
100
AcDbSpline
62
7
6
BYLAYER
70
0
71
3
72
8
73
4
74
2
42
0.0000001000
43
0.0000001000
44
0.0000000001
40
0.0000000000
40
0.0000000000
40
0.0000000000
40
0.0000000000
40
1.0000000000
40
1.0000000000
40
1.0000000000
40
1.0000000000
10
22.7867445802
20
183.3047961367
30
0.0000000000
10
22.7812554286
20
183.2339784609
30
0.0000000000
10
22.7884096814
20
183.1636727673
30
0.0000000000
10
22.8105921454
20
183.1012990420
30
0.0000000000
11
22.7867445802
21
183.3047961367
31
0.0000000000
11
22.8105921454
21
183.1012990420
31
0.0000000000
0
SPLINE
5
4BA
100
AcDbEntity
8
0
100
AcDbSpline
62
7
6
BYLAYER
70
0
71
3
72
8
73
4
74
2
42
0.0000001000
43
0.0000001000
44
0.0000000001
40
0.0000000000
40
0.0000000000
40
0.0000000000
40
0.0000000000
40
1.0000000000
40
1.0000000000
40
1.0000000000
40
1.0000000000
10
22.8105921454
20
183.1012990420
30
0.0000000000
10
22.8925897182
20
182.8707342999
30
0.0000000000
10
23.1799349292
20
182.7485531134
30
0.0000000000
10
23.4052326789
20
182.6366835108
30
0.0000000000
11
22.8105921454
21
183.1012990420
31
0.0000000000
11
23.4052326789
21
182.6366835108
31
0.0000000000
0
SPLINE
5
4BB
100
AcDbEntity
8
0
100
AcDbSpline
62
7
6
BYLAYER
70
0
71
3
72
12
73
8
74
6
42
0.0000001000
43
0.0000001000
44
0.0000000001
40
0.0000000000
40
0.0000000000
40
0.0000000000
40
0.0000000000
40
0.2010658184
40
0.4047475755
40
0.6076548422
40
0.8066599831
40
1.0000000000
40
1.0000000000
40
1.0000000000
40
1.0000000000
10
129.1179873724
20
221.1152214304
30
0.0000000000
10
129.1041317935
20
220.6781936061
30
0.0000000000
10
128.9416679845
20
219.7979191868
30
0.0000000000
10
128.3362365584
20
218.6043291468
30
0.0000000000
10
127.4234735293
20
217.6295179131
30
0.0000000000
10
126.2895458382
20
216.9681150876
30
0.0000000000
10
125.4403338467
20
216.7778801728
30
0.0000000000
10
125.0205253845
20
216.7547258700
30
0.0000000000
11
129.1179873724
21
221.1152214304
31
0.0000000000
11
128.8832929686
21
219.8246455112
31
0.0000000000
11
128.2833375306
21
218.6389872933
31
0.0000000000
11
127.3768488769
21
217.6743072642
31
0.0000000000
11
126.2525604328
21
217.0250350263
31
0.0000000000
11
125.0205253845
21
216.7547258700
31
0.0000000000
0
SPLINE
5
4BC
100
AcDbEntity
8
0
100
AcDbSpline
62
7
6
BYLAYER
70
0
71
3
72
8
73
4
74
2
42
0.0000001000
43
0.0000001000
44
0.0000000001
40
0.0000000000
40
0.0000000000
40
0.0000000000
40
0.0000000000
40
1.0000000000
40
1.0000000000
40
1.0000000000
40
1.0000000000
10
102.6588608683
20
202.9361952878
30
0.0000000000
10
102.1054052407
20
202.8942140702
30
0.0000000000
10
101.5488359397
20
202.8312375889
30
0.0000000000
10
101.0063060104
20
202.7318856431
30
0.0000000000
11
102.6588608683
21
202.9361952878
31
0.0000000000
11
101.0063060104
21
202.7318856431
31
0.0000000000
0
SPLINE
5
4BD
100
AcDbEntity
8
0
100
AcDbSpline
62
7
6
BYLAYER
70
0
71
3
72
9
73
5
74
3
42
0.0000001000
43
0.0000001000
44
0.0000000001
40
0.0000000000
40
0.0000000000
40
0.0000000000
40
0.0000000000
40
0.6225714864
40
1.0000000000
40
1.0000000000
40
1.0000000000
40
1.0000000000
10
101.0063060104
20
202.7318856431
30
0.0000000000
10
100.5989727967
20
202.6572918830
30
0.0000000000
10
99.9574092944
20
202.5045402548
30
0.0000000000
10
99.3100691422
20
202.2080651351
30
0.0000000000
10
99.1566641693
20
202.0073331543
30
0.0000000000
11
101.0063060104
21
202.7318856431
31
0.0000000000
11
99.7978955081
21
202.4113877231
31
0.0000000000
11
99.1566641693
21
202.0073331543
31
0.0000000000
0
SPLINE
5
4BE
100
AcDbEntity
8
0
100
AcDbSpline
62
7
6
BYLAYER
70
0
71
3
72
8
73
4
74
2
42
0.0000001000
43
0.0000001000
44
0.0000000001
40
0.0000000000
40
0.0000000000
40
0.0000000000
40
0.0000000000
40
1.0000000000
40
1.0000000000
40
1.0000000000
40
1.0000000000
10
84.3184596427
20
182.5913903034
30
0.0000000000
10
84.1584361078
20
182.3819978662
30
0.0000000000
10
83.9226321691
20
182.2406000582
30
0.0000000000
10
83.6815484438
20
182.1229688640
30
0.0000000000
11
84.3184596427
21
182.5913903034
31
0.0000000000
11
83.6815484438
21
182.1229688640
31
0.0000000000
0
SPLINE
5
4BF
100
AcDbEntity
8
0
100
AcDbSpline
62
7
6
BYLAYER
70
0
71
3
72
8
73
4
74
2
42
0.0000001000
43
0.0000001000
44
0.0000000001
40
0.0000000000
40
0.0000000000
40
0.0000000000
40
0.0000000000
40
1.0000000000
40
1.0000000000
40
1.0000000000
40
1.0000000000
10
83.6815484438
20
182.1229688640
30
0.0000000000
10
83.3146821112
20
181.9439649735
30
0.0000000000
10
82.9355894433
20
181.8199971307
30
0.0000000000
10
82.5493131040
20
181.7161269871
30
0.0000000000
11
83.6815484438
21
182.1229688640
31
0.0000000000
11
82.5493131040
21
181.7161269871
31
0.0000000000
0
SPLINE
5
4C0
100
AcDbEntity
8
0
100
AcDbSpline
62
7
6
BYLAYER
70
0
71
3
72
8
73
4
74
2
42
0.0000001000
43
0.0000001000
44
0.0000000001
40
0.0000000000
40
0.0000000000
40
0.0000000000
40
0.0000000000
40
1.0000000000
40
1.0000000000
40
1.0000000000
40
1.0000000000
10
82.5493131040
20
181.7161269871
30
0.0000000000
10
82.0363592575
20
181.5781931187
30
0.0000000000
10
81.5107374471
20
181.4757003108
30
0.0000000000
10
80.9845738745
20
181.3934376377
30
0.0000000000
11
82.5493131040
21
181.7161269871
31
0.0000000000
11
80.9845738745
21
181.3934376377
31
0.0000000000
0
SPLINE
5
4C1
100
AcDbEntity
8
0
100
AcDbSpline
62
7
6
BYLAYER
70
0
71
3
72
8
73
4
74
2
42
0.0000001000
43
0.0000001000
44
0.0000000001
40
0.0000000000
40
0.0000000000
40
0.0000000000
40
0.0000000000
40
1.0000000000
40
1.0000000000
40
1.0000000000
40
1.0000000000
10
122.0777414755
20
206.2277313943
30
0.0000000000
10
122.0724835249
20
206.0678187024
30
0.0000000000
10
121.9441041016
20
205.9329919007
30
0.0000000000
10
121.8083632348
20
205.8282542144
30
0.0000000000
11
122.0777414755
21
206.2277313943
31
0.0000000000
11
121.8083632348
21
205.8282542144
31
0.0000000000
0
SPLINE
5
4C2
100
AcDbEntity
8
0
100
AcDbSpline
62
7
6
BYLAYER
70
0
71
3
72
8
73
4
74
2
42
0.0000001000
43
0.0000001000
44
0.0000000001
40
0.0000000000
40
0.0000000000
40
0.0000000000
40
0.0000000000
40
1.0000000000
40
1.0000000000
40
1.0000000000
40
1.0000000000
10
121.8083632348
20
205.8282542144
30
0.0000000000
10
121.5686406237
20
205.6432841884
30
0.0000000000
10
121.3059586539
20
205.5521580911
30
0.0000000000
10
121.0367611233
20
205.4723441195
30
0.0000000000
11
121.8083632348
21
205.8282542144
31
0.0000000000
11
121.0367611233
21
205.4723441195
31
0.0000000000
0
SPLINE
5
4C3
100
AcDbEntity
8
0
100
AcDbSpline
62
7
6
BYLAYER
70
0
71
3
72
8
73
4
74
2
42
0.0000001000
43
0.0000001000
44
0.0000000001
40
0.0000000000
40
0.0000000000
40
0.0000000000
40
0.0000000000
40
1.0000000000
40
1.0000000000
40
1.0000000000
40
1.0000000000
10
121.0367611233
20
205.4723441195
30
0.0000000000
10
120.6422171862
20
205.3553663801
30
0.0000000000
10
120.2336773625
20
205.2626878885
30
0.0000000000
10
119.8233249803
20
205.1920412283
30
0.0000000000
11
121.0367611233
21
205.4723441195
31
0.0000000000
11
119.8233249803
21
205.1920412283
31
0.0000000000
0
SPLINE
5
4C4
100
AcDbEntity
8
0
100
AcDbSpline
62
7
6
BYLAYER
70
0
71
3
72
8
73
4
74
2
42
0.0000001000
43
0.0000001000
44
0.0000000001
40
0.0000000000
40
0.0000000000
40
0.0000000000
40
0.0000000000
40
1.0000000000
40
1.0000000000
40
1.0000000000
40
1.0000000000
10
119.8233249803
20
205.1920412283
30
0.0000000000
10
119.5047071431
20
205.1371876755
30
0.0000000000
10
119.1849965622
20
205.0956165318
30
0.0000000000
10
118.8644828666
20
205.0625215783
30
0.0000000000
11
119.8233249803
21
205.1920412283
31
0.0000000000
11
118.8644828666
21
205.0625215783
31
0.0000000000
0
SPLINE
5
4C5
100
AcDbEntity
8
0
100
AcDbSpline
62
7
6
BYLAYER
70
0
71
3
72
8
73
4
74
2
42
0.0000001000
43
0.0000001000
44
0.0000000001
40
0.0000000000
40
0.0000000000
40
0.0000000000
40
0.0000000000
40
1.0000000000
40
1.0000000000
40
1.0000000000
40
1.0000000000
10
118.8644828666
20
205.0625215783
30
0.0000000000
10
118.6642290657
20
205.0418441773
30
0.0000000000
10
118.4636617587
20
205.0244755650
30
0.0000000000
10
118.2628515846
20
205.0092435297
30
0.0000000000
11
118.8644828666
21
205.0625215783
31
0.0000000000
11
118.2628515846
21
205.0092435297
31
0.0000000000
0
SPLINE
5
4C6
100
AcDbEntity
8
0
100
AcDbSpline
62
7
6
BYLAYER
70
0
71
3
72
8
73
4
74
2
42
0.0000001000
43
0.0000001000
44
0.0000000001
40
0.0000000000
40
0.0000000000
40
0.0000000000
40
0.0000000000
40
1.0000000000
40
1.0000000000
40
1.0000000000
40
1.0000000000
10
77.6122857125
20
174.8228532692
30
0.0000000000
10
77.5974520107
20
174.7137851530
30
0.0000000000
10
77.5506104492
20
174.6012502850
30
0.0000000000
10
77.4863995662
20
174.5102135511
30
0.0000000000
11
77.6122857125
21
174.8228532692
31
0.0000000000
11
77.4863995662
21
174.5102135511
31
0.0000000000
0
SPLINE
5
4C7
100
AcDbEntity
8
0
100
AcDbSpline
62
7
6
BYLAYER
70
0
71
3
72
8
73
4
74
2
42
0.0000001000
43
0.0000001000
44
0.0000000001
40
0.0000000000
40
0.0000000000
40
0.0000000000
40
0.0000000000
40
1.0000000000
40
1.0000000000
40
1.0000000000
40
1.0000000000
10
77.4863995662
20
174.5102135511
30
0.0000000000
10
77.3038809071
20
174.2514427352
30
0.0000000000
10
76.9810226891
20
174.1663712014
30
0.0000000000
10
76.6730040265
20
174.0848109134
30
0.0000000000
11
77.4863995662
21
174.5102135511
31
0.0000000000
11
76.6730040265
21
174.0848109134
31
0.0000000000
0
SPLINE
5
4C8
100
AcDbEntity
8
0
100
AcDbSpline
62
7
6
BYLAYER
70
0
71
3
72
8
73
4
74
2
42
0.0000001000
43
0.0000001000
44
0.0000000001
40
0.0000000000
40
0.0000000000
40
0.0000000000
40
0.0000000000
40
1.0000000000
40
1.0000000000
40
1.0000000000
40
1.0000000000
10
76.6730040265
20
174.0848109134
30
0.0000000000
10
76.2418474004
20
173.9706449136
30
0.0000000000
10
75.8397669283
20
173.8633587373
30
0.0000000000
10
75.4217091908
20
173.7881449354
30
0.0000000000
11
76.6730040265
21
174.0848109134
31
0.0000000000
11
75.4217091908
21
173.7881449354
31
0.0000000000
0
SPLINE
5
4C9
100
AcDbEntity
8
0
100
AcDbSpline
62
7
6
BYLAYER
70
0
71
3
72
8
73
4
74
2
42
0.0000001000
43
0.0000001000
44
0.0000000001
40
0.0000000000
40
0.0000000000
40
0.0000000000
40
0.0000000000
40
1.0000000000
40
1.0000000000
40
1.0000000000
40
1.0000000000
10
75.4217091908
20
173.7881449354
30
0.0000000000
10
75.3656401440
20
173.7780574145
30
0.0000000000
10
75.3092837040
20
173.7685467994
30
0.0000000000
10
75.2525311814
20
173.7596738662
30
0.0000000000
11
75.4217091908
21
173.7881449354
31
0.0000000000
11
75.2525311814
21
173.7596738662
31
0.0000000000
0
SPLINE
5
4CA
100
AcDbEntity
8
0
100
AcDbSpline
62
7
6
BYLAYER
70
0
71
3
72
8
73
4
74
2
42
0.0000001000
43
0.0000001000
44
0.0000000001
40
0.0000000000
40
0.0000000000
40
0.0000000000
40
0.0000000000
40
1.0000000000
40
1.0000000000
40
1.0000000000
40
1.0000000000
10
22.7790204428
20
183.0611640975
30
0.0000000000
10
22.7735312912
20
182.9903464217
30
0.0000000000
10
22.7806855441
20
182.9200407281
30
0.0000000000
10
22.8028680080
20
182.8576670028
30
0.0000000000
11
22.7790204428
21
183.0611640975
31
0.0000000000
11
22.8028680080
21
182.8576670028
31
0.0000000000
0
SPLINE
5
4CB
100
AcDbEntity
8
0
100
AcDbSpline
62
7
6
BYLAYER
70
0
71
3
72
8
73
4
74
2
42
0.0000001000
43
0.0000001000
44
0.0000000001
40
0.0000000000
40
0.0000000000
40
0.0000000000
40
0.0000000000
40
1.0000000000
40
1.0000000000
40
1.0000000000
40
1.0000000000
10
22.8028680080
20
182.8576670028
30
0.0000000000
10
22.8700597906
20
182.6687338978
30
0.0000000000
10
23.0751375325
20
182.5525777220
30
0.0000000000
10
23.2709720101
20
182.4552361811
30
0.0000000000
11
22.8028680080
21
182.8576670028
31
0.0000000000
11
23.2709720101
21
182.4552361811
31
0.0000000000
0
SPLINE
5
4CC
100
AcDbEntity
8
0
100
AcDbSpline
62
7
6
BYLAYER
70
0
71
3
72
8
73
4
74
2
42
0.0000001000
43
0.0000001000
44
0.0000000001
40
0.0000000000
40
0.0000000000
40
0.0000000000
40
0.0000000000
40
1.0000000000
40
1.0000000000
40
1.0000000000
40
1.0000000000
10
23.2709720101
20
182.4552361811
30
0.0000000000
10
23.3141243730
20
182.4337868555
30
0.0000000000
10
23.3568279324
20
182.4132510678
30
0.0000000000
10
23.3975085416
20
182.3930514716
30
0.0000000000
11
23.2709720101
21
182.4552361811
31
0.0000000000
11
23.3975085416
21
182.3930514716
31
0.0000000000
0
SPLINE
5
4CD
100
AcDbEntity
8
0
100
AcDbSpline
62
7
6
BYLAYER
70
0
71
3
72
9
73
5
74
3
42
0.0000001000
43
0.0000001000
44
0.0000000001
40
0.0000000000
40
0.0000000000
40
0.0000000000
40
0.0000000000
40
0.7959651833
40
1.0000000000
40
1.0000000000
40
1.0000000000
40
1.0000000000
10
133.5158919246
20
229.5699783265
30
0.0000000000
10
133.9325433368
20
229.6015825469
30
0.0000000000
10
134.4679332079
20
229.5532519537
30
0.0000000000
10
134.9699945744
20
229.3879120267
30
0.0000000000
10
135.0706305405
20
229.3495103076
30
0.0000000000
11
133.5158919246
21
229.5699783265
31
0.0000000000
11
134.7637311041
21
229.4505111074
31
0.0000000000
11
135.0706305405
21
229.3495103076
31
0.0000000000
0
SPLINE
5
4CE
100
AcDbEntity
8
0
100
AcDbSpline
62
7
6
BYLAYER
70
0
71
3
72
8
73
4
74
2
42
0.0000001000
43
0.0000001000
44
0.0000000001
40
0.0000000000
40
0.0000000000
40
0.0000000000
40
0.0000000000
40
1.0000000000
40
1.0000000000
40
1.0000000000
40
1.0000000000
10
135.0706305405
20
229.3495103076
30
0.0000000000
10
135.1255817416
20
229.3285414565
30
0.0000000000
10
135.1799956503
20
229.3061812114
30
0.0000000000
10
135.2338047736
20
229.2824628671
30
0.0000000000
11
135.0706305405
21
229.3495103076
31
0.0000000000
11
135.2338047736
21
229.2824628671
31
0.0000000000
0
SPLINE
5
4CF
100
AcDbEntity
8
0
100
AcDbSpline
62
7
6
BYLAYER
70
0
71
3
72
8
73
4
74
2
42
0.0000001000
43
0.0000001000
44
0.0000000001
40
0.0000000000
40
0.0000000000
40
0.0000000000
40
0.0000000000
40
1.0000000000
40
1.0000000000
40
1.0000000000
40
1.0000000000
10
135.2338047736
20
229.2824628671
30
0.0000000000
10
135.2824980639
20
229.2609995137
30
0.0000000000
10
135.3306961004
20
229.2384240243
30
0.0000000000
10
135.3783488684
20
229.2147610715
30
0.0000000000
11
135.2338047736
21
229.2824628671
31
0.0000000000
11
135.3783488684
21
229.2147610715
31
0.0000000000
0
SPLINE
5
4D0
100
AcDbEntity
8
0
100
AcDbSpline
62
7
6
BYLAYER
70
0
71
3
72
8
73
4
74
2
42
0.0000001000
43
0.0000001000
44
0.0000000001
40
0.0000000000
40
0.0000000000
40
0.0000000000
40
0.0000000000
40
1.0000000000
40
1.0000000000
40
1.0000000000
40
1.0000000000
10
32.3227666026
20
179.8566693255
30
0.0000000000
10
32.3645905901
20
179.8592413346
30
0.0000000000
10
32.4059912921
20
179.8648815752
30
0.0000000000
10
32.4464371279
20
179.8738001573
30
0.0000000000
11
32.3227666026
21
179.8566693255
31
0.0000000000
11
32.4464371279
21
179.8738001573
31
0.0000000000
0
SPLINE
5
4D1
100
AcDbEntity
8
0
100
AcDbSpline
62
7
6
BYLAYER
70
0
71
3
72
11
73
7
74
5
42
0.0000001000
43
0.0000001000
44
0.0000000001
40
0.0000000000
40
0.0000000000
40
0.0000000000
40
0.0000000000
40
0.1658633578
40
0.3876367516
40
0.6706636998
40
1.0000000000
40
1.0000000000
40
1.0000000000
40
1.0000000000
10
32.4464371279
20
179.8738001573
30
0.0000000000
10
32.6631173413
20
179.9215796197
30
0.0000000000
10
33.1054690568
20
180.2531414175
30
0.0000000000
10
33.5312927836
20
181.0485436680
30
0.0000000000
10
33.8236930598
20
182.1273496665
30
0.0000000000
10
33.9021687907
20
182.9422409495
30
0.0000000000
10
33.9160624304
20
183.3804692771
30
0.0000000000
11
32.4464371279
21
179.8738001573
31
0.0000000000
11
33.0057406961
21
180.2287856222
31
0.0000000000
11
33.4646929485
21
180.9863545027
31
0.0000000000
11
33.7783684408
21
182.0723506784
31
0.0000000000
11
33.9160624304
21
183.3804692771
31
0.0000000000
0
SPLINE
5
4D2
100
AcDbEntity
8
0
100
AcDbSpline
62
7
6
BYLAYER
70
0
71
3
72
9
73
5
74
3
42
0.0000001000
43
0.0000001000
44
0.0000000001
40
0.0000000000
40
0.0000000000
40
0.0000000000
40
0.0000000000
40
0.3164612336
40
1.0000000000
40
1.0000000000
40
1.0000000000
40
1.0000000000
10
136.8407245187
20
228.4886313920
30
0.0000000000
10
137.0146171783
20
228.4022814491
30
0.0000000000
10
137.5411639935
20
228.0836610005
30
0.0000000000
10
137.9709396543
20
227.6324150278
30
0.0000000000
10
138.2056561794
20
227.2852857853
30
0.0000000000
11
136.8407245187
21
228.4886313920
31
0.0000000000
11
137.3381890779
21
228.1873372659
31
0.0000000000
11
138.2056561794
21
227.2852857853
31
0.0000000000
0
SPLINE
5
4D3
100
AcDbEntity
8
0
100
AcDbSpline
62
7
6
BYLAYER
70
0
71
3
72
8
73
4
74
2
42
0.0000001000
43
0.0000001000
44
0.0000000001
40
0.0000000000
40
0.0000000000
40
0.0000000000
40
0.0000000000
40
1.0000000000
40
1.0000000000
40
1.0000000000
40
1.0000000000
10
138.2056561794
20
227.2852857853
30
0.0000000000
10
138.4486676658
20
226.9258888779
30
0.0000000000
10
138.6283797791
20
226.5250242371
30
0.0000000000
10
138.7435943349
20
226.1065260700
30
0.0000000000
11
138.2056561794
21
227.2852857853
31
0.0000000000
11
138.7435943349
21
226.1065260700
31
0.0000000000
0
SPLINE
5
4D4
100
AcDbEntity
8
0
100
AcDbSpline
62
7
6
BYLAYER
70
0
71
3
72
8
73
4
74
2
42
0.0000001000
43
0.0000001000
44
0.0000000001
40
0.0000000000
40
0.0000000000
40
0.0000000000
40
0.0000000000
40
1.0000000000
40
1.0000000000
40
1.0000000000
40
1.0000000000
10
138.7435943349
20
226.1065260700
30
0.0000000000
10
138.7834303864
20
225.9618280808
30
0.0000000000
10
138.8155559628
20
225.8150220603
30
0.0000000000
10
138.8401773483
20
225.6670052740
30
0.0000000000
11
138.7435943349
21
226.1065260700
31
0.0000000000
11
138.8401773483
21
225.6670052740
31
0.0000000000
0
SPLINE
5
4D5
100
AcDbEntity
8
0
100
AcDbSpline
62
7
6
BYLAYER
70
0
71
3
72
8
73
4
74
2
42
0.0000001000
43
0.0000001000
44
0.0000000001
40
0.0000000000
40
0.0000000000
40
0.0000000000
40
0.0000000000
40
1.0000000000
40
1.0000000000
40
1.0000000000
40
1.0000000000
10
138.8401773483
20
225.6670052740
30
0.0000000000
10
138.8897010958
20
225.3692825509
30
0.0000000000
10
138.9088645547
20
225.0666613379
30
0.0000000000
10
138.8993464096
20
224.7664433340
30
0.0000000000
11
138.8401773483
21
225.6670052740
31
0.0000000000
11
138.8993464096
21
224.7664433340
31
0.0000000000
0
SPLINE
5
4D6
100
AcDbEntity
8
0
100
AcDbSpline
62
7
6
BYLAYER
70
0
71
3
72
9
73
5
74
3
42
0.0000001000
43
0.0000001000
44
0.0000000001
40
0.0000000000
40
0.0000000000
40
0.0000000000
40
0.0000000000
40
0.4641948470
40
1.0000000000
40
1.0000000000
40
1.0000000000
40
1.0000000000
10
45.3452701375
20
182.9280782779
30
0.0000000000
10
45.4557134035
20
182.8732386522
30
0.0000000000
10
45.7000082691
20
182.7678795687
30
0.0000000000
10
45.9510341104
20
182.6805539785
30
0.0000000000
10
46.0866718022
20
182.6373546472
30
0.0000000000
11
45.3452701375
21
182.9280782779
31
0.0000000000
11
45.6839646085
21
182.7793101653
31
0.0000000000
11
46.0866718022
21
182.6373546472
31
0.0000000000
0
SPLINE
5
4D7
100
AcDbEntity
8
0
100
AcDbSpline
62
7
6
BYLAYER
70
0
71
3
72
8
73
4
74
2
42
0.0000001000
43
0.0000001000
44
0.0000000001
40
0.0000000000
40
0.0000000000
40
0.0000000000
40
0.0000000000
40
1.0000000000
40
1.0000000000
40
1.0000000000
40
1.0000000000
10
46.0866718022
20
182.6373546472
30
0.0000000000
10
46.2394995844
20
182.5886804335
30
0.0000000000
10
46.3937705109
20
182.5445640575
30
0.0000000000
10
46.5488742383
20
182.5038041492
30
0.0000000000
11
46.0866718022
21
182.6373546472
31
0.0000000000
11
46.5488742383
21
182.5038041492
31
0.0000000000
0
SPLINE
5
4D8
100
AcDbEntity
8
0
100
AcDbSpline
62
7
6
BYLAYER
70
0
71
3
72
9
73
5
74
3
42
0.0000001000
43
0.0000001000
44
0.0000000001
40
0.0000000000
40
0.0000000000
40
0.0000000000
40
0.0000000000
40
0.5992728984
40
1.0000000000
40
1.0000000000
40
1.0000000000
40
1.0000000000
10
28.0232015302
20
183.5563595810
30
0.0000000000
10
27.6772507005
20
183.5301182052
30
0.0000000000
10
27.1008580145
20
183.4276566054
30
0.0000000000
10
26.5395535996
20
183.3501756470
30
0.0000000000
10
26.3335724525
20
183.1902393530
30
0.0000000000
11
28.0232015302
21
183.5563595810
31
0.0000000000
11
26.9918362901
21
183.4162845334
31
0.0000000000
11
26.3335724525
21
183.1902393530
31
0.0000000000
0
SPLINE
5
4D9
100
AcDbEntity
8
0
100
AcDbSpline
62
7
6
BYLAYER
70
0
71
3
72
8
73
4
74
2
42
0.0000001000
43
0.0000001000
44
0.0000000001
40
0.0000000000
40
0.0000000000
40
0.0000000000
40
0.0000000000
40
1.0000000000
40
1.0000000000
40
1.0000000000
40
1.0000000000
10
26.3335724525
20
183.1902393530
30
0.0000000000
10
26.3059350701
20
183.1687800080
30
0.0000000000
10
26.2786388172
20
183.1450003320
30
0.0000000000
10
26.2538373995
20
183.1198037165
30
0.0000000000
11
26.3335724525
21
183.1902393530
31
0.0000000000
11
26.2538373995
21
183.1198037165
31
0.0000000000
0
SPLINE
5
4DA
100
AcDbEntity
8
0
100
AcDbSpline
62
7
6
BYLAYER
70
0
71
3
72
12
73
8
74
6
42
0.0000001000
43
0.0000001000
44
0.0000000001
40
0.0000000000
40
0.0000000000
40
0.0000000000
40
0.0000000000
40
0.2010658184
40
0.4047475755
40
0.6076548422
40
0.8066599831
40
1.0000000000
40
1.0000000000
40
1.0000000000
40
1.0000000000
10
129.3512904108
20
221.1280891300
30
0.0000000000
10
129.3366197979
20
220.6653537867
30
0.0000000000
10
129.1645992942
20
219.7332985191
30
0.0000000000
10
128.5235542549
20
218.4694973003
30
0.0000000000
10
127.5570992828
20
217.4373442293
30
0.0000000000
10
126.3564699629
20
216.7370353553
30
0.0000000000
10
125.4573043248
20
216.5356101514
30
0.0000000000
10
125.0128012471
20
216.5110938308
30
0.0000000000
11
129.3512904108
21
221.1280891300
31
0.0000000000
11
129.1027904539
21
219.7615969803
31
0.0000000000
11
128.4675435195
21
218.5061941614
31
0.0000000000
11
127.5077320038
21
217.4847682481
31
0.0000000000
11
126.3173089453
21
216.7973035256
31
0.0000000000
11
125.0128012471
21
216.5110938308
31
0.0000000000
0
SPLINE
5
4DB
100
AcDbEntity
8
0
100
AcDbSpline
62
7
6
BYLAYER
70
0
71
3
72
12
73
8
74
6
42
0.0000001000
43
0.0000001000
44
0.0000000001
40
0.0000000000
40
0.0000000000
40
0.0000000000
40
0.0000000000
40
0.2033094375
40
0.4090321369
40
0.6126133379
40
0.8101986578
40
1.0000000000
40
1.0000000000
40
1.0000000000
40
1.0000000000
10
138.6472305666
20
216.8142935737
30
0.0000000000
10
138.6325337999
20
216.3507332978
30
0.0000000000
10
138.4652817128
20
215.4178373410
30
0.0000000000
10
137.8467022635
20
214.1462526770
30
0.0000000000
10
136.9143488119
20
213.0978986100
30
0.0000000000
10
135.7546123286
20
212.3742575431
30
0.0000000000
10
134.8798208095
20
212.1536940582
30
0.0000000000
10
134.4480827874
20
212.1209454746
30
0.0000000000
11
138.6472305666
21
216.8142935737
31
0.0000000000
11
138.4055504624
21
215.4440644519
31
0.0000000000
11
137.7900955118
21
214.1778165178
31
0.0000000000
11
136.8611107333
21
213.1394989416
31
0.0000000000
11
135.7095316298
21
212.4307494822
31
0.0000000000
11
134.4480827874
21
212.1209454746
31
0.0000000000
0
SPLINE
5
4DC
100
AcDbEntity
8
0
100
AcDbSpline
62
7
6
BYLAYER
70
0
71
3
72
8
73
4
74
2
42
0.0000001000
43
0.0000001000
44
0.0000000001
40
0.0000000000
40
0.0000000000
40
0.0000000000
40
0.0000000000
40
1.0000000000
40
1.0000000000
40
1.0000000000
40
1.0000000000
10
78.6471324290
20
180.7855675872
30
0.0000000000
10
78.2725215366
20
180.7269993111
30
0.0000000000
10
77.9082066373
20
180.5910392451
30
0.0000000000
10
77.5753996205
20
180.4044365595
30
0.0000000000
11
78.6471324290
21
180.7855675872
31
0.0000000000
11
77.5753996205
21
180.4044365595
31
0.0000000000
0
SPLINE
5
4DD
100
AcDbEntity
8
0
100
AcDbSpline
62
7
6
BYLAYER
70
0
71
3
72
10
73
6
74
4
42
0.0000001000
43
0.0000001000
44
0.0000000001
40
0.0000000000
40
0.0000000000
40
0.0000000000
40
0.0000000000
40
0.3122640297
40
0.6492800754
40
1.0000000000
40
1.0000000000
40
1.0000000000
40
1.0000000000
10
77.5753996205
20
180.4044365595
30
0.0000000000
10
77.2100913634
20
180.1996106441
30
0.0000000000
10
76.5294520772
20
179.6468526204
30
0.0000000000
10
75.7446126268
20
178.5519186841
30
0.0000000000
10
75.3982187079
20
177.6949374650
30
0.0000000000
10
75.2735506682
20
177.2429266143
30
0.0000000000
11
77.5753996205
21
180.4044365595
31
0.0000000000
11
76.5949658237
21
179.6313420656
31
0.0000000000
11
75.8018027296
21
178.5419599810
31
0.0000000000
11
75.2735506682
21
177.2429266143
31
0.0000000000
0
SPLINE
5
4DE
100
AcDbEntity
8
0
100
AcDbSpline
62
7
6
BYLAYER
70
0
71
3
72
8
73
4
74
2
42
0.0000001000
43
0.0000001000
44
0.0000000001
40
0.0000000000
40
0.0000000000
40
0.0000000000
40
0.0000000000
40
1.0000000000
40
1.0000000000
40
1.0000000000
40
1.0000000000
10
75.2735506682
20
177.2429266143
30
0.0000000000
10
75.1492996748
20
176.7924278552
30
0.0000000000
10
75.0766815454
20
176.3270470615
30
0.0000000000
10
75.0619186318
20
175.8614004024
30
0.0000000000
11
75.2735506682
21
177.2429266143
31
0.0000000000
11
75.0619186318
21
175.8614004024
31
0.0000000000
0
SPLINE
5
4DF
100
AcDbEntity
8
0
100
AcDbSpline
62
7
6
BYLAYER
70
0
71
3
72
8
73
4
74
2
42
0.0000001000
43
0.0000001000
44
0.0000000001
40
0.0000000000
40
0.0000000000
40
0.0000000000
40
0.0000000000
40
1.0000000000
40
1.0000000000
40
1.0000000000
40
1.0000000000
10
124.3796370337
20
216.4761720099
30
0.0000000000
10
124.0092007173
20
216.4557408005
30
0.0000000000
10
123.6293994761
20
216.4110759169
30
0.0000000000
10
123.2734607522
20
216.3531333034
30
0.0000000000
11
124.3796370337
21
216.4761720099
31
0.0000000000
11
123.2734607522
21
216.3531333034
31
0.0000000000
0
SPLINE
5
4E0
100
AcDbEntity
8
0
100
AcDbSpline
62
7
6
BYLAYER
70
0
71
3
72
8
73
4
74
2
42
0.0000001000
43
0.0000001000
44
0.0000000001
40
0.0000000000
40
0.0000000000
40
0.0000000000
40
0.0000000000
40
1.0000000000
40
1.0000000000
40
1.0000000000
40
1.0000000000
10
123.2734607522
20
216.3531333034
30
0.0000000000
10
123.0253092980
20
216.3127371822
30
0.0000000000
10
122.7887562797
20
216.2658873874
30
0.0000000000
10
122.5285754487
20
216.1357616241
30
0.0000000000
11
123.2734607522
21
216.3531333034
31
0.0000000000
11
122.5285754487
21
216.1357616241
31
0.0000000000
0
SPLINE
5
4E1
100
AcDbEntity
8
0
100
AcDbSpline
62
7
6
BYLAYER
70
0
71
3
72
8
73
4
74
2
42
0.0000001000
43
0.0000001000
44
0.0000000001
40
0.0000000000
40
0.0000000000
40
0.0000000000
40
0.0000000000
40
1.0000000000
40
1.0000000000
40
1.0000000000
40
1.0000000000
10
122.5285754487
20
216.1357616241
30
0.0000000000
10
122.4674769423
20
216.1052040702
30
0.0000000000
10
122.4050754668
20
216.0700542159
30
0.0000000000
10
122.3560830039
20
216.0278832641
30
0.0000000000
11
122.5285754487
21
216.1357616241
31
0.0000000000
11
122.3560830039
21
216.0278832641
31
0.0000000000
0
SPLINE
5
4E2
100
AcDbEntity
8
0
100
AcDbSpline
62
7
6
BYLAYER
70
0
71
3
72
12
73
8
74
6
42
0.0000001000
43
0.0000001000
44
0.0000000001
40
0.0000000000
40
0.0000000000
40
0.0000000000
40
0.0000000000
40
0.2168316389
40
0.4343910696
40
0.6434496771
40
0.8371540541
40
1.0000000000
40
1.0000000000
40
1.0000000000
40
1.0000000000
10
75.0480151846
20
175.4228627318
30
0.0000000000
10
75.0332522710
20
174.9572160726
30
0.0000000000
10
74.8877722707
20
174.0248924423
30
0.0000000000
10
74.3653211896
20
172.7323444501
30
0.0000000000
10
73.5804817392
20
171.6374105137
30
0.0000000000
10
72.6246449980
20
170.8611602460
30
0.0000000000
10
71.8934794159
20
170.5785596948
30
0.0000000000
10
71.5493746839
20
170.5136327505
30
0.0000000000
11
75.0480151846
21
175.4228627318
31
0.0000000000
11
74.8363831482
21
174.0413365198
31
0.0000000000
11
74.3081310868
21
172.7423031532
31
0.0000000000
11
73.5149679927
21
171.6529210686
31
0.0000000000
11
72.5345341959
21
170.8798265746
31
0.0000000000
11
71.5493746839
21
170.5136327505
31
0.0000000000
0
SPLINE
5
4E3
100
AcDbEntity
8
0
100
AcDbSpline
62
7
6
BYLAYER
70
0
71
3
72
8
73
4
74
2
42
0.0000001000
43
0.0000001000
44
0.0000000001
40
0.0000000000
40
0.0000000000
40
0.0000000000
40
0.0000000000
40
1.0000000000
40
1.0000000000
40
1.0000000000
40
1.0000000000
10
71.5493746839
20
170.5136327505
30
0.0000000000
10
71.5205847992
20
170.5082005693
30
0.0000000000
10
71.4917237797
20
170.5032173980
30
0.0000000000
10
71.4628013874
20
170.4986955469
30
0.0000000000
11
71.5493746839
21
170.5136327505
31
0.0000000000
11
71.4628013874
21
170.4986955469
31
0.0000000000
0
SPLINE
5
4E4
100
AcDbEntity
8
0
100
AcDbSpline
62
7
6
BYLAYER
70
0
71
3
72
8
73
4
74
2
42
0.0000001000
43
0.0000001000
44
0.0000000001
40
0.0000000000
40
0.0000000000
40
0.0000000000
40
0.0000000000
40
1.0000000000
40
1.0000000000
40
1.0000000000
40
1.0000000000
10
60.7413545985
20
168.8224585019
30
0.0000000000
10
60.3251202736
20
168.7573826396
30
0.0000000000
10
59.9203259409
20
168.6063158996
30
0.0000000000
10
59.5505403668
20
168.3989795823
30
0.0000000000
11
60.7413545985
21
168.8224585019
31
0.0000000000
11
59.5505403668
21
168.3989795823
31
0.0000000000
0
SPLINE
5
4E5
100
AcDbEntity
8
0
100
AcDbSpline
62
7
6
BYLAYER
70
0
71
3
72
10
73
6
74
4
42
0.0000001000
43
0.0000001000
44
0.0000000001
40
0.0000000000
40
0.0000000000
40
0.0000000000
40
0.0000000000
40
0.3122640297
40
0.6492800754
40
1.0000000000
40
1.0000000000
40
1.0000000000
40
1.0000000000
10
59.5505403668
20
168.3989795823
30
0.0000000000
10
59.1446423033
20
168.1713952319
30
0.0000000000
10
58.3883764297
20
167.5572196500
30
0.0000000000
10
57.5163325960
20
166.3406263874
30
0.0000000000
10
57.1314504639
20
165.3884250328
30
0.0000000000
10
56.9929304197
20
164.8861907543
30
0.0000000000
11
59.5505403668
21
168.3989795823
31
0.0000000000
11
58.4611694814
21
167.5399857001
31
0.0000000000
11
57.5798771546
21
166.3295611617
31
0.0000000000
11
56.9929304197
21
164.8861907543
31
0.0000000000
0
SPLINE
5
4E6
100
AcDbEntity
8
0
100
AcDbSpline
62
7
6
BYLAYER
70
0
71
3
72
8
73
4
74
2
42
0.0000001000
43
0.0000001000
44
0.0000000001
40
0.0000000000
40
0.0000000000
40
0.0000000000
40
0.0000000000
40
1.0000000000
40
1.0000000000
40
1.0000000000
40
1.0000000000
10
56.9929304197
20
164.8861907543
30
0.0000000000
10
56.8548737604
20
164.3856365775
30
0.0000000000
10
56.7741869500
20
163.8685468067
30
0.0000000000
10
56.7577837127
20
163.3511616299
30
0.0000000000
11
56.9929304197
21
164.8861907543
31
0.0000000000
11
56.7577837127
21
163.3511616299
31
0.0000000000
0
SPLINE
5
4E7
100
AcDbEntity
8
0
100
AcDbSpline
62
7
6
BYLAYER
70
0
71
3
72
10
73
6
74
4
42
0.0000001000
43
0.0000001000
44
0.0000000001
40
0.0000000000
40
0.0000000000
40
0.0000000000
40
0.0000000000
40
0.5225744274
40
0.9716674831
40
1.0000000000
40
1.0000000000
40
1.0000000000
40
1.0000000000
10
33.9948486314
20
185.8655160772
30
0.0000000000
10
34.0087422711
20
186.3037444049
30
0.0000000000
10
34.0872180020
20
187.1186356879
30
0.0000000000
10
34.3081364726
20
187.9337107431
30
0.0000000000
10
34.4646101614
20
188.3036003675
30
0.0000000000
10
34.4740946689
20
188.3254670067
30
0.0000000000
11
33.9948486314
21
185.8655160772
31
0.0000000000
11
34.1325426210
21
187.1736346760
31
0.0000000000
11
34.4462181133
21
188.2596308517
31
0.0000000000
11
34.4740946689
21
188.3254670067
31
0.0000000000
0
SPLINE
5
4E8
100
AcDbEntity
8
0
100
AcDbSpline
62
7
6
BYLAYER
70
0
71
3
72
9
73
5
74
3
42
0.0000001000
43
0.0000001000
44
0.0000000001
40
0.0000000000
40
0.0000000000
40
0.0000000000
40
0.0000000000
40
0.5818357548
40
1.0000000000
40
1.0000000000
40
1.0000000000
40
1.0000000000
10
132.9968507441
20
212.0108653068
30
0.0000000000
10
132.6839104338
20
211.9871278749
30
0.0000000000
10
132.1384959560
20
211.9211299136
30
0.0000000000
10
131.6337852976
20
211.7977482245
30
0.0000000000
10
131.4137648375
20
211.7002098994
30
0.0000000000
11
132.9968507441
21
212.0108653068
31
0.0000000000
11
132.0630067248
21
211.8909016510
31
0.0000000000
11
131.4137648375
21
211.7002098994
31
0.0000000000
0
SPLINE
5
4E9
100
AcDbEntity
8
0
100
AcDbSpline
62
7
6
BYLAYER
70
0
71
3
72
8
73
4
74
2
42
0.0000001000
43
0.0000001000
44
0.0000000001
40
0.0000000000
40
0.0000000000
40
0.0000000000
40
0.0000000000
40
1.0000000000
40
1.0000000000
40
1.0000000000
40
1.0000000000
10
131.4137648375
20
211.7002098994
30
0.0000000000
10
131.3482213873
20
211.6711535183
30
0.0000000000
10
131.2818820478
20
211.6380198986
30
0.0000000000
10
131.2282734976
20
211.5951668424
30
0.0000000000
11
131.4137648375
21
211.7002098994
31
0.0000000000
11
131.2282734976
21
211.5951668424
31
0.0000000000
0
SPLINE
5
4EA
100
AcDbEntity
8
0
100
AcDbSpline
62
7
6
BYLAYER
70
0
71
3
72
8
73
4
74
2
42
0.0000001000
43
0.0000001000
44
0.0000000001
40
0.0000000000
40
0.0000000000
40
0.0000000000
40
0.0000000000
40
1.0000000000
40
1.0000000000
40
1.0000000000
40
1.0000000000
10
131.2282734976
20
211.5951668424
30
0.0000000000
10
131.1828451702
20
211.5588528093
30
0.0000000000
10
131.1465588319
20
211.5155592418
30
0.0000000000
10
131.1276457978
20
211.4618527244
30
0.0000000000
11
131.2282734976
21
211.5951668424
31
0.0000000000
11
131.1276457978
21
211.4618527244
31
0.0000000000
0
SPLINE
5
4EB
100
AcDbEntity
8
0
100
AcDbSpline
62
7
6
BYLAYER
70
0
71
3
72
8
73
4
74
2
42
0.0000001000
43
0.0000001000
44
0.0000000001
40
0.0000000000
40
0.0000000000
40
0.0000000000
40
0.0000000000
40
1.0000000000
40
1.0000000000
40
1.0000000000
40
1.0000000000
10
129.0354321311
20
205.5206848792
30
0.0000000000
10
128.9781137546
20
205.3579203867
30
0.0000000000
10
128.8275568539
20
205.2432358007
30
0.0000000000
10
128.6732423062
20
205.1507962237
30
0.0000000000
11
129.0354321311
21
205.5206848792
31
0.0000000000
11
128.6732423062
21
205.1507962237
31
0.0000000000
0
SPLINE
5
4EC
100
AcDbEntity
8
0
100
AcDbSpline
62
7
6
BYLAYER
70
0
71
3
72
8
73
4
74
2
42
0.0000001000
43
0.0000001000
44
0.0000000001
40
0.0000000000
40
0.0000000000
40
0.0000000000
40
0.0000000000
40
1.0000000000
40
1.0000000000
40
1.0000000000
40
1.0000000000
10
128.6732423062
20
205.1507962237
30
0.0000000000
10
128.4178129454
20
204.9977854905
30
0.0000000000
10
128.1520881695
20
204.9057229004
30
0.0000000000
10
127.8795493539
20
204.8277936456
30
0.0000000000
11
128.6732423062
21
205.1507962237
31
0.0000000000
11
127.8795493539
21
204.8277936456
31
0.0000000000
0
SPLINE
5
4ED
100
AcDbEntity
8
0
100
AcDbSpline
62
7
6
BYLAYER
70
0
71
3
72
8
73
4
74
2
42
0.0000001000
43
0.0000001000
44
0.0000000001
40
0.0000000000
40
0.0000000000
40
0.0000000000
40
0.0000000000
40
1.0000000000
40
1.0000000000
40
1.0000000000
40
1.0000000000
10
127.8795493539
20
204.8277936456
30
0.0000000000
10
127.4984595058
20
204.7188255054
30
0.0000000000
10
127.1040466374
20
204.6374912980
30
0.0000000000
10
126.7085896208
20
204.5737492570
30
0.0000000000
11
127.8795493539
21
204.8277936456
31
0.0000000000
11
126.7085896208
21
204.5737492570
31
0.0000000000
0
SPLINE
5
4EE
100
AcDbEntity
8
0
100
AcDbSpline
62
7
6
BYLAYER
70
0
71
3
72
8
73
4
74
2
42
0.0000001000
43
0.0000001000
44
0.0000000001
40
0.0000000000
40
0.0000000000
40
0.0000000000
40
0.0000000000
40
1.0000000000
40
1.0000000000
40
1.0000000000
40
1.0000000000
10
126.7085896208
20
204.5737492570
30
0.0000000000
10
126.4137808311
20
204.5262302772
30
0.0000000000
10
126.1183917523
20
204.4884882073
30
0.0000000000
10
125.8223614633
20
204.4578373197
30
0.0000000000
11
126.7085896208
21
204.5737492570
31
0.0000000000
11
125.8223614633
21
204.4578373197
31
0.0000000000
0
SPLINE
5
4EF
100
AcDbEntity
8
0
100
AcDbSpline
62
7
6
BYLAYER
70
0
71
3
72
8
73
4
74
2
42
0.0000001000
43
0.0000001000
44
0.0000000001
40
0.0000000000
40
0.0000000000
40
0.0000000000
40
0.0000000000
40
1.0000000000
40
1.0000000000
40
1.0000000000
40
1.0000000000
10
125.8223614633
20
204.4578373197
30
0.0000000000
10
125.6286477877
20
204.4377802636
30
0.0000000000
10
125.4346595449
20
204.4207596629
30
0.0000000000
10
125.2403796645
20
204.4060229694
30
0.0000000000
11
125.8223614633
21
204.4578373197
31
0.0000000000
11
125.2403796645
21
204.4060229694
31
0.0000000000
0
SPLINE
5
4F0
100
AcDbEntity
8
0
100
AcDbSpline
62
7
6
BYLAYER
70
0
71
3
72
8
73
4
74
2
42
0.0000001000
43
0.0000001000
44
0.0000000001
40
0.0000000000
40
0.0000000000
40
0.0000000000
40
0.0000000000
40
1.0000000000
40
1.0000000000
40
1.0000000000
40
1.0000000000
10
133.9341712802
20
233.4536021504
30
0.0000000000
10
133.4896682026
20
233.4290858298
30
0.0000000000
10
133.0465769698
20
233.3298274305
30
0.0000000000
10
132.6296635820
20
233.1673924555
30
0.0000000000
11
133.9341712802
21
233.4536021504
31
0.0000000000
11
132.6296635820
21
233.1673924555
31
0.0000000000
0
SPLINE
5
4F1
100
AcDbEntity
8
0
100
AcDbSpline
62
7
6
BYLAYER
70
0
71
3
72
10
73
6
74
4
42
0.0000001000
43
0.0000001000
44
0.0000000001
40
0.0000000000
40
0.0000000000
40
0.0000000000
40
0.0000000000
40
0.3286113911
40
0.6636662487
40
1.0000000000
40
1.0000000000
40
1.0000000000
40
1.0000000000
10
132.6296635820
20
233.1673924555
30
0.0000000000
10
132.2005340680
20
233.0001979160
30
0.0000000000
10
131.3898732445
20
232.5273517518
30
0.0000000000
10
130.4234182724
20
231.4951986809
30
0.0000000000
10
129.9944874738
20
230.6495743754
30
0.0000000000
10
129.8441820735
20
230.2030990009
30
0.0000000000
11
132.6296635820
21
233.1673924555
31
0.0000000000
11
131.4392405235
21
232.4799277330
31
0.0000000000
11
130.4794290078
21
231.4585018198
31
0.0000000000
11
129.8441820735
21
230.2030990009
31
0.0000000000
0
SPLINE
5
4F2
100
AcDbEntity
8
0
100
AcDbSpline
62
7
6
BYLAYER
70
0
71
3
72
8
73
4
74
2
42
0.0000001000
43
0.0000001000
44
0.0000000001
40
0.0000000000
40
0.0000000000
40
0.0000000000
40
0.0000000000
40
1.0000000000
40
1.0000000000
40
1.0000000000
40
1.0000000000
10
129.8441820735
20
230.2030990009
30
0.0000000000
10
129.8157766680
20
230.1187220323
30
0.0000000000
10
129.7896773389
20
230.0335286924
30
0.0000000000
10
129.7659392575
20
229.9476772366
30
0.0000000000
11
129.8441820735
21
230.2030990009
31
0.0000000000
11
129.7659392575
21
229.9476772366
31
0.0000000000
0
SPLINE
5
4F3
100
AcDbEntity
8
0
100
AcDbSpline
62
7
6
BYLAYER
70
0
71
3
72
8
73
4
74
2
42
0.0000001000
43
0.0000001000
44
0.0000000001
40
0.0000000000
40
0.0000000000
40
0.0000000000
40
0.0000000000
40
1.0000000000
40
1.0000000000
40
1.0000000000
40
1.0000000000
10
102.6511367309
20
202.6925632486
30
0.0000000000
10
102.0976811033
20
202.6505820309
30
0.0000000000
10
101.5411118024
20
202.5876055497
30
0.0000000000
10
100.9985818730
20
202.4882536039
30
0.0000000000
11
102.6511367309
21
202.6925632486
31
0.0000000000
11
100.9985818730
21
202.4882536039
31
0.0000000000
0
SPLINE
5
4F4
100
AcDbEntity
8
0
100
AcDbSpline
62
7
6
BYLAYER
70
0
71
3
72
9
73
5
74
3
42
0.0000001000
43
0.0000001000
44
0.0000000001
40
0.0000000000
40
0.0000000000
40
0.0000000000
40
0.0000000000
40
0.6675848577
40
1.0000000000
40
1.0000000000
40
1.0000000000
40
1.0000000000
10
100.9985818730
20
202.4882536039
30
0.0000000000
10
100.5912486593
20
202.4136598438
30
0.0000000000
10
99.9929439815
20
202.2712078287
30
0.0000000000
10
99.3896153970
20
202.0037606363
30
0.0000000000
10
99.2393390585
20
201.8631670173
30
0.0000000000
11
100.9985818730
21
202.4882536039
31
0.0000000000
11
99.7901713707
21
202.1677556839
31
0.0000000000
11
99.2393390585
21
201.8631670173
31
0.0000000000
0
SPLINE
5
4F5
100
AcDbEntity
8
0
100
AcDbSpline
62
7
6
BYLAYER
70
0
71
3
72
8
73
4
74
2
42
0.0000001000
43
0.0000001000
44
0.0000000001
40
0.0000000000
40
0.0000000000
40
0.0000000000
40
0.0000000000
40
1.0000000000
40
1.0000000000
40
1.0000000000
40
1.0000000000
10
99.2393390585
20
201.8631670173
30
0.0000000000
10
99.2066530326
20
201.8325870423
30
0.0000000000
10
99.1763456622
20
201.7995616635
30
0.0000000000
10
99.1489400319
20
201.7637011151
30
0.0000000000
11
99.2393390585
21
201.8631670173
31
0.0000000000
11
99.1489400319
21
201.7637011151
31
0.0000000000
0
SPLINE
5
4F6
100
AcDbEntity
8
0
100
AcDbSpline
62
7
6
BYLAYER
70
0
71
3
72
8
73
4
74
2
42
0.0000001000
43
0.0000001000
44
0.0000000001
40
0.0000000000
40
0.0000000000
40
0.0000000000
40
0.0000000000
40
1.0000000000
40
1.0000000000
40
1.0000000000
40
1.0000000000
10
84.3107355054
20
182.3477582642
30
0.0000000000
10
84.1507119705
20
182.1383658270
30
0.0000000000
10
83.9149080318
20
181.9969680190
30
0.0000000000
10
83.6738243064
20
181.8793368248
30
0.0000000000
11
84.3107355054
21
182.3477582642
31
0.0000000000
11
83.6738243064
21
181.8793368248
31
0.0000000000
0
SPLINE
5
4F7
100
AcDbEntity
8
0
100
AcDbSpline
62
7
6
BYLAYER
70
0
71
3
72
8
73
4
74
2
42
0.0000001000
43
0.0000001000
44
0.0000000001
40
0.0000000000
40
0.0000000000
40
0.0000000000
40
0.0000000000
40
1.0000000000
40
1.0000000000
40
1.0000000000
40
1.0000000000
10
83.6738243064
20
181.8793368248
30
0.0000000000
10
83.3069579739
20
181.7003329342
30
0.0000000000
10
82.9278653059
20
181.5763650915
30
0.0000000000
10
82.5415889666
20
181.4724949478
30
0.0000000000
11
83.6738243064
21
181.8793368248
31
0.0000000000
11
82.5415889666
21
181.4724949478
31
0.0000000000
0
SPLINE
5
4F8
100
AcDbEntity
8
0
100
AcDbSpline
62
7
6
BYLAYER
70
0
71
3
72
8
73
4
74
2
42
0.0000001000
43
0.0000001000
44
0.0000000001
40
0.0000000000
40
0.0000000000
40
0.0000000000
40
0.0000000000
40
1.0000000000
40
1.0000000000
40
1.0000000000
40
1.0000000000
10
82.5415889666
20
181.4724949478
30
0.0000000000
10
82.0286351202
20
181.3345610795
30
0.0000000000
10
81.5030133098
20
181.2320682715
30
0.0000000000
10
80.9768497372
20
181.1498055985
30
0.0000000000
11
82.5415889666
21
181.4724949478
31
0.0000000000
11
80.9768497372
21
181.1498055985
31
0.0000000000
0
SPLINE
5
4F9
100
AcDbEntity
8
0
100
AcDbSpline
62
7
6
BYLAYER
70
0
71
3
72
8
73
4
74
2
42
0.0000001000
43
0.0000001000
44
0.0000000001
40
0.0000000000
40
0.0000000000
40
0.0000000000
40
0.0000000000
40
1.0000000000
40
1.0000000000
40
1.0000000000
40
1.0000000000
10
29.2551254373
20
179.6239798285
30
0.0000000000
10
29.2969494248
20
179.6265518376
30
0.0000000000
10
29.3383501269
20
179.6321920782
30
0.0000000000
10
29.3787959627
20
179.6411106604
30
0.0000000000
11
29.2551254373
21
179.6239798285
31
0.0000000000
11
29.3787959627
21
179.6411106604
31
0.0000000000
0
SPLINE
5
4FA
100
AcDbEntity
8
0
100
AcDbSpline
62
7
6
BYLAYER
70
0
71
3
72
11
73
7
74
5
42
0.0000001000
43
0.0000001000
44
0.0000000001
40
0.0000000000
40
0.0000000000
40
0.0000000000
40
0.0000000000
40
0.1658633578
40
0.3876367516
40
0.6706636998
40
1.0000000000
40
1.0000000000
40
1.0000000000
40
1.0000000000
10
29.3787959627
20
179.6411106604
30
0.0000000000
10
29.5954761760
20
179.6888901227
30
0.0000000000
10
30.0378278915
20
180.0204519205
30
0.0000000000
10
30.4636516183
20
180.8158541711
30
0.0000000000
10
30.7560518945
20
181.8946601695
30
0.0000000000
10
30.8345276254
20
182.7095514526
30
0.0000000000
10
30.8484212652
20
183.1477797802
30
0.0000000000
11
29.3787959627
21
179.6411106604
31
0.0000000000
11
29.9380995309
21
179.9960961253
31
0.0000000000
11
30.3970517832
21
180.7536650057
31
0.0000000000
11
30.7107272755
21
181.8396611815
31
0.0000000000
11
30.8484212652
21
183.1477797802
31
0.0000000000
0
SPLINE
5
4FB
100
AcDbEntity
8
0
100
AcDbSpline
62
7
6
BYLAYER
70
0
71
3
72
9
73
5
74
3
42
0.0000001000
43
0.0000001000
44
0.0000000001
40
0.0000000000
40
0.0000000000
40
0.0000000000
40
0.0000000000
40
0.6566124371
40
1.0000000000
40
1.0000000000
40
1.0000000000
40
1.0000000000
10
134.9782675748
20
228.8438486470
30
0.0000000000
10
135.3949189871
20
228.8754528674
30
0.0000000000
10
136.0439345597
20
228.8168650806
30
0.0000000000
10
136.6439738562
20
228.5863319419
30
0.0000000000
10
136.8407245187
20
228.4886313920
30
0.0000000000
11
134.9782675748
21
228.8438486470
31
0.0000000000
11
136.2261067544
21
228.7243814279
31
0.0000000000
11
136.8407245187
21
228.4886313920
31
0.0000000000
0
SPLINE
5
4FC
100
AcDbEntity
8
0
100
AcDbSpline
62
7
6
BYLAYER
70
0
71
3
72
12
73
8
74
6
42
0.0000001000
43
0.0000001000
44
0.0000000001
40
0.0000000000
40
0.0000000000
40
0.0000000000
40
0.0000000000
40
0.3194461548
40
0.5939736522
40
0.8090870722
40
0.9699694646
40
1.0000000000
40
1.0000000000
40
1.0000000000
40
1.0000000000
10
30.9272074661
20
185.6328265803
30
0.0000000000
10
30.9411011059
20
186.0710549079
30
0.0000000000
10
31.0195768367
20
186.8859461910
30
0.0000000000
10
31.3119771130
20
187.9647521894
30
0.0000000000
10
31.7378008398
20
188.7601544400
30
0.0000000000
10
32.2154828925
20
189.1181978580
30
0.0000000000
10
32.4786793064
20
189.1540545229
30
0.0000000000
10
32.5205032940
20
189.1566265319
30
0.0000000000
11
30.9272074661
21
185.6328265803
31
0.0000000000
11
31.0649014557
21
186.9409451790
31
0.0000000000
11
31.3785769480
21
188.0269413548
31
0.0000000000
11
31.8375292004
21
188.7845102352
31
0.0000000000
11
32.3968327686
21
189.1394957001
31
0.0000000000
11
32.5205032940
21
189.1566265319
31
0.0000000000
0
ENDSEC
0
SECTION
2
OBJECTS
0
DICTIONARY
5
4FD
100
AcDbDictionary
3
ACAD_GROUP
350
4FE
3
ACAD_MLINESTYLE
350
4FF
0
DICTIONARY
5
4FE
102
{ACAD_REACTORS
330
4FD
102
}
100
AcDbDictionary
0
DICTIONARY
5
4FF
102
{ACAD_REACTORS
330
4FD
102
}
100
AcDbDictionary
3
STANDARD
350
500
0
MLINESTYLE
5
500
102
{ACAD_REACTORS
330
4FF
102
}
100
AcDbMlineStyle
2
STANDARD
70
0
3

62
256
51
90.0
52
90.0
71
2
49
0.5
62
256
6
BYLAYER
49
-0.5
62
256
6
BYLAYER
0
ENDSEC
0
EOF
