999
DXF file: td-1002-942.dxf
999
Pro/ENGINEER 2003060 by Parametric Technology Corporation
0
SECTION
2
HEADER
9
$ACADVER
1
AC1014
9
$HANDSEED
5
       507
9
$EXTMAX
10
420.0000000000
20
297.0000000000
9
$EXTMIN
10
0.0000000000
20
0.0000000000
9
$LIMMIN
10
0.0000000000
20
0.0000000000
9
$LIMMAX
10
420.0000000000
20
297.0000000000
9
$VIEWCTR
10
210.0000000000
20
148.5000000000
9
$VIEWSIZE
40
297.0000000000
9
$CLAYER
8
0
9
$LTSCALE
40
23.1000000000
9
$CELTYPE
6
BYLAYER
9
$DIMSCALE
40
1
9
$DIMASZ
40
5.0000000000
9
$DIMEXO
40
2.6250000000
9
$DIMDLI
40
15.9600000000
9
$DIMEXE
40
7.5600000000
9
$DIMCEN
40
3.7800000000
9
$DIMLFAC
40
1.0000000000
9
$DIMTXT
40
4.0000000000
9
$DIMTOL
70
1
9
$DIMLIM
70
0
9
$DIMTFAC
40
1.0000000000
9
$DIMTP
40
0.0100000000
9
$DIMTM
40
0.0100000000
0
ENDSEC
0
SECTION
2
CLASSES
0
ENDSEC
0
SECTION
2
TABLES
0
TABLE
2
VPORT
5
8
100
AcDbSymbolTable
70
2
0
VPORT
5
1F4
100
AcDbSymbolTableRecord
100
AcDbViewportTableRecord
2
*ACTIVE
70
0
10
0.0
20
0.0
11
1.0
21
1.0
12
210.0000000000
22
148.5000000000
13
0.0
23
0.0
14
1.0
24
1.0
15
0.0
25
0.0
16
0.0
26
0.0
36
1.0
17
0.0
27
0.0
37
0.0
40
297.0000000000
41
1.4141414141
42
50.0
43
0.0
44
0.0
50
0.0
51
0.0
71
0
72
100
73
1
74
1
75
0
76
0
77
0
78
0
0
ENDTAB
0
TABLE
2
LTYPE
5
5
100
AcDbSymbolTable
70
6
0
LTYPE
5
14
100
AcDbSymbolTableRecord
100
AcDbLinetypeTableRecord
2
BYBLOCK
70
0
3

72
65
73
0
40
0.0
0
LTYPE
5
15
100
AcDbSymbolTableRecord
100
AcDbLinetypeTableRecord
2
BYLAYER
70
0
3

72
65
73
0
40
0.0
0
LTYPE
5
16
100
AcDbSymbolTableRecord
100
AcDbLinetypeTableRecord
2
CONTINUOUS
70
64
3
Solid line
72
65
73
0
40
0
0
LTYPE
5
1F5
100
AcDbSymbolTableRecord
100
AcDbLinetypeTableRecord
2
CENTER
70
64
3
____ _ ____ _ ____ _ ____ _ ____ _ ____ _ ____
72
65
73
4
40
0.6
49
0.375
74
0
49
-0.075
74
0
49
0.075
74
0
49
-0.075
74
0
0
LTYPE
5
1F6
100
AcDbSymbolTableRecord
100
AcDbLinetypeTableRecord
2
HIDDEN
70
64
3
- - - - - - - - - - - - - - - - - - - -
72
65
73
2
40
0.2
49
0.1
74
0
49
-0.1
74
0
0
LTYPE
5
1F7
100
AcDbSymbolTableRecord
100
AcDbLinetypeTableRecord
2
PHANTOM
70
64
3
_____ _ _ _____ _ _ _____ _ _ _____
72
65
73
6
40
0.8
49
0.45
74
0
49
-0.05
74
0
49
0.1
74
0
49
-0.05
74
0
49
0.1
74
0
49
-0.05
74
0
0
LTYPE
5
1F8
100
AcDbSymbolTableRecord
100
AcDbLinetypeTableRecord
2
DOT
70
64
3
. . . . . . . . . . . . . . . . . . . .
72
65
73
2
40
0.2
49
0.1
74
0
49
-0.1
74
0
0
LTYPE
5
1F9
100
AcDbSymbolTableRecord
100
AcDbLinetypeTableRecord
2
DASHED
70
64
3
- - - - - - - - - - - - - - - - - - - -
72
65
73
2
40
0.2
49
0.1
74
0
49
-0.1
74
0
0
ENDTAB
0
TABLE
2
LAYER
5
2
100
AcDbSymbolTable
70
36
0
LAYER
5
10
100
AcDbSymbolTableRecord
100
AcDbLayerTableRecord
2
0
70
0
62
7
6
CONTINUOUS
0
LAYER
5
1FA
100
AcDbSymbolTableRecord
100
AcDbLayerTableRecord
2
DEFAULT_1
70
0
62
7
6
CENTER
0
LAYER
5
1FB
100
AcDbSymbolTableRecord
100
AcDbLayerTableRecord
2
DEFAULT_2
70
0
62
7
6
HIDDEN
0
LAYER
5
1FC
100
AcDbSymbolTableRecord
100
AcDbLayerTableRecord
2
DEFAULT_3
70
0
62
7
6
PHANTOM
0
LAYER
5
1FD
100
AcDbSymbolTableRecord
100
AcDbLayerTableRecord
2
AXIS
70
0
62
7
6
CONTINUOUS
0
LAYER
5
1FE
100
AcDbSymbolTableRecord
100
AcDbLayerTableRecord
2
CSYS
70
0
62
7
6
CONTINUOUS
0
LAYER
5
1FF
100
AcDbSymbolTableRecord
100
AcDbLayerTableRecord
2
CURVES
70
0
62
7
6
CONTINUOUS
0
LAYER
5
200
100
AcDbSymbolTableRecord
100
AcDbLayerTableRecord
2
DTMS
70
0
62
7
6
CONTINUOUS
0
LAYER
5
201
100
AcDbSymbolTableRecord
100
AcDbLayerTableRecord
2
GEOM
70
0
62
7
6
CONTINUOUS
0
LAYER
5
202
100
AcDbSymbolTableRecord
100
AcDbLayerTableRecord
2
PLANES
70
0
62
7
6
CONTINUOUS
0
LAYER
5
203
100
AcDbSymbolTableRecord
100
AcDbLayerTableRecord
2
POINTS
70
0
62
7
6
CONTINUOUS
0
LAYER
5
204
100
AcDbSymbolTableRecord
100
AcDbLayerTableRecord
2
SKELETON
70
0
62
7
6
CONTINUOUS
0
ENDTAB
0
TABLE
2
STYLE
5
3
100
AcDbSymbolTable
70
1
0
STYLE
5
11
100
AcDbSymbolTableRecord
100
AcDbTextStyleTableRecord
2
STANDARD
70
0
40
0.0
41
0.8000000000
50
0.0
71
0
42
0.2
3
txt
4

0
STYLE
5
205
100
AcDbSymbolTableRecord
100
AcDbTextStyleTableRecord
2
TEXTSTYLE_1
70
0
40
0.0
41
0.8000000000
50
0.0
71
0
42
0.2
3
txt
4

0
STYLE
5
206
100
AcDbSymbolTableRecord
100
AcDbTextStyleTableRecord
2
TEXTSTYLE_2
70
0
40
0.0
41
0.8000000000
50
0.0
71
0
42
0.2
3
cgtime.ttf
4

0
ENDTAB
0
TABLE
2
VIEW
5
6
100
AcDbSymbolTable
70
0
0
ENDTAB
0
TABLE
2
UCS
5
7
100
AcDbSymbolTable
70
0
0
ENDTAB
0
TABLE
2
APPID
5
9
100
AcDbSymbolTable
70
1
0
APPID
5
207
100
AcDbSymbolTableRecord
100
AcDbRegAppTableRecord
2
ACAD
70
0
0
ENDTAB
0
TABLE
2
DIMSTYLE
5
A
100
AcDbSymbolTable
70
1
0
DIMSTYLE
105
208
100
AcDbSymbolTableRecord
100
AcDbDimStyleTableRecord
2
STANDARD
70
0
3

4

5

6

7

40
1.0
41
5.0000000000
42
0.0625
43
0.38
44
0.18
45
0.0
46
0.0
47
0.0100000000
48
0.0100000000
140
4.0000000000
141
0.09
142
0.0
143
25.4
144
1.0000000000
145
0.0
146
1.0000000000
147
0.09
71
1
72
0
73
0
74
0
75
0
76
0
77
1
78
0
170
0
171
2
172
0
173
0
174
0
175
0
176
0
177
0
178
0
270
2
271
2
272
2
273
2
274
2
340
11
275
0
280
0
281
0
282
0
283
1
284
0
285
0
286
0
287
3
288
0
0
DIMSTYLE
105
209
100
AcDbSymbolTableRecord
100
AcDbDimStyleTableRecord
2
DIMSTYLE_1
70
0
3

4

5

6

7

40
1.0
41
5.0000000000
42
0.0625
43
0.38
44
0.18
45
0.0
46
0.0
47
0.2000000000
48
0.2000000000
140
4.0000000000
141
0.09
142
0.0
143
25.4
144
1.0000000000
145
0.0
146
1.0000000000
147
0.09
71
0
72
0
73
0
74
0
75
0
76
0
77
1
78
0
170
0
171
2
172
0
173
0
174
0
175
0
176
0
177
0
178
0
270
2
271
2
272
2
273
2
274
2
340
11
275
0
280
0
281
0
282
0
283
1
284
0
285
0
286
0
287
3
288
0
0
DIMSTYLE
105
20A
100
AcDbSymbolTableRecord
100
AcDbDimStyleTableRecord
2
DIMSTYLE_2
70
0
3

4

5

6

7

40
1.0
41
5.0000000000
42
0.0625
43
0.38
44
0.18
45
0.0
46
0.0
47
0.3000000000
48
0.3000000000
140
4.0000000000
141
0.09
142
0.0
143
25.4
144
1.0000000000
145
0.0
146
1.0000000000
147
0.09
71
0
72
0
73
0
74
0
75
0
76
0
77
1
78
0
170
0
171
2
172
0
173
0
174
0
175
0
176
0
177
0
178
0
270
2
271
2
272
2
273
2
274
2
340
11
275
0
280
0
281
0
282
0
283
1
284
0
285
0
286
0
287
3
288
0
0
DIMSTYLE
105
20B
100
AcDbSymbolTableRecord
100
AcDbDimStyleTableRecord
2
DIMSTYLE_3
70
0
3

4

5

6

7

40
1.0
41
5.0000000000
42
0.0625
43
0.38
44
0.18
45
0.0
46
0.0
47
0.5000000000
48
0.5000000000
140
4.0000000000
141
0.09
142
0.0
143
25.4
144
1.0000000000
145
0.0
146
1.0000000000
147
0.09
71
0
72
0
73
0
74
0
75
0
76
0
77
1
78
0
170
0
171
2
172
0
173
0
174
0
175
0
176
0
177
0
178
0
270
2
271
1
272
1
273
2
274
2
340
11
275
0
280
0
281
0
282
0
283
1
284
0
285
0
286
0
287
3
288
0
0
ENDTAB
0
TABLE
2
BLOCK_RECORD
5
1
100
AcDbSymbolTable
70
0
0
BLOCK_RECORD
5
1B
100
AcDbSymbolTableRecord
100
AcDbBlockTableRecord
2
*MODEL_SPACE
0
BLOCK_RECORD
5
1C
100
AcDbSymbolTableRecord
100
AcDbBlockTableRecord
2
*PAPER_SPACE
0
BLOCK_RECORD
5
20C
100
AcDbSymbolTableRecord
100
AcDbBlockTableRecord
2
COPYRIGHT_BL0
0
BLOCK_RECORD
5
20D
100
AcDbSymbolTableRecord
100
AcDbBlockTableRecord
2
MICRO_U_BL1
0
BLOCK_RECORD
5
20E
100
AcDbSymbolTableRecord
100
AcDbBlockTableRecord
2
PROJECTION_BL2
0
BLOCK_RECORD
5
20F
100
AcDbSymbolTableRecord
100
AcDbBlockTableRecord
2
SURFACE_FINISH_BL3
0
BLOCK_RECORD
5
210
100
AcDbSymbolTableRecord
100
AcDbBlockTableRecord
2
*D0
0
BLOCK_RECORD
5
211
100
AcDbSymbolTableRecord
100
AcDbBlockTableRecord
2
*D1
0
BLOCK_RECORD
5
212
100
AcDbSymbolTableRecord
100
AcDbBlockTableRecord
2
*D2
0
BLOCK_RECORD
5
213
100
AcDbSymbolTableRecord
100
AcDbBlockTableRecord
2
*D3
0
BLOCK_RECORD
5
214
100
AcDbSymbolTableRecord
100
AcDbBlockTableRecord
2
*D4
0
BLOCK_RECORD
5
215
100
AcDbSymbolTableRecord
100
AcDbBlockTableRecord
2
*D5
0
BLOCK_RECORD
5
216
100
AcDbSymbolTableRecord
100
AcDbBlockTableRecord
2
*D6
0
BLOCK_RECORD
5
217
100
AcDbSymbolTableRecord
100
AcDbBlockTableRecord
2
*D7
0
BLOCK_RECORD
5
218
100
AcDbSymbolTableRecord
100
AcDbBlockTableRecord
2
*D8
0
BLOCK_RECORD
5
219
100
AcDbSymbolTableRecord
100
AcDbBlockTableRecord
2
*D9
0
BLOCK_RECORD
5
21A
100
AcDbSymbolTableRecord
100
AcDbBlockTableRecord
2
COPYRIGHT_BL4
0
BLOCK_RECORD
5
21B
100
AcDbSymbolTableRecord
100
AcDbBlockTableRecord
2
MICRO_U_BL5
0
BLOCK_RECORD
5
21C
100
AcDbSymbolTableRecord
100
AcDbBlockTableRecord
2
SURFACE_FINISH_BL6
0
BLOCK_RECORD
5
21D
100
AcDbSymbolTableRecord
100
AcDbBlockTableRecord
2
PROJECTION_BL7
0
ENDTAB
0
ENDSEC
0
SECTION
2
BLOCKS
0
BLOCK
5
1E
100
AcDbEntity
8
0
100
AcDbBlockBegin
2
*MODEL_SPACE
70
0
10
0.0
20
0.0
30
0.0
3
*MODEL_SPACE
1

0
ENDBLK
5
1F
100
AcDbEntity
8
0
100
AcDbBlockEnd
0
BLOCK
5
20
100
AcDbEntity
8
0
100
AcDbBlockBegin
2
*PAPER_SPACE
70
0
10
0.0
20
0.0
30
0.0
3
*PAPER_SPACE
1

0
ENDBLK
5
21
100
AcDbEntity
8
0
100
AcDbBlockEnd
0
BLOCK
5
21E
100
AcDbEntity
8
0
100
AcDbBlockBegin
62
7
6
BYLAYER
2
COPYRIGHT_BL0
70
64
10
0.0000000000
20
0.0000000000
3
COPYRIGHT_BL0
1

0
TEXT
5
21F
100
AcDbEntity
8
0
100
AcDbText
62
7
6
BYLAYER
10
409.9593803245
20
9.9568590072
7
TEXTSTYLE_1
40
0.1000000000
1
C
41
0.8000000000
72
0
100
AcDbText
0
CIRCLE
5
220
100
AcDbEntity
8
0
100
AcDbCircle
62
7
6
BYLAYER
10
409.9943527832
20
10.0069663115
40
0.0753936874
0
ENDBLK
5
221
100
AcDbEntity
8
0
100
AcDbBlockEnd
0
BLOCK
5
222
100
AcDbEntity
8
0
100
AcDbBlockBegin
62
7
6
BYLAYER
2
MICRO_U_BL1
70
64
10
0.0000000000
20
0.0000000000
3
MICRO_U_BL1
1

0
TEXT
5
223
100
AcDbEntity
8
0
100
AcDbText
62
7
6
BYLAYER
10
409.9173172813
20
9.9658183152
7
STANDARD
40
0.1000000000
1
um
41
0.8000000000
72
0
100
AcDbText
0
ARC
5
224
100
AcDbEntity
8
0
100
AcDbCircle
62
7
6
BYLAYER
10
409.8795565990
20
9.9804558390
40
0.0627552936
100
AcDbArc
50
303.7730668774
51
1.5957171757
0
ENDBLK
5
225
100
AcDbEntity
8
0
100
AcDbBlockEnd
0
BLOCK
5
226
100
AcDbEntity
8
0
100
AcDbBlockBegin
62
7
6
BYLAYER
2
PROJECTION_BL2
70
64
10
0.0000000000
20
0.0000000000
3
PROJECTION_BL2
1

0
LINE
5
227
100
AcDbEntity
8
0
100
AcDbLine
62
7
6
BYLAYER
10
409.6178469936
20
9.9332236616
11
409.6178469936
21
10.0582236616
0
LINE
5
228
100
AcDbEntity
8
0
100
AcDbLine
62
7
6
BYLAYER
10
409.6178469936
20
10.0582236616
11
409.7928469936
21
10.1207236616
0
LINE
5
229
100
AcDbEntity
8
0
100
AcDbLine
62
7
6
BYLAYER
10
409.7928469936
20
10.1207236616
11
409.7928469936
21
9.8707236616
0
LINE
5
22A
100
AcDbEntity
8
0
100
AcDbLine
62
7
6
BYLAYER
10
409.7928469936
20
9.8707236616
11
409.6178469936
21
9.9332236616
0
ARC
5
22B
100
AcDbEntity
8
0
100
AcDbCircle
62
7
6
BYLAYER
10
409.2678469936
20
9.9957236616
40
0.0625000000
100
AcDbArc
50
180.0000000000
51
360.0000000000
0
ARC
5
22C
100
AcDbEntity
8
0
100
AcDbCircle
62
7
6
BYLAYER
10
409.2678469936
20
9.9957236616
40
0.0625000000
100
AcDbArc
50
0.0000000000
51
180.0000000000
0
ARC
5
22D
100
AcDbEntity
8
0
100
AcDbCircle
62
7
6
BYLAYER
10
409.2678469936
20
9.9957236616
40
0.1250000000
100
AcDbArc
50
180.0000000000
51
360.0000000000
0
ARC
5
22E
100
AcDbEntity
8
0
100
AcDbCircle
62
7
6
BYLAYER
10
409.2678469936
20
9.9957236616
40
0.1250000000
100
AcDbArc
50
0.0000000000
51
180.0000000000
0
LINE
5
22F
100
AcDbEntity
8
0
100
AcDbLine
62
7
6
BYLAYER
10
409.0671219936
20
9.9957236616
11
409.4456219936
21
9.9957236616
0
LINE
5
230
100
AcDbEntity
8
0
100
AcDbLine
62
7
6
BYLAYER
10
409.5241469936
20
9.9957236616
11
409.8669219936
21
9.9957236616
0
LINE
5
231
100
AcDbEntity
8
0
100
AcDbLine
62
7
6
BYLAYER
10
409.2678469936
20
10.1398736616
11
409.2678469936
21
9.8515736616
0
TEXT
5
232
100
AcDbEntity
8
0
100
AcDbText
62
7
6
BYLAYER
10
409.2283663134
20
9.9568432128
7
STANDARD
40
0.1000000000
1
l
41
0.8000000000
72
0
100
AcDbText
0
ENDBLK
5
233
100
AcDbEntity
8
0
100
AcDbBlockEnd
0
BLOCK
5
234
100
AcDbEntity
8
0
100
AcDbBlockBegin
62
7
6
BYLAYER
2
SURFACE_FINISH_BL3
70
64
10
0.0000000000
20
0.0000000000
3
SURFACE_FINISH_BL3
1

0
LINE
5
235
100
AcDbEntity
8
0
100
AcDbLine
62
7
6
BYLAYER
10
409.9768652881
20
9.9666906703
11
410.0571314064
21
10.1057156653
0
LINE
5
236
100
AcDbEntity
8
0
100
AcDbLine
62
7
6
BYLAYER
10
409.9768652881
20
9.9666906703
11
409.9405459599
21
10.0295975921
0
LINE
5
237
100
AcDbEntity
8
0
100
AcDbLine
62
7
6
BYLAYER
10
409.9405459599
20
10.0295975921
11
410.0131846164
21
10.0295975921
0
TEXT
5
238
100
AcDbEntity
8
0
100
AcDbText
62
7
6
BYLAYER
10
409.9369531437
20
9.9795701528
7
STANDARD
40
0.1000000000
1
-
41
0.8000000000
72
0
100
AcDbText
0
ENDBLK
5
239
100
AcDbEntity
8
0
100
AcDbBlockEnd
0
BLOCK
5
23A
100
AcDbEntity
8
0
100
AcDbBlockBegin
62
7
6
BYLAYER
2
*D0
70
65
10
0.0000000000
20
0.0000000000
3
*D0
1

0
TEXT
5
23B
100
AcDbEntity
8
0
100
AcDbText
62
7
6
BYLAYER
10
123.2474369822
20
111.5291905320
7
STANDARD
40
4.0000000000
1
27.80
50
90.0000000000
41
0.8000000000
72
0
100
AcDbText
0
LINE
5
23C
100
AcDbEntity
8
0
100
AcDbLine
62
7
6
BYLAYER
10
132.8267018765
20
132.3600662572
11
121.2474369822
21
132.3600662572
0
LINE
5
23D
100
AcDbEntity
8
0
100
AcDbLine
62
7
6
BYLAYER
10
132.8267018765
20
104.5600662572
11
121.2474369822
21
104.5600662572
0
LINE
5
23E
100
AcDbEntity
8
0
100
AcDbLine
62
7
6
BYLAYER
10
124.2474369822
20
132.3600662572
11
124.2474369822
21
118.4600662572
0
LINE
5
23F
100
AcDbEntity
8
0
100
AcDbLine
62
7
6
BYLAYER
10
124.2474369822
20
104.5600662572
11
124.2474369822
21
118.4600662572
0
SOLID
5
240
100
AcDbEntity
8
0
100
AcDbTrace
62
7
6
BYLAYER
10
125.0474369822
20
127.3600662572
11
124.2474369822
21
132.3600662572
12
123.4474369822
22
127.3600662572
13
123.4474369822
23
127.3600662572
0
SOLID
5
241
100
AcDbEntity
8
0
100
AcDbTrace
62
7
6
BYLAYER
10
123.4474369822
20
109.5600662572
11
124.2474369822
21
104.5600662572
12
125.0474369822
22
109.5600662572
13
125.0474369822
23
109.5600662572
0
ENDBLK
5
242
100
AcDbEntity
8
0
100
AcDbBlockEnd
0
BLOCK
5
243
100
AcDbEntity
8
0
100
AcDbBlockBegin
62
7
6
BYLAYER
2
*D1
70
65
10
0.0000000000
20
0.0000000000
3
*D1
1

0
TEXT
5
244
100
AcDbEntity
8
0
100
AcDbText
62
7
6
BYLAYER
10
146.3597119914
20
144.6190105394
7
STANDARD
40
4.0000000000
1
40.00
41
0.8000000000
72
0
100
AcDbText
0
LINE
5
245
100
AcDbEntity
8
0
100
AcDbLine
62
7
6
BYLAYER
10
174.8267018765
20
134.3600662572
11
174.8267018765
21
146.6190105394
0
LINE
5
246
100
AcDbEntity
8
0
100
AcDbLine
62
7
6
BYLAYER
10
134.8267018765
20
134.3600662572
11
134.8267018765
21
146.6190105394
0
LINE
5
247
100
AcDbEntity
8
0
100
AcDbLine
62
7
6
BYLAYER
10
174.8267018765
20
143.6190105394
11
154.8267018765
21
143.6190105394
0
LINE
5
248
100
AcDbEntity
8
0
100
AcDbLine
62
7
6
BYLAYER
10
134.8267018765
20
143.6190105394
11
154.8267018765
21
143.6190105394
0
SOLID
5
249
100
AcDbEntity
8
0
100
AcDbTrace
62
7
6
BYLAYER
10
169.8267018765
20
142.8190105394
11
174.8267018765
21
143.6190105394
12
169.8267018765
22
144.4190105394
13
169.8267018765
23
144.4190105394
0
SOLID
5
24A
100
AcDbEntity
8
0
100
AcDbTrace
62
7
6
BYLAYER
10
139.8267018765
20
144.4190105394
11
134.8267018765
21
143.6190105394
12
139.8267018765
22
142.8190105394
13
139.8267018765
23
142.8190105394
0
ENDBLK
5
24B
100
AcDbEntity
8
0
100
AcDbBlockEnd
0
BLOCK
5
24C
100
AcDbEntity
8
0
100
AcDbBlockBegin
62
7
6
BYLAYER
2
*D2
70
65
10
0.0000000000
20
0.0000000000
3
*D2
1

0
TEXT
5
24D
100
AcDbEntity
8
0
100
AcDbText
62
7
6
BYLAYER
10
185.5125284825
20
132.4578009946
7
STANDARD
40
4.0000000000
1
88.1%%d
50
52.1916990860
41
0.7733333333
72
0
100
AcDbText
0
LINE
5
24E
100
AcDbEntity
8
0
100
AcDbLine
62
7
6
BYLAYER
10
207.8696680655
20
130.1680561213
11
207.4031617321
21
144.2732064978
0
LINE
5
24F
100
AcDbEntity
8
0
100
AcDbLine
62
7
6
BYLAYER
10
202.6375822478
20
124.7600662572
11
188.5247194871
21
124.7600662572
0
ARC
5
250
100
AcDbEntity
8
0
100
AcDbCircle
62
7
6
BYLAYER
10
208.0485290812
20
124.7600662572
40
16.5238095941
100
AcDbArc
50
91.8942800237
51
135.9471400118
0
ARC
5
251
100
AcDbEntity
8
0
100
AcDbCircle
62
7
6
BYLAYER
10
208.0485290812
20
124.7600662572
40
16.5238095941
100
AcDbArc
50
135.9471400118
51
180.0000000000
0
SOLID
5
252
100
AcDbEntity
8
0
100
AcDbTrace
62
7
6
BYLAYER
10
207.5023279341
20
141.2748459350
11
202.7337100163
21
139.5718241637
12
202.4404048979
22
141.1447107163
13
202.4404048979
23
141.1447107163
0
SOLID
5
253
100
AcDbEntity
8
0
100
AcDbTrace
62
7
6
BYLAYER
10
191.5247194871
20
124.7600662572
11
191.4874596954
21
129.8235247302
12
193.0691820167
22
129.5823722921
13
193.0691820167
23
129.5823722921
0
ENDBLK
5
254
100
AcDbEntity
8
0
100
AcDbBlockEnd
0
BLOCK
5
255
100
AcDbEntity
8
0
100
AcDbBlockBegin
62
7
6
BYLAYER
2
*D3
70
65
10
0.0000000000
20
0.0000000000
3
*D3
1

0
TEXT
5
256
100
AcDbEntity
8
0
100
AcDbText
62
7
6
BYLAYER
10
256.2123216309
20
127.8279639165
7
STANDARD
40
4.0000000000
1
27.2%%d
50
-78.9376678257
41
0.7733333333
72
0
100
AcDbText
0
LINE
5
257
100
AcDbEntity
8
0
100
AcDbLine
62
7
6
BYLAYER
10
218.3771794645
20
112.1600662572
11
255.4784517023
21
112.1600662572
0
LINE
5
258
100
AcDbEntity
8
0
100
AcDbLine
62
7
6
BYLAYER
10
220.2433185540
20
114.1472446959
11
251.1535665490
21
130.0349758222
0
ARC
5
259
100
AcDbEntity
8
0
100
AcDbCircle
62
7
6
BYLAYER
10
216.3771794645
20
112.1600662572
40
36.1012722378
100
AcDbArc
50
0.0000000000
51
13.6014820158
0
ARC
5
25A
100
AcDbEntity
8
0
100
AcDbCircle
62
7
6
BYLAYER
10
216.3771794645
20
112.1600662572
40
36.1012722378
100
AcDbArc
50
13.6014820158
51
27.2029640316
0
SOLID
5
25B
100
AcDbEntity
8
0
100
AcDbTrace
62
7
6
BYLAYER
10
252.4784517023
20
112.1600662572
11
251.3343976286
21
117.0927268249
12
252.9305627517
22
117.2034377088
13
252.9305627517
23
117.2034377088
0
SOLID
5
25C
100
AcDbEntity
8
0
100
AcDbTrace
62
7
6
BYLAYER
10
248.4853883727
20
128.6635440087
11
251.1930393365
21
124.3846859533
12
249.7228108779
22
123.7534741983
13
249.7228108779
23
123.7534741983
0
ENDBLK
5
25D
100
AcDbEntity
8
0
100
AcDbBlockEnd
0
BLOCK
5
25E
100
AcDbEntity
8
0
100
AcDbBlockBegin
62
7
6
BYLAYER
2
*D4
70
65
10
0.0000000000
20
0.0000000000
3
*D4
1

0
TEXT
5
25F
100
AcDbEntity
8
0
100
AcDbText
62
7
6
BYLAYER
10
259.3062925081
20
163.5994112136
7
STANDARD
40
4.0000000000
1
34.8%%d
50
65.8407907147
41
0.7733333333
72
0
100
AcDbText
0
LINE
5
260
100
AcDbEntity
8
0
100
AcDbLine
62
7
6
BYLAYER
10
287.3009364527
20
158.8921958579
11
263.1278554471
21
162.1076645073
0
LINE
5
261
100
AcDbEntity
8
0
100
AcDbLine
62
7
6
BYLAYER
10
283.5214612269
20
155.6668324585
11
265.8159558525
21
146.5662807939
0
ARC
5
262
100
AcDbEntity
8
0
100
AcDbCircle
62
7
6
BYLAYER
10
289.2834739101
20
158.6284815619
40
23.3860018031
100
AcDbArc
50
155.8407907147
51
207.2029640316
0
SOLID
5
263
100
AcDbEntity
8
0
100
AcDbTrace
62
7
6
BYLAYER
10
266.1016616332
20
161.7120930633
11
266.7747148630
21
156.6934279669
12
265.1752285562
22
156.7339687424
13
265.1752285562
23
156.7339687424
0
SOLID
5
264
100
AcDbEntity
8
0
100
AcDbTrace
62
7
6
BYLAYER
10
268.4841340289
20
147.9377126074
11
265.9394712688
21
152.3154621934
12
267.4324184225
22
152.8908827320
13
267.4324184225
23
152.8908827320
0
ENDBLK
5
265
100
AcDbEntity
8
0
100
AcDbBlockEnd
0
BLOCK
5
266
100
AcDbEntity
8
0
100
AcDbBlockBegin
62
7
6
BYLAYER
2
*D5
70
65
10
0.0000000000
20
0.0000000000
3
*D5
1

0
TEXT
5
267
100
AcDbEntity
8
0
100
AcDbText
62
7
6
BYLAYER
10
333.3869954157
20
163.7536755875
7
STANDARD
40
4.0000000000
1
59.9%%d
50
-63.1494518455
41
0.7733333333
72
0
100
AcDbText
0
LINE
5
268
100
AcDbEntity
8
0
100
AcDbLine
62
7
6
BYLAYER
10
319.1095296932
20
146.5905968725
11
336.0997005679
21
144.3305886517
0
LINE
5
269
100
AcDbEntity
8
0
100
AcDbLine
62
7
6
BYLAYER
10
320.7084221915
20
151.4946512707
11
328.8212219590
21
162.0061370645
0
ARC
5
26A
100
AcDbEntity
8
0
100
AcDbCircle
62
7
6
BYLAYER
10
317.1269922358
20
146.8543111686
40
16.1398233220
100
AcDbArc
50
352.4230770000
51
22.3809987206
0
ARC
5
26B
100
AcDbEntity
8
0
100
AcDbCircle
62
7
6
BYLAYER
10
317.1269922358
20
146.8543111686
40
16.1398233220
100
AcDbArc
50
22.3809987206
51
52.3389204412
0
SOLID
5
26C
100
AcDbEntity
8
0
100
AcDbTrace
62
7
6
BYLAYER
10
333.1258943818
20
144.7261600958
11
332.2128387764
21
149.7067553876
12
333.8124282269
22
149.7429988693
13
333.8124282269
23
149.7429988693
0
SOLID
5
26D
100
AcDbEntity
8
0
100
AcDbTrace
62
7
6
BYLAYER
10
326.9882536719
20
159.6312208010
11
331.0083930903
21
156.5525069370
12
329.8471025533
22
155.4518688090
13
329.8471025533
23
155.4518688090
0
ENDBLK
5
26E
100
AcDbEntity
8
0
100
AcDbBlockEnd
0
BLOCK
5
26F
100
AcDbEntity
8
0
100
AcDbBlockBegin
62
7
6
BYLAYER
2
*D6
70
65
10
0.0000000000
20
0.0000000000
3
*D6
1

0
TEXT
5
270
100
AcDbEntity
8
0
100
AcDbText
62
7
6
BYLAYER
10
345.0908459972
20
170.0723339024
7
STANDARD
40
4.0000000000
1
58.8%%d
50
-68.9317516490
41
0.7733333333
72
0
100
AcDbText
0
LINE
5
271
100
AcDbEntity
8
0
100
AcDbLine
62
7
6
BYLAYER
10
318.8505518971
20
146.6250457284
11
347.3114044018
21
142.8392238490
0
LINE
5
272
100
AcDbEntity
8
0
100
AcDbLine
62
7
6
BYLAYER
10
316.0934180823
20
156.6116479938
11
333.2616643608
21
177.9558309369
0
ARC
5
273
100
AcDbEntity
8
0
100
AcDbCircle
62
7
6
BYLAYER
10
309.1035398780
20
147.9215793216
40
35.5444061911
100
AcDbArc
50
352.4230770000
51
21.8057656979
0
ARC
5
274
100
AcDbEntity
8
0
100
AcDbCircle
62
7
6
BYLAYER
10
309.1035398780
20
147.9215793216
40
35.5444061911
100
AcDbArc
50
21.8057656979
51
51.1884543957
0
SOLID
5
275
100
AcDbEntity
8
0
100
AcDbTrace
62
7
6
BYLAYER
10
344.3375982157
20
143.2347952931
11
343.8484715598
21
148.2747114744
12
345.4454064884
22
148.1757224157
13
345.4454064884
23
148.1757224157
0
SOLID
5
276
100
AcDbEntity
8
0
100
AcDbTrace
62
7
6
BYLAYER
10
331.3813818345
20
175.6181958882
11
335.5915516071
21
172.8049290174
12
334.5035971502
22
171.6317474033
13
334.5035971502
23
171.6317474033
0
ENDBLK
5
277
100
AcDbEntity
8
0
100
AcDbBlockEnd
0
BLOCK
5
278
100
AcDbEntity
8
0
100
AcDbBlockBegin
62
7
6
BYLAYER
2
*D7
70
65
10
0.0000000000
20
0.0000000000
3
*D7
1

0
TEXT
5
279
100
AcDbEntity
8
0
100
AcDbText
62
7
6
BYLAYER
10
368.2602788349
20
210.7157515377
7
STANDARD
40
4.0000000000
1
61.2%%d
50
-62.6547736225
41
0.7733333333
72
0
100
AcDbText
0
LINE
5
27A
100
AcDbEntity
8
0
100
AcDbLine
62
7
6
BYLAYER
10
360.2960356056
20
179.6495708951
11
372.9693114539
21
177.4149304291
0
LINE
5
27B
100
AcDbEntity
8
0
100
AcDbLine
62
7
6
BYLAYER
10
335.2449263195
20
185.8462104186
11
358.7980997760
21
215.1283651006
0
ARC
5
27C
100
AcDbEntity
8
0
100
AcDbCircle
62
7
6
BYLAYER
10
333.9914046353
20
184.2877870528
40
36.5792038592
100
AcDbArc
50
350.0000000000
51
20.5942271979
0
ARC
5
27D
100
AcDbEntity
8
0
100
AcDbCircle
62
7
6
BYLAYER
10
333.9914046353
20
184.2877870528
40
36.5792038592
100
AcDbArc
50
20.5942271979
51
51.1884543957
0
SOLID
5
27E
100
AcDbEntity
8
0
100
AcDbTrace
62
7
6
BYLAYER
10
370.0148881948
20
177.9358749621
11
369.7493374816
21
182.9925025753
12
371.3403252280
22
182.8229207641
13
371.3403252280
23
182.8229207641
0
SOLID
5
27F
100
AcDbEntity
8
0
100
AcDbTrace
62
7
6
BYLAYER
10
356.9178172497
20
212.7907300519
11
361.1335762718
21
209.9858457643
12
360.0479582590
22
208.8105017592
13
360.0479582590
23
208.8105017592
0
ENDBLK
5
280
100
AcDbEntity
8
0
100
AcDbBlockEnd
0
BLOCK
5
281
100
AcDbEntity
8
0
100
AcDbBlockBegin
62
7
6
BYLAYER
2
*D8
70
65
10
0.0000000000
20
0.0000000000
3
*D8
1

0
TEXT
5
282
100
AcDbEntity
8
0
100
AcDbText
62
7
6
BYLAYER
10
356.4871378903
20
200.0031151401
7
STANDARD
40
4.0000000000
1
59.9%%d
50
-56.1344646978
41
0.7733333333
72
0
100
AcDbText
0
LINE
5
283
100
AcDbEntity
8
0
100
AcDbLine
62
7
6
BYLAYER
10
355.9593759831
20
174.3742680058
11
362.6069496461
21
173.4900172683
0
LINE
5
284
100
AcDbEntity
8
0
100
AcDbLine
62
7
6
BYLAYER
10
337.3319046564
20
178.5978909785
11
352.4419263979
21
198.1754453905
0
ARC
5
285
100
AcDbEntity
8
0
100
AcDbCircle
62
7
6
BYLAYER
10
336.1099257983
20
177.0146134696
40
23.7304143472
100
AcDbArc
50
352.4230770000
51
22.3809987206
0
ARC
5
286
100
AcDbEntity
8
0
100
AcDbCircle
62
7
6
BYLAYER
10
336.1099257983
20
177.0146134696
40
23.7304143472
100
AcDbArc
50
22.3809987206
51
52.3389204412
0
SOLID
5
287
100
AcDbEntity
8
0
100
AcDbTrace
62
7
6
BYLAYER
10
359.6331434600
20
173.8855887123
11
358.9678776016
21
178.9052920241
12
360.5672990834
22
178.8622696617
13
360.5672990834
23
178.8622696617
0
SOLID
5
288
100
AcDbEntity
8
0
100
AcDbTrace
62
7
6
BYLAYER
10
350.6089581108
20
195.8005291270
11
354.7766407166
21
192.9246950397
12
353.6712855515
22
191.7678934323
13
353.6712855515
23
191.7678934323
0
ENDBLK
5
289
100
AcDbEntity
8
0
100
AcDbBlockEnd
0
BLOCK
5
28A
100
AcDbEntity
8
0
100
AcDbBlockBegin
62
7
6
BYLAYER
2
*D9
70
65
10
0.0000000000
20
0.0000000000
3
*D9
1

0
TEXT
5
28B
100
AcDbEntity
8
0
100
AcDbText
62
7
6
BYLAYER
10
185.6253875421
20
187.7485668847
7
STANDARD
40
4.0000000000
1
7.4%%d
50
20.8834280933
41
0.7666666667
72
0
100
AcDbText
0
LINE
5
28C
100
AcDbEntity
8
0
100
AcDbLine
62
7
6
BYLAYER
10
210.2374729247
20
179.0061965880
11
211.2648996709
21
189.6764313178
0
LINE
5
28D
100
AcDbEntity
8
0
100
AcDbLine
62
7
6
BYLAYER
10
207.2066373787
20
150.2152599235
11
205.8959300773
21
189.8454262483
0
ARC
5
28E
100
AcDbEntity
8
0
100
AcDbCircle
62
7
6
BYLAYER
10
207.2727481801
20
148.2163528817
40
38.6518352231
100
AcDbArc
50
69.6764400882
51
84.5000000000
0
ARC
5
28F
100
AcDbEntity
8
0
100
AcDbCircle
62
7
6
BYLAYER
10
207.2727481801
20
148.2163528817
40
38.6518352231
100
AcDbArc
50
91.8942800237
51
110.8834280933
0
SOLID
5
290
100
AcDbEntity
8
0
100
AcDbTrace
62
7
6
BYLAYER
10
210.9773624133
20
186.6902427227
11
216.0409476653
21
186.6800252622
12
215.7849754029
22
185.1006335435
13
215.7849754029
23
185.1006335435
0
SOLID
5
291
100
AcDbEntity
8
0
100
AcDbTrace
62
7
6
BYLAYER
10
205.9950962794
20
186.8470656856
11
201.0970294093
21
185.5629547338
12
200.9408920450
22
187.1553181105
13
200.9408920450
23
187.1553181105
0
ENDBLK
5
292
100
AcDbEntity
8
0
100
AcDbBlockEnd
0
BLOCK
5
293
100
AcDbEntity
8
0
100
AcDbBlockBegin
62
7
6
BYLAYER
2
COPYRIGHT_BL4
70
64
10
0.0000000000
20
0.0000000000
3
COPYRIGHT_BL4
1

0
CIRCLE
5
294
100
AcDbEntity
8
0
100
AcDbCircle
62
7
6
BYLAYER
10
368.4166666667
20
59.2552477502
40
2.6387790604
0
ENDBLK
5
295
100
AcDbEntity
8
0
100
AcDbBlockEnd
0
BLOCK
5
296
100
AcDbEntity
8
0
100
AcDbBlockBegin
62
7
6
BYLAYER
2
MICRO_U_BL5
70
64
10
0.0000000000
20
0.0000000000
3
MICRO_U_BL5
1

0
ARC
5
297
100
AcDbEntity
8
0
100
AcDbCircle
62
7
6
BYLAYER
10
115.8029987548
20
24.2743672858
40
1.1407767248
100
AcDbArc
50
303.7730668774
51
1.5957171757
0
ENDBLK
5
298
100
AcDbEntity
8
0
100
AcDbBlockEnd
0
BLOCK
5
299
100
AcDbEntity
8
0
100
AcDbBlockBegin
62
7
6
BYLAYER
2
SURFACE_FINISH_BL6
70
64
10
0.0000000000
20
0.0000000000
3
SURFACE_FINISH_BL6
1

0
LINE
5
29A
100
AcDbEntity
8
0
100
AcDbLine
62
7
6
BYLAYER
10
97.0309676193
20
12.0901401771
11
99.8402817594
21
16.9560150021
0
LINE
5
29B
100
AcDbEntity
8
0
100
AcDbLine
62
7
6
BYLAYER
10
97.0309676193
20
12.0901401771
11
95.7597911309
21
14.2918824404
0
LINE
5
29C
100
AcDbEntity
8
0
100
AcDbLine
62
7
6
BYLAYER
10
95.7597911309
20
14.2918824404
11
98.3021441078
21
14.2918824404
0
ENDBLK
5
29D
100
AcDbEntity
8
0
100
AcDbBlockEnd
0
BLOCK
5
29E
100
AcDbEntity
8
0
100
AcDbBlockBegin
62
7
6
BYLAYER
2
PROJECTION_BL7
70
64
10
0.0000000000
20
0.0000000000
3
PROJECTION_BL7
1

0
LINE
5
29F
100
AcDbEntity
8
0
100
AcDbLine
62
7
6
BYLAYER
10
304.4288585399
20
278.0624994947
11
304.4288585399
21
282.4374994947
0
LINE
5
2A0
100
AcDbEntity
8
0
100
AcDbLine
62
7
6
BYLAYER
10
304.4288585399
20
282.4374994947
11
310.5538585399
21
284.6249994947
0
LINE
5
2A1
100
AcDbEntity
8
0
100
AcDbLine
62
7
6
BYLAYER
10
310.5538585399
20
284.6249994947
11
310.5538585399
21
275.8749994947
0
LINE
5
2A2
100
AcDbEntity
8
0
100
AcDbLine
62
7
6
BYLAYER
10
310.5538585399
20
275.8749994947
11
304.4288585399
21
278.0624994947
0
ARC
5
2A3
100
AcDbEntity
8
0
100
AcDbCircle
62
7
6
BYLAYER
10
292.1788585399
20
280.2499994947
40
2.1875000000
100
AcDbArc
50
180.0000000000
51
360.0000000000
0
ARC
5
2A4
100
AcDbEntity
8
0
100
AcDbCircle
62
7
6
BYLAYER
10
292.1788585399
20
280.2499994947
40
2.1875000000
100
AcDbArc
50
0.0000000000
51
180.0000000000
0
ARC
5
2A5
100
AcDbEntity
8
0
100
AcDbCircle
62
7
6
BYLAYER
10
292.1788585399
20
280.2499994947
40
4.3750000000
100
AcDbArc
50
180.0000000000
51
360.0000000000
0
ARC
5
2A6
100
AcDbEntity
8
0
100
AcDbCircle
62
7
6
BYLAYER
10
292.1788585399
20
280.2499994947
40
4.3750000000
100
AcDbArc
50
0.0000000000
51
180.0000000000
0
LINE
5
2A7
100
AcDbEntity
8
0
100
AcDbLine
62
7
6
BYLAYER
10
285.1534835399
20
280.2499994947
11
298.4009835399
21
280.2499994947
0
LINE
5
2A8
100
AcDbEntity
8
0
100
AcDbLine
62
7
6
BYLAYER
10
301.1493585399
20
280.2499994947
11
313.1464835399
21
280.2499994947
0
LINE
5
2A9
100
AcDbEntity
8
0
100
AcDbLine
62
7
6
BYLAYER
10
292.1788585399
20
285.2952494947
11
292.1788585399
21
275.2047494947
0
ENDBLK
5
2AA
100
AcDbEntity
8
0
100
AcDbBlockEnd
0
ENDSEC
0
SECTION
2
ENTITIES
0
INSERT
5
2AB
100
AcDbEntity
8
0
100
AcDbBlockReference
62
7
6
BYLAYER
2
COPYRIGHT_BL0
10
0.0000000000
20
0.0000000000
0
INSERT
5
2AC
100
AcDbEntity
8
0
100
AcDbBlockReference
62
7
6
BYLAYER
2
MICRO_U_BL1
10
0.0000000000
20
0.0000000000
0
INSERT
5
2AD
100
AcDbEntity
8
0
100
AcDbBlockReference
62
7
6
BYLAYER
2
PROJECTION_BL2
10
0.0000000000
20
0.0000000000
0
INSERT
5
2AE
100
AcDbEntity
8
0
100
AcDbBlockReference
62
7
6
BYLAYER
2
SURFACE_FINISH_BL3
10
0.0000000000
20
0.0000000000
0
DIMENSION
5
2AF
100
AcDbEntity
8
0
100
AcDbDimension
62
7
6
BYLAYER
2
*D0
10
124.2474369822
20
104.5600662572
11
121.2474369822
21
119.5291905320
70
160
3
DIMSTYLE_1
100
AcDbAlignedDimension
13
132.8267018765
23
132.3600662572
14
132.8267018765
24
104.5600662572
50
270.000000
100
AcDbRotatedDimension
0
DIMENSION
5
2B0
100
AcDbEntity
8
0
100
AcDbDimension
62
7
6
BYLAYER
2
*D1
10
134.8267018765
20
143.6190105394
11
154.3597119914
21
146.6190105394
70
160
3
DIMSTYLE_2
100
AcDbAlignedDimension
13
174.8267018765
23
134.3600662572
14
134.8267018765
24
134.3600662572
50
180.000000
100
AcDbRotatedDimension
0
DIMENSION
5
2B1
100
AcDbEntity
8
0
100
AcDbDimension
62
7
6
BYLAYER
2
*D2
10
202.6375822478
20
124.7600662572
11
188.6730958500
21
139.7936893770
70
162
3
DIMSTYLE_3
100
AcDb2LineAngularDimension
13
207.8696680655
23
130.1680561213
14
207.4031617321
24
144.2732064978
15
188.5247194871
25
124.7600662572
16
196.1728899983
26
136.2494300287
0
DIMENSION
5
2B2
100
AcDbEntity
8
0
100
AcDbDimension
62
7
6
BYLAYER
2
*D3
10
220.2433185540
20
114.1472446959
11
259.6590068965
21
120.6220770784
70
162
3
DIMSTYLE_3
100
AcDb2LineAngularDimension
13
218.3771794645
23
112.1600662572
14
255.4784517023
24
112.1600662572
15
251.1535665490
25
130.0349758222
16
251.4659885640
26
120.6499033088
0
DIMENSION
5
2B3
100
AcDbEntity
8
0
100
AcDbDimension
62
7
6
BYLAYER
2
*D4
10
283.5214612269
20
155.6668324585
11
260.6465179447
21
171.4739423250
70
162
3
DIMSTYLE_3
100
AcDb2LineAngularDimension
13
287.3009364527
23
158.8921958579
14
263.1278554471
24
162.1076645073
15
265.8159558525
25
146.5662807939
16
266.2396281910
26
154.6427250706
0
DIMENSION
5
2B4
100
AcDbEntity
8
0
100
AcDbDimension
62
7
6
BYLAYER
2
*D5
10
320.7084221915
20
151.4946512707
11
338.6642455069
21
157.7574204295
70
162
3
DIMSTYLE_3
100
AcDb2LineAngularDimension
13
319.1095296932
23
146.5905968725
14
336.0997005679
24
144.3305886517
15
328.8212219590
25
162.0061370645
16
332.0510407408
26
152.9997707190
0
DIMENSION
5
2B5
100
AcDbEntity
8
0
100
AcDbDimension
62
7
6
BYLAYER
2
*D6
10
316.0934180823
20
156.6116479938
11
349.7371284144
21
163.5749110176
70
162
3
DIMSTYLE_3
100
AcDb2LineAngularDimension
13
318.8505518971
23
146.6250457284
14
347.3114044018
24
142.8392238490
15
333.2616643608
25
177.9558309369
16
342.1046887578
26
161.1249495007
0
DIMENSION
5
2B6
100
AcDbEntity
8
0
100
AcDbDimension
62
7
6
BYLAYER
2
*D7
10
335.2449263195
20
185.8462104186
11
373.5891018464
21
204.7652818288
70
162
3
DIMSTYLE_3
100
AcDb2LineAngularDimension
13
360.2960356056
23
179.6495708951
14
372.9693114539
24
177.4149304291
15
358.7980997760
25
215.1283651006
16
368.2330137616
26
197.1544245083
0
DIMENSION
5
2B7
100
AcDbEntity
8
0
100
AcDbDimension
62
7
6
BYLAYER
2
*D8
10
337.3319046564
20
178.5978909785
11
362.4572001859
21
194.6962516003
70
162
3
DIMSTYLE_3
100
AcDb2LineAngularDimension
13
355.9593759831
23
174.3742680058
14
362.6069496461
24
173.4900172683
15
352.4419263979
25
198.1754453905
16
358.0527840128
26
186.0502948755
0
DIMENSION
5
2B8
100
AcDbEntity
8
0
100
AcDbDimension
62
7
6
BYLAYER
2
*D9
10
207.2066373787
20
150.2152599235
11
190.6428720269
21
191.8035178367
70
162
3
DIMSTYLE_3
100
AcDb2LineAngularDimension
13
210.2374729247
23
179.0061965880
14
211.2648996709
24
189.6764313178
15
205.8959300773
25
189.8454262483
16
220.6973530764
26
184.4619643332
0
LINE
5
2B9
100
AcDbEntity
8
0
100
AcDbLine
62
7
6
BYLAYER
10
209.0000000000
20
82.0000000000
11
410.0000000000
21
82.0000000000
0
LINE
5
2BA
100
AcDbEntity
8
0
100
AcDbLine
62
7
6
BYLAYER
10
209.0000000000
20
82.0000000000
11
209.0000000000
21
10.0000000000
0
LINE
5
2BB
100
AcDbEntity
8
0
100
AcDbLine
62
7
6
BYLAYER
10
209.0000000000
20
73.0000000000
11
410.0000000000
21
73.0000000000
0
LINE
5
2BC
100
AcDbEntity
8
0
100
AcDbLine
62
7
6
BYLAYER
10
209.0000000000
20
64.0000000000
11
410.0000000000
21
64.0000000000
0
LINE
5
2BD
100
AcDbEntity
8
0
100
AcDbLine
62
7
6
BYLAYER
10
209.0000000000
20
55.0000000000
11
410.0000000000
21
55.0000000000
0
LINE
5
2BE
100
AcDbEntity
8
0
100
AcDbLine
62
7
6
BYLAYER
10
209.0000000000
20
46.0000000000
11
410.0000000000
21
46.0000000000
0
LINE
5
2BF
100
AcDbEntity
8
0
100
AcDbLine
62
7
6
BYLAYER
10
209.0000000000
20
21.0000000000
11
410.0000000000
21
21.0000000000
0
LINE
5
2C0
100
AcDbEntity
8
0
100
AcDbLine
62
7
6
BYLAYER
10
209.0000000000
20
10.0000000000
11
410.0000000000
21
10.0000000000
0
LINE
5
2C1
100
AcDbEntity
8
0
100
AcDbLine
62
7
6
BYLAYER
10
224.0000000000
20
82.0000000000
11
224.0000000000
21
64.0000000000
0
LINE
5
2C2
100
AcDbEntity
8
0
100
AcDbLine
62
7
6
BYLAYER
10
224.0000000000
20
21.0000000000
11
224.0000000000
21
10.0000000000
0
LINE
5
2C3
100
AcDbEntity
8
0
100
AcDbLine
62
7
6
BYLAYER
10
253.5000000000
20
82.0000000000
11
253.5000000000
21
64.0000000000
0
LINE
5
2C4
100
AcDbEntity
8
0
100
AcDbLine
62
7
6
BYLAYER
10
283.0000000000
20
82.0000000000
11
283.0000000000
21
64.0000000000
0
LINE
5
2C5
100
AcDbEntity
8
0
100
AcDbLine
62
7
6
BYLAYER
10
315.5000000000
20
82.0000000000
11
315.5000000000
21
64.0000000000
0
LINE
5
2C6
100
AcDbEntity
8
0
100
AcDbLine
62
7
6
BYLAYER
10
344.0000000000
20
21.0000000000
11
344.0000000000
21
10.0000000000
0
LINE
5
2C7
100
AcDbEntity
8
0
100
AcDbLine
62
7
6
BYLAYER
10
348.0000000000
20
82.0000000000
11
348.0000000000
21
64.0000000000
0
LINE
5
2C8
100
AcDbEntity
8
0
100
AcDbLine
62
7
6
BYLAYER
10
365.0000000000
20
64.0000000000
11
365.0000000000
21
55.0000000000
0
LINE
5
2C9
100
AcDbEntity
8
0
100
AcDbLine
62
7
6
BYLAYER
10
380.5000000000
20
82.0000000000
11
380.5000000000
21
64.0000000000
0
LINE
5
2CA
100
AcDbEntity
8
0
100
AcDbLine
62
7
6
BYLAYER
10
410.0000000000
20
82.0000000000
11
410.0000000000
21
10.0000000000
0
TEXT
5
2CB
100
AcDbEntity
8
0
100
AcDbText
62
7
6
BYLAYER
10
215.3000000000
20
76.0000000000
7
STANDARD
40
3.0000000000
1
D
41
0.8000000000
72
1
11
216.5000000000
21
76.0000000000
100
AcDbText
0
TEXT
5
2CC
100
AcDbEntity
8
0
100
AcDbText
62
7
6
BYLAYER
10
227.9500000000
20
76.0000000000
7
STANDARD
40
3.0000000000
1
29/MAY/03
41
0.8000000000
72
1
11
238.7500000000
21
76.0000000000
100
AcDbText
0
TEXT
5
2CD
100
AcDbEntity
8
0
100
AcDbText
62
7
6
BYLAYER
10
259.8500000000
20
76.0000000000
7
STANDARD
40
3.0000000000
1
------
41
0.8000000000
72
1
11
267.0500000000
21
76.0000000000
100
AcDbText
0
TEXT
5
2CE
100
AcDbEntity
8
0
100
AcDbText
62
7
6
BYLAYER
10
274.2500000000
20
76.0000000000
7
STANDARD
40
3.0000000000
1
.
41
0.8000000000
72
1
11
275.4500000000
21
76.0000000000
100
AcDbText
0
TEXT
5
2CF
100
AcDbEntity
8
0
100
AcDbText
62
7
6
BYLAYER
10
289.6500000000
20
76.0000000000
7
STANDARD
40
3.0000000000
1
J NOVISS
41
0.8000000000
72
1
11
299.2500000000
21
76.0000000000
100
AcDbText
0
TEXT
5
2D0
100
AcDbEntity
8
0
100
AcDbText
62
7
6
BYLAYER
10
329.3500000000
20
76.0000000000
7
STANDARD
40
3.0000000000
1
IW
41
0.8000000000
72
1
11
331.7500000000
21
76.0000000000
100
AcDbText
0
TEXT
5
2D1
100
AcDbEntity
8
0
100
AcDbText
62
7
6
BYLAYER
10
361.8500000000
20
76.0000000000
7
STANDARD
40
3.0000000000
1
DG
41
0.8000000000
72
1
11
364.2500000000
21
76.0000000000
100
AcDbText
0
TEXT
5
2D2
100
AcDbEntity
8
0
100
AcDbText
62
7
6
BYLAYER
10
391.6500000000
20
76.0000000000
7
STANDARD
40
3.0000000000
1
REL
41
0.8000000000
72
1
11
395.2500000000
21
76.0000000000
100
AcDbText
0
TEXT
5
2D3
100
AcDbEntity
8
0
100
AcDbText
62
7
6
BYLAYER
10
210.5000000000
20
67.0000000000
7
STANDARD
40
3.0000000000
1
ISSUE
41
0.8000000000
72
1
11
216.5000000000
21
67.0000000000
100
AcDbText
0
TEXT
5
2D4
100
AcDbEntity
8
0
100
AcDbText
62
7
6
BYLAYER
10
227.9500000000
20
67.0000000000
7
STANDARD
40
3.0000000000
1
DATE APPD
41
0.8000000000
72
1
11
238.7500000000
21
67.0000000000
100
AcDbText
0
TEXT
5
2D5
100
AcDbEntity
8
0
100
AcDbText
62
7
6
BYLAYER
10
258.6500000000
20
67.0000000000
7
STANDARD
40
3.0000000000
1
MOD. No.
41
0.8000000000
72
1
11
268.2500000000
21
67.0000000000
100
AcDbText
0
TEXT
5
2D6
100
AcDbEntity
8
0
100
AcDbText
62
7
6
BYLAYER
10
290.8500000000
20
67.0000000000
7
STANDARD
40
3.0000000000
1
DRN. BY
41
0.8000000000
72
1
11
299.2500000000
21
67.0000000000
100
AcDbText
0
TEXT
5
2D7
100
AcDbEntity
8
0
100
AcDbText
62
7
6
BYLAYER
10
322.1500000000
20
67.0000000000
7
STANDARD
40
3.0000000000
1
CHKD BY.
41
0.8000000000
72
1
11
331.7500000000
21
67.0000000000
100
AcDbText
0
TEXT
5
2D8
100
AcDbEntity
8
0
100
AcDbText
62
7
6
BYLAYER
10
354.6500000000
20
67.0000000000
7
STANDARD
40
3.0000000000
1
APPD BY.
41
0.8000000000
72
1
11
364.2500000000
21
67.0000000000
100
AcDbText
0
TEXT
5
2D9
100
AcDbEntity
8
0
100
AcDbText
62
7
6
BYLAYER
10
388.0500000000
20
67.0000000000
7
STANDARD
40
3.0000000000
1
STATUS
41
0.8000000000
72
1
11
395.2500000000
21
67.0000000000
100
AcDbText
0
TEXT
5
2DA
100
AcDbEntity
8
0
100
AcDbText
62
7
6
BYLAYER
10
210.4000000000
20
57.5000000000
7
STANDARD
40
4.0000000000
1
USED ON
41
0.8000000000
72
0
100
AcDbText
0
TEXT
5
2DB
100
AcDbEntity
8
0
100
AcDbText
62
7
6
BYLAYER
10
254.9000000000
20
57.5000000000
7
STANDARD
40
4.0000000000
1
 
41
0.8000000000
72
0
100
AcDbText
0
INSERT
5
2DC
100
AcDbEntity
8
0
100
AcDbBlockReference
62
7
6
BYLAYER
2
COPYRIGHT_BL4
10
0.0000000000
20
0.0000000000
0
TEXT
5
2DD
100
AcDbEntity
8
0
100
AcDbText
62
7
6
BYLAYER
10
371.0554457271
20
57.3835313102
7
TEXTSTYLE_1
40
5.0000000000
1
 CLRC
41
0.7800000000
72
1
11
380.8054457271
21
57.3835313102
100
AcDbText
0
TEXT
5
2DE
100
AcDbEntity
8
0
100
AcDbText
62
7
6
BYLAYER
10
390.5554457271
20
57.3835313102
7
TEXTSTYLE_1
40
5.0000000000
1
 
41
0.8000000000
72
1
11
392.5554457271
21
57.3835313102
100
AcDbText
0
TEXT
5
2DF
100
AcDbEntity
8
0
100
AcDbText
62
7
6
BYLAYER
10
394.5554457271
20
57.3835313102
7
TEXTSTYLE_1
40
5.0000000000
1
2002
41
0.7333333333
72
1
11
401.8887790604
21
57.3835313102
100
AcDbText
0
TEXT
5
2E0
100
AcDbEntity
8
0
100
AcDbText
62
7
6
BYLAYER
10
367.1926306113
20
57.5014920980
7
TEXTSTYLE_1
40
3.5000000000
1
C
41
0.8000000000
72
0
100
AcDbText
0
TEXT
5
2E1
100
AcDbEntity
8
0
100
AcDbText
62
7
6
BYLAYER
10
210.4000000000
20
48.5000000000
7
TEXTSTYLE_1
40
3.0000000000
1
CENTRAL LABORATORY OF THE RESEARCH COUNCILS
41
0.7620155039
72
0
100
AcDbText
0
TEXT
5
2E2
100
AcDbEntity
8
0
100
AcDbText
62
7
6
BYLAYER
10
308.7000000000
20
48.5000000000
7
STANDARD
40
4.0000000000
1
 
41
0.8000000000
72
0
100
AcDbText
0
TEXT
5
2E3
100
AcDbEntity
8
0
100
AcDbText
62
7
6
BYLAYER
10
311.9000000000
20
48.5000000000
7
STANDARD
40
2.0000000000
1
RUTHERFORD APPLETON LABORATORY, CHILTON, OXON OX110QX
41
0.8000000000
72
0
100
AcDbText
0
TEXT
5
2E4
100
AcDbEntity
8
0
100
AcDbText
62
7
6
BYLAYER
10
210.4000000000
20
41.5000000000
7
STANDARD
40
3.0000000000
1
TITLE
41
0.8000000000
72
0
100
AcDbText
0
TEXT
5
2E5
100
AcDbEntity
8
0
100
AcDbText
62
7
6
BYLAYER
10
271.0000000000
20
36.5000000000
7
TEXTSTYLE_1
40
6.0000000000
1
POWER TAPE W5
41
0.9871794872
72
1
11
309.5000000000
21
36.5000000000
100
AcDbText
0
TEXT
5
2E6
100
AcDbEntity
8
0
100
AcDbText
62
7
6
BYLAYER
10
270.2500000000
20
27.5000000000
7
TEXTSTYLE_1
40
6.0000000000
1
WHEELS 2,3,4,5,6
41
0.8177083333
72
1
11
309.5000000000
21
27.5000000000
100
AcDbText
0
TEXT
5
2E7
100
AcDbEntity
8
0
100
AcDbText
62
7
6
BYLAYER
10
210.4000000000
20
24.2500000000
7
STANDARD
40
4.0000000000
1
ATLAS_ID
41
0.8000000000
72
0
100
AcDbText
0
TEXT
5
2E8
100
AcDbEntity
8
0
100
AcDbText
62
7
6
BYLAYER
10
389.4000000000
20
24.2500000000
7
STANDARD
40
4.0000000000
1
TDL008
41
0.8000000000
72
2
11
408.6000000000
21
24.2500000000
100
AcDbText
0
TEXT
5
2E9
100
AcDbEntity
8
0
100
AcDbText
62
7
6
BYLAYER
10
211.1333333333
20
12.0000000000
7
TEXTSTYLE_1
40
7.0000000000
1
A3
41
0.7666666667
72
1
11
216.5000000000
21
12.0000000000
100
AcDbText
0
TEXT
5
2EA
100
AcDbEntity
8
0
100
AcDbText
62
7
6
BYLAYER
10
225.4000000000
20
12.0000000000
7
TEXTSTYLE_1
40
5.0000000000
1
 
41
1.0000000000
72
0
100
AcDbText
0
TEXT
5
2EB
100
AcDbEntity
8
0
100
AcDbText
62
7
6
BYLAYER
10
230.4000000000
20
12.0000000000
7
TEXTSTYLE_1
40
7.0000000000
1
TD-1002-942
41
0.8068181818
72
0
100
AcDbText
0
TEXT
5
2EC
100
AcDbEntity
8
0
100
AcDbText
62
7
6
BYLAYER
10
345.4000000000
20
16.7500000000
7
STANDARD
40
2.5000000000
1
SHEET
41
0.8000000000
72
0
100
AcDbText
0
TEXT
5
2ED
100
AcDbEntity
8
0
100
AcDbText
62
7
6
BYLAYER
10
366.7666666667
20
12.0000000000
7
STANDARD
40
3.0000000000
1
 
41
0.8000000000
72
1
11
367.9666666667
21
12.0000000000
100
AcDbText
0
TEXT
5
2EE
100
AcDbEntity
8
0
100
AcDbText
62
7
6
BYLAYER
10
369.1666666667
20
12.0000000000
7
TEXTSTYLE_1
40
7.0000000000
1
1
41
0.3333333333
72
1
11
370.3333333333
21
12.0000000000
100
AcDbText
0
TEXT
5
2EF
100
AcDbEntity
8
0
100
AcDbText
62
7
6
BYLAYER
10
371.5000000000
20
12.0000000000
7
STANDARD
40
4.0000000000
1
 OF 
41
0.8000000000
72
1
11
377.9000000000
21
12.0000000000
100
AcDbText
0
TEXT
5
2F0
100
AcDbEntity
8
0
100
AcDbText
62
7
6
BYLAYER
10
384.3000000000
20
12.0000000000
7
TEXTSTYLE_1
40
7.0000000000
1
1
41
0.3333333333
72
1
11
385.4666666667
21
12.0000000000
100
AcDbText
0
TEXT
5
2F1
100
AcDbEntity
8
0
100
AcDbText
62
7
6
BYLAYER
10
386.6333333333
20
12.0000000000
7
STANDARD
40
4.0000000000
1
     
41
0.8000000000
72
1
11
394.6333333333
21
12.0000000000
100
AcDbText
0
TEXT
5
2F2
100
AcDbEntity
8
0
100
AcDbText
62
7
6
BYLAYER
10
402.6333333333
20
12.0000000000
7
TEXTSTYLE_1
40
7.0000000000
1
D
41
0.8000000000
72
1
11
405.4333333333
21
12.0000000000
100
AcDbText
0
LINE
5
2F3
100
AcDbEntity
8
0
100
AcDbLine
62
7
6
BYLAYER
10
20.0371621622
20
45.9172297297
11
209.0371621622
21
45.9172297297
0
LINE
5
2F4
100
AcDbEntity
8
0
100
AcDbLine
62
7
6
BYLAYER
10
20.0371621622
20
45.9172297297
11
20.0371621622
21
9.9172297297
0
LINE
5
2F5
100
AcDbEntity
8
0
100
AcDbLine
62
7
6
BYLAYER
10
20.0371621622
20
27.9172297297
11
209.0371621622
21
27.9172297297
0
LINE
5
2F6
100
AcDbEntity
8
0
100
AcDbLine
62
7
6
BYLAYER
10
20.0371621622
20
9.9172297297
11
209.0371621622
21
9.9172297297
0
LINE
5
2F7
100
AcDbEntity
8
0
100
AcDbLine
62
7
6
BYLAYER
10
83.0371621622
20
45.9172297297
11
83.0371621622
21
9.9172297297
0
LINE
5
2F8
100
AcDbEntity
8
0
100
AcDbLine
62
7
6
BYLAYER
10
146.0371621622
20
45.9172297297
11
146.0371621622
21
9.9172297297
0
LINE
5
2F9
100
AcDbEntity
8
0
100
AcDbLine
62
7
6
BYLAYER
10
209.0371621622
20
45.9172297297
11
209.0371621622
21
9.9172297297
0
TEXT
5
2FA
100
AcDbEntity
8
0
100
AcDbText
62
7
6
BYLAYER
10
21.4371621622
20
41.6672297297
7
STANDARD
40
2.5000000000
1
TOLERANCES UNLESS STATED
41
0.8000000000
72
0
100
AcDbText
0
TEXT
5
2FB
100
AcDbEntity
8
0
100
AcDbText
62
7
6
BYLAYER
10
84.4371621622
20
41.6672297297
7
STANDARD
40
2.5000000000
1
FINISH
41
0.8000000000
72
0
100
AcDbText
0
TEXT
5
2FC
100
AcDbEntity
8
0
100
AcDbText
62
7
6
BYLAYER
10
147.4371621622
20
41.6672297297
7
STANDARD
40
2.5000000000
1
ORIGINAL SCALE
41
0.8000000000
72
0
100
AcDbText
0
TEXT
5
2FD
100
AcDbEntity
8
0
100
AcDbText
62
7
6
BYLAYER
10
44.9871621622
20
34.1672297297
7
STANDARD
40
3.0000000000
1
%%p
41
1.1666666667
72
1
11
46.7371621622
21
34.1672297297
100
AcDbText
0
TEXT
5
2FE
100
AcDbEntity
8
0
100
AcDbText
62
7
6
BYLAYER
10
48.4871621622
20
34.1672297297
7
STANDARD
40
3.0000000000
1
 
41
0.8000000000
72
1
11
49.6871621622
21
34.1672297297
100
AcDbText
0
TEXT
5
2FF
100
AcDbEntity
8
0
100
AcDbText
62
7
6
BYLAYER
10
50.8871621622
20
34.1672297297
7
STANDARD
40
3.0000000000
1
 mm
41
0.8000000000
72
1
11
54.4871621622
21
34.1672297297
100
AcDbText
0
TEXT
5
300
100
AcDbEntity
8
0
100
AcDbText
62
7
6
BYLAYER
10
46.3871621622
20
29.6672297297
7
STANDARD
40
3.0000000000
1
%%p
41
1.1666666667
72
1
11
48.1371621622
21
29.6672297297
100
AcDbText
0
TEXT
5
301
100
AcDbEntity
8
0
100
AcDbText
62
7
6
BYLAYER
10
49.8871621622
20
29.6672297297
7
STANDARD
40
3.0000000000
1
 
41
0.8000000000
72
1
11
51.0871621622
21
29.6672297297
100
AcDbText
0
TEXT
5
302
100
AcDbEntity
8
0
100
AcDbText
62
7
6
BYLAYER
10
52.2871621622
20
29.6672297297
7
STANDARD
40
3.0000000000
1
 %%d
41
0.7333333333
72
1
11
54.4871621622
21
29.6672297297
100
AcDbText
0
TEXT
5
303
100
AcDbEntity
8
0
100
AcDbText
62
7
6
BYLAYER
10
102.5371621622
20
34.1672297297
7
STANDARD
40
3.0000000000
1
SEE NOTE 3
41
0.8000000000
72
1
11
114.5371621622
21
34.1672297297
100
AcDbText
0
TEXT
5
304
100
AcDbEntity
8
0
100
AcDbText
62
7
6
BYLAYER
10
95.3371621622
20
29.6672297297
7
STANDARD
40
3.0000000000
1
REMOVE ALL BURRS
41
0.8000000000
72
1
11
114.5371621622
21
29.6672297297
100
AcDbText
0
TEXT
5
305
100
AcDbEntity
8
0
100
AcDbText
62
7
6
BYLAYER
10
173.9371621622
20
34.1672297297
7
STANDARD
40
3.0000000000
1
1:1
41
0.8000000000
72
1
11
177.5371621622
21
34.1672297297
100
AcDbText
0
TEXT
5
306
100
AcDbEntity
8
0
100
AcDbText
62
7
6
BYLAYER
10
163.1371621622
20
29.6672297297
7
STANDARD
40
3.0000000000
1
DO NOT SCALE
41
0.8000000000
72
1
11
177.5371621622
21
29.6672297297
100
AcDbText
0
TEXT
5
307
100
AcDbEntity
8
0
100
AcDbText
62
7
6
BYLAYER
10
21.4371621622
20
23.6672297297
7
STANDARD
40
2.5000000000
1
MATERIAL 
41
0.8000000000
72
0
100
AcDbText
0
TEXT
5
308
100
AcDbEntity
8
0
100
AcDbText
62
7
6
BYLAYER
10
39.4371621622
20
23.6672297297
7
STANDARD
40
2.5000000000
1
& SPEC.
41
0.8000000000
72
0
100
AcDbText
0
INSERT
5
309
100
AcDbEntity
8
0
100
AcDbBlockReference
62
7
6
BYLAYER
2
MICRO_U_BL5
10
0.0000000000
20
0.0000000000
0
TEXT
5
30A
100
AcDbEntity
8
0
100
AcDbText
62
7
6
BYLAYER
10
84.4371621622
20
24.0083581219
7
STANDARD
40
2.5000000000
1
SURFACE TEXTURE 
41
0.8000000000
72
0
100
AcDbText
0
TEXT
5
30B
100
AcDbEntity
8
0
100
AcDbText
62
7
6
BYLAYER
10
116.4894190556
20
24.0082838118
7
STANDARD
40
1.8178175258
1
um
41
0.8000000000
72
0
100
AcDbText
0
TEXT
5
30C
100
AcDbEntity
8
0
100
AcDbText
62
7
6
BYLAYER
10
39.5371621622
20
16.1672297297
7
STANDARD
40
3.0000000000
1
SEE NOTE 3
41
0.8000000000
72
1
11
51.5371621622
21
16.1672297297
100
AcDbText
0
TEXT
5
30D
100
AcDbEntity
8
0
100
AcDbText
62
7
6
BYLAYER
10
41.9371621622
20
11.6672297297
7
STANDARD
40
3.0000000000
1
--------
41
0.8000000000
72
1
11
51.5371621622
21
11.6672297297
100
AcDbText
0
INSERT
5
30E
100
AcDbEntity
8
0
100
AcDbBlockReference
62
7
6
BYLAYER
2
SURFACE_FINISH_BL6
10
0.0000000000
20
0.0000000000
0
TEXT
5
30F
100
AcDbEntity
8
0
100
AcDbText
62
7
6
BYLAYER
10
102.5371621622
20
18.5810150021
7
STANDARD
40
3.0000000000
1
SEE NOTE 3
41
0.8000000000
72
1
11
114.5371621622
21
18.5810150021
100
AcDbText
0
TEXT
5
310
100
AcDbEntity
8
0
100
AcDbText
62
7
6
BYLAYER
10
99.8402817594
20
11.6672297297
7
STANDARD
40
3.0000000000
1
 UNLESS STATED
41
0.8000000000
72
1
11
116.6402817594
21
11.6672297297
100
AcDbText
0
TEXT
5
311
100
AcDbEntity
8
0
100
AcDbText
62
7
6
BYLAYER
10
95.6340425649
20
12.5409220665
7
STANDARD
40
3.5000000000
1
-
41
0.8000000000
72
0
100
AcDbText
0
LINE
5
312
100
AcDbEntity
8
0
100
AcDbLine
62
7
6
BYLAYER
10
10.0000000000
20
10.0000000000
11
10.0000000000
21
116.2000000000
0
LINE
5
313
100
AcDbEntity
8
0
100
AcDbLine
62
7
6
BYLAYER
10
10.0000000000
20
10.0000000000
11
20.0000000000
21
10.0000000000
0
LINE
5
314
100
AcDbEntity
8
0
100
AcDbLine
62
7
6
BYLAYER
10
20.0000000000
20
10.0000000000
11
20.0000000000
21
116.2000000000
0
LINE
5
315
100
AcDbEntity
8
0
100
AcDbLine
62
7
6
BYLAYER
10
10.0000000000
20
25.0000000000
11
20.0000000000
21
25.0000000000
0
LINE
5
316
100
AcDbEntity
8
0
100
AcDbLine
62
7
6
BYLAYER
10
10.0000000000
20
78.2000000000
11
20.0000000000
21
78.2000000000
0
LINE
5
317
100
AcDbEntity
8
0
100
AcDbLine
62
7
6
BYLAYER
10
10.0000000000
20
106.2000000000
11
20.0000000000
21
106.2000000000
0
LINE
5
318
100
AcDbEntity
8
0
100
AcDbLine
62
7
6
BYLAYER
10
10.0000000000
20
116.2000000000
11
20.0000000000
21
116.2000000000
0
TEXT
5
319
100
AcDbEntity
8
0
100
AcDbText
62
7
6
BYLAYER
10
17.5000000000
20
12.5000000000
7
STANDARD
40
5.0000000000
1
A3
50
90.0000000000
41
1.0000000000
72
1
11
17.5000000000
21
17.5000000000
100
AcDbText
0
TEXT
5
31A
100
AcDbEntity
8
0
100
AcDbText
62
7
6
BYLAYER
10
17.5000000000
20
26.4000000000
7
TEXTSTYLE_1
40
5.0000000000
1
 
50
90.0000000000
41
1.0000000000
72
0
100
AcDbText
0
TEXT
5
31B
100
AcDbEntity
8
0
100
AcDbText
62
7
6
BYLAYER
10
17.5000000000
20
31.4000000000
7
TEXTSTYLE_1
40
5.0000000000
1
TD-1002-942
50
90.0000000000
41
0.8068181818
72
0
100
AcDbText
0
TEXT
5
31C
100
AcDbEntity
8
0
100
AcDbText
62
7
6
BYLAYER
10
16.5000000000
20
79.6000000000
7
TEXTSTYLE_1
40
3.0000000000
1
Sheet 
50
90.0000000000
41
0.6666666667
72
0
100
AcDbText
0
TEXT
5
31D
100
AcDbEntity
8
0
100
AcDbText
62
7
6
BYLAYER
10
16.5000000000
20
91.6000000000
7
TEXTSTYLE_1
40
3.0000000000
1
1
50
90.0000000000
41
0.3333333333
72
0
100
AcDbText
0
TEXT
5
31E
100
AcDbEntity
8
0
100
AcDbText
62
7
6
BYLAYER
10
16.5000000000
20
92.6000000000
7
TEXTSTYLE_1
40
3.0000000000
1
 OF 
50
90.0000000000
41
0.7833333333
72
0
100
AcDbText
0
TEXT
5
31F
100
AcDbEntity
8
0
100
AcDbText
62
7
6
BYLAYER
10
16.5000000000
20
102.0000000000
7
TEXTSTYLE_1
40
3.0000000000
1
1
50
90.0000000000
41
0.3333333333
72
0
100
AcDbText
0
TEXT
5
320
100
AcDbEntity
8
0
100
AcDbText
62
7
6
BYLAYER
10
17.5000000000
20
109.2000000000
7
TEXTSTYLE_1
40
5.0000000000
1
D
50
90.0000000000
41
0.8000000000
72
1
11
17.5000000000
21
111.2000000000
100
AcDbText
0
LINE
5
321
100
AcDbEntity
8
0
100
AcDbLine
62
7
6
BYLAYER
10
10.0000000000
20
287.0000000000
11
116.2000000000
21
287.0000000000
0
LINE
5
322
100
AcDbEntity
8
0
100
AcDbLine
62
7
6
BYLAYER
10
10.0000000000
20
287.0000000000
11
10.0000000000
21
277.0000000000
0
LINE
5
323
100
AcDbEntity
8
0
100
AcDbLine
62
7
6
BYLAYER
10
10.0000000000
20
277.0000000000
11
116.2000000000
21
277.0000000000
0
LINE
5
324
100
AcDbEntity
8
0
100
AcDbLine
62
7
6
BYLAYER
10
25.0000000000
20
287.0000000000
11
25.0000000000
21
277.0000000000
0
LINE
5
325
100
AcDbEntity
8
0
100
AcDbLine
62
7
6
BYLAYER
10
78.2000000000
20
287.0000000000
11
78.2000000000
21
277.0000000000
0
LINE
5
326
100
AcDbEntity
8
0
100
AcDbLine
62
7
6
BYLAYER
10
106.2000000000
20
287.0000000000
11
106.2000000000
21
277.0000000000
0
LINE
5
327
100
AcDbEntity
8
0
100
AcDbLine
62
7
6
BYLAYER
10
116.2000000000
20
287.0000000000
11
116.2000000000
21
277.0000000000
0
TEXT
5
328
100
AcDbEntity
8
0
100
AcDbText
62
7
6
BYLAYER
10
12.5000000000
20
279.5000000000
7
STANDARD
40
5.0000000000
1
A3
41
1.0000000000
72
1
11
17.5000000000
21
279.5000000000
100
AcDbText
0
TEXT
5
329
100
AcDbEntity
8
0
100
AcDbText
62
7
6
BYLAYER
10
26.4000000000
20
279.5000000000
7
TEXTSTYLE_1
40
5.0000000000
1
 
41
1.0000000000
72
0
100
AcDbText
0
TEXT
5
32A
100
AcDbEntity
8
0
100
AcDbText
62
7
6
BYLAYER
10
31.4000000000
20
279.5000000000
7
TEXTSTYLE_1
40
5.0000000000
1
TD-1002-942
41
0.8068181818
72
0
100
AcDbText
0
TEXT
5
32B
100
AcDbEntity
8
0
100
AcDbText
62
7
6
BYLAYER
10
79.6000000000
20
280.5000000000
7
TEXTSTYLE_1
40
3.0000000000
1
Sheet 
41
0.6666666667
72
0
100
AcDbText
0
TEXT
5
32C
100
AcDbEntity
8
0
100
AcDbText
62
7
6
BYLAYER
10
91.6000000000
20
280.5000000000
7
TEXTSTYLE_1
40
3.0000000000
1
1
41
0.3333333333
72
0
100
AcDbText
0
TEXT
5
32D
100
AcDbEntity
8
0
100
AcDbText
62
7
6
BYLAYER
10
92.6000000000
20
280.5000000000
7
TEXTSTYLE_1
40
3.0000000000
1
 OF 
41
0.7833333333
72
0
100
AcDbText
0
TEXT
5
32E
100
AcDbEntity
8
0
100
AcDbText
62
7
6
BYLAYER
10
102.0000000000
20
280.5000000000
7
TEXTSTYLE_1
40
3.0000000000
1
1
41
0.3333333333
72
0
100
AcDbText
0
TEXT
5
32F
100
AcDbEntity
8
0
100
AcDbText
62
7
6
BYLAYER
10
109.2000000000
20
279.5000000000
7
TEXTSTYLE_1
40
5.0000000000
1
D
41
0.8000000000
72
1
11
111.2000000000
21
279.5000000000
100
AcDbText
0
LINE
5
330
100
AcDbEntity
8
0
100
AcDbLine
62
7
6
BYLAYER
10
331.0000000000
20
287.0000000000
11
410.0000000000
21
287.0000000000
0
LINE
5
331
100
AcDbEntity
8
0
100
AcDbLine
62
7
6
BYLAYER
10
331.0000000000
20
287.0000000000
11
331.0000000000
21
277.0000000000
0
LINE
5
332
100
AcDbEntity
8
0
100
AcDbLine
62
7
6
BYLAYER
10
331.0000000000
20
277.0000000000
11
410.0000000000
21
277.0000000000
0
LINE
5
333
100
AcDbEntity
8
0
100
AcDbLine
62
7
6
BYLAYER
10
410.0000000000
20
287.0000000000
11
410.0000000000
21
277.0000000000
0
TEXT
5
334
100
AcDbEntity
8
0
100
AcDbText
62
7
6
BYLAYER
10
336.5000000000
20
280.7500000000
7
STANDARD
40
2.5000000000
1
THIS DRAWING CONFORMS TO B.S. 8888
41
0.8000000000
72
1
11
370.5000000000
21
280.7500000000
100
AcDbText
0
LINE
5
335
100
AcDbEntity
8
0
100
AcDbLine
62
7
6
BYLAYER
10
236.4999835399
20
286.9999994947
11
330.9999835399
21
286.9999994947
0
LINE
5
336
100
AcDbEntity
8
0
100
AcDbLine
62
7
6
BYLAYER
10
236.4999835399
20
286.9999994947
11
236.4999835399
21
273.4999994947
0
LINE
5
337
100
AcDbEntity
8
0
100
AcDbLine
62
7
6
BYLAYER
10
236.4999835399
20
273.4999994947
11
330.9999835399
21
273.4999994947
0
LINE
5
338
100
AcDbEntity
8
0
100
AcDbLine
62
7
6
BYLAYER
10
330.9999835399
20
286.9999994947
11
330.9999835399
21
273.4999994947
0
INSERT
5
339
100
AcDbEntity
8
0
100
AcDbBlockReference
62
7
6
BYLAYER
2
PROJECTION_BL7
10
0.0000000000
20
0.0000000000
0
TEXT
5
33A
100
AcDbEntity
8
0
100
AcDbText
62
7
6
BYLAYER
10
254.3534835399
20
278.9781218886
7
STANDARD
40
3.5000000000
1
PROJECTION 
41
0.8000000000
72
1
11
269.7534835399
21
278.9781218886
100
AcDbText
0
TEXT
5
33B
100
AcDbEntity
8
0
100
AcDbText
62
7
6
BYLAYER
10
290.7970347322
20
278.8891837883
7
STANDARD
40
3.5000000000
1
l
41
0.8000000000
72
0
100
AcDbText
0
LINE
5
33C
100
AcDbEntity
8
0
100
AcDbLine
62
7
6
BYLAYER
10
159.0509538372
20
70.9185125895
11
209.0509538372
21
70.9185125895
0
LINE
5
33D
100
AcDbEntity
8
0
100
AcDbLine
62
7
6
BYLAYER
10
159.0509538372
20
70.9185125895
11
159.0509538372
21
45.9185125895
0
LINE
5
33E
100
AcDbEntity
8
0
100
AcDbLine
62
7
6
BYLAYER
10
159.0509538372
20
45.9185125895
11
209.0509538372
21
45.9185125895
0
LINE
5
33F
100
AcDbEntity
8
0
100
AcDbLine
62
7
6
BYLAYER
10
209.0509538372
20
70.9185125895
11
209.0509538372
21
45.9185125895
0
TEXT
5
340
100
AcDbEntity
8
0
100
AcDbText
62
7
6
BYLAYER
10
185.0763807286
20
265.6847091657
7
STANDARD
40
3.5000000000
1
NOTES -
41
0.8000000000
72
0
100
AcDbText
0
TEXT
5
341
100
AcDbEntity
8
0
100
AcDbText
62
7
6
BYLAYER
10
185.0763807286
20
260.4347091657
7
STANDARD
40
3.5000000000
1
 
41
0.8000000000
72
0
100
AcDbText
0
TEXT
5
342
100
AcDbEntity
8
0
100
AcDbText
62
7
6
BYLAYER
10
185.0763807286
20
255.1847091657
7
STANDARD
40
3.5000000000
1
1 - ALL OUTER MODULE TAPE ENDS SET FOR HIGH MODULES
41
0.8000000000
72
0
100
AcDbText
0
TEXT
5
343
100
AcDbEntity
8
0
100
AcDbText
62
7
6
BYLAYER
10
185.0763807286
20
249.9347091657
7
STANDARD
40
3.5000000000
1
2 - TAPE DESIGN SET TO ZERO MODULE ROTATION
41
0.8000000000
72
0
100
AcDbText
0
TEXT
5
344
100
AcDbEntity
8
0
100
AcDbText
62
7
6
BYLAYER
10
185.0763807286
20
244.6847091657
7
STANDARD
40
3.5000000000
1
3 - FOR TAPE SPECIFICATIONS REFER TO DOCUMENT ATL-IS-ER-0034
41
0.8000000000
72
0
100
AcDbText
0
TEXT
5
345
100
AcDbEntity
8
0
100
AcDbText
62
7
6
BYLAYER
10
185.0763807286
20
239.4347091657
7
STANDARD
40
3.5000000000
1
4 - ALL TWISTED PAIR WIRES TO LIE ONE WIRE DEEP 4mm EITHER SIDE
41
0.8000000000
72
0
100
AcDbText
0
TEXT
5
346
100
AcDbEntity
8
0
100
AcDbText
62
7
6
BYLAYER
10
185.0763807286
20
234.1847091657
7
STANDARD
40
3.5000000000
1
    OF PIPE CENTER LINES 
41
0.8000000000
72
0
100
AcDbText
0
TEXT
5
347
100
AcDbEntity
8
0
100
AcDbText
62
7
6
BYLAYER
10
185.0763807286
20
228.9347091657
7
STANDARD
40
3.5000000000
1
5 - ANY CUTS  BETWEEN TAPE LEGS MUST NOT BE SHORTENED
41
0.8000000000
72
0
100
AcDbText
0
TEXT
5
348
100
AcDbEntity
8
0
100
AcDbText
62
7
6
BYLAYER
10
185.0763807286
20
223.6847091657
7
STANDARD
40
3.5000000000
1
6 - TAPE ENDS TO INCLUDE TEXT AS SHOWN ON 3D-VIEW
41
0.8000000000
72
0
100
AcDbText
0
TEXT
5
349
100
AcDbEntity
8
0
100
AcDbText
62
7
6
BYLAYER
10
185.0763807286
20
218.4347091657
7
STANDARD
40
3.5000000000
1
7 - TEXT 'TD-1002-942 (W5)' TO BE LOCATED VISIBLY ON TAPE
41
0.8000000000
72
0
100
AcDbText
0
TEXT
5
34A
100
AcDbEntity
8
0
100
AcDbText
62
7
6
BYLAYER
10
185.0763807286
20
213.1847091657
7
STANDARD
40
3.5000000000
1
8 - FOR CONNECTOR POSITIONS REFER TO DRAWING TD-1010-345
41
0.8000000000
72
0
100
AcDbText
0
TEXT
5
34B
100
AcDbEntity
8
0
100
AcDbText
62
7
6
BYLAYER
10
98.7516204205
20
186.2715933242
7
STANDARD
40
4.0000000000
1
3D-VIEW
41
0.8000000000
72
0
100
AcDbText
0
CIRCLE
5
34C
100
AcDbEntity
8
0
100
AcDbCircle
62
7
6
BYLAYER
10
58.6023750245
20
193.1747847605
40
0.8000000000
0
TEXT
5
34D
100
AcDbEntity
8
0
100
AcDbText
62
7
6
BYLAYER
10
34.8242616665
20
205.0814496401
7
TEXTSTYLE_2
40
4.0000000000
1
M4
41
1.0233463035
72
0
100
AcDbText
0
CIRCLE
5
34E
100
AcDbEntity
8
0
100
AcDbCircle
62
7
6
BYLAYER
10
149.9503936072
20
261.2728393800
40
0.8000000000
0
TEXT
5
34F
100
AcDbEntity
8
0
100
AcDbText
62
7
6
BYLAYER
10
166.2018188813
20
265.8161320076
7
TEXTSTYLE_2
40
4.0000000000
1
I4
41
0.6070038911
72
0
100
AcDbText
0
CIRCLE
5
350
100
AcDbEntity
8
0
100
AcDbCircle
62
7
6
BYLAYER
10
126.3801106444
20
258.1074977890
40
0.8000000000
0
TEXT
5
351
100
AcDbEntity
8
0
100
AcDbText
62
7
6
BYLAYER
10
108.1757809900
20
263.0324590658
7
TEXTSTYLE_2
40
4.0000000000
1
O5
41
0.8891050584
72
0
100
AcDbText
0
TEXT
5
352
100
AcDbEntity
8
0
100
AcDbText
62
7
6
BYLAYER
10
229.5347808525
20
91.1420183047
7
STANDARD
40
4.0000000000
1
DEVELOPED VIEW
41
0.8000000000
72
0
100
AcDbText
0
SOLID
5
353
100
AcDbEntity
8
0
100
AcDbTrace
62
7
6
BYLAYER
10
320.4840659668
20
174.2006203944
11
316.8115118264
21
177.6866419212
12
318.0825352864
22
178.6584954926
13
318.0825352864
23
178.6584954926
0
POLYLINE
5
354
100
AcDbEntity
8
0
100
AcDb2dPolyline
62
7
6
BYLAYER
66
1
70
0
0
VERTEX
5
355
100
AcDbEntity
8
0
100
AcDbVertex
62
7
6
BYLAYER
100
AcDb2dVertex
10
303.9937390137
20
184.7914965820
0
VERTEX
5
356
100
AcDbEntity
8
0
100
AcDbVertex
62
7
6
BYLAYER
100
AcDb2dVertex
10
302.9937524414
20
185.1248382568
0
VERTEX
5
357
100
AcDbEntity
8
0
100
AcDbVertex
62
7
6
BYLAYER
100
AcDb2dVertex
10
301.9937402344
20
184.7914965820
0
VERTEX
5
358
100
AcDbEntity
8
0
100
AcDbVertex
62
7
6
BYLAYER
100
AcDb2dVertex
10
301.3270825195
20
184.1248388672
0
VERTEX
5
359
100
AcDbEntity
8
0
100
AcDbVertex
62
7
6
BYLAYER
100
AcDb2dVertex
10
300.9937536621
20
183.1248394775
0
VERTEX
5
35A
100
AcDbEntity
8
0
100
AcDbVertex
62
7
6
BYLAYER
100
AcDb2dVertex
10
301.3270825195
20
182.1248400879
0
VERTEX
5
35B
100
AcDbEntity
8
0
100
AcDbVertex
62
7
6
BYLAYER
100
AcDb2dVertex
10
301.9937402344
20
181.4581695557
0
VERTEX
5
35C
100
AcDbEntity
8
0
100
AcDbVertex
62
7
6
BYLAYER
100
AcDb2dVertex
10
302.9937524414
20
181.1248406982
0
VERTEX
5
35D
100
AcDbEntity
8
0
100
AcDbVertex
62
7
6
BYLAYER
100
AcDb2dVertex
10
303.9937390137
20
181.4581695557
0
SEQEND
5
35E
100
AcDbEntity
8
0
0
POLYLINE
5
35F
100
AcDbEntity
8
0
100
AcDb2dPolyline
62
7
6
BYLAYER
66
1
70
0
0
VERTEX
5
360
100
AcDbEntity
8
0
100
AcDbVertex
62
7
6
BYLAYER
100
AcDb2dVertex
10
302.6603979492
20
186.2915020752
0
VERTEX
5
361
100
AcDbEntity
8
0
100
AcDbVertex
62
7
6
BYLAYER
100
AcDb2dVertex
10
302.6603979492
20
180.1248413086
0
VERTEX
5
362
100
AcDbEntity
8
0
100
AcDbVertex
62
7
6
BYLAYER
100
AcDb2dVertex
10
305.3270800781
20
180.1248413086
0
SEQEND
5
363
100
AcDbEntity
8
0
0
TEXT
5
364
100
AcDbEntity
8
0
100
AcDbText
62
7
6
BYLAYER
10
284.9937410241
20
181.1248349138
7
STANDARD
40
4.0000000000
1
PIPE 
41
0.8000000000
72
0
100
AcDbText
0
SOLID
5
365
100
AcDbEntity
8
0
100
AcDbTrace
62
7
6
BYLAYER
10
276.4757433095
20
124.5881445111
11
279.6914020415
21
120.6766820072
12
278.3104448181
22
119.8686243687
13
278.3104448181
23
119.8686243687
0
POLYLINE
5
366
100
AcDbEntity
8
0
100
AcDb2dPolyline
62
7
6
BYLAYER
66
1
70
0
0
VERTEX
5
367
100
AcDbEntity
8
0
100
AcDbVertex
62
7
6
BYLAYER
100
AcDb2dVertex
10
307.9288037109
20
116.9356054688
0
VERTEX
5
368
100
AcDbEntity
8
0
100
AcDbVertex
62
7
6
BYLAYER
100
AcDb2dVertex
10
306.9288171387
20
117.2689343262
0
VERTEX
5
369
100
AcDbEntity
8
0
100
AcDbVertex
62
7
6
BYLAYER
100
AcDb2dVertex
10
305.9288049316
20
116.9356054688
0
VERTEX
5
36A
100
AcDbEntity
8
0
100
AcDbVertex
62
7
6
BYLAYER
100
AcDb2dVertex
10
305.2621472168
20
116.2689349365
0
VERTEX
5
36B
100
AcDbEntity
8
0
100
AcDbVertex
62
7
6
BYLAYER
100
AcDb2dVertex
10
304.9288183594
20
115.2689355469
0
VERTEX
5
36C
100
AcDbEntity
8
0
100
AcDbVertex
62
7
6
BYLAYER
100
AcDb2dVertex
10
305.2621472168
20
114.2689361572
0
VERTEX
5
36D
100
AcDbEntity
8
0
100
AcDbVertex
62
7
6
BYLAYER
100
AcDb2dVertex
10
305.9288049316
20
113.6022784424
0
VERTEX
5
36E
100
AcDbEntity
8
0
100
AcDbVertex
62
7
6
BYLAYER
100
AcDb2dVertex
10
306.9288171387
20
113.2689367676
0
VERTEX
5
36F
100
AcDbEntity
8
0
100
AcDbVertex
62
7
6
BYLAYER
100
AcDb2dVertex
10
307.9288037109
20
113.6022784424
0
SEQEND
5
370
100
AcDbEntity
8
0
0
POLYLINE
5
371
100
AcDbEntity
8
0
100
AcDb2dPolyline
62
7
6
BYLAYER
66
1
70
0
0
VERTEX
5
372
100
AcDbEntity
8
0
100
AcDbVertex
62
7
6
BYLAYER
100
AcDb2dVertex
10
306.5954882812
20
118.4356109619
0
VERTEX
5
373
100
AcDbEntity
8
0
100
AcDbVertex
62
7
6
BYLAYER
100
AcDb2dVertex
10
306.5954882812
20
112.2689373779
0
VERTEX
5
374
100
AcDbEntity
8
0
100
AcDbVertex
62
7
6
BYLAYER
100
AcDb2dVertex
10
309.2621447754
20
112.2689373779
0
SEQEND
5
375
100
AcDbEntity
8
0
0
TEXT
5
376
100
AcDbEntity
8
0
100
AcDbText
62
7
6
BYLAYER
10
288.9288116027
20
113.2689404217
7
STANDARD
40
4.0000000000
1
PIPE 
41
0.8000000000
72
0
100
AcDbText
0
LINE
5
377
100
AcDbEntity
8
0
100
AcDbLine
62
7
6
BYLAYER
10
0.0000000000
20
297.0000000000
11
0.0000000000
21
0.0000000000
0
LINE
5
378
100
AcDbEntity
8
0
100
AcDbLine
62
7
6
BYLAYER
10
10.0000000000
20
10.0000000000
11
10.0000000000
21
287.0000000000
0
LINE
5
379
100
AcDbEntity
8
0
100
AcDbLine
62
7
6
BYLAYER
10
10.0010000000
20
106.2230000000
11
10.0010000000
21
276.9990000000
0
LINE
5
37A
100
AcDbEntity
8
0
100
AcDbLine
62
7
6
BYLAYER
10
0.0000000000
20
0.0000000000
11
420.0000000000
21
0.0000000000
0
LINE
5
37B
100
AcDbEntity
8
0
100
AcDbLine
62
7
6
BYLAYER
10
160.0381492713
20
3.8460928114
11
260.0381492713
21
3.8460928114
0
LINE
5
37C
100
AcDbEntity
8
0
100
AcDbLine
62
7
6
BYLAYER
10
160.0381492713
20
3.8460928114
11
160.0381492713
21
8.8460928114
0
LINE
5
37D
100
AcDbEntity
8
0
100
AcDbLine
62
7
6
BYLAYER
10
260.0381492713
20
3.8460928114
11
260.0381492713
21
8.8460928114
0
LINE
5
37E
100
AcDbEntity
8
0
100
AcDbLine
62
7
6
BYLAYER
10
106.2230000000
20
286.9990000000
11
237.9920000000
21
286.9990000000
0
LINE
5
37F
100
AcDbEntity
8
0
100
AcDbLine
62
7
6
BYLAYER
10
10.0000000000
20
287.0000000000
11
410.0000000000
21
287.0000000000
0
LINE
5
380
100
AcDbEntity
8
0
100
AcDbLine
62
7
6
BYLAYER
10
0.0000000000
20
297.0000000000
11
420.0000000000
21
297.0000000000
0
LINE
5
381
100
AcDbEntity
8
0
100
AcDbLine
62
7
6
BYLAYER
10
401.4430414976
20
21.0017763982
11
401.4430414976
21
10.0350776605
0
LINE
5
382
100
AcDbEntity
8
0
100
AcDbLine
62
7
6
BYLAYER
10
410.0000000000
20
287.0000000000
11
410.0000000000
21
10.0000000000
0
LINE
5
383
100
AcDbEntity
8
0
100
AcDbLine
62
7
6
BYLAYER
10
420.0000000000
20
297.0000000000
11
420.0000000000
21
0.0000000000
0
LINE
5
384
100
AcDbEntity
8
0
100
AcDbLine
62
7
6
BYLAYER
10
40.6048771222
20
140.4588376173
11
57.3734497305
21
132.1178428184
0
LINE
5
385
100
AcDbEntity
8
0
100
AcDbLine
62
7
6
BYLAYER
10
39.2743512088
20
177.1100621074
11
40.6048771222
21
140.4588376173
0
LINE
5
386
100
AcDbEntity
8
0
100
AcDbLine
62
7
6
BYLAYER
10
39.2743512088
20
177.1100621074
11
43.8585653031
21
174.8297901480
0
LINE
5
387
100
AcDbEntity
8
0
100
AcDbLine
62
7
6
BYLAYER
10
43.8585653032
20
174.8297901480
11
51.4587097228
21
171.0493392679
0
LINE
5
388
100
AcDbEntity
8
0
100
AcDbLine
62
7
6
BYLAYER
10
51.4587097228
20
171.0493392679
11
56.0429238171
21
168.7690673084
0
LINE
5
389
100
AcDbEntity
8
0
100
AcDbLine
62
7
6
BYLAYER
10
39.4735778595
20
177.1763985453
11
43.9245336833
21
174.9624116876
0
LINE
5
38A
100
AcDbEntity
8
0
100
AcDbLine
62
7
6
BYLAYER
10
51.6579363735
20
171.1156757057
11
56.2421504679
21
168.8354037463
0
LINE
5
38B
100
AcDbEntity
8
0
100
AcDbLine
62
7
6
BYLAYER
10
42.6120572837
20
186.7398048315
11
42.6037414967
21
186.9688749845
0
LINE
5
38C
100
AcDbEntity
8
0
100
AcDbLine
62
7
6
BYLAYER
10
43.6056076170
20
185.4059116483
11
43.5972918300
21
185.6349818013
0
LINE
5
38D
100
AcDbEntity
8
0
100
AcDbLine
62
7
6
BYLAYER
10
47.1700437529
20
183.2014792824
11
47.1617279660
21
183.4305494355
0
LINE
5
38E
100
AcDbEntity
8
0
100
AcDbLine
62
7
6
BYLAYER
10
47.5772374253
20
188.0520486565
11
47.5689216384
21
188.2811188095
0
LINE
5
38F
100
AcDbEntity
8
0
100
AcDbLine
62
7
6
BYLAYER
10
48.3574470555
20
188.2679943954
11
48.3491312685
21
188.4970645484
0
LINE
5
390
100
AcDbEntity
8
0
100
AcDbLine
62
7
6
BYLAYER
10
49.2474828504
20
185.9473733835
11
48.9943502954
21
192.9202688427
0
LINE
5
391
100
AcDbEntity
8
0
100
AcDbLine
62
7
6
BYLAYER
10
49.3784901012
20
185.8663516980
11
49.1253575462
21
192.8392471572
0
LINE
5
392
100
AcDbEntity
8
0
100
AcDbLine
62
7
6
BYLAYER
10
51.3338038944
20
195.5041195727
11
51.3254881075
21
195.7331897258
0
LINE
5
393
100
AcDbEntity
8
0
100
AcDbLine
62
7
6
BYLAYER
10
52.2720622276
20
186.6665994871
11
52.0189296726
21
193.6394949463
0
LINE
5
394
100
AcDbEntity
8
0
100
AcDbLine
62
7
6
BYLAYER
10
52.9985995616
20
194.4745234988
11
52.9902837747
21
194.7035936519
0
LINE
5
395
100
AcDbEntity
8
0
100
AcDbLine
62
7
6
BYLAYER
10
53.4978706457
20
194.2081881012
11
53.4895548587
21
194.4372582543
0
LINE
5
396
100
AcDbEntity
8
0
100
AcDbLine
62
7
6
BYLAYER
10
55.4761536494
20
177.0238075246
11
55.4678378625
21
177.2528776777
0
LINE
5
397
100
AcDbEntity
8
0
100
AcDbLine
62
7
6
BYLAYER
10
56.0429238171
20
168.7690673084
11
57.3734497305
21
132.1178428184
0
LINE
5
398
100
AcDbEntity
8
0
100
AcDbLine
62
7
6
BYLAYER
10
56.2421504679
20
168.8354037463
11
57.5726763813
21
132.1841792562
0
LINE
5
399
100
AcDbEntity
8
0
100
AcDbLine
62
7
6
BYLAYER
10
56.3336604941
20
187.7547067784
11
56.3253447071
21
187.9837769315
0
LINE
5
39A
100
AcDbEntity
8
0
100
AcDbLine
62
7
6
BYLAYER
10
47.8676934428
20
181.0333285578
11
55.4678378625
21
177.2528776777
0
LINE
5
39B
100
AcDbEntity
8
0
100
AcDbLine
62
7
6
BYLAYER
10
61.0752185062
20
183.7280474130
11
61.7990417843
21
183.3680044720
0
LINE
5
39C
100
AcDbEntity
8
0
100
AcDbLine
62
7
6
BYLAYER
10
61.7990417843
20
183.3680044720
11
66.6245303047
21
180.9677181990
0
LINE
5
39D
100
AcDbEntity
8
0
100
AcDbLine
62
7
6
BYLAYER
10
65.0445264688
20
188.3899165181
11
69.8700149892
21
185.9896302450
0
LINE
5
39E
100
AcDbEntity
8
0
100
AcDbLine
62
7
6
BYLAYER
10
59.9462244281
20
196.0228668737
11
65.4531189866
21
192.6202898387
0
LINE
5
39F
100
AcDbEntity
8
0
100
AcDbLine
62
7
6
BYLAYER
10
43.6056076170
20
185.4059116483
11
47.1700437529
21
183.2014792824
0
LINE
5
3A0
100
AcDbEntity
8
0
100
AcDbLine
62
7
6
BYLAYER
10
43.5972918300
20
185.6349818013
11
47.1617279660
21
183.4305494355
0
LINE
5
3A1
100
AcDbEntity
8
0
100
AcDbLine
62
7
6
BYLAYER
10
46.4908639564
20
186.4352295904
11
49.1510538032
21
184.7900300768
0
LINE
5
3A2
100
AcDbEntity
8
0
100
AcDbLine
62
7
6
BYLAYER
10
49.3784901012
20
185.8663516980
11
49.2474828504
21
185.9473733835
0
LINE
5
3A3
100
AcDbEntity
8
0
100
AcDbLine
62
7
6
BYLAYER
10
49.1253575462
20
192.8392471572
11
48.9943502954
21
192.9202688427
0
LINE
5
3A4
100
AcDbEntity
8
0
100
AcDbLine
62
7
6
BYLAYER
10
51.3338038944
20
195.5041195727
11
52.9985995616
21
194.4745234988
0
LINE
5
3A5
100
AcDbEntity
8
0
100
AcDbLine
62
7
6
BYLAYER
10
51.3254881075
20
195.7331897258
11
52.9902837747
21
194.7035936519
0
LINE
5
3A6
100
AcDbEntity
8
0
100
AcDbLine
62
7
6
BYLAYER
10
54.2190602339
20
196.5334375149
11
55.8838559011
21
195.5038414410
0
LINE
5
3A7
100
AcDbEntity
8
0
100
AcDbLine
62
7
6
BYLAYER
10
58.1819122699
20
193.8553808756
11
50.0110320946
21
207.0814496401
0
LINE
5
3A8
100
AcDbEntity
8
0
100
AcDbLine
62
7
6
BYLAYER
10
64.9547159696
20
190.8638741712
11
65.0445264688
21
188.3899165181
0
LINE
5
3A9
100
AcDbEntity
8
0
100
AcDbLine
62
7
6
BYLAYER
10
66.6328460916
20
180.7386480459
11
66.6245303047
21
180.9677181990
0
LINE
5
3AA
100
AcDbEntity
8
0
100
AcDbLine
62
7
6
BYLAYER
10
69.7802044900
20
188.4635878981
11
69.8700149892
21
185.9896302450
0
LINE
5
3AB
100
AcDbEntity
8
0
100
AcDbLine
62
7
6
BYLAYER
10
69.9794311408
20
188.5299243360
11
70.0692416399
21
186.0559666829
0
LINE
5
3AC
100
AcDbEntity
8
0
100
AcDbLine
62
7
6
BYLAYER
10
71.6976289149
20
191.1885836544
11
71.6893131280
21
191.4176538075
0
LINE
5
3AD
100
AcDbEntity
8
0
100
AcDbLine
62
7
6
BYLAYER
10
74.9365579996
20
192.2670488960
11
74.9282422127
21
192.4961190491
0
LINE
5
3AE
100
AcDbEntity
8
0
100
AcDbLine
62
7
6
BYLAYER
10
53.4978706457
20
194.2081881012
11
65.0269449352
21
188.8742248121
0
LINE
5
3AF
100
AcDbEntity
8
0
100
AcDbLine
62
7
6
BYLAYER
10
53.4895548587
20
194.4372582543
11
65.0186291482
21
189.1032949651
0
LINE
5
3B0
100
AcDbEntity
8
0
100
AcDbLine
62
7
6
BYLAYER
10
56.1297655395
20
195.3726613198
11
65.0066570999
21
191.2657388978
0
LINE
5
3B1
100
AcDbEntity
8
0
100
AcDbLine
62
7
6
BYLAYER
10
64.9547159696
20
190.8638741712
11
69.7802044900
21
188.4635878981
0
LINE
5
3B2
100
AcDbEntity
8
0
100
AcDbLine
62
7
6
BYLAYER
10
66.8638246076
20
193.8179400806
11
71.6893131280
21
191.4176538075
0
LINE
5
3B3
100
AcDbEntity
8
0
100
AcDbLine
62
7
6
BYLAYER
10
77.8231252818
20
193.7655761142
11
77.8148094948
21
193.9946462673
0
LINE
5
3B4
100
AcDbEntity
8
0
100
AcDbLine
62
7
6
BYLAYER
10
46.5662852387
20
189.5986420153
11
48.4598475166
21
192.8436775207
0
LINE
5
3B5
100
AcDbEntity
8
0
100
AcDbLine
62
7
6
BYLAYER
10
56.3336604941
20
187.7547067784
11
52.2229581898
21
188.0192398938
0
LINE
5
3B6
100
AcDbEntity
8
0
100
AcDbLine
62
7
6
BYLAYER
10
49.1651256835
20
188.2160184244
11
48.3574470555
21
188.2679943954
0
LINE
5
3B7
100
AcDbEntity
8
0
100
AcDbLine
62
7
6
BYLAYER
10
56.3253447071
20
187.9837769315
11
52.2146424028
21
188.2483100468
0
LINE
5
3B8
100
AcDbEntity
8
0
100
AcDbLine
62
7
6
BYLAYER
10
49.1568098965
20
188.4450885774
11
48.3491312685
21
188.4970645484
0
LINE
5
3B9
100
AcDbEntity
8
0
100
AcDbLine
62
7
6
BYLAYER
10
112.1441011371
20
223.3417614555
11
112.1357853501
21
223.5708316086
0
LINE
5
3BA
100
AcDbEntity
8
0
100
AcDbLine
62
7
6
BYLAYER
10
63.2869593293
20
189.6792347471
11
56.3336604941
21
187.7547067784
0
LINE
5
3BB
100
AcDbEntity
8
0
100
AcDbLine
62
7
6
BYLAYER
10
62.9740547177
20
189.8240010718
11
56.3253447071
21
187.9837769315
0
LINE
5
3BC
100
AcDbEntity
8
0
100
AcDbLine
62
7
6
BYLAYER
10
51.1134270085
20
183.7878005250
11
48.2198548821
21
182.9875527359
0
LINE
5
3BD
100
AcDbEntity
8
0
100
AcDbLine
62
7
6
BYLAYER
10
47.1617279660
20
183.4305494355
11
48.8284149138
21
183.8914892314
0
LINE
5
3BE
100
AcDbEntity
8
0
100
AcDbLine
62
7
6
BYLAYER
10
49.3784901012
20
185.8663516980
11
52.2720622276
21
186.6665994871
0
LINE
5
3BF
100
AcDbEntity
8
0
100
AcDbLine
62
7
6
BYLAYER
10
50.0110320946
20
207.0814496401
11
43.0110320946
21
207.0814496401
0
LINE
5
3C0
100
AcDbEntity
8
0
100
AcDbLine
62
7
6
BYLAYER
10
114.7140517517
20
224.5189503640
11
114.7057359647
21
224.7480205170
0
LINE
5
3C1
100
AcDbEntity
8
0
100
AcDbLine
62
7
6
BYLAYER
10
117.4837338298
20
258.6373319509
11
117.4920496168
21
258.4082617978
0
LINE
5
3C2
100
AcDbEntity
8
0
100
AcDbLine
62
7
6
BYLAYER
10
124.8763586092
20
253.6512745857
11
124.8846743962
21
253.4222044327
0
LINE
5
3C3
100
AcDbEntity
8
0
100
AcDbLine
62
7
6
BYLAYER
10
126.0085422624
20
229.5334846838
11
126.0002264754
21
229.7625548368
0
LINE
5
3C4
100
AcDbEntity
8
0
100
AcDbLine
62
7
6
BYLAYER
10
126.7239042648
20
227.6056199600
11
126.7155884778
21
227.8346901131
0
LINE
5
3C5
100
AcDbEntity
8
0
100
AcDbLine
62
7
6
BYLAYER
10
129.3998858812
20
231.8859461603
11
129.3915700942
21
232.1150163134
0
LINE
5
3C6
100
AcDbEntity
8
0
100
AcDbLine
62
7
6
BYLAYER
10
130.3079051027
20
244.2177676278
11
130.2995893157
21
244.4468377809
0
LINE
5
3C7
100
AcDbEntity
8
0
100
AcDbLine
62
7
6
BYLAYER
10
132.1010307469
20
245.4066394926
11
132.0927149600
21
245.6357096457
0
LINE
5
3C8
100
AcDbEntity
8
0
100
AcDbLine
62
7
6
BYLAYER
10
132.8102851915
20
229.1698895409
11
132.8019694046
21
229.3989596940
0
LINE
5
3C9
100
AcDbEntity
8
0
100
AcDbLine
62
7
6
BYLAYER
10
126.9029473551
20
244.3832243627
11
125.9949281337
21
232.0514028952
0
LINE
5
3CA
100
AcDbEntity
8
0
100
AcDbLine
62
7
6
BYLAYER
10
130.2995893157
20
244.4468377809
11
129.3915700942
21
232.1150163134
0
LINE
5
3CB
100
AcDbEntity
8
0
100
AcDbLine
62
7
6
BYLAYER
10
48.3574470555
20
188.2679943954
11
47.5772374253
21
188.0520486565
0
LINE
5
3CC
100
AcDbEntity
8
0
100
AcDbLine
62
7
6
BYLAYER
10
48.3491312685
20
188.4970645484
11
47.5689216384
21
188.2811188095
0
LINE
5
3CD
100
AcDbEntity
8
0
100
AcDbLine
62
7
6
BYLAYER
10
46.5662852387
20
189.5986420153
11
45.7860756085
21
189.3826962764
0
LINE
5
3CE
100
AcDbEntity
8
0
100
AcDbLine
62
7
6
BYLAYER
10
48.4598475166
20
192.8436775207
11
48.9760078434
21
192.9865399244
0
LINE
5
3CF
100
AcDbEntity
8
0
100
AcDbLine
62
7
6
BYLAYER
10
51.9702732482
20
193.8152900837
11
53.4901814851
21
194.2359689558
0
LINE
5
3D0
100
AcDbEntity
8
0
100
AcDbLine
62
7
6
BYLAYER
10
56.6789849560
20
195.1185631909
11
59.9462244281
21
196.0228668737
0
LINE
5
3D1
100
AcDbEntity
8
0
100
AcDbLine
62
7
6
BYLAYER
10
49.1253575462
20
192.8392471572
11
52.0189296726
21
193.6394949463
0
LINE
5
3D2
100
AcDbEntity
8
0
100
AcDbLine
62
7
6
BYLAYER
10
51.3254881075
20
195.7331897258
11
54.2190602339
21
196.5334375149
0
LINE
5
3D3
100
AcDbEntity
8
0
100
AcDbLine
62
7
6
BYLAYER
10
50.2173541378
20
195.9590010805
11
53.1109262642
21
196.7592488696
0
LINE
5
3D4
100
AcDbEntity
8
0
100
AcDbLine
62
7
6
BYLAYER
10
132.8102851915
20
229.1698895409
11
114.7140517517
21
224.5189503640
0
LINE
5
3D5
100
AcDbEntity
8
0
100
AcDbLine
62
7
6
BYLAYER
10
132.8019694046
20
229.3989596940
11
114.7057359647
21
224.7480205170
0
LINE
5
3D6
100
AcDbEntity
8
0
100
AcDbLine
62
7
6
BYLAYER
10
124.4485168788
20
229.3637477051
11
125.0399268612
21
228.9648631159
0
LINE
5
3D7
100
AcDbEntity
8
0
100
AcDbLine
62
7
6
BYLAYER
10
135.2532900744
20
246.1480282661
11
135.2449742875
21
246.3770984191
0
LINE
5
3D8
100
AcDbEntity
8
0
100
AcDbLine
62
7
6
BYLAYER
10
136.2042426063
20
231.5761483923
11
136.1959268194
21
231.8052185454
0
LINE
5
3D9
100
AcDbEntity
8
0
100
AcDbLine
62
7
6
BYLAYER
10
136.4649927996
20
242.6666756998
11
136.4566770126
21
242.8957458528
0
LINE
5
3DA
100
AcDbEntity
8
0
100
AcDbLine
62
7
6
BYLAYER
10
136.6143789679
20
256.6680802059
11
136.6226947549
21
256.4390100529
0
LINE
5
3DB
100
AcDbEntity
8
0
100
AcDbLine
62
7
6
BYLAYER
10
137.2401801011
20
254.9331346492
11
137.3349800724
21
252.3217349043
0
LINE
5
3DC
100
AcDbEntity
8
0
100
AcDbLine
62
7
6
BYLAYER
10
138.1366434666
20
243.8518479699
11
138.1283276796
21
244.0809181229
0
LINE
5
3DD
100
AcDbEntity
8
0
100
AcDbLine
62
7
6
BYLAYER
10
138.7893592766
20
253.7718497824
11
138.8841592480
21
251.1604500374
0
LINE
5
3DE
100
AcDbEntity
8
0
100
AcDbLine
62
7
6
BYLAYER
10
139.0117447671
20
253.8241532539
11
139.1065447385
21
251.2127535090
0
LINE
5
3DF
100
AcDbEntity
8
0
100
AcDbLine
62
7
6
BYLAYER
10
138.7988987258
20
259.8921314684
11
138.8072145128
21
259.6630613153
0
LINE
5
3E0
100
AcDbEntity
8
0
100
AcDbLine
62
7
6
BYLAYER
10
138.9727953237
20
259.9368248850
11
138.9811111107
21
259.7077547319
0
LINE
5
3E1
100
AcDbEntity
8
0
100
AcDbLine
62
7
6
BYLAYER
10
139.5435909406
20
244.2134495787
11
139.5352751536
21
244.4425197318
0
LINE
5
3E2
100
AcDbEntity
8
0
100
AcDbLine
62
7
6
BYLAYER
10
141.1421205778
20
257.8934702353
11
141.4135478642
21
250.4166204393
0
LINE
5
3E3
100
AcDbEntity
8
0
100
AcDbLine
62
7
6
BYLAYER
10
142.8177821945
20
256.7632972325
11
143.0892094808
21
249.2864474365
0
LINE
5
3E4
100
AcDbEntity
8
0
100
AcDbLine
62
7
6
BYLAYER
10
142.8649994312
20
258.8888784968
11
142.8566836442
21
259.1179486499
0
LINE
5
3E5
100
AcDbEntity
8
0
100
AcDbLine
62
7
6
BYLAYER
10
143.0351529419
20
256.8191640033
11
143.3065802282
21
249.3423142073
0
LINE
5
3E6
100
AcDbEntity
8
0
100
AcDbLine
62
7
6
BYLAYER
10
144.1153855205
20
259.4139862988
11
144.1237013075
21
259.1849161458
0
LINE
5
3E7
100
AcDbEntity
8
0
100
AcDbLine
62
7
6
BYLAYER
10
133.0587086482
20
242.8048322743
11
132.7979584549
21
231.7143049668
0
LINE
5
3E8
100
AcDbEntity
8
0
100
AcDbLine
62
7
6
BYLAYER
10
136.4566770126
20
242.8957458528
11
136.1959268194
21
231.8052185454
0
LINE
5
3E9
100
AcDbEntity
8
0
100
AcDbLine
62
7
6
BYLAYER
10
136.6143789679
20
256.6680802059
11
138.7988987258
21
259.8921314684
0
LINE
5
3EA
100
AcDbEntity
8
0
100
AcDbLine
62
7
6
BYLAYER
10
136.6226947549
20
256.4390100529
11
138.8072145128
21
259.6630613153
0
LINE
5
3EB
100
AcDbEntity
8
0
100
AcDbLine
62
7
6
BYLAYER
10
145.0828323079
20
263.7697270666
11
142.5662063450
21
260.5752711657
0
LINE
5
3EC
100
AcDbEntity
8
0
100
AcDbLine
62
7
6
BYLAYER
10
104.9296227826
20
224.7352191450
11
70.6086469273
21
195.1590338037
0
LINE
5
3ED
100
AcDbEntity
8
0
100
AcDbLine
62
7
6
BYLAYER
10
112.1357853501
20
223.5708316086
11
77.8148094948
21
193.9946462673
0
LINE
5
3EE
100
AcDbEntity
8
0
100
AcDbLine
62
7
6
BYLAYER
10
112.1441011371
20
223.3417614555
11
77.8231252818
21
193.7655761142
0
LINE
5
3EF
100
AcDbEntity
8
0
100
AcDbLine
62
7
6
BYLAYER
10
150.6035393796
20
261.7347924079
11
159.2018188813
21
267.8161320076
0
LINE
5
3F0
100
AcDbEntity
8
0
100
AcDbLine
62
7
6
BYLAYER
10
131.1263077879
20
230.5291326967
11
125.0399268612
21
228.9648631159
0
LINE
5
3F1
100
AcDbEntity
8
0
100
AcDbLine
62
7
6
BYLAYER
10
126.0085422624
20
229.5334846838
11
124.6967332650
21
229.1963347526
0
LINE
5
3F2
100
AcDbEntity
8
0
100
AcDbLine
62
7
6
BYLAYER
10
126.0002264754
20
229.7625548368
11
124.4485168788
21
229.3637477051
0
LINE
5
3F3
100
AcDbEntity
8
0
100
AcDbLine
62
7
6
BYLAYER
10
124.3245648587
20
230.8927278396
11
110.7630027490
21
227.4072511118
0
LINE
5
3F4
100
AcDbEntity
8
0
100
AcDbLine
62
7
6
BYLAYER
10
139.5435909406
20
244.2134495787
11
138.1366434666
21
243.8518479699
0
LINE
5
3F5
100
AcDbEntity
8
0
100
AcDbLine
62
7
6
BYLAYER
10
139.5352751536
20
244.4425197318
11
138.1283276796
21
244.0809181229
0
LINE
5
3F6
100
AcDbEntity
8
0
100
AcDbLine
62
7
6
BYLAYER
10
137.8596135370
20
245.5726927346
11
136.4526660629
21
245.2110911257
0
LINE
5
3F7
100
AcDbEntity
8
0
100
AcDbLine
62
7
6
BYLAYER
10
143.3065802282
20
249.3423142073
11
143.0892094808
21
249.2864474365
0
LINE
5
3F8
100
AcDbEntity
8
0
100
AcDbLine
62
7
6
BYLAYER
10
135.2532900744
20
246.1480282661
11
132.1010307469
21
245.4066394926
0
LINE
5
3F9
100
AcDbEntity
8
0
100
AcDbLine
62
7
6
BYLAYER
10
135.2449742875
20
246.3770984191
11
132.0927149600
21
245.6357096457
0
LINE
5
3FA
100
AcDbEntity
8
0
100
AcDbLine
62
7
6
BYLAYER
10
133.6957951119
20
247.5383832860
11
130.5435357844
21
246.7969945126
0
LINE
5
3FB
100
AcDbEntity
8
0
100
AcDbLine
62
7
6
BYLAYER
10
124.8846743962
20
253.4222044327
11
117.4920496168
21
258.4082617978
0
LINE
5
3FC
100
AcDbEntity
8
0
100
AcDbLine
62
7
6
BYLAYER
10
117.4837338298
20
258.6373319509
11
124.8763586092
21
253.6512745857
0
LINE
5
3FD
100
AcDbEntity
8
0
100
AcDbLine
62
7
6
BYLAYER
10
137.8596135370
20
245.5726927346
11
139.5352751536
21
244.4425197318
0
LINE
5
3FE
100
AcDbEntity
8
0
100
AcDbLine
62
7
6
BYLAYER
10
141.4135478642
20
250.4166204393
11
143.0892094808
21
249.2864474365
0
LINE
5
3FF
100
AcDbEntity
8
0
100
AcDbLine
62
7
6
BYLAYER
10
141.1421205778
20
257.8934702353
11
142.8177821945
21
256.7632972325
0
LINE
5
400
100
AcDbEntity
8
0
100
AcDbLine
62
7
6
BYLAYER
10
137.2971337071
20
261.0669978877
11
138.9727953237
21
259.9368248850
0
LINE
5
401
100
AcDbEntity
8
0
100
AcDbLine
62
7
6
BYLAYER
10
133.6957951119
20
247.5383832860
11
135.2449742875
21
246.3770984191
0
LINE
5
402
100
AcDbEntity
8
0
100
AcDbLine
62
7
6
BYLAYER
10
137.3349800724
20
252.3217349043
11
138.8841592480
21
251.1604500374
0
LINE
5
403
100
AcDbEntity
8
0
100
AcDbLine
62
7
6
BYLAYER
10
137.2401801011
20
254.9331346492
11
138.7893592766
21
253.7718497824
0
LINE
5
404
100
AcDbEntity
8
0
100
AcDbLine
62
7
6
BYLAYER
10
125.9731665166
20
258.7962622457
11
122.2886214570
21
265.0324590658
0
LINE
5
405
100
AcDbEntity
8
0
100
AcDbLine
62
7
6
BYLAYER
10
151.9174463176
20
258.6464114776
11
151.9257621046
21
258.4173413245
0
LINE
5
406
100
AcDbEntity
8
0
100
AcDbLine
62
7
6
BYLAYER
10
159.9233239762
20
260.5293364532
11
159.9316397632
21
260.3002663001
0
LINE
5
407
100
AcDbEntity
8
0
100
AcDbLine
62
7
6
BYLAYER
10
143.0351529419
20
256.8191640033
11
142.8177821945
21
256.7632972325
0
LINE
5
408
100
AcDbEntity
8
0
100
AcDbLine
62
7
6
BYLAYER
10
124.8846743962
20
253.4222044327
11
136.6226947549
21
256.4390100529
0
LINE
5
409
100
AcDbEntity
8
0
100
AcDbLine
62
7
6
BYLAYER
10
124.8763586092
20
253.6512745857
11
136.6143789679
21
256.6680802059
0
LINE
5
40A
100
AcDbEntity
8
0
100
AcDbLine
62
7
6
BYLAYER
10
138.8072145128
20
259.6630613153
11
138.9811111107
21
259.7077547319
0
LINE
5
40B
100
AcDbEntity
8
0
100
AcDbLine
62
7
6
BYLAYER
10
138.7988987258
20
259.8921314684
11
138.9727953237
21
259.9368248850
0
LINE
5
40C
100
AcDbEntity
8
0
100
AcDbLine
62
7
6
BYLAYER
10
137.1232371092
20
261.0223044712
11
137.2971337071
21
261.0669978877
0
LINE
5
40D
100
AcDbEntity
8
0
100
AcDbLine
62
7
6
BYLAYER
10
129.2217541885
20
261.6541375711
11
117.4837338298
21
258.6373319509
0
LINE
5
40E
100
AcDbEntity
8
0
100
AcDbLine
62
7
6
BYLAYER
10
139.1065447385
20
251.2127535090
11
138.8841592480
21
251.1604500374
0
LINE
5
40F
100
AcDbEntity
8
0
100
AcDbLine
62
7
6
BYLAYER
10
139.0117447671
20
253.8241532539
11
138.7893592766
21
253.7718497824
0
LINE
5
410
100
AcDbEntity
8
0
100
AcDbLine
62
7
6
BYLAYER
10
151.9257621046
20
258.4173413245
11
159.9316397632
21
260.3002663001
0
LINE
5
411
100
AcDbEntity
8
0
100
AcDbLine
62
7
6
BYLAYER
10
151.9174463176
20
258.6464114776
11
159.9233239762
21
260.5293364532
0
LINE
5
412
100
AcDbEntity
8
0
100
AcDbLine
62
7
6
BYLAYER
10
144.1237013075
20
259.1849161458
11
142.8649994312
21
258.8888784968
0
LINE
5
413
100
AcDbEntity
8
0
100
AcDbLine
62
7
6
BYLAYER
10
144.1153855205
20
259.4139862988
11
142.8566836442
21
259.1179486499
0
LINE
5
414
100
AcDbEntity
8
0
100
AcDbLine
62
7
6
BYLAYER
10
142.5662063450
20
260.5752711657
11
141.3075044687
21
260.2792335167
0
LINE
5
415
100
AcDbEntity
8
0
100
AcDbLine
62
7
6
BYLAYER
10
153.0887099664
20
265.6526520422
11
145.0828323079
21
263.7697270666
0
LINE
5
416
100
AcDbEntity
8
0
100
AcDbLine
62
7
6
BYLAYER
10
122.2886214570
20
265.0324590658
11
115.2886214570
21
265.0324590658
0
LINE
5
417
100
AcDbEntity
8
0
100
AcDbLine
62
7
6
BYLAYER
10
159.2018188813
20
267.8161320076
11
166.2018188813
21
267.8161320076
0
LINE
5
418
100
AcDbEntity
8
0
100
AcDbLine
62
7
6
BYLAYER
10
137.1232371092
20
261.0223044712
11
129.2217541885
21
261.6541375711
0
LINE
5
419
100
AcDbEntity
8
0
100
AcDbLine
62
7
6
BYLAYER
10
144.1237013075
20
259.1849161458
11
151.9257621046
21
258.4173413245
0
LINE
5
41A
100
AcDbEntity
8
0
100
AcDbLine
62
7
6
BYLAYER
10
144.1153855205
20
259.4139862988
11
151.9174463176
21
258.6464114776
0
LINE
5
41B
100
AcDbEntity
8
0
100
AcDbLine
62
7
6
BYLAYER
10
141.6387327415
20
259.5443086462
11
139.9630711248
21
260.6744816490
0
LINE
5
41C
100
AcDbEntity
8
0
100
AcDbLine
62
7
6
BYLAYER
10
141.3075044687
20
260.2792335167
11
142.8566836442
21
259.1179486499
0
LINE
5
41D
100
AcDbEntity
8
0
100
AcDbLine
62
7
6
BYLAYER
10
159.9233239762
20
260.5293364532
11
153.0887099664
21
265.6526520422
0
LINE
5
41E
100
AcDbEntity
8
0
100
AcDbLine
62
7
6
BYLAYER
10
70.1027536923
20
194.8964053221
11
66.8638246076
21
193.8179400806
0
LINE
5
41F
100
AcDbEntity
8
0
100
AcDbLine
62
7
6
BYLAYER
10
74.9282422127
20
192.4961190491
11
71.6893131280
21
191.4176538075
0
LINE
5
420
100
AcDbEntity
8
0
100
AcDbLine
62
7
6
BYLAYER
10
74.9365579996
20
192.2670488960
11
71.6976289149
21
191.1885836544
0
LINE
5
421
100
AcDbEntity
8
0
100
AcDbLine
62
7
6
BYLAYER
10
69.9794311408
20
188.5299243360
11
69.7802044900
21
188.4635878981
0
LINE
5
422
100
AcDbEntity
8
0
100
AcDbLine
62
7
6
BYLAYER
10
64.7713918808
20
186.6617479341
11
47.8676934428
21
181.0333285578
0
LINE
5
423
100
AcDbEntity
8
0
100
AcDbLine
62
7
6
BYLAYER
10
39.4735778595
20
177.1763985453
11
39.2743512088
21
177.1100621074
0
LINE
5
424
100
AcDbEntity
8
0
100
AcDbLine
62
7
6
BYLAYER
10
63.4607412538
20
184.5223542036
11
61.0752185062
21
183.7280474130
0
LINE
5
425
100
AcDbEntity
8
0
100
AcDbLine
62
7
6
BYLAYER
10
63.1708932872
20
184.1940045553
11
61.3544121601
21
183.5891713817
0
LINE
5
426
100
AcDbEntity
8
0
100
AcDbLine
62
7
6
BYLAYER
10
70.0692416399
20
186.0559666829
11
69.8700149892
21
185.9896302450
0
LINE
5
427
100
AcDbEntity
8
0
100
AcDbLine
62
7
6
BYLAYER
10
66.6245303047
20
180.9677181990
11
55.4678378625
21
177.2528776777
0
LINE
5
428
100
AcDbEntity
8
0
100
AcDbLine
62
7
6
BYLAYER
10
66.6328460916
20
180.7386480459
11
55.4761536494
21
177.0238075246
0
LINE
5
429
100
AcDbEntity
8
0
100
AcDbLine
62
7
6
BYLAYER
10
51.6579363735
20
171.1156757057
11
51.4587097228
21
171.0493392679
0
LINE
5
42A
100
AcDbEntity
8
0
100
AcDbLine
62
7
6
BYLAYER
10
56.2421504679
20
168.8354037463
11
56.0429238171
21
168.7690673084
0
LINE
5
42B
100
AcDbEntity
8
0
100
AcDbLine
62
7
6
BYLAYER
10
57.5726763813
20
132.1841792562
11
57.3734497305
21
132.1178428184
0
LINE
5
42C
100
AcDbEntity
8
0
100
AcDbLine
62
7
6
BYLAYER
10
134.8267018765
20
132.3600662572
11
134.8267018765
21
104.5600662572
0
LINE
5
42D
100
AcDbEntity
8
0
100
AcDbLine
62
7
6
BYLAYER
10
174.8267018765
20
132.3600662572
11
174.8267018765
21
124.7600662572
0
LINE
5
42E
100
AcDbEntity
8
0
100
AcDbLine
62
7
6
BYLAYER
10
174.8267018765
20
124.7600662572
11
174.8267018765
21
112.1600662572
0
LINE
5
42F
100
AcDbEntity
8
0
100
AcDbLine
62
7
6
BYLAYER
10
174.8267018765
20
112.1600662572
11
174.8267018765
21
104.5600662572
0
LINE
5
430
100
AcDbEntity
8
0
100
AcDbLine
62
7
6
BYLAYER
10
207.2870589780
20
147.7836557425
11
207.9357788669
21
128.1691490795
0
LINE
5
431
100
AcDbEntity
8
0
100
AcDbLine
62
7
6
BYLAYER
10
210.6852009491
20
147.8960441049
11
211.3339208380
21
128.2815374418
0
LINE
5
432
100
AcDbEntity
8
0
100
AcDbLine
62
7
6
BYLAYER
10
182.8056835105
20
124.7600662572
11
182.8056835105
21
112.1600662572
0
LINE
5
433
100
AcDbEntity
8
0
100
AcDbLine
62
7
6
BYLAYER
10
196.8056835105
20
121.3600662572
11
196.8056835105
21
120.1600662572
0
LINE
5
434
100
AcDbEntity
8
0
100
AcDbLine
62
7
6
BYLAYER
10
196.8056835105
20
120.1600662572
11
196.8056835105
21
112.1600662572
0
LINE
5
435
100
AcDbEntity
8
0
100
AcDbLine
62
7
6
BYLAYER
10
203.6065678994
20
120.1600662572
11
203.6065678994
21
112.1600662572
0
LINE
5
436
100
AcDbEntity
8
0
100
AcDbLine
62
7
6
BYLAYER
10
206.3065678994
20
120.1600662572
11
206.3065678994
21
112.1600662572
0
LINE
5
437
100
AcDbEntity
8
0
100
AcDbLine
62
7
6
BYLAYER
10
209.9658596347
20
120.1600662572
11
209.9658596347
21
112.1600662572
0
LINE
5
438
100
AcDbEntity
8
0
100
AcDbLine
62
7
6
BYLAYER
10
210.3413744765
20
180.0852554602
11
207.3142430391
21
148.6472934691
0
LINE
5
439
100
AcDbEntity
8
0
100
AcDbLine
62
7
6
BYLAYER
10
213.7257215509
20
179.7593799016
11
210.6985901135
21
148.3214179105
0
LINE
5
43A
100
AcDbEntity
8
0
100
AcDbLine
62
7
6
BYLAYER
10
223.4582172200
20
176.3133608229
11
218.2383149501
21
182.6404944782
0
LINE
5
43B
100
AcDbEntity
8
0
100
AcDbLine
62
7
6
BYLAYER
10
238.3283427176
20
189.9562845449
11
236.8965779951
21
175.0247725726
0
LINE
5
43C
100
AcDbEntity
8
0
100
AcDbLine
62
7
6
BYLAYER
10
174.8267018765
20
104.5600662572
11
134.8267018765
21
104.5600662572
0
LINE
5
43D
100
AcDbEntity
8
0
100
AcDbLine
62
7
6
BYLAYER
10
214.0302369061
20
112.1600662572
11
174.8267018765
21
112.1600662572
0
LINE
5
43E
100
AcDbEntity
8
0
100
AcDbLine
62
7
6
BYLAYER
10
276.4757433095
20
124.5881445111
11
281.9288116027
21
115.2689404217
0
LINE
5
43F
100
AcDbEntity
8
0
100
AcDbLine
62
7
6
BYLAYER
10
281.9288116027
20
115.2689404217
11
288.9288116027
21
115.2689404217
0
LINE
5
440
100
AcDbEntity
8
0
100
AcDbLine
62
7
6
BYLAYER
10
214.0302369061
20
120.1600662572
11
196.8056835105
21
120.1600662572
0
LINE
5
441
100
AcDbEntity
8
0
100
AcDbLine
62
7
6
BYLAYER
10
204.6375822478
20
121.3600662572
11
196.8056835105
21
121.3600662572
0
LINE
5
442
100
AcDbEntity
8
0
100
AcDbLine
62
7
6
BYLAYER
10
204.6375822478
20
124.7600662572
11
174.8267018765
21
124.7600662572
0
LINE
5
443
100
AcDbEntity
8
0
100
AcDbLine
62
7
6
BYLAYER
10
174.8267018765
20
132.3600662572
11
134.8267018765
21
132.3600662572
0
LINE
5
444
100
AcDbEntity
8
0
100
AcDbLine
62
7
6
BYLAYER
10
207.6187368602
20
151.8095827101
11
211.0030839347
21
151.4837071515
0
LINE
5
445
100
AcDbEntity
8
0
100
AcDbLine
62
7
6
BYLAYER
10
313.2990207866
20
147.3635024538
11
292.6681050214
21
150.1077973510
0
LINE
5
446
100
AcDbEntity
8
0
100
AcDbLine
62
7
6
BYLAYER
10
306.9666825665
20
152.8463386421
11
306.8084539889
21
151.6568161676
0
LINE
5
447
100
AcDbEntity
8
0
100
AcDbLine
62
7
6
BYLAYER
10
218.5628482872
20
186.0249705253
11
224.8899819425
21
191.2448727952
0
LINE
5
448
100
AcDbEntity
8
0
100
AcDbLine
62
7
6
BYLAYER
10
236.8965779951
20
175.0247725726
11
223.4582172200
21
176.3133608229
0
LINE
5
449
100
AcDbEntity
8
0
100
AcDbLine
62
7
6
BYLAYER
10
218.2383149501
20
182.6404944782
11
217.3255172445
21
182.7280215522
0
LINE
5
44A
100
AcDbEntity
8
0
100
AcDbLine
62
7
6
BYLAYER
10
208.3082112813
20
158.9700483493
11
211.6925583557
21
158.6441727908
0
LINE
5
44B
100
AcDbEntity
8
0
100
AcDbLine
62
7
6
BYLAYER
10
209.0375974580
20
166.5450134189
11
212.4219445324
21
166.2191378603
0
LINE
5
44C
100
AcDbEntity
8
0
100
AcDbLine
62
7
6
BYLAYER
10
209.6894333400
20
173.3145878851
11
213.0737804145
21
172.9887123266
0
LINE
5
44D
100
AcDbEntity
8
0
100
AcDbLine
62
7
6
BYLAYER
10
313.7473350899
20
150.7338161315
11
306.8084539889
21
151.6568161676
0
LINE
5
44E
100
AcDbEntity
8
0
100
AcDbLine
62
7
6
BYLAYER
10
308.7357352308
20
152.6110217878
11
306.9666825665
21
152.8463386421
0
LINE
5
44F
100
AcDbEntity
8
0
100
AcDbLine
62
7
6
BYLAYER
10
309.1840495340
20
155.9813354654
11
293.7229622056
21
158.0379471807
0
LINE
5
450
100
AcDbEntity
8
0
100
AcDbLine
62
7
6
BYLAYER
10
381.2303267341
20
161.7317270571
11
367.8481988966
21
163.5117985554
0
LINE
5
451
100
AcDbEntity
8
0
100
AcDbLine
62
7
6
BYLAYER
10
362.8636117286
20
170.0259286405
11
339.4895829442
21
173.1351085067
0
LINE
5
452
100
AcDbEntity
8
0
100
AcDbLine
62
7
6
BYLAYER
10
363.4789178723
20
169.7464180458
11
372.3421876494
21
168.1835844467
0
LINE
5
453
100
AcDbEntity
8
0
100
AcDbLine
62
7
6
BYLAYER
10
320.4840659668
20
174.2006203944
11
313.6604076908
21
183.1248349138
0
LINE
5
454
100
AcDbEntity
8
0
100
AcDbLine
62
7
6
BYLAYER
10
341.5419114153
20
176.2920585147
11
341.0935971121
21
172.9217448371
0
LINE
5
455
100
AcDbEntity
8
0
100
AcDbLine
62
7
6
BYLAYER
10
341.3825306255
20
182.9845321229
11
340.7921268214
21
179.6361857627
0
LINE
5
456
100
AcDbEntity
8
0
100
AcDbLine
62
7
6
BYLAYER
10
313.6604076908
20
183.1248349138
11
306.6604076908
21
183.1248349138
0
LINE
5
457
100
AcDbEntity
8
0
100
AcDbLine
62
7
6
BYLAYER
10
218.5628482872
20
186.0249705253
11
217.6500505816
21
186.1124975993
0
LINE
5
458
100
AcDbEntity
8
0
100
AcDbLine
62
7
6
BYLAYER
10
224.8899819425
20
191.2448727952
11
238.3283427176
21
189.9562845449
0
LINE
5
459
100
AcDbEntity
8
0
100
AcDbLine
62
7
6
BYLAYER
10
363.3119260319
20
173.3962423181
11
339.9378972475
21
176.5054221843
0
LINE
5
45A
100
AcDbEntity
8
0
100
AcDbLine
62
7
6
BYLAYER
10
369.8260561169
20
178.3808294861
11
383.2081839545
21
176.6007579878
0
LINE
5
45B
100
AcDbEntity
8
0
100
AcDbLine
62
7
6
BYLAYER
10
358.7741923353
20
176.4654624437
11
337.3022752375
21
180.2515407556
0
LINE
5
45C
100
AcDbEntity
8
0
100
AcDbLine
62
7
6
BYLAYER
10
359.3645961393
20
179.8138088039
11
337.8926790416
21
183.5998871158
0
LINE
5
45D
100
AcDbEntity
8
0
100
AcDbLine
62
7
6
BYLAYER
10
374.9469103144
20
182.9557007419
11
366.0836405373
21
184.5185343409
0
LINE
5
45E
100
AcDbEntity
8
0
100
AcDbLine
62
7
6
BYLAYER
10
367.8481988966
20
163.5117985554
11
362.8636117286
21
170.0259286405
0
LINE
5
45F
100
AcDbEntity
8
0
100
AcDbLine
62
7
6
BYLAYER
10
358.7741923353
20
176.4654624437
11
363.4789178723
21
169.7464180458
0
LINE
5
460
100
AcDbEntity
8
0
100
AcDbLine
62
7
6
BYLAYER
10
348.2834154376
20
175.3953132951
11
347.8351011343
21
172.0249996175
0
LINE
5
461
100
AcDbEntity
8
0
100
AcDbLine
62
7
6
BYLAYER
10
356.3721682639
20
174.3193589673
11
355.9238539606
21
170.9490452896
0
LINE
5
462
100
AcDbEntity
8
0
100
AcDbLine
62
7
6
BYLAYER
10
363.1136722861
20
173.4226137477
11
362.6653579828
21
170.0523000701
0
LINE
5
463
100
AcDbEntity
8
0
100
AcDbLine
62
7
6
BYLAYER
10
348.0800942990
20
181.8035709422
11
347.4896904949
21
178.4552245820
0
LINE
5
464
100
AcDbEntity
8
0
100
AcDbLine
62
7
6
BYLAYER
10
350.8867963951
20
181.3086736359
11
350.2963925910
21
177.9603272757
0
LINE
5
465
100
AcDbEntity
8
0
100
AcDbLine
62
7
6
BYLAYER
10
357.9710931688
20
180.0595209753
11
357.3806893648
21
176.7111746151
0
LINE
5
466
100
AcDbEntity
8
0
100
AcDbLine
62
7
6
BYLAYER
10
333.7504747006
20
173.9575508764
11
316.7948715682
21
151.9887378204
0
LINE
5
467
100
AcDbEntity
8
0
100
AcDbLine
62
7
6
BYLAYER
10
336.4420464659
20
171.8801868177
11
319.4864433335
21
149.9113737617
0
LINE
5
468
100
AcDbEntity
8
0
100
AcDbLine
62
7
6
BYLAYER
10
331.5085179757
20
181.2009728127
11
312.1905766761
21
157.1842114912
0
LINE
5
469
100
AcDbEntity
8
0
100
AcDbLine
62
7
6
BYLAYER
10
334.1578376976
20
179.0699859496
11
314.8398963981
21
155.0532246280
0
LINE
5
46A
100
AcDbEntity
8
0
100
AcDbLine
62
7
6
BYLAYER
10
381.2303267341
20
161.7317270571
11
383.2081839545
21
176.6007579878
0
LINE
5
46B
100
AcDbEntity
8
0
100
AcDbLine
62
7
6
BYLAYER
10
372.3421876494
20
168.1835844467
11
374.9469103144
21
182.9557007419
0
LINE
5
46C
100
AcDbEntity
8
0
100
AcDbLine
62
7
6
BYLAYER
10
363.3119260319
20
173.3962423181
11
369.8260561169
21
178.3808294861
0
LINE
5
46D
100
AcDbEntity
8
0
100
AcDbLine
62
7
6
BYLAYER
10
366.0836405373
20
184.5185343409
11
359.3645961393
21
179.8138088039
0
LINE
5
46E
100
AcDbEntity
8
0
100
AcDbLine
62
7
6
BYLAYER
10
285.3002466778
20
156.5811203342
11
214.8073816004
21
120.3480986239
0
LINE
5
46F
100
AcDbEntity
8
0
100
AcDbLine
62
7
6
BYLAYER
10
288.9573981805
20
149.4659785305
11
218.4645331030
21
113.2329568202
0
ARC
5
470
100
AcDbEntity
8
DEFAULT_1
100
AcDbCircle
62
7
6
BYLAYER
10
276.2987975062
20
145.1873845501
40
20.6000000000
100
AcDbArc
50
175.8174918940
51
270.4921540000
0
ARC
5
471
100
AcDbEntity
8
DEFAULT_1
100
AcDbCircle
62
7
6
BYLAYER
10
322.7913743353
20
194.6709972373
40
20.6000000000
100
AcDbArc
50
263.5690770000
51
348.6411011552
0
ARC
5
472
100
AcDbEntity
8
0
100
AcDbCircle
62
7
6
BYLAYER
10
213.9833975681
20
148.0051269272
40
6.7000000000
100
AcDbArc
50
174.5000000000
51
181.8942800237
0
ARC
5
473
100
AcDbEntity
8
0
100
AcDbCircle
62
7
6
BYLAYER
10
204.6375822478
20
128.0600662572
40
3.3000000000
100
AcDbArc
50
270.0000000000
51
1.8942800237
0
ARC
5
474
100
AcDbEntity
8
0
100
AcDbCircle
62
7
6
BYLAYER
10
213.9833975681
20
148.0051269272
40
3.3000000000
100
AcDbArc
50
174.5000000000
51
181.8942800237
0
ARC
5
475
100
AcDbEntity
8
0
100
AcDbCircle
62
7
6
BYLAYER
10
204.6375822478
20
128.0600662572
40
6.7000000000
100
AcDbArc
50
270.0000000000
51
1.8942800237
0
ARC
5
476
100
AcDbEntity
8
0
100
AcDbCircle
62
7
6
BYLAYER
10
217.0105290055
20
179.4430889183
40
6.7000000000
100
AcDbArc
50
84.5227228937
51
174.5000000000
0
ARC
5
477
100
AcDbEntity
8
0
100
AcDbCircle
62
7
6
BYLAYER
10
217.0105290055
20
179.4430889183
40
3.3000000000
100
AcDbArc
50
84.5227228937
51
174.5000000000
0
ARC
5
478
100
AcDbEntity
8
0
100
AcDbCircle
62
7
6
BYLAYER
10
291.8374049888
20
143.8628043601
40
14.3000000000
100
AcDbArc
50
82.4230770000
51
117.2029640316
0
ARC
5
479
100
AcDbEntity
8
0
100
AcDbCircle
62
7
6
BYLAYER
10
214.0302369061
20
121.8600662572
40
1.7000000000
100
AcDbArc
50
270.0000000000
51
297.2029640316
0
ARC
5
47A
100
AcDbEntity
8
0
100
AcDbCircle
62
7
6
BYLAYER
10
339.0544543557
20
169.8639217020
40
6.7000000000
100
AcDbArc
50
82.4230770000
51
142.3389204412
0
ARC
5
47B
100
AcDbEntity
8
0
100
AcDbCircle
62
7
6
BYLAYER
10
314.1824636783
20
154.0050029362
40
3.3000000000
100
AcDbArc
50
262.4230770000
51
322.3389204412
0
ARC
5
47C
100
AcDbEntity
8
0
100
AcDbCircle
62
7
6
BYLAYER
10
336.7292362512
20
177.0016751706
40
6.7000000000
100
AcDbArc
50
80.0000000000
51
141.1884543957
0
ARC
5
47D
100
AcDbEntity
8
0
100
AcDbCircle
62
7
6
BYLAYER
10
309.6191781225
20
159.2525222701
40
3.3000000000
100
AcDbArc
50
262.4230770000
51
321.1884543957
0
ARC
5
47E
100
AcDbEntity
8
0
100
AcDbCircle
62
7
6
BYLAYER
10
336.7292362512
20
177.0016751706
40
3.3000000000
100
AcDbArc
50
80.0000000000
51
141.1884543957
0
ARC
5
47F
100
AcDbEntity
8
0
100
AcDbCircle
62
7
6
BYLAYER
10
309.6191781225
20
159.2525222701
40
6.7000000000
100
AcDbArc
50
262.4230770000
51
321.1884543957
0
ARC
5
480
100
AcDbEntity
8
0
100
AcDbCircle
62
7
6
BYLAYER
10
339.0544543557
20
169.8639217020
40
3.3000000000
100
AcDbArc
50
82.4230770000
51
142.3389204412
0
ARC
5
481
100
AcDbEntity
8
0
100
AcDbCircle
62
7
6
BYLAYER
10
314.1824636783
20
154.0050029362
40
6.7000000000
100
AcDbArc
50
262.4230770000
51
322.3389204412
0
ARC
5
482
100
AcDbEntity
8
0
100
AcDbCircle
62
7
6
BYLAYER
10
291.8374049888
20
143.8628043601
40
6.3000000000
100
AcDbArc
50
82.4230770000
51
117.2029640316
0
ARC
5
483
100
AcDbEntity
8
0
100
AcDbCircle
62
7
6
BYLAYER
10
214.0302369061
20
121.8600662572
40
9.7000000000
100
AcDbArc
50
270.0000000000
51
297.2029640316
0
SPLINE
5
484
100
AcDbEntity
8
0
100
AcDbSpline
62
7
6
BYLAYER
70
0
71
3
72
9
73
5
74
3
42
0.0000001000
43
0.0000001000
44
0.0000000001
40
0.0000000000
40
0.0000000000
40
0.0000000000
40
0.0000000000
40
0.1469960752
40
1.0000000000
40
1.0000000000
40
1.0000000000
40
1.0000000000
10
53.1143140524
20
196.7554976031
30
0.0000000000
10
53.1681902520
20
196.7720211310
30
0.0000000000
10
53.5414794794
20
196.8544966477
30
0.0000000000
10
53.9425885170
20
196.7044219786
30
0.0000000000
10
54.2190602339
20
196.5334375149
30
0.0000000000
11
53.1143140524
21
196.7554976031
31
0.0000000000
11
53.2785354808
21
196.7912433769
31
0.0000000000
11
54.2190602339
21
196.5334375149
31
0.0000000000
0
SPLINE
5
485
100
AcDbEntity
8
0
100
AcDbSpline
62
7
6
BYLAYER
70
0
71
3
72
9
73
5
74
3
42
0.0000001000
43
0.0000001000
44
0.0000000001
40
0.0000000000
40
0.0000000000
40
0.0000000000
40
0.0000000000
40
0.3793988870
40
1.0000000000
40
1.0000000000
40
1.0000000000
40
1.0000000000
10
48.1501850757
20
183.2318640935
30
0.0000000000
10
48.3577556070
20
183.2955248102
30
0.0000000000
10
48.8613140439
20
183.6557135045
30
0.0000000000
10
49.0542052051
20
184.2128554005
30
0.0000000000
10
49.1320525228
20
184.5619763381
30
0.0000000000
11
48.1501850757
21
183.2318640935
31
0.0000000000
11
48.6951360883
21
183.5971853259
31
0.0000000000
11
49.1320525228
21
184.5619763381
31
0.0000000000
0
SPLINE
5
486
100
AcDbEntity
8
0
100
AcDbSpline
62
7
6
BYLAYER
70
0
71
3
72
8
73
4
74
2
42
0.0000001000
43
0.0000001000
44
0.0000000001
40
0.0000000000
40
0.0000000000
40
0.0000000000
40
0.0000000000
40
1.0000000000
40
1.0000000000
40
1.0000000000
40
1.0000000000
10
49.1320525228
20
184.5619763381
30
0.0000000000
10
49.2342354596
20
185.0202349374
30
0.0000000000
10
49.2642942597
20
185.4842792579
30
0.0000000000
10
49.2474828504
20
185.9473733835
30
0.0000000000
11
49.1320525228
21
184.5619763381
31
0.0000000000
11
49.2474828504
21
185.9473733835
31
0.0000000000
0
SPLINE
5
487
100
AcDbEntity
8
0
100
AcDbSpline
62
7
6
BYLAYER
70
0
71
3
72
8
73
4
74
2
42
0.0000001000
43
0.0000001000
44
0.0000000001
40
0.0000000000
40
0.0000000000
40
0.0000000000
40
0.0000000000
40
1.0000000000
40
1.0000000000
40
1.0000000000
40
1.0000000000
10
46.0131710528
20
187.0914702433
30
0.0000000000
10
46.0132346479
20
187.0417447304
30
0.0000000000
10
46.0188327849
20
186.9925732901
30
0.0000000000
10
46.0305720150
20
186.9455413580
30
0.0000000000
11
46.0131710528
21
187.0914702433
31
0.0000000000
11
46.0305720150
21
186.9455413580
31
0.0000000000
0
SPLINE
5
488
100
AcDbEntity
8
0
100
AcDbSpline
62
7
6
BYLAYER
70
0
71
3
72
9
73
5
74
3
42
0.0000001000
43
0.0000001000
44
0.0000000001
40
0.0000000000
40
0.0000000000
40
0.0000000000
40
0.0000000000
40
0.8578193284
40
1.0000000000
40
1.0000000000
40
1.0000000000
40
1.0000000000
10
46.0305720150
20
186.9455413580
30
0.0000000000
10
46.0341223308
20
186.9313174088
30
0.0000000000
10
46.0389158934
20
186.9149640128
30
0.0000000000
10
46.0444955809
20
186.8989361518
30
0.0000000000
10
46.0453046018
20
186.8966638601
30
0.0000000000
11
46.0305720150
21
186.9455413580
31
0.0000000000
11
46.0429248253
21
186.9035004367
31
0.0000000000
11
46.0453046018
21
186.8966638601
31
0.0000000000
0
SPLINE
5
489
100
AcDbEntity
8
0
100
AcDbSpline
62
7
6
BYLAYER
70
0
71
3
72
8
73
4
74
2
42
0.0000001000
43
0.0000001000
44
0.0000000001
40
0.0000000000
40
0.0000000000
40
0.0000000000
40
0.0000000000
40
1.0000000000
40
1.0000000000
40
1.0000000000
40
1.0000000000
10
46.0453046018
20
186.8966638601
30
0.0000000000
10
46.1164921873
20
186.6967197389
30
0.0000000000
10
46.3092170342
20
186.5475694780
30
0.0000000000
10
46.4908639564
20
186.4352295904
30
0.0000000000
11
46.0453046018
21
186.8966638601
31
0.0000000000
11
46.4908639564
21
186.4352295904
31
0.0000000000
0
SPLINE
5
48A
100
AcDbEntity
8
0
100
AcDbSpline
62
7
6
BYLAYER
70
0
71
3
72
8
73
4
74
2
42
0.0000001000
43
0.0000001000
44
0.0000000001
40
0.0000000000
40
0.0000000000
40
0.0000000000
40
0.0000000000
40
1.0000000000
40
1.0000000000
40
1.0000000000
40
1.0000000000
10
140.5681616506
20
259.7252622605
30
0.0000000000
10
140.7117329723
20
259.5160658132
30
0.0000000000
10
140.8284809125
20
259.2882065777
30
0.0000000000
10
140.9175743587
20
259.0503585842
30
0.0000000000
11
140.5681616506
21
259.7252622605
31
0.0000000000
11
140.9175743587
21
259.0503585842
31
0.0000000000
0
SPLINE
5
48B
100
AcDbEntity
8
0
100
AcDbSpline
62
7
6
BYLAYER
70
0
71
3
72
8
73
4
74
2
42
0.0000001000
43
0.0000001000
44
0.0000000001
40
0.0000000000
40
0.0000000000
40
0.0000000000
40
0.0000000000
40
1.0000000000
40
1.0000000000
40
1.0000000000
40
1.0000000000
10
140.9175743587
20
259.0503585842
30
0.0000000000
10
141.0561956147
20
258.6802888538
30
0.0000000000
10
141.1278694483
20
258.2860378238
30
0.0000000000
10
141.1421205778
20
257.8934702353
30
0.0000000000
11
140.9175743587
21
259.0503585842
31
0.0000000000
11
141.1421205778
21
257.8934702353
31
0.0000000000
0
SPLINE
5
48C
100
AcDbEntity
8
0
100
AcDbSpline
62
7
6
BYLAYER
70
0
71
3
72
8
73
4
74
2
42
0.0000001000
43
0.0000001000
44
0.0000000001
40
0.0000000000
40
0.0000000000
40
0.0000000000
40
0.0000000000
40
1.0000000000
40
1.0000000000
40
1.0000000000
40
1.0000000000
10
48.9943502954
20
192.9202688427
30
0.0000000000
10
48.9755610733
20
193.4378446302
30
0.0000000000
10
49.0091562028
20
193.9564824002
30
0.0000000000
10
49.1233606617
20
194.4686537758
30
0.0000000000
11
48.9943502954
21
192.9202688427
31
0.0000000000
11
49.1233606617
21
194.4686537758
31
0.0000000000
0
SPLINE
5
48D
100
AcDbEntity
8
0
100
AcDbSpline
62
7
6
BYLAYER
70
0
71
3
72
9
73
5
74
3
42
0.0000001000
43
0.0000001000
44
0.0000000001
40
0.0000000000
40
0.0000000000
40
0.0000000000
40
0.0000000000
40
0.6206011130
40
1.0000000000
40
1.0000000000
40
1.0000000000
40
1.0000000000
10
49.1233606617
20
194.4686537758
30
0.0000000000
10
49.2103664872
20
194.8588477649
30
0.0000000000
10
49.4259507262
20
195.4815357663
30
0.0000000000
10
49.9887513322
20
195.8840996012
30
0.0000000000
10
50.2207419260
20
195.9552498139
30
0.0000000000
11
49.1233606617
21
194.4686537758
31
0.0000000000
11
49.6116790296
21
195.5469496130
31
0.0000000000
11
50.2207419260
21
195.9552498139
31
0.0000000000
0
SPLINE
5
48E
100
AcDbEntity
8
0
100
AcDbSpline
62
7
6
BYLAYER
70
0
71
3
72
8
73
4
74
2
42
0.0000001000
43
0.0000001000
44
0.0000000001
40
0.0000000000
40
0.0000000000
40
0.0000000000
40
0.0000000000
40
1.0000000000
40
1.0000000000
40
1.0000000000
40
1.0000000000
10
138.9811111107
20
259.7077547319
30
0.0000000000
10
139.3534853755
20
259.8034591813
30
0.0000000000
10
139.7444153866
20
259.8433005961
30
0.0000000000
10
140.1299415070
20
259.8106436666
30
0.0000000000
11
138.9811111107
21
259.7077547319
31
0.0000000000
11
140.1299415070
21
259.8106436666
31
0.0000000000
0
SPLINE
5
48F
100
AcDbEntity
8
0
100
AcDbSpline
62
7
6
BYLAYER
70
0
71
3
72
9
73
5
74
3
42
0.0000001000
43
0.0000001000
44
0.0000000001
40
0.0000000000
40
0.0000000000
40
0.0000000000
40
0.0000000000
40
0.7487213325
40
1.0000000000
40
1.0000000000
40
1.0000000000
40
1.0000000000
10
140.1299415070
20
259.8106436666
30
0.0000000000
10
140.4939612590
20
259.7798084865
30
0.0000000000
10
140.9737151215
20
259.6522970005
30
0.0000000000
10
141.3960098327
20
259.4059862277
30
0.0000000000
10
141.4976313580
20
259.3373531431
30
0.0000000000
11
140.1299415070
21
259.8106436666
31
0.0000000000
11
141.1801545016
21
259.5222704112
31
0.0000000000
11
141.4976313580
21
259.3373531431
31
0.0000000000
0
SPLINE
5
490
100
AcDbEntity
8
0
100
AcDbSpline
62
7
6
BYLAYER
70
0
71
3
72
11
73
7
74
5
42
0.0000001000
43
0.0000001000
44
0.0000000001
40
0.0000000000
40
0.0000000000
40
0.0000000000
40
0.0000000000
40
0.2303938413
40
0.4797399158
40
0.7399774657
40
1.0000000000
40
1.0000000000
40
1.0000000000
40
1.0000000000
10
47.8676934428
20
181.0333285578
30
0.0000000000
10
47.4101620164
20
180.8809844565
30
0.0000000000
10
46.5090641673
20
180.3985604333
30
0.0000000000
10
45.3781484545
20
179.3186336615
30
0.0000000000
10
44.4990416995
20
177.9510893532
30
0.0000000000
10
44.1291742672
20
176.9173479251
30
0.0000000000
10
44.0093689669
20
176.3844895859
30
0.0000000000
11
47.8676934428
21
181.0333285578
31
0.0000000000
11
46.5833876810
21
180.3674064207
31
0.0000000000
11
45.4418928659
21
179.2957867474
31
0.0000000000
11
44.5549464633
21
177.9233671379
31
0.0000000000
11
44.0093689669
21
176.3844895859
31
0.0000000000
0
SPLINE
5
491
100
AcDbEntity
8
0
100
AcDbSpline
62
7
6
BYLAYER
70
0
71
3
72
8
73
4
74
2
42
0.0000001000
43
0.0000001000
44
0.0000000001
40
0.0000000000
40
0.0000000000
40
0.0000000000
40
0.0000000000
40
1.0000000000
40
1.0000000000
40
1.0000000000
40
1.0000000000
10
44.0093689669
20
176.3844895859
30
0.0000000000
10
43.9063228223
20
175.9261709863
30
0.0000000000
10
43.8514018156
20
175.4558667893
30
0.0000000000
10
43.8550914373
20
174.9874629451
30
0.0000000000
11
44.0093689669
21
176.3844895859
31
0.0000000000
11
43.8550914373
21
174.9874629451
31
0.0000000000
0
SPLINE
5
492
100
AcDbEntity
8
0
100
AcDbSpline
62
7
6
BYLAYER
70
0
71
3
72
8
73
4
74
2
42
0.0000001000
43
0.0000001000
44
0.0000000001
40
0.0000000000
40
0.0000000000
40
0.0000000000
40
0.0000000000
40
1.0000000000
40
1.0000000000
40
1.0000000000
40
1.0000000000
10
43.8550914373
20
174.9874629451
30
0.0000000000
10
43.8555056744
20
174.9348748424
30
0.0000000000
10
43.8566586835
20
174.8823106931
30
0.0000000000
10
43.8585653031
20
174.8297901480
30
0.0000000000
11
43.8550914373
21
174.9874629451
31
0.0000000000
11
43.8585653031
21
174.8297901480
31
0.0000000000
0
SPLINE
5
493
100
AcDbEntity
8
0
100
AcDbSpline
62
7
6
BYLAYER
70
0
71
3
72
10
73
6
74
4
42
0.0000001000
43
0.0000001000
44
0.0000000001
40
0.0000000000
40
0.0000000000
40
0.0000000000
40
0.0000000000
40
0.3358431970
40
0.6861216422
40
1.0000000000
40
1.0000000000
40
1.0000000000
40
1.0000000000
10
65.0445264688
20
188.3899165181
30
0.0000000000
10
65.0637443280
20
187.8605333130
30
0.0000000000
10
64.9103733278
20
186.7676450302
30
0.0000000000
10
64.2440899747
20
185.3158809339
30
0.0000000000
10
63.5594972058
20
184.5061593948
30
0.0000000000
10
63.1833728943
20
184.1796295048
30
0.0000000000
11
65.0445264688
21
188.3899165181
31
0.0000000000
11
64.8408169666
21
186.8138309956
31
0.0000000000
11
64.1525027125
21
185.3060051440
31
0.0000000000
11
63.1833728943
21
184.1796295048
31
0.0000000000
0
SPLINE
5
494
100
AcDbEntity
8
0
100
AcDbSpline
62
7
6
BYLAYER
70
0
71
3
72
8
73
4
74
2
42
0.0000001000
43
0.0000001000
44
0.0000000001
40
0.0000000000
40
0.0000000000
40
0.0000000000
40
0.0000000000
40
1.0000000000
40
1.0000000000
40
1.0000000000
40
1.0000000000
10
63.1833728943
20
184.1796295048
30
0.0000000000
10
63.1507678900
20
184.1513236810
30
0.0000000000
10
63.1177677081
20
184.1234397409
30
0.0000000000
10
63.0843733122
20
184.0959917810
30
0.0000000000
11
63.1833728943
21
184.1796295048
31
0.0000000000
11
63.0843733122
21
184.0959917810
31
0.0000000000
0
SPLINE
5
495
100
AcDbEntity
8
0
100
AcDbSpline
62
7
6
BYLAYER
70
0
71
3
72
8
73
4
74
2
42
0.0000001000
43
0.0000001000
44
0.0000000001
40
0.0000000000
40
0.0000000000
40
0.0000000000
40
0.0000000000
40
1.0000000000
40
1.0000000000
40
1.0000000000
40
1.0000000000
10
63.0843733122
20
184.0959917810
30
0.0000000000
10
62.7012398003
20
183.7810816584
30
0.0000000000
10
62.2662161182
20
183.5235593693
30
0.0000000000
10
61.7990417843
20
183.3680044720
30
0.0000000000
11
63.0843733122
21
184.0959917810
31
0.0000000000
11
61.7990417843
21
183.3680044720
31
0.0000000000
0
SPLINE
5
496
100
AcDbEntity
8
0
100
AcDbSpline
62
7
6
BYLAYER
70
0
71
3
72
10
73
6
74
4
42
0.0000001000
43
0.0000001000
44
0.0000000001
40
0.0000000000
40
0.0000000000
40
0.0000000000
40
0.0000000000
40
0.3202147498
40
0.6535753104
40
1.0000000000
40
1.0000000000
40
1.0000000000
40
1.0000000000
10
55.8838559011
20
195.5038414410
30
0.0000000000
10
55.9091708267
20
195.4881853767
30
0.0000000000
10
55.9615822216
20
195.4574177204
30
0.0000000000
10
56.0436498915
20
195.4137217830
30
0.0000000000
10
56.1005404334
20
195.3861824091
30
0.0000000000
10
56.1297655395
20
195.3726613198
30
0.0000000000
11
55.8838559011
21
195.5038414410
31
0.0000000000
11
55.9608223313
21
195.4585668463
31
0.0000000000
11
56.0428427977
21
195.4148131537
31
0.0000000000
11
56.1297655395
21
195.3726613198
31
0.0000000000
0
SPLINE
5
497
100
AcDbEntity
8
0
100
AcDbSpline
62
7
6
BYLAYER
70
0
71
3
72
8
73
4
74
2
42
0.0000001000
43
0.0000001000
44
0.0000000001
40
0.0000000000
40
0.0000000000
40
0.0000000000
40
0.0000000000
40
1.0000000000
40
1.0000000000
40
1.0000000000
40
1.0000000000
10
141.3075044687
20
260.2792335167
30
0.0000000000
10
141.1455289450
20
260.2411380359
30
0.0000000000
10
140.9854638423
20
260.1937230779
30
0.0000000000
10
140.8280714561
20
260.1378198890
30
0.0000000000
11
141.3075044687
21
260.2792335167
31
0.0000000000
11
140.8280714561
21
260.1378198890
31
0.0000000000
0
SPLINE
5
498
100
AcDbEntity
8
0
100
AcDbSpline
62
7
6
BYLAYER
70
0
71
3
72
8
73
4
74
2
42
0.0000001000
43
0.0000001000
44
0.0000000001
40
0.0000000000
40
0.0000000000
40
0.0000000000
40
0.0000000000
40
1.0000000000
40
1.0000000000
40
1.0000000000
40
1.0000000000
10
140.2526247233
20
259.8904019414
30
0.0000000000
10
140.0629210517
20
259.7942384363
30
0.0000000000
10
139.8790506041
20
259.6860834027
30
0.0000000000
10
139.7025698853
20
259.5676341328
30
0.0000000000
11
140.2526247233
21
259.8904019414
31
0.0000000000
11
139.7025698853
21
259.5676341328
31
0.0000000000
0
SPLINE
5
499
100
AcDbEntity
8
0
100
AcDbSpline
62
7
6
BYLAYER
70
0
71
3
72
8
73
4
74
2
42
0.0000001000
43
0.0000001000
44
0.0000000001
40
0.0000000000
40
0.0000000000
40
0.0000000000
40
0.0000000000
40
1.0000000000
40
1.0000000000
40
1.0000000000
40
1.0000000000
10
139.7025698853
20
259.5676341328
30
0.0000000000
10
139.6735231071
20
259.5481386905
30
0.0000000000
10
139.6446765131
20
259.5283643821
30
0.0000000000
10
139.6160328490
20
259.5083162919
30
0.0000000000
11
139.7025698853
21
259.5676341328
31
0.0000000000
11
139.6160328490
21
259.5083162919
31
0.0000000000
0
SPLINE
5
49A
100
AcDbEntity
8
0
100
AcDbSpline
62
7
6
BYLAYER
70
0
71
3
72
8
73
4
74
2
42
0.0000001000
43
0.0000001000
44
0.0000000001
40
0.0000000000
40
0.0000000000
40
0.0000000000
40
0.0000000000
40
1.0000000000
40
1.0000000000
40
1.0000000000
40
1.0000000000
10
139.6160328490
20
259.5083162919
30
0.0000000000
10
139.1387996328
20
259.1742942692
30
0.0000000000
10
138.7178977941
20
258.7642730543
30
0.0000000000
10
138.3660261040
20
258.3017660731
30
0.0000000000
11
139.6160328490
21
259.5083162919
31
0.0000000000
11
138.3660261040
21
258.3017660731
31
0.0000000000
0
SPLINE
5
49B
100
AcDbEntity
8
0
100
AcDbSpline
62
7
6
BYLAYER
70
0
71
3
72
9
73
5
74
3
42
0.0000001000
43
0.0000001000
44
0.0000000001
40
0.0000000000
40
0.0000000000
40
0.0000000000
40
0.0000000000
40
0.8370876124
40
1.0000000000
40
1.0000000000
40
1.0000000000
40
1.0000000000
10
138.3660261040
20
258.3017660731
30
0.0000000000
10
137.9926285568
20
257.8109650874
30
0.0000000000
10
137.6394239770
20
257.1540388196
30
0.0000000000
10
137.4289985639
20
256.4445817862
30
0.0000000000
10
137.3987229282
20
256.3279568354
30
0.0000000000
11
138.3660261040
21
258.3017660731
31
0.0000000000
11
137.5013497996
21
256.6743462747
31
0.0000000000
11
137.3987229282
21
256.3279568354
31
0.0000000000
0
SPLINE
5
49C
100
AcDbEntity
8
0
100
AcDbSpline
62
7
6
BYLAYER
70
0
71
3
72
8
73
4
74
2
42
0.0000001000
43
0.0000001000
44
0.0000000001
40
0.0000000000
40
0.0000000000
40
0.0000000000
40
0.0000000000
40
1.0000000000
40
1.0000000000
40
1.0000000000
40
1.0000000000
10
137.3987229282
20
256.3279568354
30
0.0000000000
10
137.2803712045
20
255.8720534785
30
0.0000000000
10
137.2232255532
20
255.4001717320
30
0.0000000000
10
137.2401801011
20
254.9331346492
30
0.0000000000
11
137.3987229282
21
256.3279568354
31
0.0000000000
11
137.2401801011
21
254.9331346492
31
0.0000000000
0
SPLINE
5
49D
100
AcDbEntity
8
0
100
AcDbSpline
62
7
6
BYLAYER
70
0
71
3
72
12
73
8
74
6
42
0.0000001000
43
0.0000001000
44
0.0000000001
40
0.0000000000
40
0.0000000000
40
0.0000000000
40
0.0000000000
40
0.1954379085
40
0.3995997441
40
0.6061922367
40
0.8082066634
40
1.0000000000
40
1.0000000000
40
1.0000000000
40
1.0000000000
10
141.4135478642
20
250.4166204393
30
0.0000000000
10
141.4287528962
20
249.9977762536
30
0.0000000000
10
141.3271683690
20
249.1331737781
30
0.0000000000
10
140.8368562788
20
247.9148996080
30
0.0000000000
10
140.0518583679
20
246.8434510402
30
0.0000000000
10
139.0451139504
20
246.0190173634
30
0.0000000000
10
138.2579714041
20
245.6750752672
30
0.0000000000
10
137.8596135370
20
245.5726927346
30
0.0000000000
11
141.4135478642
21
250.4166204393
31
0.0000000000
11
141.2763721078
21
249.1667654014
31
0.0000000000
11
140.7909020947
21
247.9462881938
31
0.0000000000
11
140.0046590122
21
246.8746576291
31
0.0000000000
11
138.9946058114
21
246.0567723736
31
0.0000000000
11
137.8596135370
21
245.5726927346
31
0.0000000000
0
SPLINE
5
49E
100
AcDbEntity
8
0
100
AcDbSpline
62
7
6
BYLAYER
70
0
71
3
72
10
73
6
74
4
42
0.0000001000
43
0.0000001000
44
0.0000000001
40
0.0000000000
40
0.0000000000
40
0.0000000000
40
0.0000000000
40
0.2347646185
40
0.5663476561
40
1.0000000000
40
1.0000000000
40
1.0000000000
40
1.0000000000
10
125.9949281337
20
232.0514028952
30
0.0000000000
10
125.9827131265
20
231.8855107157
30
0.0000000000
10
125.7522700713
20
231.5132329813
30
0.0000000000
10
125.1385311517
20
231.1466979081
30
0.0000000000
10
124.6221555292
20
230.9692120490
30
0.0000000000
10
124.3245648587
20
230.8927278396
30
0.0000000000
11
125.9949281337
21
232.0514028952
31
0.0000000000
11
125.7715355410
21
231.6051736444
31
0.0000000000
11
125.1924029165
21
231.2034487406
31
0.0000000000
11
124.3245648587
21
230.8927278396
31
0.0000000000
0
SPLINE
5
49F
100
AcDbEntity
8
0
100
AcDbSpline
62
7
6
BYLAYER
70
0
71
3
72
10
73
6
74
4
42
0.0000001000
43
0.0000001000
44
0.0000000001
40
0.0000000000
40
0.0000000000
40
0.0000000000
40
0.0000000000
40
0.4352294570
40
0.7677686515
40
1.0000000000
40
1.0000000000
40
1.0000000000
40
1.0000000000
10
130.5435357844
20
246.7969945126
30
0.0000000000
10
129.8982158726
20
246.6452199001
30
0.0000000000
10
128.7769546401
20
246.2837959703
30
0.0000000000
10
127.4415999408
20
245.5275115660
30
0.0000000000
10
126.9289227708
20
244.7359968386
30
0.0000000000
10
126.9029473551
20
244.3832243627
30
0.0000000000
11
130.5435357844
21
246.7969945126
31
0.0000000000
11
128.6578393186
21
246.1650065907
31
0.0000000000
11
127.3913762457
21
245.3253206935
31
0.0000000000
11
126.9029473551
21
244.3832243627
31
0.0000000000
0
SPLINE
5
4A0
100
AcDbEntity
8
0
100
AcDbSpline
62
7
6
BYLAYER
70
0
71
3
72
10
73
6
74
4
42
0.0000001000
43
0.0000001000
44
0.0000000001
40
0.0000000000
40
0.0000000000
40
0.0000000000
40
0.0000000000
40
0.2331214751
40
0.5639835637
40
1.0000000000
40
1.0000000000
40
1.0000000000
40
1.0000000000
10
132.7979584549
20
231.7143049668
30
0.0000000000
10
132.7940302720
20
231.5472269719
30
0.0000000000
10
132.5726251042
20
231.1620093439
30
0.0000000000
10
131.9520391091
20
230.7879431251
30
0.0000000000
10
131.4290479579
20
230.6069403865
30
0.0000000000
10
131.1263077879
20
230.5291326967
30
0.0000000000
11
132.7979584549
21
231.7143049668
31
0.0000000000
11
132.5890241851
21
231.2585409335
31
0.0000000000
11
132.0085334739
21
230.8469827607
31
0.0000000000
11
131.1263077879
21
230.5291326967
31
0.0000000000
0
SPLINE
5
4A1
100
AcDbEntity
8
0
100
AcDbSpline
62
7
6
BYLAYER
70
0
71
3
72
11
73
7
74
5
42
0.0000001000
43
0.0000001000
44
0.0000000001
40
0.0000000000
40
0.0000000000
40
0.0000000000
40
0.0000000000
40
0.3351318561
40
0.6140879540
40
0.8312123407
40
1.0000000000
40
1.0000000000
40
1.0000000000
40
1.0000000000
10
136.4526660629
20
245.2110911257
30
0.0000000000
10
135.9786419237
20
245.0892614948
30
0.0000000000
10
135.1206647188
20
244.8152840919
30
0.0000000000
10
134.0365690309
20
244.2545300859
30
0.0000000000
10
133.2917305354
20
243.6070110275
30
0.0000000000
10
133.0645025037
20
243.0512632064
30
0.0000000000
10
133.0587086482
20
242.8048322743
30
0.0000000000
11
136.4526660629
21
245.2110911257
31
0.0000000000
11
135.0591733979
21
244.7484354391
31
0.0000000000
11
133.9847815556
21
244.1658705583
31
0.0000000000
11
133.3025044864
21
243.5029866604
31
0.0000000000
11
133.0587086482
21
242.8048322743
31
0.0000000000
0
SPLINE
5
4A2
100
AcDbEntity
8
0
100
AcDbSpline
62
7
6
BYLAYER
70
0
71
3
72
10
73
6
74
4
42
0.0000001000
43
0.0000001000
44
0.0000000001
40
0.0000000000
40
0.0000000000
40
0.0000000000
40
0.0000000000
40
0.2902044183
40
0.6245718389
40
1.0000000000
40
1.0000000000
40
1.0000000000
40
1.0000000000
10
70.6086469273
20
195.1590338037
30
0.0000000000
10
70.5666569196
20
195.1228488113
30
0.0000000000
10
70.4683030112
20
195.0541766123
30
0.0000000000
10
70.2977566826
20
194.9673434129
30
0.0000000000
10
70.1707896343
20
194.9190592293
30
0.0000000000
10
70.1027536923
20
194.8964053221
30
0.0000000000
11
70.6086469273
21
195.1590338037
31
0.0000000000
11
70.4734948587
21
195.0621496038
31
0.0000000000
11
70.3034470480
21
194.9738712968
31
0.0000000000
11
70.1027536923
21
194.8964053221
31
0.0000000000
0
SPLINE
5
4A3
100
AcDbEntity
8
0
100
AcDbSpline
62
7
6
BYLAYER
70
0
71
3
72
10
73
6
74
4
42
0.0000001000
43
0.0000001000
44
0.0000000001
40
0.0000000000
40
0.0000000000
40
0.0000000000
40
0.0000000000
40
0.3819618520
40
0.7175031730
40
1.0000000000
40
1.0000000000
40
1.0000000000
40
1.0000000000
10
110.7630027490
20
227.4072511118
30
0.0000000000
10
109.9661661475
20
227.2024549822
30
0.0000000000
10
108.4852442114
20
226.7471048861
30
0.0000000000
10
106.5129803406
20
225.8687267917
30
0.0000000000
10
105.3905704589
20
225.1324419385
30
0.0000000000
10
104.9296227826
20
224.7352191450
30
0.0000000000
11
110.7630027490
21
227.4072511118
31
0.0000000000
11
108.4080845648
21
226.6680822788
31
0.0000000000
11
106.4368136775
21
225.7651239842
31
0.0000000000
11
104.9296227826
21
224.7352191450
31
0.0000000000
0
SPLINE
5
4A4
100
AcDbEntity
8
0
100
AcDbSpline
62
7
6
BYLAYER
70
0
71
3
72
11
73
7
74
5
42
0.0000001000
43
0.0000001000
44
0.0000000001
40
0.0000000000
40
0.0000000000
40
0.0000000000
40
0.0000000000
40
0.2330705224
40
0.4877314551
40
0.7492545123
40
1.0000000000
40
1.0000000000
40
1.0000000000
40
1.0000000000
10
66.8638246076
20
193.8179400806
30
0.0000000000
10
66.5890161759
20
193.7264371999
30
0.0000000000
10
66.0535187416
20
193.4094371587
30
0.0000000000
10
65.4362250676
20
192.6953663967
30
0.0000000000
10
65.0336295819
20
191.8181515169
30
0.0000000000
10
64.9434113466
20
191.1752760565
30
0.0000000000
10
64.9547159696
20
190.8638741712
30
0.0000000000
11
66.8638246076
21
193.8179400806
31
0.0000000000
11
66.1077472382
21
193.3897122518
31
0.0000000000
11
65.4794358263
21
192.6779396853
31
0.0000000000
11
65.0745450886
21
191.7909833021
31
0.0000000000
11
64.9547159696
21
190.8638741712
31
0.0000000000
0
SPLINE
5
4A5
100
AcDbEntity
8
0
100
AcDbSpline
62
7
6
BYLAYER
70
0
71
3
72
11
73
7
74
5
42
0.0000001000
43
0.0000001000
44
0.0000000001
40
0.0000000000
40
0.0000000000
40
0.0000000000
40
0.0000000000
40
0.2445390273
40
0.5004915981
40
0.7561655769
40
1.0000000000
40
1.0000000000
40
1.0000000000
40
1.0000000000
10
137.3349800724
20
252.3217349043
30
0.0000000000
10
137.3540305430
20
251.7969626561
30
0.0000000000
10
137.1790216839
20
250.7089338619
30
0.0000000000
10
136.3974839185
20
249.2553494051
30
0.0000000000
10
135.2063243297
20
248.1151213203
30
0.0000000000
10
134.2054925907
20
247.6582604754
30
0.0000000000
10
133.6957951119
20
247.5383832860
30
0.0000000000
11
137.3349800724
21
252.3217349043
31
0.0000000000
11
137.1013019211
21
250.7638087130
31
0.0000000000
11
136.3276441751
21
249.3076962618
31
0.0000000000
11
135.1317892128
21
248.1750774716
31
0.0000000000
11
133.6957951119
21
247.5383832860
31
0.0000000000
0
SPLINE
5
4A6
100
AcDbEntity
8
0
100
AcDbSpline
62
7
6
BYLAYER
70
0
71
3
72
11
73
7
74
5
42
0.0000001000
43
0.0000001000
44
0.0000000001
40
0.0000000000
40
0.0000000000
40
0.0000000000
40
0.0000000000
40
0.4020350008
40
0.7153123061
40
0.9428309507
40
1.0000000000
40
1.0000000000
40
1.0000000000
40
1.0000000000
10
45.7860756085
20
189.3826962764
30
0.0000000000
10
45.2410488427
20
189.2318442450
30
0.0000000000
10
44.2847805616
20
188.8901938982
30
0.0000000000
10
43.1522394613
20
188.1947373391
30
0.0000000000
10
42.6233209011
20
187.4558798572
30
0.0000000000
10
42.6061252572
20
187.0518856927
30
0.0000000000
10
42.6111082758
20
186.9705088460
30
0.0000000000
11
45.7860756085
21
189.3826962764
31
0.0000000000
11
44.1967739128
21
188.7890509973
31
0.0000000000
11
43.1066959558
21
188.0411044742
31
0.0000000000
11
42.6224927326
21
187.2120342634
31
0.0000000000
11
42.6111082758
21
186.9705088460
31
0.0000000000
0
SPLINE
5
4A7
100
AcDbEntity
8
0
100
AcDbSpline
62
7
6
BYLAYER
70
0
71
3
72
8
73
4
74
2
42
0.0000001000
43
0.0000001000
44
0.0000000001
40
0.0000000000
40
0.0000000000
40
0.0000000000
40
0.0000000000
40
1.0000000000
40
1.0000000000
40
1.0000000000
40
1.0000000000
10
77.8148094948
20
193.9946462673
30
0.0000000000
10
77.5752194508
20
193.7881789577
30
0.0000000000
10
77.3144624021
20
193.6061144090
30
0.0000000000
10
77.0436476919
20
193.4418364211
30
0.0000000000
11
77.8148094948
21
193.9946462673
31
0.0000000000
11
77.0436476919
21
193.4418364211
31
0.0000000000
0
SPLINE
5
4A8
100
AcDbEntity
8
0
100
AcDbSpline
62
7
6
BYLAYER
70
0
71
3
72
8
73
4
74
2
42
0.0000001000
43
0.0000001000
44
0.0000000001
40
0.0000000000
40
0.0000000000
40
0.0000000000
40
0.0000000000
40
1.0000000000
40
1.0000000000
40
1.0000000000
40
1.0000000000
10
77.0436476919
20
193.4418364211
30
0.0000000000
10
76.7316206846
20
193.2525587824
30
0.0000000000
10
76.4062419675
20
193.0868930935
30
0.0000000000
10
76.0733748895
20
192.9381307870
30
0.0000000000
11
77.0436476919
21
193.4418364211
31
0.0000000000
11
76.0733748895
21
192.9381307870
31
0.0000000000
0
SPLINE
5
4A9
100
AcDbEntity
8
0
100
AcDbSpline
62
7
6
BYLAYER
70
0
71
3
72
8
73
4
74
2
42
0.0000001000
43
0.0000001000
44
0.0000000001
40
0.0000000000
40
0.0000000000
40
0.0000000000
40
0.0000000000
40
1.0000000000
40
1.0000000000
40
1.0000000000
40
1.0000000000
10
76.0733748895
20
192.9381307870
30
0.0000000000
10
75.6996313150
20
192.7711002818
30
0.0000000000
10
75.3164472938
20
192.6253795780
30
0.0000000000
10
74.9282422127
20
192.4961190491
30
0.0000000000
11
76.0733748895
21
192.9381307870
31
0.0000000000
11
74.9282422127
21
192.4961190491
31
0.0000000000
0
SPLINE
5
4AA
100
AcDbEntity
8
0
100
AcDbSpline
62
7
6
BYLAYER
70
0
71
3
72
8
73
4
74
2
42
0.0000001000
43
0.0000001000
44
0.0000000001
40
0.0000000000
40
0.0000000000
40
0.0000000000
40
0.0000000000
40
1.0000000000
40
1.0000000000
40
1.0000000000
40
1.0000000000
10
114.7057359647
20
224.7480205170
30
0.0000000000
10
114.3546820773
20
224.6577956488
30
0.0000000000
10
114.0073596379
20
224.5510018318
30
0.0000000000
10
113.6682545269
20
224.4223727095
30
0.0000000000
11
114.7057359647
21
224.7480205170
31
0.0000000000
11
113.6682545269
21
224.4223727095
31
0.0000000000
0
SPLINE
5
4AB
100
AcDbEntity
8
0
100
AcDbSpline
62
7
6
BYLAYER
70
0
71
3
72
8
73
4
74
2
42
0.0000001000
43
0.0000001000
44
0.0000000001
40
0.0000000000
40
0.0000000000
40
0.0000000000
40
0.0000000000
40
1.0000000000
40
1.0000000000
40
1.0000000000
40
1.0000000000
10
113.6682545269
20
224.4223727095
30
0.0000000000
10
113.3703614878
20
224.3093761225
30
0.0000000000
10
113.0788098127
20
224.1795290931
30
0.0000000000
10
112.7997925276
20
224.0245659084
30
0.0000000000
11
113.6682545269
21
224.4223727095
31
0.0000000000
11
112.7997925276
21
224.0245659084
31
0.0000000000
0
SPLINE
5
4AC
100
AcDbEntity
8
0
100
AcDbSpline
62
7
6
BYLAYER
70
0
71
3
72
8
73
4
74
2
42
0.0000001000
43
0.0000001000
44
0.0000000001
40
0.0000000000
40
0.0000000000
40
0.0000000000
40
0.0000000000
40
1.0000000000
40
1.0000000000
40
1.0000000000
40
1.0000000000
10
112.7997925276
20
224.0245659084
30
0.0000000000
10
112.5648840594
20
223.8941002838
30
0.0000000000
10
112.3388602005
20
223.7458318603
30
0.0000000000
10
112.1357853501
20
223.5708316086
30
0.0000000000
11
112.7997925276
21
224.0245659084
31
0.0000000000
11
112.1357853501
21
223.5708316086
31
0.0000000000
0
SPLINE
5
4AD
100
AcDbEntity
8
0
100
AcDbSpline
62
7
6
BYLAYER
70
0
71
3
72
8
73
4
74
2
42
0.0000001000
43
0.0000001000
44
0.0000000001
40
0.0000000000
40
0.0000000000
40
0.0000000000
40
0.0000000000
40
1.0000000000
40
1.0000000000
40
1.0000000000
40
1.0000000000
10
136.1959268194
20
231.8052185454
30
0.0000000000
10
136.1901329638
20
231.5587876133
30
0.0000000000
10
136.0907494696
20
231.3157183055
30
0.0000000000
10
135.9521309811
20
231.1070641593
30
0.0000000000
11
136.1959268194
21
231.8052185454
31
0.0000000000
11
135.9521309811
21
231.1070641593
31
0.0000000000
0
SPLINE
5
4AE
100
AcDbEntity
8
0
100
AcDbSpline
62
7
6
BYLAYER
70
0
71
3
72
9
73
5
74
3
42
0.0000001000
43
0.0000001000
44
0.0000000001
40
0.0000000000
40
0.0000000000
40
0.0000000000
40
0.0000000000
40
0.4376797586
40
1.0000000000
40
1.0000000000
40
1.0000000000
40
1.0000000000
10
135.9521309811
20
231.1070641593
30
0.0000000000
10
135.7738154903
20
230.8386564822
30
0.0000000000
10
135.2180664366
20
230.3555207338
30
0.0000000000
10
134.5710612276
20
230.0208540001
30
0.0000000000
10
134.1954620696
20
229.8616153806
30
0.0000000000
11
135.9521309811
21
231.1070641593
31
0.0000000000
11
135.2698539120
21
230.4441802614
31
0.0000000000
11
134.1954620696
21
229.8616153806
31
0.0000000000
0
SPLINE
5
4AF
100
AcDbEntity
8
0
100
AcDbSpline
62
7
6
BYLAYER
70
0
71
3
72
8
73
4
74
2
42
0.0000001000
43
0.0000001000
44
0.0000000001
40
0.0000000000
40
0.0000000000
40
0.0000000000
40
0.0000000000
40
1.0000000000
40
1.0000000000
40
1.0000000000
40
1.0000000000
10
134.1954620696
20
229.8616153806
30
0.0000000000
10
133.7442253196
20
229.6703095279
30
0.0000000000
10
133.2759935438
20
229.5207893248
30
0.0000000000
10
132.8019694046
20
229.3989596940
30
0.0000000000
11
134.1954620696
21
229.8616153806
31
0.0000000000
11
132.8019694046
21
229.3989596940
31
0.0000000000
0
SPLINE
5
4B0
100
AcDbEntity
8
0
100
AcDbSpline
62
7
6
BYLAYER
70
0
71
3
72
9
73
5
74
3
42
0.0000001000
43
0.0000001000
44
0.0000000001
40
0.0000000000
40
0.0000000000
40
0.0000000000
40
0.0000000000
40
0.5685599767
40
1.0000000000
40
1.0000000000
40
1.0000000000
40
1.0000000000
10
138.1283276796
20
244.0809181229
30
0.0000000000
10
137.8255875096
20
244.0031104332
30
0.0000000000
10
137.3025963584
20
243.8221076946
30
0.0000000000
10
136.8266822859
20
243.5352443445
30
0.0000000000
10
136.6656112824
20
243.3515098862
30
0.0000000000
11
138.1283276796
21
244.0809181229
31
0.0000000000
11
137.2461019936
21
243.7630680589
31
0.0000000000
11
136.6656112824
21
243.3515098862
31
0.0000000000
0
SPLINE
5
4B1
100
AcDbEntity
8
0
100
AcDbSpline
62
7
6
BYLAYER
70
0
71
3
72
8
73
4
74
2
42
0.0000001000
43
0.0000001000
44
0.0000000001
40
0.0000000000
40
0.0000000000
40
0.0000000000
40
0.0000000000
40
1.0000000000
40
1.0000000000
40
1.0000000000
40
1.0000000000
10
136.6656112824
20
243.3515098862
30
0.0000000000
10
136.5521225776
20
243.2220527818
30
0.0000000000
10
136.4606051955
20
243.0628238478
30
0.0000000000
10
136.4566770126
20
242.8957458528
30
0.0000000000
11
136.6656112824
21
243.3515098862
31
0.0000000000
11
136.4566770126
21
242.8957458528
31
0.0000000000
0
SPLINE
5
4B2
100
AcDbEntity
8
0
100
AcDbSpline
62
7
6
BYLAYER
70
0
71
3
72
8
73
4
74
2
42
0.0000001000
43
0.0000001000
44
0.0000000001
40
0.0000000000
40
0.0000000000
40
0.0000000000
40
0.0000000000
40
1.0000000000
40
1.0000000000
40
1.0000000000
40
1.0000000000
10
141.4976313580
20
259.3373531431
30
0.0000000000
10
141.6874097635
20
259.2091807178
30
0.0000000000
10
141.8615215891
20
259.0575005712
30
0.0000000000
10
142.0143389197
20
258.8872669085
30
0.0000000000
11
141.4976313580
21
259.3373531431
31
0.0000000000
11
142.0143389197
21
258.8872669085
31
0.0000000000
0
SPLINE
5
4B3
100
AcDbEntity
8
0
100
AcDbSpline
62
7
6
BYLAYER
70
0
71
3
72
10
73
6
74
4
42
0.0000001000
43
0.0000001000
44
0.0000000001
40
0.0000000000
40
0.0000000000
40
0.0000000000
40
0.0000000000
40
0.0094754246
40
0.4889208217
40
1.0000000000
40
1.0000000000
40
1.0000000000
40
1.0000000000
10
142.0143389197
20
258.8872669085
30
0.0000000000
10
142.0192304691
20
258.8818178775
30
0.0000000000
10
142.2705029106
20
258.5996733795
30
0.0000000000
10
142.6646197249
20
257.9199643005
30
0.0000000000
10
142.8035310649
20
257.1558648210
30
0.0000000000
10
142.8177821945
20
256.7632972325
30
0.0000000000
11
142.0143389197
21
258.8872669085
31
0.0000000000
11
142.0289479292
21
258.8708629491
31
0.0000000000
11
142.5932359754
21
257.9201855814
31
0.0000000000
11
142.8177821945
21
256.7632972325
31
0.0000000000
0
SPLINE
5
4B4
100
AcDbEntity
8
0
100
AcDbSpline
62
7
6
BYLAYER
70
0
71
3
72
8
73
4
74
2
42
0.0000001000
43
0.0000001000
44
0.0000000001
40
0.0000000000
40
0.0000000000
40
0.0000000000
40
0.0000000000
40
1.0000000000
40
1.0000000000
40
1.0000000000
40
1.0000000000
10
142.8566836442
20
259.1179486499
30
0.0000000000
10
142.6610890428
20
259.0719462032
30
0.0000000000
10
142.4682802033
20
259.0123541623
30
0.0000000000
10
142.2795994143
20
258.9406362272
30
0.0000000000
11
142.8566836442
21
259.1179486499
31
0.0000000000
11
142.2795994143
21
258.9406362272
31
0.0000000000
0
SPLINE
5
4B5
100
AcDbEntity
8
0
100
AcDbSpline
62
7
6
BYLAYER
70
0
71
3
72
8
73
4
74
2
42
0.0000001000
43
0.0000001000
44
0.0000000001
40
0.0000000000
40
0.0000000000
40
0.0000000000
40
0.0000000000
40
1.0000000000
40
1.0000000000
40
1.0000000000
40
1.0000000000
10
141.0542134579
20
258.2672283957
30
0.0000000000
10
141.0033935750
20
258.2297082636
30
0.0000000000
10
140.9532486738
20
258.1913149359
30
0.0000000000
10
140.9037949792
20
258.1520784553
30
0.0000000000
11
141.0542134579
21
258.2672283957
31
0.0000000000
11
140.9037949792
21
258.1520784553
31
0.0000000000
0
SPLINE
5
4B6
100
AcDbEntity
8
0
100
AcDbSpline
62
7
6
BYLAYER
70
0
71
3
72
8
73
4
74
2
42
0.0000001000
43
0.0000001000
44
0.0000000001
40
0.0000000000
40
0.0000000000
40
0.0000000000
40
0.0000000000
40
1.0000000000
40
1.0000000000
40
1.0000000000
40
1.0000000000
10
140.9037949792
20
258.1520784553
30
0.0000000000
10
140.5331653464
20
257.8580215096
30
0.0000000000
10
140.2013588556
20
257.5166070225
30
0.0000000000
10
139.9152052795
20
257.1404812063
30
0.0000000000
11
140.9037949792
21
258.1520784553
31
0.0000000000
11
139.9152052795
21
257.1404812063
31
0.0000000000
0
SPLINE
5
4B7
100
AcDbEntity
8
0
100
AcDbSpline
62
7
6
BYLAYER
70
0
71
3
72
9
73
5
74
3
42
0.0000001000
43
0.0000001000
44
0.0000000001
40
0.0000000000
40
0.0000000000
40
0.0000000000
40
0.0000000000
40
0.5114023327
40
1.0000000000
40
1.0000000000
40
1.0000000000
40
1.0000000000
10
139.9152052795
20
257.1404812063
30
0.0000000000
10
139.5418077323
20
256.6496802205
30
0.0000000000
10
138.9636657109
20
255.5743921238
30
0.0000000000
10
138.7680675742
20
254.3583599421
30
0.0000000000
10
138.7893592766
20
253.7718497824
30
0.0000000000
11
139.9152052795
21
257.1404812063
31
0.0000000000
11
139.0505289751
21
255.5130614079
31
0.0000000000
11
138.7893592766
21
253.7718497824
31
0.0000000000
0
SPLINE
5
4B8
100
AcDbEntity
8
0
100
AcDbSpline
62
7
6
BYLAYER
70
0
71
3
72
8
73
4
74
2
42
0.0000001000
43
0.0000001000
44
0.0000000001
40
0.0000000000
40
0.0000000000
40
0.0000000000
40
0.0000000000
40
1.0000000000
40
1.0000000000
40
1.0000000000
40
1.0000000000
10
42.6111082758
20
186.9705088460
30
0.0000000000
10
42.6236023328
20
186.7664704842
30
0.0000000000
10
42.6891317178
20
186.5608637058
30
0.0000000000
10
42.7915376950
20
186.3829548966
30
0.0000000000
11
42.6111082758
21
186.9705088460
31
0.0000000000
11
42.7915376950
21
186.3829548966
31
0.0000000000
0
SPLINE
5
4B9
100
AcDbEntity
8
0
100
AcDbSpline
62
7
6
BYLAYER
70
0
71
3
72
8
73
4
74
2
42
0.0000001000
43
0.0000001000
44
0.0000000001
40
0.0000000000
40
0.0000000000
40
0.0000000000
40
0.0000000000
40
1.0000000000
40
1.0000000000
40
1.0000000000
40
1.0000000000
10
42.7915376950
20
186.3829548966
30
0.0000000000
10
42.9776647446
20
186.0595983633
30
0.0000000000
10
43.2856119511
20
185.8277408204
30
0.0000000000
10
43.5972918300
20
185.6349818013
30
0.0000000000
11
42.7915376950
21
186.3829548966
31
0.0000000000
11
43.5972918300
21
185.6349818013
31
0.0000000000
0
SPLINE
5
4BA
100
AcDbEntity
8
0
100
AcDbSpline
62
7
6
BYLAYER
70
0
71
3
72
8
73
4
74
2
42
0.0000001000
43
0.0000001000
44
0.0000000001
40
0.0000000000
40
0.0000000000
40
0.0000000000
40
0.0000000000
40
1.0000000000
40
1.0000000000
40
1.0000000000
40
1.0000000000
10
129.3915700942
20
232.1150163134
30
0.0000000000
10
129.3667699282
20
231.7782049185
30
0.0000000000
10
129.1728269660
20
231.4648926059
30
0.0000000000
10
128.9380154363
20
231.2090357132
30
0.0000000000
11
129.3915700942
21
232.1150163134
31
0.0000000000
11
128.9380154363
21
231.2090357132
31
0.0000000000
0
SPLINE
5
4BB
100
AcDbEntity
8
0
100
AcDbSpline
62
7
6
BYLAYER
70
0
71
3
72
8
73
4
74
2
42
0.0000001000
43
0.0000001000
44
0.0000000001
40
0.0000000000
40
0.0000000000
40
0.0000000000
40
0.0000000000
40
1.0000000000
40
1.0000000000
40
1.0000000000
40
1.0000000000
10
128.9380154363
20
231.2090357132
30
0.0000000000
10
128.6063661409
20
230.8476618135
30
0.0000000000
10
128.1931884795
20
230.6009052538
30
0.0000000000
10
127.7622007138
20
230.3934124238
30
0.0000000000
11
128.9380154363
21
231.2090357132
31
0.0000000000
11
127.7622007138
21
230.3934124238
31
0.0000000000
0
SPLINE
5
4BC
100
AcDbEntity
8
0
100
AcDbSpline
62
7
6
BYLAYER
70
0
71
3
72
8
73
4
74
2
42
0.0000001000
43
0.0000001000
44
0.0000000001
40
0.0000000000
40
0.0000000000
40
0.0000000000
40
0.0000000000
40
1.0000000000
40
1.0000000000
40
1.0000000000
40
1.0000000000
10
127.7622007138
20
230.3934124238
30
0.0000000000
10
127.1985444543
20
230.1220482650
30
0.0000000000
10
126.6044257154
20
229.9178409590
30
0.0000000000
10
126.0002264754
20
229.7625548368
30
0.0000000000
11
127.7622007138
21
230.3934124238
31
0.0000000000
11
126.0002264754
21
229.7625548368
31
0.0000000000
0
SPLINE
5
4BD
100
AcDbEntity
8
0
100
AcDbSpline
62
7
6
BYLAYER
70
0
71
3
72
9
73
5
74
3
42
0.0000001000
43
0.0000001000
44
0.0000000001
40
0.0000000000
40
0.0000000000
40
0.0000000000
40
0.0000000000
40
0.1469960752
40
1.0000000000
40
1.0000000000
40
1.0000000000
40
1.0000000000
10
50.2207419260
20
195.9552498139
30
0.0000000000
10
50.2746181256
20
195.9717733419
30
0.0000000000
10
50.6479073530
20
196.0542488586
30
0.0000000000
10
51.0490163906
20
195.9041741895
30
0.0000000000
10
51.3254881075
20
195.7331897258
30
0.0000000000
11
50.2207419260
21
195.9552498139
31
0.0000000000
11
50.3849633544
21
195.9909955878
31
0.0000000000
11
51.3254881075
21
195.7331897258
31
0.0000000000
0
SPLINE
5
4BE
100
AcDbEntity
8
0
100
AcDbSpline
62
7
6
BYLAYER
70
0
71
3
72
9
73
5
74
3
42
0.0000001000
43
0.0000001000
44
0.0000000001
40
0.0000000000
40
0.0000000000
40
0.0000000000
40
0.0000000000
40
0.5668757850
40
1.0000000000
40
1.0000000000
40
1.0000000000
40
1.0000000000
10
132.0927149600
20
245.6357096457
30
0.0000000000
10
131.7748708243
20
245.5609549858
30
0.0000000000
10
131.2226078292
20
245.3829402145
30
0.0000000000
10
130.7176371616
20
245.0969477057
30
0.0000000000
10
130.5401587693
20
244.9108553766
30
0.0000000000
11
132.0927149600
21
245.6357096457
31
0.0000000000
11
131.1639390888
21
245.3244320125
31
0.0000000000
11
130.5401587693
21
244.9108553766
31
0.0000000000
0
SPLINE
5
4BF
100
AcDbEntity
8
0
100
AcDbSpline
62
7
6
BYLAYER
70
0
71
3
72
8
73
4
74
2
42
0.0000001000
43
0.0000001000
44
0.0000000001
40
0.0000000000
40
0.0000000000
40
0.0000000000
40
0.0000000000
40
1.0000000000
40
1.0000000000
40
1.0000000000
40
1.0000000000
10
130.5401587693
20
244.9108553766
30
0.0000000000
10
130.4162153453
20
244.7808963425
30
0.0000000000
10
130.3123831772
20
244.6205913884
30
0.0000000000
10
130.2995893157
20
244.4468377809
30
0.0000000000
11
130.5401587693
21
244.9108553766
31
0.0000000000
11
130.2995893157
21
244.4468377809
31
0.0000000000
0
SPLINE
5
4C0
100
AcDbEntity
8
0
100
AcDbSpline
62
7
6
BYLAYER
70
0
71
3
72
8
73
4
74
2
42
0.0000001000
43
0.0000001000
44
0.0000000001
40
0.0000000000
40
0.0000000000
40
0.0000000000
40
0.0000000000
40
1.0000000000
40
1.0000000000
40
1.0000000000
40
1.0000000000
10
71.6893131280
20
191.4176538075
30
0.0000000000
10
71.4145046963
20
191.3261509268
30
0.0000000000
10
71.1586084127
20
191.1746672273
30
0.0000000000
10
70.9332357586
20
190.9894259787
30
0.0000000000
11
71.6893131280
21
191.4176538075
31
0.0000000000
11
70.9332357586
21
190.9894259787
31
0.0000000000
0
SPLINE
5
4C1
100
AcDbEntity
8
0
100
AcDbSpline
62
7
6
BYLAYER
70
0
71
3
72
10
73
6
74
4
42
0.0000001000
43
0.0000001000
44
0.0000000001
40
0.0000000000
40
0.0000000000
40
0.0000000000
40
0.0000000000
40
0.3320526074
40
0.6730527447
40
1.0000000000
40
1.0000000000
40
1.0000000000
40
1.0000000000
10
70.9332357586
20
190.9894259787
30
0.0000000000
10
70.6869857837
20
190.7870249687
30
0.0000000000
10
70.2617135880
20
190.2950801236
30
0.0000000000
10
69.8591181023
20
189.4178652439
30
0.0000000000
10
69.7688998669
20
188.7749897834
30
0.0000000000
10
69.7802044900
20
188.4635878981
30
0.0000000000
11
70.9332357586
21
190.9894259787
31
0.0000000000
11
70.3049243466
21
190.2776534122
31
0.0000000000
11
69.9000336090
21
189.3906970290
31
0.0000000000
11
69.7802044900
21
188.4635878981
31
0.0000000000
0
SPLINE
5
4C2
100
AcDbEntity
8
0
100
AcDbSpline
62
7
6
BYLAYER
70
0
71
3
72
9
73
5
74
3
42
0.0000001000
43
0.0000001000
44
0.0000000001
40
0.0000000000
40
0.0000000000
40
0.0000000000
40
0.0000000000
40
0.4899431553
40
1.0000000000
40
1.0000000000
40
1.0000000000
40
1.0000000000
10
52.9902837747
20
194.7035936519
30
0.0000000000
10
53.0416807450
20
194.6718070970
30
0.0000000000
10
53.1480917588
20
194.6093394312
30
0.0000000000
10
53.2569919403
20
194.5513568479
30
0.0000000000
10
53.3130753526
20
194.5228392503
30
0.0000000000
11
52.9902837747
21
194.7035936519
31
0.0000000000
11
53.1465489512
21
194.6116725049
31
0.0000000000
11
53.3130753526
21
194.5228392503
31
0.0000000000
0
SPLINE
5
4C3
100
AcDbEntity
8
0
100
AcDbSpline
62
7
6
BYLAYER
70
0
71
3
72
8
73
4
74
2
42
0.0000001000
43
0.0000001000
44
0.0000000001
40
0.0000000000
40
0.0000000000
40
0.0000000000
40
0.0000000000
40
1.0000000000
40
1.0000000000
40
1.0000000000
40
1.0000000000
10
53.3130753526
20
194.5228392503
30
0.0000000000
10
53.3713566282
20
194.4932040713
30
0.0000000000
10
53.4302190373
20
194.4647101629
30
0.0000000000
10
53.4895548587
20
194.4372582543
30
0.0000000000
11
53.3130753526
21
194.5228392503
31
0.0000000000
11
53.4895548587
21
194.4372582543
31
0.0000000000
0
SPLINE
5
4C4
100
AcDbEntity
8
0
100
AcDbSpline
62
7
6
BYLAYER
70
0
71
3
72
12
73
8
74
6
42
0.0000001000
43
0.0000001000
44
0.0000000001
40
0.0000000000
40
0.0000000000
40
0.0000000000
40
0.0000000000
40
0.1954379085
40
0.3995997441
40
0.6061922367
40
0.8082066634
40
1.0000000000
40
1.0000000000
40
1.0000000000
40
1.0000000000
10
143.0892094808
20
249.2864474365
30
0.0000000000
10
143.1044145129
20
248.8676032508
30
0.0000000000
10
143.0028299857
20
248.0030007753
30
0.0000000000
10
142.5125178955
20
246.7847266052
30
0.0000000000
10
141.7275199846
20
245.7132780374
30
0.0000000000
10
140.7207755671
20
244.8888443607
30
0.0000000000
10
139.9336330208
20
244.5449022645
30
0.0000000000
10
139.5352751536
20
244.4425197318
30
0.0000000000
11
143.0892094808
21
249.2864474365
31
0.0000000000
11
142.9520337245
21
248.0365923986
31
0.0000000000
11
142.4665637114
21
246.8161151910
31
0.0000000000
11
141.6803206289
21
245.7444846264
31
0.0000000000
11
140.6702674281
21
244.9265993708
31
0.0000000000
11
139.5352751536
21
244.4425197318
31
0.0000000000
0
SPLINE
5
4C5
100
AcDbEntity
8
0
100
AcDbSpline
62
7
6
BYLAYER
70
0
71
3
72
10
73
6
74
4
42
0.0000001000
43
0.0000001000
44
0.0000000001
40
0.0000000000
40
0.0000000000
40
0.0000000000
40
0.0000000000
40
0.3233934932
40
0.6618809602
40
1.0000000000
40
1.0000000000
40
1.0000000000
40
1.0000000000
10
138.8841592480
20
251.1604500374
30
0.0000000000
10
138.9032097186
20
250.6356777893
30
0.0000000000
10
138.7282008594
20
249.5476489951
30
0.0000000000
10
137.9466630940
20
248.0940645382
30
0.0000000000
10
137.1399650746
20
247.3218592465
30
0.0000000000
10
136.6809683884
20
247.0137926047
30
0.0000000000
11
138.8841592480
21
251.1604500374
31
0.0000000000
11
138.6504810967
21
249.6025238462
31
0.0000000000
11
137.8768233506
21
248.1464113950
31
0.0000000000
11
136.6809683884
21
247.0137926047
31
0.0000000000
0
SPLINE
5
4C6
100
AcDbEntity
8
0
100
AcDbSpline
62
7
6
BYLAYER
70
0
71
3
72
8
73
4
74
2
42
0.0000001000
43
0.0000001000
44
0.0000000001
40
0.0000000000
40
0.0000000000
40
0.0000000000
40
0.0000000000
40
1.0000000000
40
1.0000000000
40
1.0000000000
40
1.0000000000
10
136.6809683884
20
247.0137926047
30
0.0000000000
10
136.2432265708
20
246.7199916782
30
0.0000000000
10
135.7546717662
20
246.4969756086
30
0.0000000000
10
135.2449742875
20
246.3770984191
30
0.0000000000
11
136.6809683884
21
247.0137926047
31
0.0000000000
11
135.2449742875
21
246.3770984191
31
0.0000000000
0
SPLINE
5
4C7
100
AcDbEntity
8
0
100
AcDbSpline
62
7
6
BYLAYER
70
0
71
3
72
8
73
4
74
2
42
0.0000001000
43
0.0000001000
44
0.0000000001
40
0.0000000000
40
0.0000000000
40
0.0000000000
40
0.0000000000
40
1.0000000000
40
1.0000000000
40
1.0000000000
40
1.0000000000
10
55.4678378625
20
177.2528776777
30
0.0000000000
10
55.4371074774
20
177.2426453906
30
0.0000000000
10
55.4064888874
20
177.2320551888
30
0.0000000000
10
55.3759863173
20
177.2211158975
30
0.0000000000
11
55.4678378625
21
177.2528776777
31
0.0000000000
11
55.3759863173
21
177.2211158975
31
0.0000000000
0
SPLINE
5
4C8
100
AcDbEntity
8
0
100
AcDbSpline
62
7
6
BYLAYER
70
0
71
3
72
12
73
8
74
6
42
0.0000001000
43
0.0000001000
44
0.0000000001
40
0.0000000000
40
0.0000000000
40
0.0000000000
40
0.0000000000
40
0.1742659188
40
0.3764465691
40
0.5874585018
40
0.7982960906
40
1.0000000000
40
1.0000000000
40
1.0000000000
40
1.0000000000
10
55.3759863173
20
177.2211158975
30
0.0000000000
10
54.9523493000
20
177.0691848064
30
0.0000000000
10
54.0855586666
20
176.5955259232
30
0.0000000000
10
52.9782928741
20
175.5381827814
30
0.0000000000
10
52.0991861191
20
174.1706384731
30
0.0000000000
10
51.5524695895
20
172.6426220091
30
0.0000000000
10
51.4398207830
20
171.5696619198
30
0.0000000000
10
51.4587097228
20
171.0493392679
30
0.0000000000
11
55.3759863173
21
177.2211158975
31
0.0000000000
11
54.1835321006
21
176.5869555406
31
0.0000000000
11
53.0420372855
21
175.5153358673
31
0.0000000000
11
52.1550908829
21
174.1429162578
31
0.0000000000
11
51.6095133865
21
172.6040387058
31
0.0000000000
11
51.4587097228
21
171.0493392679
31
0.0000000000
0
SPLINE
5
4C9
100
AcDbEntity
8
0
100
AcDbSpline
62
7
6
BYLAYER
70
0
71
3
72
11
73
7
74
5
42
0.0000001000
43
0.0000001000
44
0.0000000001
40
0.0000000000
40
0.0000000000
40
0.0000000000
40
0.0000000000
40
0.2507454877
40
0.5122685449
40
0.7669294776
40
1.0000000000
40
1.0000000000
40
1.0000000000
40
1.0000000000
10
69.8700149892
20
185.9896302450
30
0.0000000000
10
69.8892328484
20
185.4602470399
30
0.0000000000
10
69.7358618482
20
184.3673587572
30
0.0000000000
10
69.0514495226
20
182.8760934616
30
0.0000000000
10
68.0020502769
20
181.6621731661
30
0.0000000000
10
67.0917046385
20
181.1232730962
30
0.0000000000
10
66.6245303047
20
180.9677181990
30
0.0000000000
11
69.8700149892
21
185.9896302450
31
0.0000000000
11
69.6663054869
21
184.4135447225
31
0.0000000000
11
68.9779912329
21
182.9057188710
31
0.0000000000
11
67.9098618326
21
181.6957055079
31
0.0000000000
11
66.6245303047
21
180.9677181990
31
0.0000000000
0
SPLINE
5
4CA
100
AcDbEntity
8
0
100
AcDbSpline
62
7
6
BYLAYER
70
0
71
3
72
8
73
4
74
2
42
0.0000001000
43
0.0000001000
44
0.0000000001
40
0.0000000000
40
0.0000000000
40
0.0000000000
40
0.0000000000
40
1.0000000000
40
1.0000000000
40
1.0000000000
40
1.0000000000
10
47.1617279660
20
183.4305494355
30
0.0000000000
10
47.4090973969
20
183.2775633364
30
0.0000000000
10
47.7152294451
20
183.1630242422
30
0.0000000000
10
48.0032501134
20
183.1998810327
30
0.0000000000
11
47.1617279660
21
183.4305494355
31
0.0000000000
11
48.0032501134
21
183.1998810327
31
0.0000000000
0
SPLINE
5
4CB
100
AcDbEntity
8
0
100
AcDbSpline
62
7
6
BYLAYER
70
0
71
3
72
8
73
4
74
2
42
0.0000001000
43
0.0000001000
44
0.0000000001
40
0.0000000000
40
0.0000000000
40
0.0000000000
40
0.0000000000
40
1.0000000000
40
1.0000000000
40
1.0000000000
40
1.0000000000
10
48.0032501134
20
183.1998810327
30
0.0000000000
10
48.0528840091
20
183.2062324730
30
0.0000000000
10
48.1019800550
20
183.2170798843
30
0.0000000000
10
48.1501850757
20
183.2318640935
30
0.0000000000
11
48.0032501134
21
183.1998810327
31
0.0000000000
11
48.1501850757
21
183.2318640935
31
0.0000000000
0
SPLINE
5
4CC
100
AcDbEntity
8
0
100
AcDbSpline
62
7
6
BYLAYER
70
0
71
3
72
9
73
5
74
3
42
0.0000001000
43
0.0000001000
44
0.0000000001
40
0.0000000000
40
0.0000000000
40
0.0000000000
40
0.0000000000
40
0.5845666024
40
1.0000000000
40
1.0000000000
40
1.0000000000
40
1.0000000000
10
47.5689216384
20
188.2811188095
30
0.0000000000
10
47.2425906210
20
188.1907971960
30
0.0000000000
10
46.7079762502
20
187.9860131656
30
0.0000000000
10
46.1990739291
20
187.6380411651
30
0.0000000000
10
46.0904969381
20
187.4187051111
30
0.0000000000
11
47.5689216384
21
188.2811188095
31
0.0000000000
11
46.6263414815
21
187.9024474634
31
0.0000000000
11
46.0904969381
21
187.4187051111
31
0.0000000000
0
SPLINE
5
4CD
100
AcDbEntity
8
0
100
AcDbSpline
62
7
6
BYLAYER
70
0
71
3
72
8
73
4
74
2
42
0.0000001000
43
0.0000001000
44
0.0000000001
40
0.0000000000
40
0.0000000000
40
0.0000000000
40
0.0000000000
40
1.0000000000
40
1.0000000000
40
1.0000000000
40
1.0000000000
10
46.0904969381
20
187.4187051111
30
0.0000000000
10
46.0411343329
20
187.3189878604
30
0.0000000000
10
46.0130273726
20
187.2038149416
30
0.0000000000
10
46.0131710528
20
187.0914702433
30
0.0000000000
11
46.0904969381
21
187.4187051111
31
0.0000000000
11
46.0131710528
21
187.0914702433
31
0.0000000000
0
SPLINE
5
4CE
100
AcDbEntity
8
0
100
AcDbSpline
62
7
6
BYLAYER
70
0
71
3
72
8
73
4
74
2
42
0.0000001000
43
0.0000001000
44
0.0000000001
40
0.0000000000
40
0.0000000000
40
0.0000000000
40
0.0000000000
40
1.0000000000
40
1.0000000000
40
1.0000000000
40
1.0000000000
10
42.6194240628
20
186.7414386930
30
0.0000000000
10
42.6319181198
20
186.5374003312
30
0.0000000000
10
42.6974475048
20
186.3317935528
30
0.0000000000
10
42.7998534819
20
186.1538847436
30
0.0000000000
11
42.6194240628
21
186.7414386930
31
0.0000000000
11
42.7998534819
21
186.1538847436
31
0.0000000000
0
SPLINE
5
4CF
100
AcDbEntity
8
0
100
AcDbSpline
62
7
6
BYLAYER
70
0
71
3
72
8
73
4
74
2
42
0.0000001000
43
0.0000001000
44
0.0000000001
40
0.0000000000
40
0.0000000000
40
0.0000000000
40
0.0000000000
40
1.0000000000
40
1.0000000000
40
1.0000000000
40
1.0000000000
10
42.7998534819
20
186.1538847436
30
0.0000000000
10
42.9590647596
20
185.8772886932
30
0.0000000000
10
43.2074109456
20
185.6676417778
30
0.0000000000
10
43.4709831172
20
185.4921474479
30
0.0000000000
11
42.7998534819
21
186.1538847436
31
0.0000000000
11
43.4709831172
21
185.4921474479
31
0.0000000000
0
SPLINE
5
4D0
100
AcDbEntity
8
0
100
AcDbSpline
62
7
6
BYLAYER
70
0
71
3
72
8
73
4
74
2
42
0.0000001000
43
0.0000001000
44
0.0000000001
40
0.0000000000
40
0.0000000000
40
0.0000000000
40
0.0000000000
40
1.0000000000
40
1.0000000000
40
1.0000000000
40
1.0000000000
10
43.4709831172
20
185.4921474479
30
0.0000000000
10
43.5155418230
20
185.4624789128
30
0.0000000000
10
43.5605356912
20
185.4337864672
30
0.0000000000
10
43.6056076170
20
185.4059116483
30
0.0000000000
11
43.4709831172
21
185.4921474479
31
0.0000000000
11
43.6056076170
21
185.4059116483
31
0.0000000000
0
SPLINE
5
4D1
100
AcDbEntity
8
0
100
AcDbSpline
62
7
6
BYLAYER
70
0
71
3
72
10
73
6
74
4
42
0.0000001000
43
0.0000001000
44
0.0000000001
40
0.0000000000
40
0.0000000000
40
0.0000000000
40
0.0000000000
40
0.2090806572
40
0.5510840025
40
1.0000000000
40
1.0000000000
40
1.0000000000
40
1.0000000000
10
51.1102175249
20
183.7913543565
30
0.0000000000
10
51.3299980875
20
183.8587598212
30
0.0000000000
10
51.8631776089
20
184.2401360858
30
0.0000000000
10
52.2337884399
20
185.3105989300
30
0.0000000000
10
52.2898625433
20
186.1762645306
30
0.0000000000
10
52.2720622276
20
186.6665994871
30
0.0000000000
11
51.1102175249
21
183.7913543565
31
0.0000000000
11
51.6872244794
21
184.1781650732
31
0.0000000000
11
52.1498418806
21
185.1997084979
31
0.0000000000
11
52.2720622276
21
186.6665994871
31
0.0000000000
0
SPLINE
5
4D2
100
AcDbEntity
8
0
100
AcDbSpline
62
7
6
BYLAYER
70
0
71
3
72
8
73
4
74
2
42
0.0000001000
43
0.0000001000
44
0.0000000001
40
0.0000000000
40
0.0000000000
40
0.0000000000
40
0.0000000000
40
1.0000000000
40
1.0000000000
40
1.0000000000
40
1.0000000000
10
50.2872022488
20
195.7144922878
30
0.0000000000
10
50.3382428590
20
195.7301461564
30
0.0000000000
10
50.3902269076
20
195.7416316506
30
0.0000000000
10
50.4427804442
20
195.7483567051
30
0.0000000000
11
50.2872022488
21
195.7144922878
31
0.0000000000
11
50.4427804442
21
195.7483567051
31
0.0000000000
0
SPLINE
5
4D3
100
AcDbEntity
8
0
100
AcDbSpline
62
7
6
BYLAYER
70
0
71
3
72
8
73
4
74
2
42
0.0000001000
43
0.0000001000
44
0.0000000001
40
0.0000000000
40
0.0000000000
40
0.0000000000
40
0.0000000000
40
1.0000000000
40
1.0000000000
40
1.0000000000
40
1.0000000000
10
50.4427804442
20
195.7483567051
30
0.0000000000
10
50.7259799086
20
195.7845965464
30
0.0000000000
10
51.0257167073
20
195.6825981993
30
0.0000000000
10
51.2768071988
20
195.5381342205
30
0.0000000000
11
50.4427804442
21
195.7483567051
31
0.0000000000
11
51.2768071988
21
195.5381342205
31
0.0000000000
0
SPLINE
5
4D4
100
AcDbEntity
8
0
100
AcDbSpline
62
7
6
BYLAYER
70
0
71
3
72
8
73
4
74
2
42
0.0000001000
43
0.0000001000
44
0.0000000001
40
0.0000000000
40
0.0000000000
40
0.0000000000
40
0.0000000000
40
1.0000000000
40
1.0000000000
40
1.0000000000
40
1.0000000000
10
51.2768071988
20
195.5381342205
30
0.0000000000
10
51.2961032525
20
195.5270323079
30
0.0000000000
10
51.3151120123
20
195.5156796031
30
0.0000000000
10
51.3338038944
20
195.5041195727
30
0.0000000000
11
51.2768071988
21
195.5381342205
31
0.0000000000
11
51.3338038944
21
195.5041195727
31
0.0000000000
0
SPLINE
5
4D5
100
AcDbEntity
8
0
100
AcDbSpline
62
7
6
BYLAYER
70
0
71
3
72
8
73
4
74
2
42
0.0000001000
43
0.0000001000
44
0.0000000001
40
0.0000000000
40
0.0000000000
40
0.0000000000
40
0.0000000000
40
1.0000000000
40
1.0000000000
40
1.0000000000
40
1.0000000000
10
141.6373461738
20
259.5446349674
30
0.0000000000
10
141.8359163484
20
259.4105247624
30
0.0000000000
10
142.0182876402
20
259.2521081150
30
0.0000000000
10
142.1787095965
20
259.0744470992
30
0.0000000000
11
141.6373461738
21
259.5446349674
31
0.0000000000
11
142.1787095965
21
259.0744470992
31
0.0000000000
0
SPLINE
5
4D6
100
AcDbEntity
8
0
100
AcDbSpline
62
7
6
BYLAYER
70
0
71
3
72
9
73
5
74
3
42
0.0000001000
43
0.0000001000
44
0.0000000001
40
0.0000000000
40
0.0000000000
40
0.0000000000
40
0.0000000000
40
0.0263381766
40
1.0000000000
40
1.0000000000
40
1.0000000000
40
1.0000000000
10
142.1787095965
20
259.0744470992
30
0.0000000000
10
142.1858219288
20
259.0665704706
30
0.0000000000
10
142.4542227619
20
258.7660767945
30
0.0000000000
10
142.6597074942
20
258.4116898892
30
0.0000000000
10
142.7973981217
20
258.0441046080
30
0.0000000000
11
142.1787095965
21
259.0744470992
31
0.0000000000
11
142.1999166610
21
259.0507041738
31
0.0000000000
11
142.7973981217
21
258.0441046080
31
0.0000000000
0
SPLINE
5
4D7
100
AcDbEntity
8
0
100
AcDbSpline
62
7
6
BYLAYER
70
0
71
3
72
8
73
4
74
2
42
0.0000001000
43
0.0000001000
44
0.0000000001
40
0.0000000000
40
0.0000000000
40
0.0000000000
40
0.0000000000
40
1.0000000000
40
1.0000000000
40
1.0000000000
40
1.0000000000
10
142.7973981217
20
258.0441046080
30
0.0000000000
10
142.9441735692
20
257.6522660699
30
0.0000000000
10
143.0200635106
20
257.2348238029
30
0.0000000000
10
143.0351529419
20
256.8191640033
30
0.0000000000
11
142.7973981217
21
258.0441046080
31
0.0000000000
11
143.0351529419
21
256.8191640033
31
0.0000000000
0
SPLINE
5
4D8
100
AcDbEntity
8
0
100
AcDbSpline
62
7
6
BYLAYER
70
0
71
3
72
9
73
5
74
3
42
0.0000001000
43
0.0000001000
44
0.0000000001
40
0.0000000000
40
0.0000000000
40
0.0000000000
40
0.0000000000
40
0.5143462657
40
1.0000000000
40
1.0000000000
40
1.0000000000
40
1.0000000000
10
137.2971337071
20
261.0669978877
30
0.0000000000
10
137.6914123404
20
261.1683320106
30
0.0000000000
10
138.4961734939
20
261.2503487963
30
0.0000000000
10
139.2793065183
20
261.0422036130
30
0.0000000000
10
139.6255325915
20
260.8706027247
30
0.0000000000
11
137.2971337071
21
261.0669978877
31
0.0000000000
11
138.5135423620
21
261.1759391127
31
0.0000000000
11
139.6255325915
21
260.8706027247
31
0.0000000000
0
SPLINE
5
4D9
100
AcDbEntity
8
0
100
AcDbSpline
62
7
6
BYLAYER
70
0
71
3
72
8
73
4
74
2
42
0.0000001000
43
0.0000001000
44
0.0000000001
40
0.0000000000
40
0.0000000000
40
0.0000000000
40
0.0000000000
40
1.0000000000
40
1.0000000000
40
1.0000000000
40
1.0000000000
10
139.6255325915
20
260.8706027247
30
0.0000000000
10
139.7417296632
20
260.8130116815
30
0.0000000000
10
139.8540852951
20
260.7474782950
30
0.0000000000
10
139.9616845572
20
260.6748079701
30
0.0000000000
11
139.6255325915
21
260.8706027247
31
0.0000000000
11
139.9616845572
21
260.6748079701
31
0.0000000000
0
SPLINE
5
4DA
100
AcDbEntity
8
0
100
AcDbSpline
62
7
6
BYLAYER
70
0
71
3
72
8
73
4
74
2
42
0.0000001000
43
0.0000001000
44
0.0000000001
40
0.0000000000
40
0.0000000000
40
0.0000000000
40
0.0000000000
40
1.0000000000
40
1.0000000000
40
1.0000000000
40
1.0000000000
10
52.0189296726
20
193.6394949463
30
0.0000000000
10
52.0022799567
20
194.0981349979
30
0.0000000000
10
52.0290491312
20
194.5576552762
30
0.0000000000
10
52.1211193405
20
195.0122192121
30
0.0000000000
11
52.0189296726
21
193.6394949463
31
0.0000000000
11
52.1211193405
21
195.0122192121
31
0.0000000000
0
SPLINE
5
4DB
100
AcDbEntity
8
0
100
AcDbSpline
62
7
6
BYLAYER
70
0
71
3
72
11
73
7
74
5
42
0.0000001000
43
0.0000001000
44
0.0000000001
40
0.0000000000
40
0.0000000000
40
0.0000000000
40
0.0000000000
40
0.2303938413
40
0.4797399158
40
0.7399774657
40
1.0000000000
40
1.0000000000
40
1.0000000000
40
1.0000000000
10
55.4761536494
20
177.0238075246
30
0.0000000000
10
55.0404094337
20
176.8787179044
30
0.0000000000
10
54.1822210060
20
176.4192664537
30
0.0000000000
10
53.1051584225
20
175.3907647662
30
0.0000000000
10
52.2679138939
20
174.0883416155
30
0.0000000000
10
51.9156591964
20
173.1038259697
30
0.0000000000
10
51.8015589104
20
172.5963418371
30
0.0000000000
11
55.4761536494
21
177.0238075246
31
0.0000000000
11
54.2530053048
21
176.3895959655
31
0.0000000000
11
53.1658673856
21
175.3690058005
31
0.0000000000
11
52.3211565260
21
174.0619395057
31
0.0000000000
11
51.8015589104
21
172.5963418371
31
0.0000000000
0
SPLINE
5
4DC
100
AcDbEntity
8
0
100
AcDbSpline
62
7
6
BYLAYER
70
0
71
3
72
8
73
4
74
2
42
0.0000001000
43
0.0000001000
44
0.0000000001
40
0.0000000000
40
0.0000000000
40
0.0000000000
40
0.0000000000
40
1.0000000000
40
1.0000000000
40
1.0000000000
40
1.0000000000
10
51.8015589104
20
172.5963418371
30
0.0000000000
10
51.6924015542
20
172.1108423864
30
0.0000000000
10
51.6399469071
20
171.6112210885
30
0.0000000000
10
51.6579363735
20
171.1156757057
30
0.0000000000
11
51.8015589104
21
172.5963418371
31
0.0000000000
11
51.6579363735
21
171.1156757057
31
0.0000000000
0
SPLINE
5
4DD
100
AcDbEntity
8
0
100
AcDbSpline
62
7
6
BYLAYER
70
0
71
3
72
11
73
7
74
5
42
0.0000001000
43
0.0000001000
44
0.0000000001
40
0.0000000000
40
0.0000000000
40
0.0000000000
40
0.0000000000
40
0.2547003722
40
0.5203483030
40
0.7790258765
40
1.0000000000
40
1.0000000000
40
1.0000000000
40
1.0000000000
10
70.0692416399
20
186.0559666829
30
0.0000000000
10
70.0895899614
20
185.4954432892
30
0.0000000000
10
69.9271971377
20
184.3382674605
30
0.0000000000
10
69.2025252635
20
182.7592806769
30
0.0000000000
10
68.1144237469
20
181.5005905073
30
0.0000000000
10
67.1886312547
20
180.9399545913
30
0.0000000000
10
66.7312511991
20
180.7729906003
30
0.0000000000
11
70.0692416399
21
186.0559666829
31
0.0000000000
11
69.8535492258
21
184.3871702473
31
0.0000000000
11
69.1247458980
21
182.7906487574
31
0.0000000000
11
67.9937853565
21
181.5094581377
31
0.0000000000
11
66.7312511991
21
180.7729906003
31
0.0000000000
0
SPLINE
5
4DE
100
AcDbEntity
8
0
100
AcDbSpline
62
7
6
BYLAYER
70
0
71
3
72
8
73
4
74
2
42
0.0000001000
43
0.0000001000
44
0.0000000001
40
0.0000000000
40
0.0000000000
40
0.0000000000
40
0.0000000000
40
1.0000000000
40
1.0000000000
40
1.0000000000
40
1.0000000000
10
66.7312511991
20
180.7729906003
30
0.0000000000
10
66.6986047108
20
180.7610731852
30
0.0000000000
10
66.6658009482
20
180.7496210146
30
0.0000000000
10
66.6328460916
20
180.7386480459
30
0.0000000000
11
66.7312511991
21
180.7729906003
31
0.0000000000
11
66.6328460916
21
180.7386480459
31
0.0000000000
0
SPLINE
5
4DF
100
AcDbEntity
8
0
100
AcDbSpline
62
7
6
BYLAYER
70
0
71
3
72
8
73
4
74
2
42
0.0000001000
43
0.0000001000
44
0.0000000001
40
0.0000000000
40
0.0000000000
40
0.0000000000
40
0.0000000000
40
1.0000000000
40
1.0000000000
40
1.0000000000
40
1.0000000000
10
142.8649994312
20
258.8888784968
30
0.0000000000
10
142.7054832266
20
258.8513614302
30
0.0000000000
10
142.5479228064
20
258.8043035925
30
0.0000000000
10
142.3931294154
20
258.7485896066
30
0.0000000000
11
142.8649994312
21
258.8888784968
31
0.0000000000
11
142.3931294154
21
258.7485896066
31
0.0000000000
0
SPLINE
5
4E0
100
AcDbEntity
8
0
100
AcDbSpline
62
7
6
BYLAYER
70
0
71
3
72
9
73
5
74
3
42
0.0000001000
43
0.0000001000
44
0.0000000001
40
0.0000000000
40
0.0000000000
40
0.0000000000
40
0.0000000000
40
0.4414084212
40
1.0000000000
40
1.0000000000
40
1.0000000000
40
1.0000000000
10
141.0478052866
20
257.9997393921
30
0.0000000000
10
140.6833921090
20
257.7153769427
30
0.0000000000
10
139.9459319314
20
256.9621922100
30
0.0000000000
10
139.4444887141
20
256.0295564513
30
0.0000000000
10
139.2591686920
20
255.4737221623
30
0.0000000000
11
141.0478052866
21
257.9997393921
31
0.0000000000
11
140.0783357173
21
257.0154882871
31
0.0000000000
11
139.2591686920
21
255.4737221623
31
0.0000000000
0
SPLINE
5
4E1
100
AcDbEntity
8
0
100
AcDbSpline
62
7
6
BYLAYER
70
0
71
3
72
8
73
4
74
2
42
0.0000001000
43
0.0000001000
44
0.0000000001
40
0.0000000000
40
0.0000000000
40
0.0000000000
40
0.0000000000
40
1.0000000000
40
1.0000000000
40
1.0000000000
40
1.0000000000
10
139.2591686920
20
255.4737221623
30
0.0000000000
10
139.0821125374
20
254.9426738669
30
0.0000000000
10
138.9915736806
20
254.3797944578
30
0.0000000000
10
139.0117447671
20
253.8241532539
30
0.0000000000
11
139.2591686920
21
255.4737221623
31
0.0000000000
11
139.0117447671
21
253.8241532539
31
0.0000000000
0
SPLINE
5
4E2
100
AcDbEntity
8
0
100
AcDbSpline
62
7
6
BYLAYER
70
0
71
3
72
9
73
5
74
3
42
0.0000001000
43
0.0000001000
44
0.0000000001
40
0.0000000000
40
0.0000000000
40
0.0000000000
40
0.0000000000
40
0.4899431553
40
1.0000000000
40
1.0000000000
40
1.0000000000
40
1.0000000000
10
52.9985995616
20
194.4745234988
30
0.0000000000
10
53.0499965319
20
194.4427369440
30
0.0000000000
10
53.1564075457
20
194.3802692782
30
0.0000000000
10
53.2653077273
20
194.3222866948
30
0.0000000000
10
53.3213911396
20
194.2937690972
30
0.0000000000
11
52.9985995616
21
194.4745234988
31
0.0000000000
11
53.1548647382
21
194.3826023519
31
0.0000000000
11
53.3213911396
21
194.2937690972
31
0.0000000000
0
SPLINE
5
4E3
100
AcDbEntity
8
0
100
AcDbSpline
62
7
6
BYLAYER
70
0
71
3
72
8
73
4
74
2
42
0.0000001000
43
0.0000001000
44
0.0000000001
40
0.0000000000
40
0.0000000000
40
0.0000000000
40
0.0000000000
40
1.0000000000
40
1.0000000000
40
1.0000000000
40
1.0000000000
10
53.3213911396
20
194.2937690972
30
0.0000000000
10
53.3477479523
20
194.2803670422
30
0.0000000000
10
53.3742236163
20
194.2671983955
30
0.0000000000
10
53.4008081684
20
194.2542539755
30
0.0000000000
11
53.3213911396
21
194.2937690972
31
0.0000000000
11
53.4008081684
21
194.2542539755
31
0.0000000000
0
SPLINE
5
4E4
100
AcDbEntity
8
0
100
AcDbSpline
62
7
6
BYLAYER
70
0
71
3
72
8
73
4
74
2
42
0.0000001000
43
0.0000001000
44
0.0000000001
40
0.0000000000
40
0.0000000000
40
0.0000000000
40
0.0000000000
40
1.0000000000
40
1.0000000000
40
1.0000000000
40
1.0000000000
10
53.4008081684
20
194.2542539755
30
0.0000000000
10
53.4330084785
20
194.2385751582
30
0.0000000000
10
53.4653685392
20
194.2232253053
30
0.0000000000
10
53.4978706457
20
194.2081881012
30
0.0000000000
11
53.4008081684
21
194.2542539755
31
0.0000000000
11
53.4978706457
21
194.2081881012
31
0.0000000000
0
SPLINE
5
4E5
100
AcDbEntity
8
0
100
AcDbSpline
62
7
6
BYLAYER
70
0
71
3
72
8
73
4
74
2
42
0.0000001000
43
0.0000001000
44
0.0000000001
40
0.0000000000
40
0.0000000000
40
0.0000000000
40
0.0000000000
40
1.0000000000
40
1.0000000000
40
1.0000000000
40
1.0000000000
10
77.8231252818
20
193.7655761142
30
0.0000000000
10
77.5835352377
20
193.5591088046
30
0.0000000000
10
77.3227781891
20
193.3770442559
30
0.0000000000
10
77.0519634788
20
193.2127662681
30
0.0000000000
11
77.8231252818
21
193.7655761142
31
0.0000000000
11
77.0519634788
21
193.2127662681
31
0.0000000000
0
SPLINE
5
4E6
100
AcDbEntity
8
0
100
AcDbSpline
62
7
6
BYLAYER
70
0
71
3
72
8
73
4
74
2
42
0.0000001000
43
0.0000001000
44
0.0000000001
40
0.0000000000
40
0.0000000000
40
0.0000000000
40
0.0000000000
40
1.0000000000
40
1.0000000000
40
1.0000000000
40
1.0000000000
10
77.0519634788
20
193.2127662681
30
0.0000000000
10
76.7399364716
20
193.0234886293
30
0.0000000000
10
76.4145577544
20
192.8578229404
30
0.0000000000
10
76.0816906764
20
192.7090606339
30
0.0000000000
11
77.0519634788
21
193.2127662681
31
0.0000000000
11
76.0816906764
21
192.7090606339
31
0.0000000000
0
SPLINE
5
4E7
100
AcDbEntity
8
0
100
AcDbSpline
62
7
6
BYLAYER
70
0
71
3
72
8
73
4
74
2
42
0.0000001000
43
0.0000001000
44
0.0000000001
40
0.0000000000
40
0.0000000000
40
0.0000000000
40
0.0000000000
40
1.0000000000
40
1.0000000000
40
1.0000000000
40
1.0000000000
10
76.0816906764
20
192.7090606339
30
0.0000000000
10
75.7079471019
20
192.5420301287
30
0.0000000000
10
75.3247630807
20
192.3963094249
30
0.0000000000
10
74.9365579996
20
192.2670488960
30
0.0000000000
11
76.0816906764
21
192.7090606339
31
0.0000000000
11
74.9365579996
21
192.2670488960
31
0.0000000000
0
SPLINE
5
4E8
100
AcDbEntity
8
0
100
AcDbSpline
62
7
6
BYLAYER
70
0
71
3
72
8
73
4
74
2
42
0.0000001000
43
0.0000001000
44
0.0000000001
40
0.0000000000
40
0.0000000000
40
0.0000000000
40
0.0000000000
40
1.0000000000
40
1.0000000000
40
1.0000000000
40
1.0000000000
10
114.7140517517
20
224.5189503640
30
0.0000000000
10
114.3629978643
20
224.4287254957
30
0.0000000000
10
114.0156754249
20
224.3219316787
30
0.0000000000
10
113.6765703139
20
224.1933025564
30
0.0000000000
11
114.7140517517
21
224.5189503640
31
0.0000000000
11
113.6765703139
21
224.1933025564
31
0.0000000000
0
SPLINE
5
4E9
100
AcDbEntity
8
0
100
AcDbSpline
62
7
6
BYLAYER
70
0
71
3
72
8
73
4
74
2
42
0.0000001000
43
0.0000001000
44
0.0000000001
40
0.0000000000
40
0.0000000000
40
0.0000000000
40
0.0000000000
40
1.0000000000
40
1.0000000000
40
1.0000000000
40
1.0000000000
10
113.6765703139
20
224.1933025564
30
0.0000000000
10
113.3786772748
20
224.0803059695
30
0.0000000000
10
113.0871255996
20
223.9504589401
30
0.0000000000
10
112.8081083146
20
223.7954957553
30
0.0000000000
11
113.6765703139
21
224.1933025564
31
0.0000000000
11
112.8081083146
21
223.7954957553
31
0.0000000000
0
SPLINE
5
4EA
100
AcDbEntity
8
0
100
AcDbSpline
62
7
6
BYLAYER
70
0
71
3
72
8
73
4
74
2
42
0.0000001000
43
0.0000001000
44
0.0000000001
40
0.0000000000
40
0.0000000000
40
0.0000000000
40
0.0000000000
40
1.0000000000
40
1.0000000000
40
1.0000000000
40
1.0000000000
10
112.8081083146
20
223.7954957553
30
0.0000000000
10
112.6088538865
20
223.6848319993
30
0.0000000000
10
112.4159917555
20
223.5613594887
30
0.0000000000
10
112.2381051192
20
223.4196290307
30
0.0000000000
11
112.8081083146
21
223.7954957553
31
0.0000000000
11
112.2381051192
21
223.4196290307
31
0.0000000000
0
SPLINE
5
4EB
100
AcDbEntity
8
0
100
AcDbSpline
62
7
6
BYLAYER
70
0
71
3
72
8
73
4
74
2
42
0.0000001000
43
0.0000001000
44
0.0000000001
40
0.0000000000
40
0.0000000000
40
0.0000000000
40
0.0000000000
40
1.0000000000
40
1.0000000000
40
1.0000000000
40
1.0000000000
10
112.2381051192
20
223.4196290307
30
0.0000000000
10
112.2062745731
20
223.3942681719
30
0.0000000000
10
112.1749235205
20
223.3683227202
30
0.0000000000
10
112.1441011371
20
223.3417614555
30
0.0000000000
11
112.2381051192
21
223.4196290307
31
0.0000000000
11
112.1441011371
21
223.3417614555
31
0.0000000000
0
SPLINE
5
4EC
100
AcDbEntity
8
0
100
AcDbSpline
62
7
6
BYLAYER
70
0
71
3
72
9
73
5
74
3
42
0.0000001000
43
0.0000001000
44
0.0000000001
40
0.0000000000
40
0.0000000000
40
0.0000000000
40
0.0000000000
40
0.4373733886
40
1.0000000000
40
1.0000000000
40
1.0000000000
40
1.0000000000
10
136.2042426063
20
231.5761483923
30
0.0000000000
10
136.1984487508
20
231.3297174602
30
0.0000000000
10
135.9712207191
20
230.7739696391
30
0.0000000000
10
135.5388911656
20
230.3981275914
30
0.0000000000
10
135.2781696989
20
230.2151101083
30
0.0000000000
11
136.2042426063
21
231.5761483923
31
0.0000000000
11
135.9604467681
21
230.8779940062
31
0.0000000000
11
135.2781696989
21
230.2151101083
31
0.0000000000
0
SPLINE
5
4ED
100
AcDbEntity
8
0
100
AcDbSpline
62
7
6
BYLAYER
70
0
71
3
72
8
73
4
74
2
42
0.0000001000
43
0.0000001000
44
0.0000000001
40
0.0000000000
40
0.0000000000
40
0.0000000000
40
0.0000000000
40
1.0000000000
40
1.0000000000
40
1.0000000000
40
1.0000000000
10
135.2781696989
20
230.2151101083
30
0.0000000000
10
134.9432011399
20
229.9799737255
30
0.0000000000
10
134.5793770146
20
229.7917838471
30
0.0000000000
10
134.2037778566
20
229.6325452275
30
0.0000000000
11
135.2781696989
21
230.2151101083
31
0.0000000000
11
134.2037778566
21
229.6325452275
31
0.0000000000
0
SPLINE
5
4EE
100
AcDbEntity
8
0
100
AcDbSpline
62
7
6
BYLAYER
70
0
71
3
72
8
73
4
74
2
42
0.0000001000
43
0.0000001000
44
0.0000000001
40
0.0000000000
40
0.0000000000
40
0.0000000000
40
0.0000000000
40
1.0000000000
40
1.0000000000
40
1.0000000000
40
1.0000000000
10
134.2037778566
20
229.6325452275
30
0.0000000000
10
133.7525411066
20
229.4412393748
30
0.0000000000
10
133.2843093308
20
229.2917191718
30
0.0000000000
10
132.8102851915
20
229.1698895409
30
0.0000000000
11
134.2037778566
21
229.6325452275
31
0.0000000000
11
132.8102851915
21
229.1698895409
31
0.0000000000
0
SPLINE
5
4EF
100
AcDbEntity
8
0
100
AcDbSpline
62
7
6
BYLAYER
70
0
71
3
72
9
73
5
74
3
42
0.0000001000
43
0.0000001000
44
0.0000000001
40
0.0000000000
40
0.0000000000
40
0.0000000000
40
0.0000000000
40
0.5685599767
40
1.0000000000
40
1.0000000000
40
1.0000000000
40
1.0000000000
10
138.1366434666
20
243.8518479699
30
0.0000000000
10
137.8339032965
20
243.7740402801
30
0.0000000000
10
137.3109121453
20
243.5930375415
30
0.0000000000
10
136.8349980729
20
243.3061741914
30
0.0000000000
10
136.6739270694
20
243.1224397331
30
0.0000000000
11
138.1366434666
21
243.8518479699
31
0.0000000000
11
137.2544177806
21
243.5339979058
31
0.0000000000
11
136.6739270694
21
243.1224397331
31
0.0000000000
0
SPLINE
5
4F0
100
AcDbEntity
8
0
100
AcDbSpline
62
7
6
BYLAYER
70
0
71
3
72
8
73
4
74
2
42
0.0000001000
43
0.0000001000
44
0.0000000001
40
0.0000000000
40
0.0000000000
40
0.0000000000
40
0.0000000000
40
1.0000000000
40
1.0000000000
40
1.0000000000
40
1.0000000000
10
136.6739270694
20
243.1224397331
30
0.0000000000
10
136.6076160202
20
243.0467984044
30
0.0000000000
10
136.5488060324
20
242.9609929029
30
0.0000000000
10
136.5105865727
20
242.8693963865
30
0.0000000000
11
136.6739270694
21
243.1224397331
31
0.0000000000
11
136.5105865727
21
242.8693963865
31
0.0000000000
0
SPLINE
5
4F1
100
AcDbEntity
8
0
100
AcDbSpline
62
7
6
BYLAYER
70
0
71
3
72
9
73
5
74
3
42
0.0000001000
43
0.0000001000
44
0.0000000001
40
0.0000000000
40
0.0000000000
40
0.0000000000
40
0.0000000000
40
0.4145238634
40
1.0000000000
40
1.0000000000
40
1.0000000000
40
1.0000000000
10
129.3998858812
20
231.8859461603
30
0.0000000000
10
129.3750857151
20
231.5491347654
30
0.0000000000
10
128.9072164818
20
230.7932981532
30
0.0000000000
10
128.2015042665
20
230.3718351007
30
0.0000000000
10
127.7705165008
20
230.1643422707
30
0.0000000000
11
129.3998858812
21
231.8859461603
31
0.0000000000
11
128.9463312233
21
230.9799655602
31
0.0000000000
11
127.7705165008
21
230.1643422707
31
0.0000000000
0
SPLINE
5
4F2
100
AcDbEntity
8
0
100
AcDbSpline
62
7
6
BYLAYER
70
0
71
3
72
8
73
4
74
2
42
0.0000001000
43
0.0000001000
44
0.0000000001
40
0.0000000000
40
0.0000000000
40
0.0000000000
40
0.0000000000
40
1.0000000000
40
1.0000000000
40
1.0000000000
40
1.0000000000
10
127.7705165008
20
230.1643422707
30
0.0000000000
10
127.2068602412
20
229.8929781119
30
0.0000000000
10
126.6127415023
20
229.6887708059
30
0.0000000000
10
126.0085422624
20
229.5334846838
30
0.0000000000
11
127.7705165008
21
230.1643422707
31
0.0000000000
11
126.0085422624
21
229.5334846838
31
0.0000000000
0
SPLINE
5
4F3
100
AcDbEntity
8
0
100
AcDbSpline
62
7
6
BYLAYER
70
0
71
3
72
9
73
5
74
3
42
0.0000001000
43
0.0000001000
44
0.0000000001
40
0.0000000000
40
0.0000000000
40
0.0000000000
40
0.0000000000
40
0.5668757850
40
1.0000000000
40
1.0000000000
40
1.0000000000
40
1.0000000000
10
132.1010307469
20
245.4066394926
30
0.0000000000
10
131.7831866112
20
245.3318848328
30
0.0000000000
10
131.2309236161
20
245.1538700614
30
0.0000000000
10
130.7259529485
20
244.8678775526
30
0.0000000000
10
130.5484745562
20
244.6817852236
30
0.0000000000
11
132.1010307469
21
245.4066394926
31
0.0000000000
11
131.1722548757
21
245.0953618595
31
0.0000000000
11
130.5484745562
21
244.6817852236
31
0.0000000000
0
SPLINE
5
4F4
100
AcDbEntity
8
0
100
AcDbSpline
62
7
6
BYLAYER
70
0
71
3
72
8
73
4
74
2
42
0.0000001000
43
0.0000001000
44
0.0000000001
40
0.0000000000
40
0.0000000000
40
0.0000000000
40
0.0000000000
40
1.0000000000
40
1.0000000000
40
1.0000000000
40
1.0000000000
10
130.5484745562
20
244.6817852236
30
0.0000000000
10
130.4726320414
20
244.6022616825
30
0.0000000000
10
130.4043199199
20
244.5113755136
30
0.0000000000
10
130.3597891738
20
244.4129982606
30
0.0000000000
11
130.5484745562
21
244.6817852236
31
0.0000000000
11
130.3597891738
21
244.4129982606
31
0.0000000000
0
SPLINE
5
4F5
100
AcDbEntity
8
0
100
AcDbSpline
62
7
6
BYLAYER
70
0
71
3
72
8
73
4
74
2
42
0.0000001000
43
0.0000001000
44
0.0000000001
40
0.0000000000
40
0.0000000000
40
0.0000000000
40
0.0000000000
40
1.0000000000
40
1.0000000000
40
1.0000000000
40
1.0000000000
10
71.6976289149
20
191.1885836544
30
0.0000000000
10
71.4503013264
20
191.1062310618
30
0.0000000000
10
71.2199946711
20
190.9698957322
30
0.0000000000
10
71.0171592825
20
190.8031786085
30
0.0000000000
11
71.6976289149
21
191.1885836544
31
0.0000000000
11
71.0171592825
21
190.8031786085
31
0.0000000000
0
SPLINE
5
4F6
100
AcDbEntity
8
0
100
AcDbSpline
62
7
6
BYLAYER
70
0
71
3
72
8
73
4
74
2
42
0.0000001000
43
0.0000001000
44
0.0000000001
40
0.0000000000
40
0.0000000000
40
0.0000000000
40
0.0000000000
40
1.0000000000
40
1.0000000000
40
1.0000000000
40
1.0000000000
10
71.0171592825
20
190.8031786085
30
0.0000000000
10
70.7955343051
20
190.6210176996
30
0.0000000000
10
70.6067059134
20
190.4025854700
30
0.0000000000
10
70.4516790117
20
190.1625832987
30
0.0000000000
11
71.0171592825
21
190.8031786085
31
0.0000000000
11
70.4516790117
21
190.1625832987
31
0.0000000000
0
SPLINE
5
4F7
100
AcDbEntity
8
0
100
AcDbSpline
62
7
6
BYLAYER
70
0
71
3
72
9
73
5
74
3
42
0.0000001000
43
0.0000001000
44
0.0000000001
40
0.0000000000
40
0.0000000000
40
0.0000000000
40
0.0000000000
40
0.5105194527
40
1.0000000000
40
1.0000000000
40
1.0000000000
40
1.0000000000
10
70.4516790117
20
190.1625832987
30
0.0000000000
10
70.2924747363
20
189.9161139997
30
0.0000000000
10
70.0504533919
20
189.3887739472
30
0.0000000000
10
69.9692569800
20
188.8101860328
30
0.0000000000
10
69.9794311408
20
188.5299243360
30
0.0000000000
11
70.4516790117
21
190.1625832987
31
0.0000000000
11
70.0872773478
21
189.3643225538
31
0.0000000000
11
69.9794311408
21
188.5299243360
31
0.0000000000
0
SPLINE
5
4F8
100
AcDbEntity
8
0
100
AcDbSpline
62
7
6
BYLAYER
70
0
71
3
72
12
73
8
74
6
42
0.0000001000
43
0.0000001000
44
0.0000000001
40
0.0000000000
40
0.0000000000
40
0.0000000000
40
0.0000000000
40
0.1954379085
40
0.3995997441
40
0.6061922367
40
0.8082066634
40
1.0000000000
40
1.0000000000
40
1.0000000000
40
1.0000000000
10
143.3065802282
20
249.3423142073
30
0.0000000000
10
143.3226796739
20
248.8988321283
30
0.0000000000
10
143.2151195863
20
247.9833706837
30
0.0000000000
10
142.6959656085
20
246.6934333270
30
0.0000000000
10
141.8647913498
20
245.5589583729
30
0.0000000000
10
140.7988266725
20
244.6860285975
30
0.0000000000
10
139.9653816235
20
244.3218546133
30
0.0000000000
10
139.5435909406
20
244.2134495787
30
0.0000000000
11
143.3065802282
21
249.3423142073
31
0.0000000000
11
143.1613353097
21
248.0189382848
31
0.0000000000
11
142.6473082370
21
246.7266683002
31
0.0000000000
11
141.8148155615
21
245.5920006436
31
0.0000000000
11
140.7453474665
21
244.7260044907
31
0.0000000000
11
139.5435909406
21
244.2134495787
31
0.0000000000
0
SPLINE
5
4F9
100
AcDbEntity
8
0
100
AcDbSpline
62
7
6
BYLAYER
70
0
71
3
72
10
73
6
74
4
42
0.0000001000
43
0.0000001000
44
0.0000000001
40
0.0000000000
40
0.0000000000
40
0.0000000000
40
0.0000000000
40
0.3233934932
40
0.6618809602
40
1.0000000000
40
1.0000000000
40
1.0000000000
40
1.0000000000
10
139.1065447385
20
251.2127535090
30
0.0000000000
10
139.1267158250
20
250.6571123051
30
0.0000000000
10
138.9414123271
20
249.5050818171
30
0.0000000000
10
138.1139017520
20
247.9659923922
30
0.0000000000
10
137.2597509079
20
247.1483632598
30
0.0000000000
10
136.7737544165
20
246.8221750508
30
0.0000000000
11
139.1065447385
21
251.2127535090
31
0.0000000000
11
138.8591208136
21
249.5631846006
31
0.0000000000
11
138.0399537883
21
248.0214184758
31
0.0000000000
11
136.7737544165
21
246.8221750508
31
0.0000000000
0
SPLINE
5
4FA
100
AcDbEntity
8
0
100
AcDbSpline
62
7
6
BYLAYER
70
0
71
3
72
8
73
4
74
2
42
0.0000001000
43
0.0000001000
44
0.0000000001
40
0.0000000000
40
0.0000000000
40
0.0000000000
40
0.0000000000
40
1.0000000000
40
1.0000000000
40
1.0000000000
40
1.0000000000
10
136.7737544165
20
246.8221750508
30
0.0000000000
10
136.3102630804
20
246.5110917168
30
0.0000000000
10
135.7929697578
20
246.2749570549
30
0.0000000000
10
135.2532900744
20
246.1480282661
30
0.0000000000
11
136.7737544165
21
246.8221750508
31
0.0000000000
11
135.2532900744
21
246.1480282661
31
0.0000000000
0
SPLINE
5
4FB
100
AcDbEntity
8
0
100
AcDbSpline
62
7
6
BYLAYER
70
0
71
3
72
8
73
4
74
2
42
0.0000001000
43
0.0000001000
44
0.0000000001
40
0.0000000000
40
0.0000000000
40
0.0000000000
40
0.0000000000
40
1.0000000000
40
1.0000000000
40
1.0000000000
40
1.0000000000
10
47.1700437529
20
183.2014792824
30
0.0000000000
10
47.4319643268
20
183.0394940011
30
0.0000000000
10
47.7561041426
20
182.9182173131
30
0.0000000000
10
48.0610672032
20
182.9572421501
30
0.0000000000
11
47.1700437529
21
183.2014792824
31
0.0000000000
11
48.0610672032
21
182.9572421501
31
0.0000000000
0
SPLINE
5
4FC
100
AcDbEntity
8
0
100
AcDbSpline
62
7
6
BYLAYER
70
0
71
3
72
8
73
4
74
2
42
0.0000001000
43
0.0000001000
44
0.0000000001
40
0.0000000000
40
0.0000000000
40
0.0000000000
40
0.0000000000
40
1.0000000000
40
1.0000000000
40
1.0000000000
40
1.0000000000
10
48.0610672032
20
182.9572421501
30
0.0000000000
10
48.1136207398
20
182.9639672045
30
0.0000000000
10
48.1656047884
20
182.9754526988
30
0.0000000000
10
48.2166453985
20
182.9911065674
30
0.0000000000
11
48.0610672032
21
182.9572421501
31
0.0000000000
11
48.2166453985
21
182.9911065674
31
0.0000000000
0
SPLINE
5
4FD
100
AcDbEntity
8
0
100
AcDbSpline
62
7
6
BYLAYER
70
0
71
3
72
9
73
5
74
3
42
0.0000001000
43
0.0000001000
44
0.0000000001
40
0.0000000000
40
0.0000000000
40
0.0000000000
40
0.0000000000
40
0.5845666024
40
1.0000000000
40
1.0000000000
40
1.0000000000
40
1.0000000000
10
47.5772374253
20
188.0520486565
30
0.0000000000
10
47.2509064080
20
187.9617270430
30
0.0000000000
10
46.7162920372
20
187.7569430125
30
0.0000000000
10
46.2073897161
20
187.4089710121
30
0.0000000000
10
46.0988127250
20
187.1896349580
30
0.0000000000
11
47.5772374253
21
188.0520486565
31
0.0000000000
11
46.6346572684
21
187.6733773103
31
0.0000000000
11
46.0988127250
21
187.1896349580
31
0.0000000000
0
SPLINE
5
4FE
100
AcDbEntity
8
0
100
AcDbSpline
62
7
6
BYLAYER
70
0
71
3
72
9
73
5
74
3
42
0.0000001000
43
0.0000001000
44
0.0000000001
40
0.0000000000
40
0.0000000000
40
0.0000000000
40
0.0000000000
40
0.3793988870
40
1.0000000000
40
1.0000000000
40
1.0000000000
40
1.0000000000
10
48.2166453985
20
182.9911065674
30
0.0000000000
10
48.4364259611
20
183.0585120321
30
0.0000000000
10
48.9696054826
20
183.4398882967
30
0.0000000000
10
49.1738431826
20
184.0298032454
30
0.0000000000
10
49.2562697542
20
184.3994607087
30
0.0000000000
11
48.2166453985
21
182.9911065674
31
0.0000000000
11
48.7936523530
21
183.3779172841
31
0.0000000000
11
49.2562697542
21
184.3994607087
31
0.0000000000
0
SPLINE
5
4FF
100
AcDbEntity
8
0
100
AcDbSpline
62
7
6
BYLAYER
70
0
71
3
72
8
73
4
74
2
42
0.0000001000
43
0.0000001000
44
0.0000000001
40
0.0000000000
40
0.0000000000
40
0.0000000000
40
0.0000000000
40
1.0000000000
40
1.0000000000
40
1.0000000000
40
1.0000000000
10
49.2562697542
20
184.3994607087
30
0.0000000000
10
49.3644634521
20
184.8846756962
30
0.0000000000
10
49.3962904169
20
185.3760167414
30
0.0000000000
10
49.3784901012
20
185.8663516980
30
0.0000000000
11
49.2562697542
21
184.3994607087
31
0.0000000000
11
49.3784901012
21
185.8663516980
31
0.0000000000
0
SPLINE
5
500
100
AcDbEntity
8
0
100
AcDbSpline
62
7
6
BYLAYER
70
0
71
3
72
10
73
6
74
4
42
0.0000001000
43
0.0000001000
44
0.0000000001
40
0.0000000000
40
0.0000000000
40
0.0000000000
40
0.0000000000
40
0.4489159975
40
0.7909193428
40
1.0000000000
40
1.0000000000
40
1.0000000000
40
1.0000000000
10
49.1253575462
20
192.8392471572
30
0.0000000000
10
49.1075572305
20
193.3295821137
30
0.0000000000
10
49.1636313339
20
194.1952477143
30
0.0000000000
10
49.5342421648
20
195.2657105585
30
0.0000000000
10
50.0674216863
20
195.6470868231
30
0.0000000000
10
50.2872022488
20
195.7144922878
30
0.0000000000
11
49.1253575462
21
192.8392471572
31
0.0000000000
11
49.2475778931
21
194.3061381465
31
0.0000000000
11
49.7101952944
21
195.3276815711
31
0.0000000000
11
50.2872022488
21
195.7144922878
31
0.0000000000
0
SPLINE
5
501
100
AcDbEntity
8
0
100
AcDbSpline
62
7
6
BYLAYER
70
0
71
3
72
8
73
4
74
2
42
0.0000001000
43
0.0000001000
44
0.0000000001
40
0.0000000000
40
0.0000000000
40
0.0000000000
40
0.0000000000
40
1.0000000000
40
1.0000000000
40
1.0000000000
40
1.0000000000
10
138.9727953237
20
259.9368248850
30
0.0000000000
10
139.3670739571
20
260.0381590078
30
0.0000000000
10
139.7809998511
20
260.0803440353
30
0.0000000000
10
140.1892039786
20
260.0457661100
30
0.0000000000
11
138.9727953237
21
259.9368248850
31
0.0000000000
11
140.1892039786
21
260.0457661100
31
0.0000000000
0
SPLINE
5
502
100
AcDbEntity
8
0
100
AcDbSpline
62
7
6
BYLAYER
70
0
71
3
72
9
73
5
74
3
42
0.0000001000
43
0.0000001000
44
0.0000000001
40
0.0000000000
40
0.0000000000
40
0.0000000000
40
0.0000000000
40
0.7487213325
40
1.0000000000
40
1.0000000000
40
1.0000000000
40
1.0000000000
10
140.1892039786
20
260.0457661100
30
0.0000000000
10
140.5746366572
20
260.0131170958
30
0.0000000000
10
141.0826113352
20
259.8781049341
30
0.0000000000
10
141.5297469117
20
259.6173052923
30
0.0000000000
10
141.6373461738
20
259.5446349674
30
0.0000000000
11
140.1892039786
21
260.0457661100
31
0.0000000000
11
141.3011942082
21
259.7404297219
31
0.0000000000
11
141.6373461738
21
259.5446349674
31
0.0000000000
0
ENDSEC
0
SECTION
2
OBJECTS
0
DICTIONARY
5
503
100
AcDbDictionary
3
ACAD_GROUP
350
504
3
ACAD_MLINESTYLE
350
505
0
DICTIONARY
5
504
102
{ACAD_REACTORS
330
503
102
}
100
AcDbDictionary
0
DICTIONARY
5
505
102
{ACAD_REACTORS
330
503
102
}
100
AcDbDictionary
3
STANDARD
350
506
0
MLINESTYLE
5
506
102
{ACAD_REACTORS
330
505
102
}
100
AcDbMlineStyle
2
STANDARD
70
0
3

62
256
51
90.0
52
90.0
71
2
49
0.5
62
256
6
BYLAYER
49
-0.5
62
256
6
BYLAYER
0
ENDSEC
0
EOF
