999
DXF file: td-1002-949.dxf
999
Pro/ENGINEER 2003060 by Parametric Technology Corporation
0
SECTION
2
HEADER
9
$ACADVER
1
AC1014
9
$HANDSEED
5
       4DA
9
$EXTMAX
10
420.0000000000
20
297.0000000000
9
$EXTMIN
10
0.0000000000
20
0.0000000000
9
$LIMMIN
10
0.0000000000
20
0.0000000000
9
$LIMMAX
10
420.0000000000
20
297.0000000000
9
$VIEWCTR
10
210.0000000000
20
148.5000000000
9
$VIEWSIZE
40
297.0000000000
9
$CLAYER
8
0
9
$LTSCALE
40
23.1000000000
9
$CELTYPE
6
BYLAYER
9
$DIMSCALE
40
1
9
$DIMASZ
40
5.0000000000
9
$DIMEXO
40
2.6250000000
9
$DIMDLI
40
15.9600000000
9
$DIMEXE
40
7.5600000000
9
$DIMCEN
40
3.7800000000
9
$DIMLFAC
40
1.0000000000
9
$DIMTXT
40
4.0000000000
9
$DIMTOL
70
1
9
$DIMLIM
70
0
9
$DIMTFAC
40
1.0000000000
9
$DIMTP
40
0.0100000000
9
$DIMTM
40
0.0100000000
0
ENDSEC
0
SECTION
2
CLASSES
0
ENDSEC
0
SECTION
2
TABLES
0
TABLE
2
VPORT
5
8
100
AcDbSymbolTable
70
2
0
VPORT
5
1F4
100
AcDbSymbolTableRecord
100
AcDbViewportTableRecord
2
*ACTIVE
70
0
10
0.0
20
0.0
11
1.0
21
1.0
12
210.0000000000
22
148.5000000000
13
0.0
23
0.0
14
1.0
24
1.0
15
0.0
25
0.0
16
0.0
26
0.0
36
1.0
17
0.0
27
0.0
37
0.0
40
297.0000000000
41
1.4141414141
42
50.0
43
0.0
44
0.0
50
0.0
51
0.0
71
0
72
100
73
1
74
1
75
0
76
0
77
0
78
0
0
ENDTAB
0
TABLE
2
LTYPE
5
5
100
AcDbSymbolTable
70
6
0
LTYPE
5
14
100
AcDbSymbolTableRecord
100
AcDbLinetypeTableRecord
2
BYBLOCK
70
0
3

72
65
73
0
40
0.0
0
LTYPE
5
15
100
AcDbSymbolTableRecord
100
AcDbLinetypeTableRecord
2
BYLAYER
70
0
3

72
65
73
0
40
0.0
0
LTYPE
5
16
100
AcDbSymbolTableRecord
100
AcDbLinetypeTableRecord
2
CONTINUOUS
70
64
3
Solid line
72
65
73
0
40
0
0
LTYPE
5
1F5
100
AcDbSymbolTableRecord
100
AcDbLinetypeTableRecord
2
CENTER
70
64
3
____ _ ____ _ ____ _ ____ _ ____ _ ____ _ ____
72
65
73
4
40
0.6
49
0.375
74
0
49
-0.075
74
0
49
0.075
74
0
49
-0.075
74
0
0
LTYPE
5
1F6
100
AcDbSymbolTableRecord
100
AcDbLinetypeTableRecord
2
HIDDEN
70
64
3
- - - - - - - - - - - - - - - - - - - -
72
65
73
2
40
0.2
49
0.1
74
0
49
-0.1
74
0
0
LTYPE
5
1F7
100
AcDbSymbolTableRecord
100
AcDbLinetypeTableRecord
2
PHANTOM
70
64
3
_____ _ _ _____ _ _ _____ _ _ _____
72
65
73
6
40
0.8
49
0.45
74
0
49
-0.05
74
0
49
0.1
74
0
49
-0.05
74
0
49
0.1
74
0
49
-0.05
74
0
0
LTYPE
5
1F8
100
AcDbSymbolTableRecord
100
AcDbLinetypeTableRecord
2
DOT
70
64
3
. . . . . . . . . . . . . . . . . . . .
72
65
73
2
40
0.2
49
0.1
74
0
49
-0.1
74
0
0
LTYPE
5
1F9
100
AcDbSymbolTableRecord
100
AcDbLinetypeTableRecord
2
DASHED
70
64
3
- - - - - - - - - - - - - - - - - - - -
72
65
73
2
40
0.2
49
0.1
74
0
49
-0.1
74
0
0
ENDTAB
0
TABLE
2
LAYER
5
2
100
AcDbSymbolTable
70
36
0
LAYER
5
10
100
AcDbSymbolTableRecord
100
AcDbLayerTableRecord
2
0
70
0
62
7
6
CONTINUOUS
0
LAYER
5
1FA
100
AcDbSymbolTableRecord
100
AcDbLayerTableRecord
2
DEFAULT_1
70
0
62
7
6
CENTER
0
LAYER
5
1FB
100
AcDbSymbolTableRecord
100
AcDbLayerTableRecord
2
DEFAULT_2
70
0
62
7
6
HIDDEN
0
LAYER
5
1FC
100
AcDbSymbolTableRecord
100
AcDbLayerTableRecord
2
DEFAULT_3
70
0
62
7
6
PHANTOM
0
LAYER
5
1FD
100
AcDbSymbolTableRecord
100
AcDbLayerTableRecord
2
AXIS
70
0
62
7
6
CONTINUOUS
0
LAYER
5
1FE
100
AcDbSymbolTableRecord
100
AcDbLayerTableRecord
2
CSYS
70
0
62
7
6
CONTINUOUS
0
LAYER
5
1FF
100
AcDbSymbolTableRecord
100
AcDbLayerTableRecord
2
CURVES
70
0
62
7
6
CONTINUOUS
0
LAYER
5
200
100
AcDbSymbolTableRecord
100
AcDbLayerTableRecord
2
DTMS
70
0
62
7
6
CONTINUOUS
0
LAYER
5
201
100
AcDbSymbolTableRecord
100
AcDbLayerTableRecord
2
GEOM
70
0
62
7
6
CONTINUOUS
0
LAYER
5
202
100
AcDbSymbolTableRecord
100
AcDbLayerTableRecord
2
PLANES
70
0
62
7
6
CONTINUOUS
0
LAYER
5
203
100
AcDbSymbolTableRecord
100
AcDbLayerTableRecord
2
POINTS
70
0
62
7
6
CONTINUOUS
0
LAYER
5
204
100
AcDbSymbolTableRecord
100
AcDbLayerTableRecord
2
SKELETON
70
0
62
7
6
CONTINUOUS
0
ENDTAB
0
TABLE
2
STYLE
5
3
100
AcDbSymbolTable
70
1
0
STYLE
5
11
100
AcDbSymbolTableRecord
100
AcDbTextStyleTableRecord
2
STANDARD
70
0
40
0.0
41
0.8000000000
50
0.0
71
0
42
0.2
3
txt
4

0
STYLE
5
205
100
AcDbSymbolTableRecord
100
AcDbTextStyleTableRecord
2
TEXTSTYLE_1
70
0
40
0.0
41
0.8000000000
50
0.0
71
0
42
0.2
3
txt
4

0
STYLE
5
206
100
AcDbSymbolTableRecord
100
AcDbTextStyleTableRecord
2
TEXTSTYLE_2
70
0
40
0.0
41
0.8000000000
50
0.0
71
0
42
0.2
3
cgtime.ttf
4

0
ENDTAB
0
TABLE
2
VIEW
5
6
100
AcDbSymbolTable
70
0
0
ENDTAB
0
TABLE
2
UCS
5
7
100
AcDbSymbolTable
70
0
0
ENDTAB
0
TABLE
2
APPID
5
9
100
AcDbSymbolTable
70
1
0
APPID
5
207
100
AcDbSymbolTableRecord
100
AcDbRegAppTableRecord
2
ACAD
70
0
0
ENDTAB
0
TABLE
2
DIMSTYLE
5
A
100
AcDbSymbolTable
70
1
0
DIMSTYLE
105
208
100
AcDbSymbolTableRecord
100
AcDbDimStyleTableRecord
2
STANDARD
70
0
3

4

5

6

7

40
1.0
41
5.0000000000
42
0.0625
43
0.38
44
0.18
45
0.0
46
0.0
47
0.0100000000
48
0.0100000000
140
4.0000000000
141
0.09
142
0.0
143
25.4
144
1.0000000000
145
0.0
146
1.0000000000
147
0.09
71
1
72
0
73
0
74
0
75
0
76
0
77
1
78
8
170
0
171
2
172
0
173
0
174
0
175
0
176
0
177
0
178
0
270
2
271
2
272
2
273
2
274
2
340
11
275
0
280
0
281
0
282
0
283
1
284
8
285
0
286
0
287
3
288
0
0
DIMSTYLE
105
209
100
AcDbSymbolTableRecord
100
AcDbDimStyleTableRecord
2
DIMSTYLE_1
70
0
3

4

5

6

7

40
1.0
41
5.0000000000
42
0.0625
43
0.38
44
0.18
45
0.0
46
0.0
47
0.3000000000
48
0.3000000000
140
4.0000000000
141
0.09
142
0.0
143
25.4
144
1.0000000000
145
0.0
146
1.0000000000
147
0.09
71
0
72
0
73
0
74
0
75
0
76
0
77
1
78
8
170
0
171
2
172
0
173
0
174
0
175
0
176
0
177
0
178
0
270
2
271
2
272
2
273
2
274
2
340
11
275
0
280
0
281
0
282
0
283
1
284
8
285
0
286
0
287
3
288
0
0
DIMSTYLE
105
20A
100
AcDbSymbolTableRecord
100
AcDbDimStyleTableRecord
2
DIMSTYLE_2
70
0
3

4

5

6

7

40
1.0
41
5.0000000000
42
0.0625
43
0.38
44
0.18
45
0.0
46
0.0
47
0.2000000000
48
0.2000000000
140
4.0000000000
141
0.09
142
0.0
143
25.4
144
1.0000000000
145
0.0
146
1.0000000000
147
0.09
71
0
72
0
73
0
74
0
75
0
76
0
77
1
78
8
170
0
171
2
172
0
173
0
174
0
175
0
176
0
177
0
178
0
270
2
271
2
272
2
273
2
274
2
340
11
275
0
280
0
281
0
282
0
283
1
284
8
285
0
286
0
287
3
288
0
0
DIMSTYLE
105
20B
100
AcDbSymbolTableRecord
100
AcDbDimStyleTableRecord
2
DIMSTYLE_3
70
0
3

4

5

6

7

40
1.0
41
5.0000000000
42
0.0625
43
0.38
44
0.18
45
0.0
46
0.0
47
0.5000000000
48
0.5000000000
140
4.0000000000
141
0.09
142
0.0
143
25.4
144
1.0000000000
145
0.0
146
1.0000000000
147
0.09
71
0
72
0
73
0
74
0
75
0
76
0
77
1
78
8
170
0
171
2
172
0
173
0
174
0
175
0
176
0
177
0
178
0
270
2
271
1
272
1
273
2
274
2
340
11
275
0
280
0
281
0
282
0
283
1
284
8
285
0
286
0
287
3
288
0
0
ENDTAB
0
TABLE
2
BLOCK_RECORD
5
1
100
AcDbSymbolTable
70
0
0
BLOCK_RECORD
5
1B
100
AcDbSymbolTableRecord
100
AcDbBlockTableRecord
2
*MODEL_SPACE
0
BLOCK_RECORD
5
1C
100
AcDbSymbolTableRecord
100
AcDbBlockTableRecord
2
*PAPER_SPACE
0
BLOCK_RECORD
5
20C
100
AcDbSymbolTableRecord
100
AcDbBlockTableRecord
2
COPYRIGHT_BL0
0
BLOCK_RECORD
5
20D
100
AcDbSymbolTableRecord
100
AcDbBlockTableRecord
2
MICRO_U_BL1
0
BLOCK_RECORD
5
20E
100
AcDbSymbolTableRecord
100
AcDbBlockTableRecord
2
PROJECTION_BL2
0
BLOCK_RECORD
5
20F
100
AcDbSymbolTableRecord
100
AcDbBlockTableRecord
2
SURFACE_FINISH_BL3
0
BLOCK_RECORD
5
210
100
AcDbSymbolTableRecord
100
AcDbBlockTableRecord
2
*D0
0
BLOCK_RECORD
5
211
100
AcDbSymbolTableRecord
100
AcDbBlockTableRecord
2
*D1
0
BLOCK_RECORD
5
212
100
AcDbSymbolTableRecord
100
AcDbBlockTableRecord
2
*D2
0
BLOCK_RECORD
5
213
100
AcDbSymbolTableRecord
100
AcDbBlockTableRecord
2
*D3
0
BLOCK_RECORD
5
214
100
AcDbSymbolTableRecord
100
AcDbBlockTableRecord
2
*D4
0
BLOCK_RECORD
5
215
100
AcDbSymbolTableRecord
100
AcDbBlockTableRecord
2
*D5
0
BLOCK_RECORD
5
216
100
AcDbSymbolTableRecord
100
AcDbBlockTableRecord
2
*D6
0
BLOCK_RECORD
5
217
100
AcDbSymbolTableRecord
100
AcDbBlockTableRecord
2
*D7
0
BLOCK_RECORD
5
218
100
AcDbSymbolTableRecord
100
AcDbBlockTableRecord
2
COPYRIGHT_BL4
0
BLOCK_RECORD
5
219
100
AcDbSymbolTableRecord
100
AcDbBlockTableRecord
2
MICRO_U_BL5
0
BLOCK_RECORD
5
21A
100
AcDbSymbolTableRecord
100
AcDbBlockTableRecord
2
SURFACE_FINISH_BL6
0
BLOCK_RECORD
5
21B
100
AcDbSymbolTableRecord
100
AcDbBlockTableRecord
2
PROJECTION_BL7
0
ENDTAB
0
ENDSEC
0
SECTION
2
BLOCKS
0
BLOCK
5
1E
100
AcDbEntity
8
0
100
AcDbBlockBegin
2
*MODEL_SPACE
70
0
10
0.0
20
0.0
30
0.0
3
*MODEL_SPACE
1

0
ENDBLK
5
1F
100
AcDbEntity
8
0
100
AcDbBlockEnd
0
BLOCK
5
20
100
AcDbEntity
8
0
100
AcDbBlockBegin
2
*PAPER_SPACE
70
0
10
0.0
20
0.0
30
0.0
3
*PAPER_SPACE
1

0
ENDBLK
5
21
100
AcDbEntity
8
0
100
AcDbBlockEnd
0
BLOCK
5
21C
100
AcDbEntity
8
0
100
AcDbBlockBegin
62
7
6
BYLAYER
2
COPYRIGHT_BL0
70
64
10
0.0000000000
20
0.0000000000
3
COPYRIGHT_BL0
1

0
TEXT
5
21D
100
AcDbEntity
8
0
100
AcDbText
62
7
6
BYLAYER
10
409.9593803245
20
9.9568590072
7
TEXTSTYLE_1
40
0.1000000000
1
C
41
0.8000000000
72
0
100
AcDbText
0
CIRCLE
5
21E
100
AcDbEntity
8
0
100
AcDbCircle
62
7
6
BYLAYER
10
409.9943527832
20
10.0069663115
40
0.0753936874
0
ENDBLK
5
21F
100
AcDbEntity
8
0
100
AcDbBlockEnd
0
BLOCK
5
220
100
AcDbEntity
8
0
100
AcDbBlockBegin
62
7
6
BYLAYER
2
MICRO_U_BL1
70
64
10
0.0000000000
20
0.0000000000
3
MICRO_U_BL1
1

0
TEXT
5
221
100
AcDbEntity
8
0
100
AcDbText
62
7
6
BYLAYER
10
409.9173172813
20
9.9658183152
7
STANDARD
40
0.1000000000
1
um
41
0.8000000000
72
0
100
AcDbText
0
ARC
5
222
100
AcDbEntity
8
0
100
AcDbCircle
62
7
6
BYLAYER
10
409.8795565990
20
9.9804558390
40
0.0627552936
100
AcDbArc
50
303.7730668774
51
1.5957171757
0
ENDBLK
5
223
100
AcDbEntity
8
0
100
AcDbBlockEnd
0
BLOCK
5
224
100
AcDbEntity
8
0
100
AcDbBlockBegin
62
7
6
BYLAYER
2
PROJECTION_BL2
70
64
10
0.0000000000
20
0.0000000000
3
PROJECTION_BL2
1

0
LINE
5
225
100
AcDbEntity
8
0
100
AcDbLine
62
7
6
BYLAYER
10
409.6178469936
20
9.9332236616
11
409.6178469936
21
10.0582236616
0
LINE
5
226
100
AcDbEntity
8
0
100
AcDbLine
62
7
6
BYLAYER
10
409.6178469936
20
10.0582236616
11
409.7928469936
21
10.1207236616
0
LINE
5
227
100
AcDbEntity
8
0
100
AcDbLine
62
7
6
BYLAYER
10
409.7928469936
20
10.1207236616
11
409.7928469936
21
9.8707236616
0
LINE
5
228
100
AcDbEntity
8
0
100
AcDbLine
62
7
6
BYLAYER
10
409.7928469936
20
9.8707236616
11
409.6178469936
21
9.9332236616
0
ARC
5
229
100
AcDbEntity
8
0
100
AcDbCircle
62
7
6
BYLAYER
10
409.2678469936
20
9.9957236616
40
0.0625000000
100
AcDbArc
50
180.0000000000
51
360.0000000000
0
ARC
5
22A
100
AcDbEntity
8
0
100
AcDbCircle
62
7
6
BYLAYER
10
409.2678469936
20
9.9957236616
40
0.0625000000
100
AcDbArc
50
0.0000000000
51
180.0000000000
0
ARC
5
22B
100
AcDbEntity
8
0
100
AcDbCircle
62
7
6
BYLAYER
10
409.2678469936
20
9.9957236616
40
0.1250000000
100
AcDbArc
50
180.0000000000
51
360.0000000000
0
ARC
5
22C
100
AcDbEntity
8
0
100
AcDbCircle
62
7
6
BYLAYER
10
409.2678469936
20
9.9957236616
40
0.1250000000
100
AcDbArc
50
0.0000000000
51
180.0000000000
0
LINE
5
22D
100
AcDbEntity
8
0
100
AcDbLine
62
7
6
BYLAYER
10
409.0671219936
20
9.9957236616
11
409.4456219936
21
9.9957236616
0
LINE
5
22E
100
AcDbEntity
8
0
100
AcDbLine
62
7
6
BYLAYER
10
409.5241469936
20
9.9957236616
11
409.8669219936
21
9.9957236616
0
LINE
5
22F
100
AcDbEntity
8
0
100
AcDbLine
62
7
6
BYLAYER
10
409.2678469936
20
10.1398736616
11
409.2678469936
21
9.8515736616
0
TEXT
5
230
100
AcDbEntity
8
0
100
AcDbText
62
7
6
BYLAYER
10
409.2283663134
20
9.9568432128
7
STANDARD
40
0.1000000000
1
l
41
0.8000000000
72
0
100
AcDbText
0
ENDBLK
5
231
100
AcDbEntity
8
0
100
AcDbBlockEnd
0
BLOCK
5
232
100
AcDbEntity
8
0
100
AcDbBlockBegin
62
7
6
BYLAYER
2
SURFACE_FINISH_BL3
70
64
10
0.0000000000
20
0.0000000000
3
SURFACE_FINISH_BL3
1

0
LINE
5
233
100
AcDbEntity
8
0
100
AcDbLine
62
7
6
BYLAYER
10
409.9768652881
20
9.9666906703
11
410.0571314064
21
10.1057156653
0
LINE
5
234
100
AcDbEntity
8
0
100
AcDbLine
62
7
6
BYLAYER
10
409.9768652881
20
9.9666906703
11
409.9405459599
21
10.0295975921
0
LINE
5
235
100
AcDbEntity
8
0
100
AcDbLine
62
7
6
BYLAYER
10
409.9405459599
20
10.0295975921
11
410.0131846164
21
10.0295975921
0
TEXT
5
236
100
AcDbEntity
8
0
100
AcDbText
62
7
6
BYLAYER
10
409.9369531437
20
9.9795701528
7
STANDARD
40
0.1000000000
1
-
41
0.8000000000
72
0
100
AcDbText
0
ENDBLK
5
237
100
AcDbEntity
8
0
100
AcDbBlockEnd
0
BLOCK
5
238
100
AcDbEntity
8
0
100
AcDbBlockBegin
62
7
6
BYLAYER
2
*D0
70
65
10
0.0000000000
20
0.0000000000
3
*D0
1

0
TEXT
5
239
100
AcDbEntity
8
0
100
AcDbText
62
7
6
BYLAYER
10
149.1053517179
20
150.6265646565
7
STANDARD
40
4.0000000000
1
40
41
0.8000000000
72
0
100
AcDbText
0
LINE
5
23A
100
AcDbEntity
8
0
100
AcDbLine
62
7
6
BYLAYER
10
175.9536098314
20
132.6768704250
11
175.9536098314
21
152.6265646565
0
LINE
5
23B
100
AcDbEntity
8
0
100
AcDbLine
62
7
6
BYLAYER
10
135.9536098314
20
132.6768704250
11
135.9536098314
21
152.6265646565
0
LINE
5
23C
100
AcDbEntity
8
0
100
AcDbLine
62
7
6
BYLAYER
10
175.9536098314
20
149.6265646565
11
155.9536098314
21
149.6265646565
0
LINE
5
23D
100
AcDbEntity
8
0
100
AcDbLine
62
7
6
BYLAYER
10
135.9536098314
20
149.6265646565
11
155.9536098314
21
149.6265646565
0
SOLID
5
23E
100
AcDbEntity
8
0
100
AcDbTrace
62
7
6
BYLAYER
10
170.9536098314
20
148.8265646565
11
175.9536098314
21
149.6265646565
12
170.9536098314
22
150.4265646565
13
170.9536098314
23
150.4265646565
0
SOLID
5
23F
100
AcDbEntity
8
0
100
AcDbTrace
62
7
6
BYLAYER
10
140.9536098314
20
150.4265646565
11
135.9536098314
21
149.6265646565
12
140.9536098314
22
148.8265646565
13
140.9536098314
23
148.8265646565
0
ENDBLK
5
240
100
AcDbEntity
8
0
100
AcDbBlockEnd
0
BLOCK
5
241
100
AcDbEntity
8
0
100
AcDbBlockBegin
62
7
6
BYLAYER
2
*D1
70
65
10
0.0000000000
20
0.0000000000
3
*D1
1

0
TEXT
5
242
100
AcDbEntity
8
0
100
AcDbText
62
7
6
BYLAYER
10
117.2594621904
20
112.4738000967
7
STANDARD
40
4.0000000000
1
27.8
50
90.0000000000
41
0.8000000000
72
0
100
AcDbText
0
LINE
5
243
100
AcDbEntity
8
0
100
AcDbLine
62
7
6
BYLAYER
10
133.9536098314
20
130.6768704250
11
115.2594621904
21
130.6768704250
0
LINE
5
244
100
AcDbEntity
8
0
100
AcDbLine
62
7
6
BYLAYER
10
133.9536098314
20
102.8768704250
11
115.2594621904
21
102.8768704250
0
LINE
5
245
100
AcDbEntity
8
0
100
AcDbLine
62
7
6
BYLAYER
10
118.2594621904
20
130.6768704250
11
118.2594621904
21
116.7768704250
0
LINE
5
246
100
AcDbEntity
8
0
100
AcDbLine
62
7
6
BYLAYER
10
118.2594621904
20
102.8768704250
11
118.2594621904
21
116.7768704250
0
SOLID
5
247
100
AcDbEntity
8
0
100
AcDbTrace
62
7
6
BYLAYER
10
119.0594621904
20
125.6768704250
11
118.2594621904
21
130.6768704250
12
117.4594621904
22
125.6768704250
13
117.4594621904
23
125.6768704250
0
SOLID
5
248
100
AcDbEntity
8
0
100
AcDbTrace
62
7
6
BYLAYER
10
117.4594621904
20
107.8768704250
11
118.2594621904
21
102.8768704250
12
119.0594621904
22
107.8768704250
13
119.0594621904
23
107.8768704250
0
ENDBLK
5
249
100
AcDbEntity
8
0
100
AcDbBlockEnd
0
BLOCK
5
24A
100
AcDbEntity
8
0
100
AcDbBlockBegin
62
7
6
BYLAYER
2
*D2
70
65
10
0.0000000000
20
0.0000000000
3
*D2
1

0
TEXT
5
24B
100
AcDbEntity
8
0
100
AcDbText
62
7
6
BYLAYER
10
259.6888086541
20
96.8241967668
7
STANDARD
40
4.0000000000
1
10%%d
50
77.5361554094
41
0.7555555556
72
0
100
AcDbText
0
LINE
5
24C
100
AcDbEntity
8
0
100
AcDbLine
62
7
6
BYLAYER
10
220.9259651236
20
110.4768704250
11
270.6746937549
21
110.4768704250
0
LINE
5
24D
100
AcDbEntity
8
0
100
AcDbLine
62
7
6
BYLAYER
10
222.1229839905
20
111.0382309749
11
269.8949357856
21
119.4264483263
0
ARC
5
24E
100
AcDbEntity
8
0
100
AcDbCircle
62
7
6
BYLAYER
10
218.9259651236
20
110.4768704250
40
48.7487286313
100
AcDbArc
50
347.5361554094
51
360.0000000000
0
ARC
5
24F
100
AcDbEntity
8
0
100
AcDbCircle
62
7
6
BYLAYER
10
218.9259651236
20
110.4768704250
40
48.7487286313
100
AcDbArc
50
9.9589728084
51
21.7122597395
0
SOLID
5
250
100
AcDbEntity
8
0
100
AcDbTrace
62
7
6
BYLAYER
10
267.6746937549
20
110.4768704250
11
268.2173374282
21
105.4424352189
12
266.6194409559
22
105.5244526790
13
266.6194409559
23
105.5244526790
0
SOLID
5
251
100
AcDbEntity
8
0
100
AcDbTrace
62
7
6
BYLAYER
10
266.9401402567
20
118.9076194698
11
265.0443024271
21
123.6029148730
12
266.6039372028
22
123.9600414144
13
266.6039372028
23
123.9600414144
0
ENDBLK
5
252
100
AcDbEntity
8
0
100
AcDbBlockEnd
0
BLOCK
5
253
100
AcDbEntity
8
0
100
AcDbBlockBegin
62
7
6
BYLAYER
2
*D3
70
65
10
0.0000000000
20
0.0000000000
3
*D3
1

0
TEXT
5
254
100
AcDbEntity
8
0
100
AcDbText
62
7
6
BYLAYER
10
252.4216948066
20
132.2382334860
7
STANDARD
40
4.0000000000
1
10.6%%d
50
76.0951421024
41
0.7733333333
72
0
100
AcDbText
0
LINE
5
255
100
AcDbEntity
8
0
100
AcDbLine
62
7
6
BYLAYER
10
287.5815878437
20
131.0283925826
11
256.2165711560
21
131.3863383363
0
LINE
5
256
100
AcDbEntity
8
0
100
AcDbLine
62
7
6
BYLAYER
10
286.7242331441
20
130.5038730703
11
256.7171785967
21
125.2349718393
0
ARC
5
257
100
AcDbEntity
8
0
100
AcDbCircle
62
7
6
BYLAYER
10
289.5814576167
20
131.0055695469
40
30.3670591064
100
AcDbArc
50
166.0951421024
51
179.3461540000
0
ARC
5
258
100
AcDbEntity
8
0
100
AcDbCircle
62
7
6
BYLAYER
10
289.5814576167
20
131.0055695469
40
30.3670591064
100
AcDbArc
50
189.9589728084
51
208.8267134455
0
SOLID
5
259
100
AcDbEntity
8
0
100
AcDbTrace
62
7
6
BYLAYER
10
259.2163758155
20
131.3521037829
11
258.8878909507
21
136.4050333978
12
260.4808666740
22
136.2552724388
13
260.4808666740
23
136.2552724388
0
SOLID
5
25A
100
AcDbEntity
8
0
100
AcDbTrace
62
7
6
BYLAYER
10
259.6719741256
20
125.7538006959
11
261.7126296221
21
121.1196098124
12
260.1648306321
22
120.7142478919
13
260.1648306321
23
120.7142478919
0
ENDBLK
5
25B
100
AcDbEntity
8
0
100
AcDbBlockEnd
0
BLOCK
5
25C
100
AcDbEntity
8
0
100
AcDbBlockBegin
62
7
6
BYLAYER
2
*D4
70
65
10
0.0000000000
20
0.0000000000
3
*D4
1

0
TEXT
5
25D
100
AcDbEntity
8
0
100
AcDbText
62
7
6
BYLAYER
10
340.6794767642
20
140.9201192826
7
STANDARD
40
4.0000000000
1
60.1%%d
50
-64.8859805507
41
0.7733333333
72
0
100
AcDbText
0
LINE
5
25E
100
AcDbEntity
8
0
100
AcDbLine
62
7
6
BYLAYER
10
321.9408507824
20
122.6357547675
11
343.4680120596
21
122.3900811865
0
LINE
5
25F
100
AcDbEntity
8
0
100
AcDbLine
62
7
6
BYLAYER
10
327.8977108248
20
136.1170381832
11
331.9151157415
21
142.9123028405
0
ARC
5
260
100
AcDbEntity
8
0
100
AcDbCircle
62
7
6
BYLAYER
10
319.9409810093
20
122.6585778032
40
20.5285630771
100
AcDbArc
50
359.3461540000
51
29.3771484222
0
ARC
5
261
100
AcDbEntity
8
0
100
AcDbCircle
62
7
6
BYLAYER
10
319.9409810093
20
122.6585778032
40
20.5285630771
100
AcDbArc
50
29.3771484222
51
59.4081428443
0
SOLID
5
262
100
AcDbEntity
8
0
100
AcDbTrace
62
7
6
BYLAYER
10
340.4682074001
20
122.4243157399
11
339.1223458920
21
127.3057762592
12
340.7126105911
22
127.4820095899
13
340.7126105911
23
127.4820095899
0
SOLID
5
263
100
AcDbEntity
8
0
100
AcDbTrace
62
7
6
BYLAYER
10
330.3883584942
20
140.3298597516
11
334.8392119316
21
137.9153404043
12
333.8636562695
22
136.6471562103
13
333.8636562695
23
136.6471562103
0
ENDBLK
5
264
100
AcDbEntity
8
0
100
AcDbBlockEnd
0
BLOCK
5
265
100
AcDbEntity
8
0
100
AcDbBlockBegin
62
7
6
BYLAYER
2
*D5
70
65
10
0.0000000000
20
0.0000000000
3
*D5
1

0
TEXT
5
266
100
AcDbEntity
8
0
100
AcDbText
62
7
6
BYLAYER
10
354.4254950304
20
142.3577844441
7
STANDARD
40
4.0000000000
1
60%%d
50
-70.8127388345
41
0.7555555556
72
0
100
AcDbText
0
LINE
5
267
100
AcDbEntity
8
0
100
AcDbLine
62
7
6
BYLAYER
10
321.1906584451
20
122.6443161582
11
355.5029510313
21
122.2527353230
0
LINE
5
268
100
AcDbEntity
8
0
100
AcDbLine
62
7
6
BYLAYER
10
330.2479421725
20
153.7743618628
11
334.1079468449
21
160.2920570749
0
ARC
5
269
100
AcDbEntity
8
0
100
AcDbCircle
62
7
6
BYLAYER
10
311.8746164088
20
122.7506332606
40
40.6311756005
100
AcDbArc
50
359.3461540000
51
29.3553343156
0
ARC
5
26A
100
AcDbEntity
8
0
100
AcDbCircle
62
7
6
BYLAYER
10
311.8746164088
20
122.7506332606
40
40.6311756005
100
AcDbArc
50
29.3553343156
51
59.3645146312
0
SOLID
5
26B
100
AcDbEntity
8
0
100
AcDbTrace
62
7
6
BYLAYER
10
352.5031463717
20
122.2869698764
11
351.4536690357
21
127.2406147286
12
353.0516600579
22
127.3207689125
13
353.0516600579
23
127.3207689125
0
SOLID
5
26C
100
AcDbEntity
8
0
100
AcDbTrace
62
7
6
BYLAYER
10
332.5792236237
20
157.7107772928
11
337.1657606018
21
155.5651588394
12
336.2673317812
22
154.2412156176
13
336.2673317812
23
154.2412156176
0
ENDBLK
5
26D
100
AcDbEntity
8
0
100
AcDbBlockEnd
0
BLOCK
5
26E
100
AcDbEntity
8
0
100
AcDbBlockBegin
62
7
6
BYLAYER
2
*D6
70
65
10
0.0000000000
20
0.0000000000
3
*D6
1

0
TEXT
5
26F
100
AcDbEntity
8
0
100
AcDbText
62
7
6
BYLAYER
10
366.3349657930
20
186.8980005050
7
STANDARD
40
4.0000000000
1
60%%d
50
-57.0030832358
41
0.7555555556
72
0
100
AcDbText
0
LINE
5
270
100
AcDbEntity
8
0
100
AcDbLine
62
7
6
BYLAYER
10
363.0929335241
20
156.1683304653
11
373.6575530203
21
156.0477642712
0
LINE
5
271
100
AcDbEntity
8
0
100
AcDbLine
62
7
6
BYLAYER
10
328.9708639998
20
158.2902244055
11
351.2437570256
21
195.8984504452
0
ARC
5
272
100
AcDbEntity
8
0
100
AcDbCircle
62
7
6
BYLAYER
10
327.9517151856
20
156.5693712175
40
42.7088140950
100
AcDbArc
50
359.3461540000
51
29.3553343156
0
ARC
5
273
100
AcDbEntity
8
0
100
AcDbCircle
62
7
6
BYLAYER
10
327.9517151856
20
156.5693712175
40
42.7088140950
100
AcDbArc
50
29.3553343156
51
59.3645146312
0
SOLID
5
274
100
AcDbEntity
8
0
100
AcDbTrace
62
7
6
BYLAYER
10
370.6577483607
20
156.0819988247
11
369.6231028633
21
161.0387627584
12
371.2213266428
22
161.1141335129
13
371.2213266428
23
161.1141335129
0
SOLID
5
275
100
AcDbEntity
8
0
100
AcDbTrace
62
7
6
BYLAYER
10
349.7150338044
20
193.3171706632
11
354.3079724533
21
191.1852901395
12
353.4135104541
22
189.8586636917
13
353.4135104541
23
189.8586636917
0
ENDBLK
5
276
100
AcDbEntity
8
0
100
AcDbBlockEnd
0
BLOCK
5
277
100
AcDbEntity
8
0
100
AcDbBlockBegin
62
7
6
BYLAYER
2
*D7
70
65
10
0.0000000000
20
0.0000000000
3
*D7
1

0
TEXT
5
278
100
AcDbEntity
8
0
100
AcDbText
62
7
6
BYLAYER
10
354.8518423242
20
176.5437185430
7
STANDARD
40
4.0000000000
1
60.4%%d
50
-52.7525411146
41
0.7733333333
72
0
100
AcDbText
0
LINE
5
279
100
AcDbEntity
8
0
100
AcDbLine
62
7
6
BYLAYER
10
359.0467842105
20
148.7447870704
11
363.6603990464
21
148.6642561239
0
LINE
5
27A
100
AcDbEntity
8
0
100
AcDbLine
62
7
6
BYLAYER
10
332.7136581180
20
150.9438286534
11
347.9656821945
21
176.7419601107
0
ARC
5
27B
100
AcDbEntity
8
0
100
AcDbCircle
62
7
6
BYLAYER
10
331.6958199532
20
149.2221999274
40
28.9694481951
100
AcDbArc
50
359.0000000000
51
29.2040714222
0
ARC
5
27C
100
AcDbEntity
8
0
100
AcDbCircle
62
7
6
BYLAYER
10
331.6958199532
20
149.2221999274
40
28.9694481951
100
AcDbArc
50
29.2040714222
51
59.4081428443
0
SOLID
5
27D
100
AcDbEntity
8
0
100
AcDbTrace
62
7
6
BYLAYER
10
360.6608559610
20
148.7166133432
11
359.5188002877
21
153.6497369824
12
361.1150101307
22
153.7598012229
13
361.1150101307
23
153.7598012229
0
SOLID
5
27E
100
AcDbEntity
8
0
100
AcDbTrace
62
7
6
BYLAYER
10
346.4389249472
20
174.1595170217
11
350.9726348216
21
171.9044172957
12
350.0426837122
22
170.6024223134
13
350.0426837122
23
170.6024223134
0
ENDBLK
5
27F
100
AcDbEntity
8
0
100
AcDbBlockEnd
0
BLOCK
5
280
100
AcDbEntity
8
0
100
AcDbBlockBegin
62
7
6
BYLAYER
2
COPYRIGHT_BL4
70
64
10
0.0000000000
20
0.0000000000
3
COPYRIGHT_BL4
1

0
CIRCLE
5
281
100
AcDbEntity
8
0
100
AcDbCircle
62
7
6
BYLAYER
10
368.4166666667
20
59.2552477502
40
2.6387790604
0
ENDBLK
5
282
100
AcDbEntity
8
0
100
AcDbBlockEnd
0
BLOCK
5
283
100
AcDbEntity
8
0
100
AcDbBlockBegin
62
7
6
BYLAYER
2
MICRO_U_BL5
70
64
10
0.0000000000
20
0.0000000000
3
MICRO_U_BL5
1

0
ARC
5
284
100
AcDbEntity
8
0
100
AcDbCircle
62
7
6
BYLAYER
10
115.8029987548
20
24.2743672858
40
1.1407767248
100
AcDbArc
50
303.7730668774
51
1.5957171757
0
ENDBLK
5
285
100
AcDbEntity
8
0
100
AcDbBlockEnd
0
BLOCK
5
286
100
AcDbEntity
8
0
100
AcDbBlockBegin
62
7
6
BYLAYER
2
SURFACE_FINISH_BL6
70
64
10
0.0000000000
20
0.0000000000
3
SURFACE_FINISH_BL6
1

0
LINE
5
287
100
AcDbEntity
8
0
100
AcDbLine
62
7
6
BYLAYER
10
97.0309676193
20
12.0901401771
11
99.8402817594
21
16.9560150021
0
LINE
5
288
100
AcDbEntity
8
0
100
AcDbLine
62
7
6
BYLAYER
10
97.0309676193
20
12.0901401771
11
95.7597911309
21
14.2918824404
0
LINE
5
289
100
AcDbEntity
8
0
100
AcDbLine
62
7
6
BYLAYER
10
95.7597911309
20
14.2918824404
11
98.3021441078
21
14.2918824404
0
ENDBLK
5
28A
100
AcDbEntity
8
0
100
AcDbBlockEnd
0
BLOCK
5
28B
100
AcDbEntity
8
0
100
AcDbBlockBegin
62
7
6
BYLAYER
2
PROJECTION_BL7
70
64
10
0.0000000000
20
0.0000000000
3
PROJECTION_BL7
1

0
LINE
5
28C
100
AcDbEntity
8
0
100
AcDbLine
62
7
6
BYLAYER
10
304.4288585399
20
278.0624994947
11
304.4288585399
21
282.4374994947
0
LINE
5
28D
100
AcDbEntity
8
0
100
AcDbLine
62
7
6
BYLAYER
10
304.4288585399
20
282.4374994947
11
310.5538585399
21
284.6249994947
0
LINE
5
28E
100
AcDbEntity
8
0
100
AcDbLine
62
7
6
BYLAYER
10
310.5538585399
20
284.6249994947
11
310.5538585399
21
275.8749994947
0
LINE
5
28F
100
AcDbEntity
8
0
100
AcDbLine
62
7
6
BYLAYER
10
310.5538585399
20
275.8749994947
11
304.4288585399
21
278.0624994947
0
ARC
5
290
100
AcDbEntity
8
0
100
AcDbCircle
62
7
6
BYLAYER
10
292.1788585399
20
280.2499994947
40
2.1875000000
100
AcDbArc
50
180.0000000000
51
360.0000000000
0
ARC
5
291
100
AcDbEntity
8
0
100
AcDbCircle
62
7
6
BYLAYER
10
292.1788585399
20
280.2499994947
40
2.1875000000
100
AcDbArc
50
0.0000000000
51
180.0000000000
0
ARC
5
292
100
AcDbEntity
8
0
100
AcDbCircle
62
7
6
BYLAYER
10
292.1788585399
20
280.2499994947
40
4.3750000000
100
AcDbArc
50
180.0000000000
51
360.0000000000
0
ARC
5
293
100
AcDbEntity
8
0
100
AcDbCircle
62
7
6
BYLAYER
10
292.1788585399
20
280.2499994947
40
4.3750000000
100
AcDbArc
50
0.0000000000
51
180.0000000000
0
LINE
5
294
100
AcDbEntity
8
0
100
AcDbLine
62
7
6
BYLAYER
10
285.1534835399
20
280.2499994947
11
298.4009835399
21
280.2499994947
0
LINE
5
295
100
AcDbEntity
8
0
100
AcDbLine
62
7
6
BYLAYER
10
301.1493585399
20
280.2499994947
11
313.1464835399
21
280.2499994947
0
LINE
5
296
100
AcDbEntity
8
0
100
AcDbLine
62
7
6
BYLAYER
10
292.1788585399
20
285.2952494947
11
292.1788585399
21
275.2047494947
0
ENDBLK
5
297
100
AcDbEntity
8
0
100
AcDbBlockEnd
0
ENDSEC
0
SECTION
2
ENTITIES
0
INSERT
5
298
100
AcDbEntity
8
0
100
AcDbBlockReference
62
7
6
BYLAYER
2
COPYRIGHT_BL0
10
0.0000000000
20
0.0000000000
0
INSERT
5
299
100
AcDbEntity
8
0
100
AcDbBlockReference
62
7
6
BYLAYER
2
MICRO_U_BL1
10
0.0000000000
20
0.0000000000
0
INSERT
5
29A
100
AcDbEntity
8
0
100
AcDbBlockReference
62
7
6
BYLAYER
2
PROJECTION_BL2
10
0.0000000000
20
0.0000000000
0
INSERT
5
29B
100
AcDbEntity
8
0
100
AcDbBlockReference
62
7
6
BYLAYER
2
SURFACE_FINISH_BL3
10
0.0000000000
20
0.0000000000
0
DIMENSION
5
29C
100
AcDbEntity
8
0
100
AcDbDimension
62
7
6
BYLAYER
2
*D0
10
135.9536098314
20
149.6265646565
11
152.3053517179
21
152.6265646565
70
160
3
DIMSTYLE_1
100
AcDbAlignedDimension
13
175.9536098314
23
132.6768704250
14
135.9536098314
24
132.6768704250
50
180.000000
100
AcDbRotatedDimension
0
DIMENSION
5
29D
100
AcDbEntity
8
0
100
AcDbDimension
62
7
6
BYLAYER
2
*D1
10
118.2594621904
20
102.8768704250
11
115.2594621904
21
118.8738000967
70
160
3
DIMSTYLE_2
100
AcDbAlignedDimension
13
133.9536098314
23
130.6768704250
14
133.9536098314
24
102.8768704250
50
270.000000
100
AcDbRotatedDimension
0
DIMENSION
5
29E
100
AcDbEntity
8
0
100
AcDbDimension
62
7
6
BYLAYER
2
*D2
10
222.1229839905
20
111.0382309749
11
258.7143437256
21
101.6823372767
70
162
3
DIMSTYLE_3
100
AcDb2LineAngularDimension
13
220.9259651236
23
110.4768704250
14
270.6746937549
24
110.4768704250
15
269.8949357856
25
119.4264483263
16
266.5258028682
26
99.9557492935
0
DIMENSION
5
29F
100
AcDbEntity
8
0
100
AcDbDimension
62
7
6
BYLAYER
2
*D3
10
286.7242331441
20
130.5038730703
11
252.3387025884
21
140.2255707605
70
162
3
DIMSTYLE_3
100
AcDb2LineAngularDimension
13
287.5815878437
23
131.0283925826
14
256.2165711560
24
131.3863383363
15
256.7171785967
25
125.2349718393
16
260.1042714688
26
138.3030879999
0
DIMENSION
5
2A0
100
AcDbEntity
8
0
100
AcDbDimension
62
7
6
BYLAYER
2
*D4
10
327.8977108248
20
136.1170381832
11
345.7725957037
21
134.7666987775
70
162
3
DIMSTYLE_3
100
AcDb2LineAngularDimension
13
321.9408507824
23
122.6357547675
14
343.4680120596
24
122.3900811865
15
331.9151157415
25
142.9123028405
16
337.8297665439
26
132.7289925965
0
DIMENSION
5
2A1
100
AcDbEntity
8
0
100
AcDbDimension
62
7
6
BYLAYER
2
*D5
10
330.2479421725
20
153.7743618628
11
357.8043042032
21
138.7335935433
70
162
3
DIMSTYLE_3
100
AcDb2LineAngularDimension
13
321.1906584451
23
122.6443161582
14
355.5029510313
24
122.2527353230
15
334.1079468449
25
160.2920570749
16
347.2885961624
26
142.6690284945
0
DIMENSION
5
2A2
100
AcDbEntity
8
0
100
AcDbDimension
62
7
6
BYLAYER
2
*D6
10
328.9708639998
20
158.2902244055
11
370.4811912378
21
184.1850822106
70
162
3
DIMSTYLE_3
100
AcDb2LineAngularDimension
13
363.0929335241
23
156.1683304653
14
373.6575530203
24
156.0477642712
15
351.2437570256
25
195.8984504452
16
365.1765568326
26
177.5062756152
0
DIMENSION
5
2A3
100
AcDbEntity
8
0
100
AcDbDimension
62
7
6
BYLAYER
2
*D7
10
332.7136581180
20
150.9438286534
11
361.1245671754
21
171.5982794941
70
162
3
DIMSTYLE_3
100
AcDb2LineAngularDimension
13
359.0467842105
23
148.7447870704
14
363.6603990464
24
148.6642561239
15
347.9656821945
25
176.7419601107
16
356.9828864963
26
163.3570219769
0
LINE
5
2A4
100
AcDbEntity
8
0
100
AcDbLine
62
7
6
BYLAYER
10
209.0000000000
20
82.0000000000
11
410.0000000000
21
82.0000000000
0
LINE
5
2A5
100
AcDbEntity
8
0
100
AcDbLine
62
7
6
BYLAYER
10
209.0000000000
20
82.0000000000
11
209.0000000000
21
10.0000000000
0
LINE
5
2A6
100
AcDbEntity
8
0
100
AcDbLine
62
7
6
BYLAYER
10
209.0000000000
20
73.0000000000
11
410.0000000000
21
73.0000000000
0
LINE
5
2A7
100
AcDbEntity
8
0
100
AcDbLine
62
7
6
BYLAYER
10
209.0000000000
20
64.0000000000
11
410.0000000000
21
64.0000000000
0
LINE
5
2A8
100
AcDbEntity
8
0
100
AcDbLine
62
7
6
BYLAYER
10
209.0000000000
20
55.0000000000
11
410.0000000000
21
55.0000000000
0
LINE
5
2A9
100
AcDbEntity
8
0
100
AcDbLine
62
7
6
BYLAYER
10
209.0000000000
20
46.0000000000
11
410.0000000000
21
46.0000000000
0
LINE
5
2AA
100
AcDbEntity
8
0
100
AcDbLine
62
7
6
BYLAYER
10
209.0000000000
20
21.0000000000
11
410.0000000000
21
21.0000000000
0
LINE
5
2AB
100
AcDbEntity
8
0
100
AcDbLine
62
7
6
BYLAYER
10
209.0000000000
20
10.0000000000
11
410.0000000000
21
10.0000000000
0
LINE
5
2AC
100
AcDbEntity
8
0
100
AcDbLine
62
7
6
BYLAYER
10
224.0000000000
20
82.0000000000
11
224.0000000000
21
64.0000000000
0
LINE
5
2AD
100
AcDbEntity
8
0
100
AcDbLine
62
7
6
BYLAYER
10
224.0000000000
20
21.0000000000
11
224.0000000000
21
10.0000000000
0
LINE
5
2AE
100
AcDbEntity
8
0
100
AcDbLine
62
7
6
BYLAYER
10
253.5000000000
20
82.0000000000
11
253.5000000000
21
64.0000000000
0
LINE
5
2AF
100
AcDbEntity
8
0
100
AcDbLine
62
7
6
BYLAYER
10
283.0000000000
20
82.0000000000
11
283.0000000000
21
64.0000000000
0
LINE
5
2B0
100
AcDbEntity
8
0
100
AcDbLine
62
7
6
BYLAYER
10
315.5000000000
20
82.0000000000
11
315.5000000000
21
64.0000000000
0
LINE
5
2B1
100
AcDbEntity
8
0
100
AcDbLine
62
7
6
BYLAYER
10
344.0000000000
20
21.0000000000
11
344.0000000000
21
10.0000000000
0
LINE
5
2B2
100
AcDbEntity
8
0
100
AcDbLine
62
7
6
BYLAYER
10
348.0000000000
20
82.0000000000
11
348.0000000000
21
64.0000000000
0
LINE
5
2B3
100
AcDbEntity
8
0
100
AcDbLine
62
7
6
BYLAYER
10
365.0000000000
20
64.0000000000
11
365.0000000000
21
55.0000000000
0
LINE
5
2B4
100
AcDbEntity
8
0
100
AcDbLine
62
7
6
BYLAYER
10
380.5000000000
20
82.0000000000
11
380.5000000000
21
64.0000000000
0
LINE
5
2B5
100
AcDbEntity
8
0
100
AcDbLine
62
7
6
BYLAYER
10
410.0000000000
20
82.0000000000
11
410.0000000000
21
10.0000000000
0
TEXT
5
2B6
100
AcDbEntity
8
0
100
AcDbText
62
7
6
BYLAYER
10
215.3000000000
20
76.0000000000
7
STANDARD
40
3.0000000000
1
D
41
0.8000000000
72
1
11
216.5000000000
21
76.0000000000
100
AcDbText
0
TEXT
5
2B7
100
AcDbEntity
8
0
100
AcDbText
62
7
6
BYLAYER
10
227.9500000000
20
76.0000000000
7
STANDARD
40
3.0000000000
1
29/MAY/03
41
0.8000000000
72
1
11
238.7500000000
21
76.0000000000
100
AcDbText
0
TEXT
5
2B8
100
AcDbEntity
8
0
100
AcDbText
62
7
6
BYLAYER
10
259.8500000000
20
76.0000000000
7
STANDARD
40
3.0000000000
1
------
41
0.8000000000
72
1
11
267.0500000000
21
76.0000000000
100
AcDbText
0
TEXT
5
2B9
100
AcDbEntity
8
0
100
AcDbText
62
7
6
BYLAYER
10
274.2500000000
20
76.0000000000
7
STANDARD
40
3.0000000000
1
.
41
0.8000000000
72
1
11
275.4500000000
21
76.0000000000
100
AcDbText
0
TEXT
5
2BA
100
AcDbEntity
8
0
100
AcDbText
62
7
6
BYLAYER
10
289.6500000000
20
76.0000000000
7
STANDARD
40
3.0000000000
1
J NOVISS
41
0.8000000000
72
1
11
299.2500000000
21
76.0000000000
100
AcDbText
0
TEXT
5
2BB
100
AcDbEntity
8
0
100
AcDbText
62
7
6
BYLAYER
10
329.3500000000
20
76.0000000000
7
STANDARD
40
3.0000000000
1
IW
41
0.8000000000
72
1
11
331.7500000000
21
76.0000000000
100
AcDbText
0
TEXT
5
2BC
100
AcDbEntity
8
0
100
AcDbText
62
7
6
BYLAYER
10
361.8500000000
20
76.0000000000
7
STANDARD
40
3.0000000000
1
DG
41
0.8000000000
72
1
11
364.2500000000
21
76.0000000000
100
AcDbText
0
TEXT
5
2BD
100
AcDbEntity
8
0
100
AcDbText
62
7
6
BYLAYER
10
391.6500000000
20
76.0000000000
7
STANDARD
40
3.0000000000
1
REL
41
0.8000000000
72
1
11
395.2500000000
21
76.0000000000
100
AcDbText
0
TEXT
5
2BE
100
AcDbEntity
8
0
100
AcDbText
62
7
6
BYLAYER
10
210.5000000000
20
67.0000000000
7
STANDARD
40
3.0000000000
1
ISSUE
41
0.8000000000
72
1
11
216.5000000000
21
67.0000000000
100
AcDbText
0
TEXT
5
2BF
100
AcDbEntity
8
0
100
AcDbText
62
7
6
BYLAYER
10
227.9500000000
20
67.0000000000
7
STANDARD
40
3.0000000000
1
DATE APPD
41
0.8000000000
72
1
11
238.7500000000
21
67.0000000000
100
AcDbText
0
TEXT
5
2C0
100
AcDbEntity
8
0
100
AcDbText
62
7
6
BYLAYER
10
258.6500000000
20
67.0000000000
7
STANDARD
40
3.0000000000
1
MOD. No.
41
0.8000000000
72
1
11
268.2500000000
21
67.0000000000
100
AcDbText
0
TEXT
5
2C1
100
AcDbEntity
8
0
100
AcDbText
62
7
6
BYLAYER
10
290.8500000000
20
67.0000000000
7
STANDARD
40
3.0000000000
1
DRN. BY
41
0.8000000000
72
1
11
299.2500000000
21
67.0000000000
100
AcDbText
0
TEXT
5
2C2
100
AcDbEntity
8
0
100
AcDbText
62
7
6
BYLAYER
10
322.1500000000
20
67.0000000000
7
STANDARD
40
3.0000000000
1
CHKD BY.
41
0.8000000000
72
1
11
331.7500000000
21
67.0000000000
100
AcDbText
0
TEXT
5
2C3
100
AcDbEntity
8
0
100
AcDbText
62
7
6
BYLAYER
10
354.6500000000
20
67.0000000000
7
STANDARD
40
3.0000000000
1
APPD BY.
41
0.8000000000
72
1
11
364.2500000000
21
67.0000000000
100
AcDbText
0
TEXT
5
2C4
100
AcDbEntity
8
0
100
AcDbText
62
7
6
BYLAYER
10
388.0500000000
20
67.0000000000
7
STANDARD
40
3.0000000000
1
STATUS
41
0.8000000000
72
1
11
395.2500000000
21
67.0000000000
100
AcDbText
0
TEXT
5
2C5
100
AcDbEntity
8
0
100
AcDbText
62
7
6
BYLAYER
10
210.4000000000
20
57.5000000000
7
STANDARD
40
4.0000000000
1
USED ON
41
0.8000000000
72
0
100
AcDbText
0
TEXT
5
2C6
100
AcDbEntity
8
0
100
AcDbText
62
7
6
BYLAYER
10
254.9000000000
20
57.5000000000
7
STANDARD
40
4.0000000000
1
 
41
0.8000000000
72
0
100
AcDbText
0
INSERT
5
2C7
100
AcDbEntity
8
0
100
AcDbBlockReference
62
7
6
BYLAYER
2
COPYRIGHT_BL4
10
0.0000000000
20
0.0000000000
0
TEXT
5
2C8
100
AcDbEntity
8
0
100
AcDbText
62
7
6
BYLAYER
10
371.0554457271
20
57.3835313102
7
TEXTSTYLE_1
40
5.0000000000
1
 CLRC
41
0.7800000000
72
1
11
380.8054457271
21
57.3835313102
100
AcDbText
0
TEXT
5
2C9
100
AcDbEntity
8
0
100
AcDbText
62
7
6
BYLAYER
10
390.5554457271
20
57.3835313102
7
TEXTSTYLE_1
40
5.0000000000
1
 
41
0.8000000000
72
1
11
392.5554457271
21
57.3835313102
100
AcDbText
0
TEXT
5
2CA
100
AcDbEntity
8
0
100
AcDbText
62
7
6
BYLAYER
10
394.5554457271
20
57.3835313102
7
TEXTSTYLE_1
40
5.0000000000
1
2002
41
0.7333333333
72
1
11
401.8887790604
21
57.3835313102
100
AcDbText
0
TEXT
5
2CB
100
AcDbEntity
8
0
100
AcDbText
62
7
6
BYLAYER
10
367.1926306113
20
57.5014920980
7
TEXTSTYLE_1
40
3.5000000000
1
C
41
0.8000000000
72
0
100
AcDbText
0
TEXT
5
2CC
100
AcDbEntity
8
0
100
AcDbText
62
7
6
BYLAYER
10
210.4000000000
20
48.5000000000
7
TEXTSTYLE_1
40
3.0000000000
1
CENTRAL LABORATORY OF THE RESEARCH COUNCILS
41
0.7620155039
72
0
100
AcDbText
0
TEXT
5
2CD
100
AcDbEntity
8
0
100
AcDbText
62
7
6
BYLAYER
10
308.7000000000
20
48.5000000000
7
STANDARD
40
4.0000000000
1
 
41
0.8000000000
72
0
100
AcDbText
0
TEXT
5
2CE
100
AcDbEntity
8
0
100
AcDbText
62
7
6
BYLAYER
10
311.9000000000
20
48.5000000000
7
STANDARD
40
2.0000000000
1
RUTHERFORD APPLETON LABORATORY, CHILTON, OXON OX110QX
41
0.8000000000
72
0
100
AcDbText
0
TEXT
5
2CF
100
AcDbEntity
8
0
100
AcDbText
62
7
6
BYLAYER
10
210.4000000000
20
41.5000000000
7
STANDARD
40
3.0000000000
1
TITLE
41
0.8000000000
72
0
100
AcDbText
0
TEXT
5
2D0
100
AcDbEntity
8
0
100
AcDbText
62
7
6
BYLAYER
10
270.7500000000
20
36.5000000000
7
TEXTSTYLE_1
40
6.0000000000
1
POWER TAPE W4
41
0.9935897436
72
1
11
309.5000000000
21
36.5000000000
100
AcDbText
0
TEXT
5
2D1
100
AcDbEntity
8
0
100
AcDbText
62
7
6
BYLAYER
10
270.2500000000
20
27.5000000000
7
TEXTSTYLE_1
40
6.0000000000
1
WHEELS 2,3,4,5,6
41
0.8177083333
72
1
11
309.5000000000
21
27.5000000000
100
AcDbText
0
TEXT
5
2D2
100
AcDbEntity
8
0
100
AcDbText
62
7
6
BYLAYER
10
210.4000000000
20
24.2500000000
7
STANDARD
40
4.0000000000
1
ATLAS_ID
41
0.8000000000
72
0
100
AcDbText
0
TEXT
5
2D3
100
AcDbEntity
8
0
100
AcDbText
62
7
6
BYLAYER
10
389.4000000000
20
24.2500000000
7
STANDARD
40
4.0000000000
1
TDL008
41
0.8000000000
72
2
11
408.6000000000
21
24.2500000000
100
AcDbText
0
TEXT
5
2D4
100
AcDbEntity
8
0
100
AcDbText
62
7
6
BYLAYER
10
211.1333333333
20
12.0000000000
7
TEXTSTYLE_1
40
7.0000000000
1
A3
41
0.7666666667
72
1
11
216.5000000000
21
12.0000000000
100
AcDbText
0
TEXT
5
2D5
100
AcDbEntity
8
0
100
AcDbText
62
7
6
BYLAYER
10
225.4000000000
20
12.0000000000
7
TEXTSTYLE_1
40
5.0000000000
1
 
41
1.0000000000
72
0
100
AcDbText
0
TEXT
5
2D6
100
AcDbEntity
8
0
100
AcDbText
62
7
6
BYLAYER
10
230.4000000000
20
12.0000000000
7
TEXTSTYLE_1
40
7.0000000000
1
TD-1002-949
41
0.8068181818
72
0
100
AcDbText
0
TEXT
5
2D7
100
AcDbEntity
8
0
100
AcDbText
62
7
6
BYLAYER
10
345.4000000000
20
16.7500000000
7
STANDARD
40
2.5000000000
1
SHEET
41
0.8000000000
72
0
100
AcDbText
0
TEXT
5
2D8
100
AcDbEntity
8
0
100
AcDbText
62
7
6
BYLAYER
10
366.7666666667
20
12.0000000000
7
STANDARD
40
3.0000000000
1
 
41
0.8000000000
72
1
11
367.9666666667
21
12.0000000000
100
AcDbText
0
TEXT
5
2D9
100
AcDbEntity
8
0
100
AcDbText
62
7
6
BYLAYER
10
369.1666666667
20
12.0000000000
7
TEXTSTYLE_1
40
7.0000000000
1
1
41
0.3333333333
72
1
11
370.3333333333
21
12.0000000000
100
AcDbText
0
TEXT
5
2DA
100
AcDbEntity
8
0
100
AcDbText
62
7
6
BYLAYER
10
371.5000000000
20
12.0000000000
7
STANDARD
40
4.0000000000
1
 OF 
41
0.8000000000
72
1
11
377.9000000000
21
12.0000000000
100
AcDbText
0
TEXT
5
2DB
100
AcDbEntity
8
0
100
AcDbText
62
7
6
BYLAYER
10
384.3000000000
20
12.0000000000
7
TEXTSTYLE_1
40
7.0000000000
1
1
41
0.3333333333
72
1
11
385.4666666667
21
12.0000000000
100
AcDbText
0
TEXT
5
2DC
100
AcDbEntity
8
0
100
AcDbText
62
7
6
BYLAYER
10
386.6333333333
20
12.0000000000
7
STANDARD
40
4.0000000000
1
     
41
0.8000000000
72
1
11
394.6333333333
21
12.0000000000
100
AcDbText
0
TEXT
5
2DD
100
AcDbEntity
8
0
100
AcDbText
62
7
6
BYLAYER
10
402.6333333333
20
12.0000000000
7
TEXTSTYLE_1
40
7.0000000000
1
D
41
0.8000000000
72
1
11
405.4333333333
21
12.0000000000
100
AcDbText
0
LINE
5
2DE
100
AcDbEntity
8
0
100
AcDbLine
62
7
6
BYLAYER
10
20.0371621622
20
45.9172297297
11
209.0371621622
21
45.9172297297
0
LINE
5
2DF
100
AcDbEntity
8
0
100
AcDbLine
62
7
6
BYLAYER
10
20.0371621622
20
45.9172297297
11
20.0371621622
21
9.9172297297
0
LINE
5
2E0
100
AcDbEntity
8
0
100
AcDbLine
62
7
6
BYLAYER
10
20.0371621622
20
27.9172297297
11
209.0371621622
21
27.9172297297
0
LINE
5
2E1
100
AcDbEntity
8
0
100
AcDbLine
62
7
6
BYLAYER
10
20.0371621622
20
9.9172297297
11
209.0371621622
21
9.9172297297
0
LINE
5
2E2
100
AcDbEntity
8
0
100
AcDbLine
62
7
6
BYLAYER
10
83.0371621622
20
45.9172297297
11
83.0371621622
21
9.9172297297
0
LINE
5
2E3
100
AcDbEntity
8
0
100
AcDbLine
62
7
6
BYLAYER
10
146.0371621622
20
45.9172297297
11
146.0371621622
21
9.9172297297
0
LINE
5
2E4
100
AcDbEntity
8
0
100
AcDbLine
62
7
6
BYLAYER
10
209.0371621622
20
45.9172297297
11
209.0371621622
21
9.9172297297
0
TEXT
5
2E5
100
AcDbEntity
8
0
100
AcDbText
62
7
6
BYLAYER
10
21.4371621622
20
41.6672297297
7
STANDARD
40
2.5000000000
1
TOLERANCES UNLESS STATED
41
0.8000000000
72
0
100
AcDbText
0
TEXT
5
2E6
100
AcDbEntity
8
0
100
AcDbText
62
7
6
BYLAYER
10
84.4371621622
20
41.6672297297
7
STANDARD
40
2.5000000000
1
FINISH
41
0.8000000000
72
0
100
AcDbText
0
TEXT
5
2E7
100
AcDbEntity
8
0
100
AcDbText
62
7
6
BYLAYER
10
147.4371621622
20
41.6672297297
7
STANDARD
40
2.5000000000
1
ORIGINAL SCALE
41
0.8000000000
72
0
100
AcDbText
0
TEXT
5
2E8
100
AcDbEntity
8
0
100
AcDbText
62
7
6
BYLAYER
10
44.9871621622
20
34.1672297297
7
STANDARD
40
3.0000000000
1
%%p
41
1.1666666667
72
1
11
46.7371621622
21
34.1672297297
100
AcDbText
0
TEXT
5
2E9
100
AcDbEntity
8
0
100
AcDbText
62
7
6
BYLAYER
10
48.4871621622
20
34.1672297297
7
STANDARD
40
3.0000000000
1
 
41
0.8000000000
72
1
11
49.6871621622
21
34.1672297297
100
AcDbText
0
TEXT
5
2EA
100
AcDbEntity
8
0
100
AcDbText
62
7
6
BYLAYER
10
50.8871621622
20
34.1672297297
7
STANDARD
40
3.0000000000
1
 mm
41
0.8000000000
72
1
11
54.4871621622
21
34.1672297297
100
AcDbText
0
TEXT
5
2EB
100
AcDbEntity
8
0
100
AcDbText
62
7
6
BYLAYER
10
46.3871621622
20
29.6672297297
7
STANDARD
40
3.0000000000
1
%%p
41
1.1666666667
72
1
11
48.1371621622
21
29.6672297297
100
AcDbText
0
TEXT
5
2EC
100
AcDbEntity
8
0
100
AcDbText
62
7
6
BYLAYER
10
49.8871621622
20
29.6672297297
7
STANDARD
40
3.0000000000
1
 
41
0.8000000000
72
1
11
51.0871621622
21
29.6672297297
100
AcDbText
0
TEXT
5
2ED
100
AcDbEntity
8
0
100
AcDbText
62
7
6
BYLAYER
10
52.2871621622
20
29.6672297297
7
STANDARD
40
3.0000000000
1
 %%d
41
0.7333333333
72
1
11
54.4871621622
21
29.6672297297
100
AcDbText
0
TEXT
5
2EE
100
AcDbEntity
8
0
100
AcDbText
62
7
6
BYLAYER
10
102.5371621622
20
34.1672297297
7
STANDARD
40
3.0000000000
1
SEE NOTE 3
41
0.8000000000
72
1
11
114.5371621622
21
34.1672297297
100
AcDbText
0
TEXT
5
2EF
100
AcDbEntity
8
0
100
AcDbText
62
7
6
BYLAYER
10
95.3371621622
20
29.6672297297
7
STANDARD
40
3.0000000000
1
REMOVE ALL BURRS
41
0.8000000000
72
1
11
114.5371621622
21
29.6672297297
100
AcDbText
0
TEXT
5
2F0
100
AcDbEntity
8
0
100
AcDbText
62
7
6
BYLAYER
10
173.9371621622
20
34.1672297297
7
STANDARD
40
3.0000000000
1
1:1
41
0.8000000000
72
1
11
177.5371621622
21
34.1672297297
100
AcDbText
0
TEXT
5
2F1
100
AcDbEntity
8
0
100
AcDbText
62
7
6
BYLAYER
10
163.1371621622
20
29.6672297297
7
STANDARD
40
3.0000000000
1
DO NOT SCALE
41
0.8000000000
72
1
11
177.5371621622
21
29.6672297297
100
AcDbText
0
TEXT
5
2F2
100
AcDbEntity
8
0
100
AcDbText
62
7
6
BYLAYER
10
21.4371621622
20
23.6672297297
7
STANDARD
40
2.5000000000
1
MATERIAL 
41
0.8000000000
72
0
100
AcDbText
0
TEXT
5
2F3
100
AcDbEntity
8
0
100
AcDbText
62
7
6
BYLAYER
10
39.4371621622
20
23.6672297297
7
STANDARD
40
2.5000000000
1
& SPEC.
41
0.8000000000
72
0
100
AcDbText
0
INSERT
5
2F4
100
AcDbEntity
8
0
100
AcDbBlockReference
62
7
6
BYLAYER
2
MICRO_U_BL5
10
0.0000000000
20
0.0000000000
0
TEXT
5
2F5
100
AcDbEntity
8
0
100
AcDbText
62
7
6
BYLAYER
10
84.4371621622
20
24.0083581219
7
STANDARD
40
2.5000000000
1
SURFACE TEXTURE 
41
0.8000000000
72
0
100
AcDbText
0
TEXT
5
2F6
100
AcDbEntity
8
0
100
AcDbText
62
7
6
BYLAYER
10
116.4894190556
20
24.0082838118
7
STANDARD
40
1.8178175258
1
um
41
0.8000000000
72
0
100
AcDbText
0
TEXT
5
2F7
100
AcDbEntity
8
0
100
AcDbText
62
7
6
BYLAYER
10
39.5371621622
20
16.1672297297
7
STANDARD
40
3.0000000000
1
SEE NOTE 3
41
0.8000000000
72
1
11
51.5371621622
21
16.1672297297
100
AcDbText
0
TEXT
5
2F8
100
AcDbEntity
8
0
100
AcDbText
62
7
6
BYLAYER
10
41.9371621622
20
11.6672297297
7
STANDARD
40
3.0000000000
1
--------
41
0.8000000000
72
1
11
51.5371621622
21
11.6672297297
100
AcDbText
0
INSERT
5
2F9
100
AcDbEntity
8
0
100
AcDbBlockReference
62
7
6
BYLAYER
2
SURFACE_FINISH_BL6
10
0.0000000000
20
0.0000000000
0
TEXT
5
2FA
100
AcDbEntity
8
0
100
AcDbText
62
7
6
BYLAYER
10
102.5371621622
20
18.5810150021
7
STANDARD
40
3.0000000000
1
SEE NOTE 3
41
0.8000000000
72
1
11
114.5371621622
21
18.5810150021
100
AcDbText
0
TEXT
5
2FB
100
AcDbEntity
8
0
100
AcDbText
62
7
6
BYLAYER
10
99.8402817594
20
11.6672297297
7
STANDARD
40
3.0000000000
1
 UNLESS STATED
41
0.8000000000
72
1
11
116.6402817594
21
11.6672297297
100
AcDbText
0
TEXT
5
2FC
100
AcDbEntity
8
0
100
AcDbText
62
7
6
BYLAYER
10
95.6340425649
20
12.5409220665
7
STANDARD
40
3.5000000000
1
-
41
0.8000000000
72
0
100
AcDbText
0
LINE
5
2FD
100
AcDbEntity
8
0
100
AcDbLine
62
7
6
BYLAYER
10
10.0000000000
20
10.0000000000
11
10.0000000000
21
116.2000000000
0
LINE
5
2FE
100
AcDbEntity
8
0
100
AcDbLine
62
7
6
BYLAYER
10
10.0000000000
20
10.0000000000
11
20.0000000000
21
10.0000000000
0
LINE
5
2FF
100
AcDbEntity
8
0
100
AcDbLine
62
7
6
BYLAYER
10
20.0000000000
20
10.0000000000
11
20.0000000000
21
116.2000000000
0
LINE
5
300
100
AcDbEntity
8
0
100
AcDbLine
62
7
6
BYLAYER
10
10.0000000000
20
25.0000000000
11
20.0000000000
21
25.0000000000
0
LINE
5
301
100
AcDbEntity
8
0
100
AcDbLine
62
7
6
BYLAYER
10
10.0000000000
20
78.2000000000
11
20.0000000000
21
78.2000000000
0
LINE
5
302
100
AcDbEntity
8
0
100
AcDbLine
62
7
6
BYLAYER
10
10.0000000000
20
106.2000000000
11
20.0000000000
21
106.2000000000
0
LINE
5
303
100
AcDbEntity
8
0
100
AcDbLine
62
7
6
BYLAYER
10
10.0000000000
20
116.2000000000
11
20.0000000000
21
116.2000000000
0
TEXT
5
304
100
AcDbEntity
8
0
100
AcDbText
62
7
6
BYLAYER
10
17.5000000000
20
12.5000000000
7
STANDARD
40
5.0000000000
1
A3
50
90.0000000000
41
1.0000000000
72
1
11
17.5000000000
21
17.5000000000
100
AcDbText
0
TEXT
5
305
100
AcDbEntity
8
0
100
AcDbText
62
7
6
BYLAYER
10
17.5000000000
20
26.4000000000
7
TEXTSTYLE_1
40
5.0000000000
1
 
50
90.0000000000
41
1.0000000000
72
0
100
AcDbText
0
TEXT
5
306
100
AcDbEntity
8
0
100
AcDbText
62
7
6
BYLAYER
10
17.5000000000
20
31.4000000000
7
TEXTSTYLE_1
40
5.0000000000
1
TD-1002-949
50
90.0000000000
41
0.8068181818
72
0
100
AcDbText
0
TEXT
5
307
100
AcDbEntity
8
0
100
AcDbText
62
7
6
BYLAYER
10
16.5000000000
20
79.6000000000
7
TEXTSTYLE_1
40
3.0000000000
1
Sheet 
50
90.0000000000
41
0.6666666667
72
0
100
AcDbText
0
TEXT
5
308
100
AcDbEntity
8
0
100
AcDbText
62
7
6
BYLAYER
10
16.5000000000
20
91.6000000000
7
TEXTSTYLE_1
40
3.0000000000
1
1
50
90.0000000000
41
0.3333333333
72
0
100
AcDbText
0
TEXT
5
309
100
AcDbEntity
8
0
100
AcDbText
62
7
6
BYLAYER
10
16.5000000000
20
92.6000000000
7
TEXTSTYLE_1
40
3.0000000000
1
 OF 
50
90.0000000000
41
0.7833333333
72
0
100
AcDbText
0
TEXT
5
30A
100
AcDbEntity
8
0
100
AcDbText
62
7
6
BYLAYER
10
16.5000000000
20
102.0000000000
7
TEXTSTYLE_1
40
3.0000000000
1
1
50
90.0000000000
41
0.3333333333
72
0
100
AcDbText
0
TEXT
5
30B
100
AcDbEntity
8
0
100
AcDbText
62
7
6
BYLAYER
10
17.5000000000
20
109.2000000000
7
TEXTSTYLE_1
40
5.0000000000
1
D
50
90.0000000000
41
0.8000000000
72
1
11
17.5000000000
21
111.2000000000
100
AcDbText
0
LINE
5
30C
100
AcDbEntity
8
0
100
AcDbLine
62
7
6
BYLAYER
10
10.0000000000
20
287.0000000000
11
116.2000000000
21
287.0000000000
0
LINE
5
30D
100
AcDbEntity
8
0
100
AcDbLine
62
7
6
BYLAYER
10
10.0000000000
20
287.0000000000
11
10.0000000000
21
277.0000000000
0
LINE
5
30E
100
AcDbEntity
8
0
100
AcDbLine
62
7
6
BYLAYER
10
10.0000000000
20
277.0000000000
11
116.2000000000
21
277.0000000000
0
LINE
5
30F
100
AcDbEntity
8
0
100
AcDbLine
62
7
6
BYLAYER
10
25.0000000000
20
287.0000000000
11
25.0000000000
21
277.0000000000
0
LINE
5
310
100
AcDbEntity
8
0
100
AcDbLine
62
7
6
BYLAYER
10
78.2000000000
20
287.0000000000
11
78.2000000000
21
277.0000000000
0
LINE
5
311
100
AcDbEntity
8
0
100
AcDbLine
62
7
6
BYLAYER
10
106.2000000000
20
287.0000000000
11
106.2000000000
21
277.0000000000
0
LINE
5
312
100
AcDbEntity
8
0
100
AcDbLine
62
7
6
BYLAYER
10
116.2000000000
20
287.0000000000
11
116.2000000000
21
277.0000000000
0
TEXT
5
313
100
AcDbEntity
8
0
100
AcDbText
62
7
6
BYLAYER
10
12.5000000000
20
279.5000000000
7
STANDARD
40
5.0000000000
1
A3
41
1.0000000000
72
1
11
17.5000000000
21
279.5000000000
100
AcDbText
0
TEXT
5
314
100
AcDbEntity
8
0
100
AcDbText
62
7
6
BYLAYER
10
26.4000000000
20
279.5000000000
7
TEXTSTYLE_1
40
5.0000000000
1
 
41
1.0000000000
72
0
100
AcDbText
0
TEXT
5
315
100
AcDbEntity
8
0
100
AcDbText
62
7
6
BYLAYER
10
31.4000000000
20
279.5000000000
7
TEXTSTYLE_1
40
5.0000000000
1
TD-1002-949
41
0.8068181818
72
0
100
AcDbText
0
TEXT
5
316
100
AcDbEntity
8
0
100
AcDbText
62
7
6
BYLAYER
10
79.6000000000
20
280.5000000000
7
TEXTSTYLE_1
40
3.0000000000
1
Sheet 
41
0.6666666667
72
0
100
AcDbText
0
TEXT
5
317
100
AcDbEntity
8
0
100
AcDbText
62
7
6
BYLAYER
10
91.6000000000
20
280.5000000000
7
TEXTSTYLE_1
40
3.0000000000
1
1
41
0.3333333333
72
0
100
AcDbText
0
TEXT
5
318
100
AcDbEntity
8
0
100
AcDbText
62
7
6
BYLAYER
10
92.6000000000
20
280.5000000000
7
TEXTSTYLE_1
40
3.0000000000
1
 OF 
41
0.7833333333
72
0
100
AcDbText
0
TEXT
5
319
100
AcDbEntity
8
0
100
AcDbText
62
7
6
BYLAYER
10
102.0000000000
20
280.5000000000
7
TEXTSTYLE_1
40
3.0000000000
1
1
41
0.3333333333
72
0
100
AcDbText
0
TEXT
5
31A
100
AcDbEntity
8
0
100
AcDbText
62
7
6
BYLAYER
10
109.2000000000
20
279.5000000000
7
TEXTSTYLE_1
40
5.0000000000
1
D
41
0.8000000000
72
1
11
111.2000000000
21
279.5000000000
100
AcDbText
0
LINE
5
31B
100
AcDbEntity
8
0
100
AcDbLine
62
7
6
BYLAYER
10
331.0000000000
20
287.0000000000
11
410.0000000000
21
287.0000000000
0
LINE
5
31C
100
AcDbEntity
8
0
100
AcDbLine
62
7
6
BYLAYER
10
331.0000000000
20
287.0000000000
11
331.0000000000
21
277.0000000000
0
LINE
5
31D
100
AcDbEntity
8
0
100
AcDbLine
62
7
6
BYLAYER
10
331.0000000000
20
277.0000000000
11
410.0000000000
21
277.0000000000
0
LINE
5
31E
100
AcDbEntity
8
0
100
AcDbLine
62
7
6
BYLAYER
10
410.0000000000
20
287.0000000000
11
410.0000000000
21
277.0000000000
0
TEXT
5
31F
100
AcDbEntity
8
0
100
AcDbText
62
7
6
BYLAYER
10
336.5000000000
20
280.7500000000
7
STANDARD
40
2.5000000000
1
THIS DRAWING CONFORMS TO B.S. 8888
41
0.8000000000
72
1
11
370.5000000000
21
280.7500000000
100
AcDbText
0
LINE
5
320
100
AcDbEntity
8
0
100
AcDbLine
62
7
6
BYLAYER
10
236.4999835399
20
286.9999994947
11
330.9999835399
21
286.9999994947
0
LINE
5
321
100
AcDbEntity
8
0
100
AcDbLine
62
7
6
BYLAYER
10
236.4999835399
20
286.9999994947
11
236.4999835399
21
273.4999994947
0
LINE
5
322
100
AcDbEntity
8
0
100
AcDbLine
62
7
6
BYLAYER
10
236.4999835399
20
273.4999994947
11
330.9999835399
21
273.4999994947
0
LINE
5
323
100
AcDbEntity
8
0
100
AcDbLine
62
7
6
BYLAYER
10
330.9999835399
20
286.9999994947
11
330.9999835399
21
273.4999994947
0
INSERT
5
324
100
AcDbEntity
8
0
100
AcDbBlockReference
62
7
6
BYLAYER
2
PROJECTION_BL7
10
0.0000000000
20
0.0000000000
0
TEXT
5
325
100
AcDbEntity
8
0
100
AcDbText
62
7
6
BYLAYER
10
254.3534835399
20
278.9781218886
7
STANDARD
40
3.5000000000
1
PROJECTION 
41
0.8000000000
72
1
11
269.7534835399
21
278.9781218886
100
AcDbText
0
TEXT
5
326
100
AcDbEntity
8
0
100
AcDbText
62
7
6
BYLAYER
10
290.7970347322
20
278.8891837883
7
STANDARD
40
3.5000000000
1
l
41
0.8000000000
72
0
100
AcDbText
0
LINE
5
327
100
AcDbEntity
8
0
100
AcDbLine
62
7
6
BYLAYER
10
159.0509538372
20
70.9185125895
11
209.0509538372
21
70.9185125895
0
LINE
5
328
100
AcDbEntity
8
0
100
AcDbLine
62
7
6
BYLAYER
10
159.0509538372
20
70.9185125895
11
159.0509538372
21
45.9185125895
0
LINE
5
329
100
AcDbEntity
8
0
100
AcDbLine
62
7
6
BYLAYER
10
159.0509538372
20
45.9185125895
11
209.0509538372
21
45.9185125895
0
LINE
5
32A
100
AcDbEntity
8
0
100
AcDbLine
62
7
6
BYLAYER
10
209.0509538372
20
70.9185125895
11
209.0509538372
21
45.9185125895
0
TEXT
5
32B
100
AcDbEntity
8
0
100
AcDbText
62
7
6
BYLAYER
10
128.8443221000
20
199.2658855279
7
STANDARD
40
4.0000000000
1
3D-VIEW
41
0.8000000000
72
0
100
AcDbText
0
TEXT
5
32C
100
AcDbEntity
8
0
100
AcDbText
62
7
6
BYLAYER
10
234.7035315341
20
258.7714847143
7
STANDARD
40
3.5000000000
1
NOTES -
41
0.8000000000
72
0
100
AcDbText
0
TEXT
5
32D
100
AcDbEntity
8
0
100
AcDbText
62
7
6
BYLAYER
10
234.7035315341
20
253.5214847143
7
STANDARD
40
3.5000000000
1
 
41
0.8000000000
72
0
100
AcDbText
0
TEXT
5
32E
100
AcDbEntity
8
0
100
AcDbText
62
7
6
BYLAYER
10
234.7035315341
20
248.2714847143
7
STANDARD
40
3.5000000000
1
1 - ALL OUTER MODULE TAPE ENDS SET FOR HIGH MODULES
41
0.8000000000
72
0
100
AcDbText
0
TEXT
5
32F
100
AcDbEntity
8
0
100
AcDbText
62
7
6
BYLAYER
10
234.7035315341
20
243.0214847143
7
STANDARD
40
3.5000000000
1
2 - TAPE DESIGN SET TO ZERO MODULE ROTATION
41
0.8000000000
72
0
100
AcDbText
0
TEXT
5
330
100
AcDbEntity
8
0
100
AcDbText
62
7
6
BYLAYER
10
234.7035315341
20
237.7714847143
7
STANDARD
40
3.5000000000
1
3 - FOR TAPE SPECIFICATIONS REFER TO DOCUMENT ATL-IS-ER-0034
41
0.8000000000
72
0
100
AcDbText
0
TEXT
5
331
100
AcDbEntity
8
0
100
AcDbText
62
7
6
BYLAYER
10
234.7035315341
20
232.5214847143
7
STANDARD
40
3.5000000000
1
4 - ALL TWISTED PAIR WIRES TO LIE ONE WIRE DEEP 4mm EITHER SIDE
41
0.8000000000
72
0
100
AcDbText
0
TEXT
5
332
100
AcDbEntity
8
0
100
AcDbText
62
7
6
BYLAYER
10
234.7035315341
20
227.2714847143
7
STANDARD
40
3.5000000000
1
    OF PIPE CENTER LINES 
41
0.8000000000
72
0
100
AcDbText
0
TEXT
5
333
100
AcDbEntity
8
0
100
AcDbText
62
7
6
BYLAYER
10
234.7035315341
20
222.0214847143
7
STANDARD
40
3.5000000000
1
5 - ANY CUTS  BETWEEN TAPE LEGS MUST NOT BE SHORTENED
41
0.8000000000
72
0
100
AcDbText
0
TEXT
5
334
100
AcDbEntity
8
0
100
AcDbText
62
7
6
BYLAYER
10
234.7035315341
20
216.7714847143
7
STANDARD
40
3.5000000000
1
6 - TAPE ENDS TO INCLUDE TEXT AS SHOWN ON 3D-VIEW
41
0.8000000000
72
0
100
AcDbText
0
TEXT
5
335
100
AcDbEntity
8
0
100
AcDbText
62
7
6
BYLAYER
10
234.7035315341
20
211.5214847143
7
STANDARD
40
3.5000000000
1
7 - TEXT 'TD-1002-949 (W4)' TO BE LOCATED VISIBLY ON TAPE
41
0.8000000000
72
0
100
AcDbText
0
TEXT
5
336
100
AcDbEntity
8
0
100
AcDbText
62
7
6
BYLAYER
10
234.7035315341
20
206.2714847143
7
STANDARD
40
3.5000000000
1
8 - FOR CONNECTOR POSITIONS REFER TO DRAWING TD-1010-345
41
0.8000000000
72
0
100
AcDbText
0
CIRCLE
5
337
100
AcDbEntity
8
0
100
AcDbCircle
62
7
6
BYLAYER
10
206.2821823179
20
262.4927136461
40
0.8000000000
0
TEXT
5
338
100
AcDbEntity
8
0
100
AcDbText
62
7
6
BYLAYER
10
188.6533738402
20
270.1926558013
7
TEXTSTYLE_2
40
4.0000000000
1
I3
41
0.6070038911
72
0
100
AcDbText
0
CIRCLE
5
339
100
AcDbEntity
8
0
100
AcDbCircle
62
7
6
BYLAYER
10
175.3175734082
20
259.6972730791
40
0.8000000000
0
TEXT
5
33A
100
AcDbEntity
8
0
100
AcDbText
62
7
6
BYLAYER
10
155.7152658074
20
265.4601322036
7
TEXTSTYLE_2
40
4.0000000000
1
O4
41
0.8891050584
72
0
100
AcDbText
0
CIRCLE
5
33B
100
AcDbEntity
8
0
100
AcDbCircle
62
7
6
BYLAYER
10
107.0285805438
20
195.1602961294
40
0.8000000000
0
TEXT
5
33C
100
AcDbEntity
8
0
100
AcDbText
62
7
6
BYLAYER
10
119.6321050047
20
179.5175036680
7
TEXTSTYLE_2
40
4.0000000000
1
M3
41
1.0233463035
72
0
100
AcDbText
0
TEXT
5
33D
100
AcDbEntity
8
0
100
AcDbText
62
7
6
BYLAYER
10
196.9561947019
20
87.3420177571
7
STANDARD
40
4.0000000000
1
DEVELOPED VIEW
41
0.8000000000
72
0
100
AcDbText
0
SOLID
5
33E
100
AcDbEntity
8
0
100
AcDbTrace
62
7
6
BYLAYER
10
320.8873929775
20
152.0421068646
11
317.2514610001
21
155.5663087112
12
318.5325689449
22
156.5248296728
13
318.5325689449
23
156.5248296728
0
POLYLINE
5
33F
100
AcDbEntity
8
0
100
AcDb2dPolyline
62
7
6
BYLAYER
66
1
70
0
0
VERTEX
5
340
100
AcDbEntity
8
0
100
AcDbVertex
62
7
6
BYLAYER
100
AcDb2dVertex
10
303.6407482910
20
163.8397668457
0
VERTEX
5
341
100
AcDbEntity
8
0
100
AcDbVertex
62
7
6
BYLAYER
100
AcDb2dVertex
10
302.6407617188
20
164.1730957031
0
VERTEX
5
342
100
AcDbEntity
8
0
100
AcDbVertex
62
7
6
BYLAYER
100
AcDb2dVertex
10
301.6407495117
20
163.8397668457
0
VERTEX
5
343
100
AcDbEntity
8
0
100
AcDbVertex
62
7
6
BYLAYER
100
AcDb2dVertex
10
300.9740917969
20
163.1730963135
0
VERTEX
5
344
100
AcDbEntity
8
0
100
AcDbVertex
62
7
6
BYLAYER
100
AcDb2dVertex
10
300.6407629395
20
162.1730969238
0
VERTEX
5
345
100
AcDbEntity
8
0
100
AcDbVertex
62
7
6
BYLAYER
100
AcDb2dVertex
10
300.9740917969
20
161.1730975342
0
VERTEX
5
346
100
AcDbEntity
8
0
100
AcDbVertex
62
7
6
BYLAYER
100
AcDb2dVertex
10
301.6407495117
20
160.5064270020
0
VERTEX
5
347
100
AcDbEntity
8
0
100
AcDbVertex
62
7
6
BYLAYER
100
AcDb2dVertex
10
302.6407617188
20
160.1730981445
0
VERTEX
5
348
100
AcDbEntity
8
0
100
AcDbVertex
62
7
6
BYLAYER
100
AcDb2dVertex
10
303.6407482910
20
160.5064270020
0
SEQEND
5
349
100
AcDbEntity
8
0
0
POLYLINE
5
34A
100
AcDbEntity
8
0
100
AcDb2dPolyline
62
7
6
BYLAYER
66
1
70
0
0
VERTEX
5
34B
100
AcDbEntity
8
0
100
AcDbVertex
62
7
6
BYLAYER
100
AcDb2dVertex
10
302.3074072266
20
165.3397595215
0
VERTEX
5
34C
100
AcDbEntity
8
0
100
AcDbVertex
62
7
6
BYLAYER
100
AcDb2dVertex
10
302.3074072266
20
159.1730987549
0
VERTEX
5
34D
100
AcDbEntity
8
0
100
AcDbVertex
62
7
6
BYLAYER
100
AcDb2dVertex
10
304.9740893555
20
159.1730987549
0
SEQEND
5
34E
100
AcDbEntity
8
0
0
TEXT
5
34F
100
AcDbEntity
8
0
100
AcDbText
62
7
6
BYLAYER
10
284.6407508451
20
160.1730974005
7
STANDARD
40
4.0000000000
1
PIPE 
41
0.8000000000
72
0
100
AcDbText
0
LINE
5
350
100
AcDbEntity
8
0
100
AcDbLine
62
7
6
BYLAYER
10
0.0000000000
20
297.0000000000
11
0.0000000000
21
0.0000000000
0
LINE
5
351
100
AcDbEntity
8
0
100
AcDbLine
62
7
6
BYLAYER
10
10.0000000000
20
10.0000000000
11
10.0000000000
21
287.0000000000
0
LINE
5
352
100
AcDbEntity
8
0
100
AcDbLine
62
7
6
BYLAYER
10
10.0010000000
20
106.2230000000
11
10.0010000000
21
276.9990000000
0
LINE
5
353
100
AcDbEntity
8
0
100
AcDbLine
62
7
6
BYLAYER
10
0.0000000000
20
0.0000000000
11
420.0000000000
21
0.0000000000
0
LINE
5
354
100
AcDbEntity
8
0
100
AcDbLine
62
7
6
BYLAYER
10
160.0381492713
20
3.8460928114
11
260.0381492713
21
3.8460928114
0
LINE
5
355
100
AcDbEntity
8
0
100
AcDbLine
62
7
6
BYLAYER
10
160.0381492713
20
3.8460928114
11
160.0381492713
21
8.8460928114
0
LINE
5
356
100
AcDbEntity
8
0
100
AcDbLine
62
7
6
BYLAYER
10
260.0381492713
20
3.8460928114
11
260.0381492713
21
8.8460928114
0
LINE
5
357
100
AcDbEntity
8
0
100
AcDbLine
62
7
6
BYLAYER
10
106.2230000000
20
286.9990000000
11
237.9920000000
21
286.9990000000
0
LINE
5
358
100
AcDbEntity
8
0
100
AcDbLine
62
7
6
BYLAYER
10
10.0000000000
20
287.0000000000
11
410.0000000000
21
287.0000000000
0
LINE
5
359
100
AcDbEntity
8
0
100
AcDbLine
62
7
6
BYLAYER
10
0.0000000000
20
297.0000000000
11
420.0000000000
21
297.0000000000
0
LINE
5
35A
100
AcDbEntity
8
0
100
AcDbLine
62
7
6
BYLAYER
10
401.4430414976
20
21.0017763982
11
401.4430414976
21
10.0350776605
0
LINE
5
35B
100
AcDbEntity
8
0
100
AcDbLine
62
7
6
BYLAYER
10
410.0000000000
20
287.0000000000
11
410.0000000000
21
10.0000000000
0
LINE
5
35C
100
AcDbEntity
8
0
100
AcDbLine
62
7
6
BYLAYER
10
420.0000000000
20
297.0000000000
11
420.0000000000
21
0.0000000000
0
LINE
5
35D
100
AcDbEntity
8
0
100
AcDbLine
62
7
6
BYLAYER
10
57.9307130023
20
160.6560021001
11
69.1999562744
21
149.6328665224
0
LINE
5
35E
100
AcDbEntity
8
0
100
AcDbLine
62
7
6
BYLAYER
10
57.8555501807
20
196.6827649951
11
60.9363504996
21
193.6692459163
0
LINE
5
35F
100
AcDbEntity
8
0
100
AcDbLine
62
7
6
BYLAYER
10
60.9363504996
20
193.6692459163
11
66.0439931338
21
188.6731484962
0
LINE
5
360
100
AcDbEntity
8
0
100
AcDbLine
62
7
6
BYLAYER
10
66.0439931338
20
188.6731484962
11
69.1247934528
21
185.6596294174
0
LINE
5
361
100
AcDbEntity
8
0
100
AcDbLine
62
7
6
BYLAYER
10
58.0840880438
20
196.7271852515
11
60.9721869051
21
193.9021592457
0
LINE
5
362
100
AcDbEntity
8
0
100
AcDbLine
62
7
6
BYLAYER
10
66.2725309969
20
188.7175687526
11
69.3533313159
21
185.7040496738
0
LINE
5
363
100
AcDbEntity
8
0
100
AcDbLine
62
7
6
BYLAYER
10
65.7257805054
20
199.3305839311
11
70.8334231395
21
194.3344865110
0
LINE
5
364
100
AcDbEntity
8
0
100
AcDbLine
62
7
6
BYLAYER
10
57.8555501807
20
196.6827649951
11
57.9307130023
21
160.6560021001
0
LINE
5
365
100
AcDbEntity
8
0
100
AcDbLine
62
7
6
BYLAYER
10
69.1247934528
20
185.6596294174
11
69.1999562744
21
149.6328665224
0
LINE
5
366
100
AcDbEntity
8
0
100
AcDbLine
62
7
6
BYLAYER
10
69.3533313159
20
185.7040496738
11
69.4284941375
21
149.6772867788
0
LINE
5
367
100
AcDbEntity
8
0
100
AcDbLine
62
7
6
BYLAYER
10
94.8301172314
20
193.8610631339
11
96.3567814133
21
192.5436396707
0
LINE
5
368
100
AcDbEntity
8
0
100
AcDbLine
62
7
6
BYLAYER
10
87.8566148209
20
202.4800391675
11
88.2180184737
21
202.1639870412
0
LINE
5
369
100
AcDbEntity
8
0
100
AcDbLine
62
7
6
BYLAYER
10
91.2307467584
20
196.3857074238
11
92.2783861235
21
195.4341968593
0
LINE
5
36A
100
AcDbEntity
8
0
100
AcDbLine
62
7
6
BYLAYER
10
90.9038966972
20
200.0261581994
11
91.9515360623
21
199.0746476349
0
LINE
5
36B
100
AcDbEntity
8
0
100
AcDbLine
62
7
6
BYLAYER
10
78.5239008417
20
201.8181182908
11
79.9021536160
21
200.4699650187
0
LINE
5
36C
100
AcDbEntity
8
0
100
AcDbLine
62
7
6
BYLAYER
10
79.9021536160
20
200.4699650187
11
80.3885957716
21
199.9941462167
0
LINE
5
36D
100
AcDbEntity
8
0
100
AcDbLine
62
7
6
BYLAYER
10
80.3885957716
20
199.9941462168
11
83.6315434759
21
196.8220208707
0
LINE
5
36E
100
AcDbEntity
8
0
100
AcDbLine
62
7
6
BYLAYER
10
84.2657533954
20
204.5771341335
11
87.5087010996
21
201.4050087874
0
LINE
5
36F
100
AcDbEntity
8
0
100
AcDbLine
62
7
6
BYLAYER
10
84.2649078136
20
204.9824352161
11
87.5078555178
21
201.8103098700
0
LINE
5
370
100
AcDbEntity
8
0
100
AcDbLine
62
7
6
BYLAYER
10
93.2472869686
20
193.2155249783
11
92.0858591983
21
194.4275979483
0
LINE
5
371
100
AcDbEntity
8
0
100
AcDbLine
62
7
6
BYLAYER
10
91.2307467584
20
196.3857074238
11
90.9038966972
21
200.0261581994
0
LINE
5
372
100
AcDbEntity
8
0
100
AcDbLine
62
7
6
BYLAYER
10
92.2783861235
20
195.4341968593
11
91.9515360623
21
199.0746476349
0
LINE
5
373
100
AcDbEntity
8
0
100
AcDbLine
62
7
6
BYLAYER
10
92.5152767627
20
195.4780515284
11
92.1884267015
21
199.1185023039
0
LINE
5
374
100
AcDbEntity
8
0
100
AcDbLine
62
7
6
BYLAYER
10
88.2232187645
20
201.9344375544
11
88.2180184737
21
202.1639870412
0
LINE
5
375
100
AcDbEntity
8
0
100
AcDbLine
62
7
6
BYLAYER
10
70.8338929072
20
194.1093192429
11
70.8334231395
21
194.3344865110
0
LINE
5
376
100
AcDbEntity
8
0
100
AcDbLine
62
7
6
BYLAYER
10
83.6320132435
20
196.5968536026
11
83.6315434759
21
196.8220208707
0
LINE
5
377
100
AcDbEntity
8
0
100
AcDbLine
62
7
6
BYLAYER
10
84.2649078136
20
204.9824352161
11
84.2657533954
21
204.5771341335
0
LINE
5
378
100
AcDbEntity
8
0
100
AcDbLine
62
7
6
BYLAYER
10
117.0926971043
20
194.2859924411
11
110.3574139490
21
200.0981547791
0
LINE
5
379
100
AcDbEntity
8
0
100
AcDbLine
62
7
6
BYLAYER
10
88.5982016284
20
210.1045981819
11
91.8411493326
21
206.9324728358
0
LINE
5
37A
100
AcDbEntity
8
0
100
AcDbLine
62
7
6
BYLAYER
10
107.3325265200
20
194.4202847487
11
112.6321050047
21
181.5175036680
0
LINE
5
37B
100
AcDbEntity
8
0
100
AcDbLine
62
7
6
BYLAYER
10
87.5078555178
20
201.8103098700
11
87.5087010996
21
201.4050087874
0
LINE
5
37C
100
AcDbEntity
8
0
100
AcDbLine
62
7
6
BYLAYER
10
87.7363933810
20
201.8547301264
11
87.7372389627
21
201.4494290438
0
LINE
5
37D
100
AcDbEntity
8
0
100
AcDbLine
62
7
6
BYLAYER
10
91.8416191002
20
206.7073055677
11
91.8411493326
21
206.9324728358
0
LINE
5
37E
100
AcDbEntity
8
0
100
AcDbLine
62
7
6
BYLAYER
10
96.3572511809
20
192.3184724026
11
96.3567814133
21
192.5436396707
0
LINE
5
37F
100
AcDbEntity
8
0
100
AcDbLine
62
7
6
BYLAYER
10
96.6893430116
20
207.6495439182
11
96.6888732440
21
207.8747111863
0
LINE
5
380
100
AcDbEntity
8
0
100
AcDbLine
62
7
6
BYLAYER
10
97.2439156961
20
192.5135761936
11
97.2434459284
21
192.7387434616
0
LINE
5
381
100
AcDbEntity
8
0
100
AcDbLine
62
7
6
BYLAYER
10
98.8627699144
20
208.1744031315
11
98.8623001467
21
208.3995703995
0
LINE
5
382
100
AcDbEntity
8
0
100
AcDbLine
62
7
6
BYLAYER
10
69.4284941375
20
149.6772867788
11
69.1999562744
21
149.6328665224
0
LINE
5
383
100
AcDbEntity
8
0
100
AcDbLine
62
7
6
BYLAYER
10
112.6321050047
20
181.5175036680
11
119.6321050047
21
181.5175036680
0
LINE
5
384
100
AcDbEntity
8
0
100
AcDbLine
62
7
6
BYLAYER
10
105.0306428925
20
191.4065584048
11
97.2439156961
21
192.5135761936
0
LINE
5
385
100
AcDbEntity
8
0
100
AcDbLine
62
7
6
BYLAYER
10
105.0301731248
20
191.6317256729
11
97.2434459284
21
192.7387434616
0
LINE
5
386
100
AcDbEntity
8
0
100
AcDbLine
62
7
6
BYLAYER
10
105.0306428925
20
191.4065584048
11
105.0301731248
21
191.6317256729
0
LINE
5
387
100
AcDbEntity
8
0
100
AcDbLine
62
7
6
BYLAYER
10
117.0931668719
20
194.0608251730
11
117.0926971043
21
194.2859924411
0
LINE
5
388
100
AcDbEntity
8
0
100
AcDbLine
62
7
6
BYLAYER
10
117.0931668719
20
194.0608251730
11
105.0306428925
21
191.4065584048
0
LINE
5
389
100
AcDbEntity
8
0
100
AcDbLine
62
7
6
BYLAYER
10
117.0926971043
20
194.2859924411
11
105.0301731248
21
191.6317256729
0
LINE
5
38A
100
AcDbEntity
8
0
100
AcDbLine
62
7
6
BYLAYER
10
97.2439156961
20
192.5135761936
11
96.3572511809
21
192.3184724026
0
LINE
5
38B
100
AcDbEntity
8
0
100
AcDbLine
62
7
6
BYLAYER
10
97.2434459284
20
192.7387434616
11
96.3567814133
21
192.5436396707
0
LINE
5
38C
100
AcDbEntity
8
0
100
AcDbLine
62
7
6
BYLAYER
10
95.7167817466
20
194.0561669249
11
94.8301172314
21
193.8610631339
0
LINE
5
38D
100
AcDbEntity
8
0
100
AcDbLine
62
7
6
BYLAYER
10
98.2948899696
20
197.4438880108
11
110.3574139490
21
200.0981547791
0
LINE
5
38E
100
AcDbEntity
8
0
100
AcDbLine
62
7
6
BYLAYER
10
69.3533313159
20
185.7040496738
11
69.1247934528
21
185.6596294174
0
LINE
5
38F
100
AcDbEntity
8
0
100
AcDbLine
62
7
6
BYLAYER
10
66.2725309969
20
188.7175687526
11
66.0439931338
21
188.6731484962
0
LINE
5
390
100
AcDbEntity
8
0
100
AcDbLine
62
7
6
BYLAYER
10
83.6320132435
20
196.5968536026
11
70.8338929072
21
194.1093192429
0
LINE
5
391
100
AcDbEntity
8
0
100
AcDbLine
62
7
6
BYLAYER
10
83.6315434759
20
196.8220208707
11
70.8334231395
21
194.3344865110
0
LINE
5
392
100
AcDbEntity
8
0
100
AcDbLine
62
7
6
BYLAYER
10
87.7372389627
20
201.4494290438
11
87.5087010996
21
201.4050087874
0
LINE
5
393
100
AcDbEntity
8
0
100
AcDbLine
62
7
6
BYLAYER
10
87.7363933810
20
201.8547301264
11
87.5078555178
21
201.8103098700
0
LINE
5
394
100
AcDbEntity
8
0
100
AcDbLine
62
7
6
BYLAYER
10
58.0840880438
20
196.7271852515
11
57.8555501807
21
196.6827649951
0
LINE
5
395
100
AcDbEntity
8
0
100
AcDbLine
62
7
6
BYLAYER
10
78.5239008417
20
201.8181182908
11
65.7257805054
21
199.3305839311
0
LINE
5
396
100
AcDbEntity
8
0
100
AcDbLine
62
7
6
BYLAYER
10
92.2783861235
20
195.4341968593
11
92.5152767627
21
195.4780515284
0
LINE
5
397
100
AcDbEntity
8
0
100
AcDbLine
62
7
6
BYLAYER
10
91.9515360623
20
199.0746476349
11
92.1884267015
21
199.1185023039
0
LINE
5
398
100
AcDbEntity
8
0
100
AcDbLine
62
7
6
BYLAYER
10
96.6893430116
20
207.6495439182
11
91.8416191002
21
206.7073055677
0
LINE
5
399
100
AcDbEntity
8
0
100
AcDbLine
62
7
6
BYLAYER
10
96.6888732440
20
207.8747111863
11
91.8411493326
21
206.9324728358
0
LINE
5
39A
100
AcDbEntity
8
0
100
AcDbLine
62
7
6
BYLAYER
10
93.4459255398
20
211.0468365324
11
88.5982016284
21
210.1045981819
0
LINE
5
39B
100
AcDbEntity
8
0
100
AcDbLine
62
7
6
BYLAYER
10
181.6749860528
20
229.9790082667
11
158.0834325889
21
225.5328656689
0
LINE
5
39C
100
AcDbEntity
8
0
100
AcDbLine
62
7
6
BYLAYER
10
181.6745162852
20
230.2041755348
11
158.0829628212
21
225.7580329370
0
LINE
5
39D
100
AcDbEntity
8
0
100
AcDbLine
62
7
6
BYLAYER
10
180.3318215628
20
231.5591348985
11
175.3618879439
21
230.6224846858
0
LINE
5
39E
100
AcDbEntity
8
0
100
AcDbLine
62
7
6
BYLAYER
10
173.5453009664
20
232.4556650015
11
154.9236811214
21
228.9461726164
0
LINE
5
39F
100
AcDbEntity
8
0
100
AcDbLine
62
7
6
BYLAYER
10
174.8879956889
20
231.1007056377
11
175.3618879439
21
230.6224846858
0
LINE
5
3A0
100
AcDbEntity
8
0
100
AcDbLine
62
7
6
BYLAYER
10
157.8072741410
20
225.4670667725
11
157.8068043733
21
225.6922340406
0
LINE
5
3A1
100
AcDbEntity
8
0
100
AcDbLine
62
7
6
BYLAYER
10
158.0834325889
20
225.5328656689
11
158.0829628212
21
225.7580329370
0
LINE
5
3A2
100
AcDbEntity
8
0
100
AcDbLine
62
7
6
BYLAYER
10
167.3614346195
20
261.5661403799
11
167.3619043871
21
261.3409731118
0
LINE
5
3A3
100
AcDbEntity
8
0
100
AcDbLine
62
7
6
BYLAYER
10
95.7167817466
20
194.0561669249
11
98.2948899696
21
197.4438880108
0
LINE
5
3A4
100
AcDbEntity
8
0
100
AcDbLine
62
7
6
BYLAYER
10
188.9556312614
20
245.8232155433
11
183.7077494811
21
244.8341822960
0
LINE
5
3A5
100
AcDbEntity
8
0
100
AcDbLine
62
7
6
BYLAYER
10
188.9551614937
20
246.0483828114
11
183.7072797135
21
245.0593495641
0
LINE
5
3A6
100
AcDbEntity
8
0
100
AcDbLine
62
7
6
BYLAYER
10
187.6124667713
20
247.4033421752
11
182.3645849910
21
246.4143089279
0
LINE
5
3A7
100
AcDbEntity
8
0
100
AcDbLine
62
7
6
BYLAYER
10
193.0814055369
20
250.6553771169
11
192.8517260873
21
250.6120909642
0
LINE
5
3A8
100
AcDbEntity
8
0
100
AcDbLine
62
7
6
BYLAYER
10
193.0660723213
20
258.0048367475
11
192.8363928717
21
257.9615505948
0
LINE
5
3A9
100
AcDbEntity
8
0
100
AcDbLine
62
7
6
BYLAYER
10
173.2855575744
20
255.3632112128
11
185.6882478533
21
257.7006634565
0
LINE
5
3AA
100
AcDbEntity
8
0
100
AcDbLine
62
7
6
BYLAYER
10
190.6699997139
20
242.6791483681
11
190.1270605986
21
242.5785084972
0
LINE
5
3AB
100
AcDbEntity
8
0
100
AcDbLine
62
7
6
BYLAYER
10
190.6695299462
20
242.9043156362
11
190.1265908310
21
242.8036757652
0
LINE
5
3AC
100
AcDbEntity
8
0
100
AcDbLine
62
7
6
BYLAYER
10
189.3457311717
20
244.2628068470
11
188.8027920565
21
244.1621669761
0
LINE
5
3AD
100
AcDbEntity
8
0
100
AcDbLine
62
7
6
BYLAYER
10
194.8064348478
20
247.5004613451
11
194.5761631283
21
247.4577778922
0
LINE
5
3AE
100
AcDbEntity
8
0
100
AcDbLine
62
7
6
BYLAYER
10
194.7915713998
20
254.6247537076
11
194.5612996803
21
254.5820702547
0
LINE
5
3AF
100
AcDbEntity
8
0
100
AcDbLine
62
7
6
BYLAYER
10
207.8318933273
20
258.3604849507
11
216.1216752300
21
259.8970892533
0
LINE
5
3B0
100
AcDbEntity
8
0
100
AcDbLine
62
7
6
BYLAYER
10
207.8314235597
20
258.5856522188
11
216.1212054624
21
260.1222565214
0
LINE
5
3B1
100
AcDbEntity
8
0
100
AcDbLine
62
7
6
BYLAYER
10
200.2313444662
20
259.6876550277
11
198.9280065337
21
259.4460666846
0
LINE
5
3B2
100
AcDbEntity
8
0
100
AcDbLine
62
7
6
BYLAYER
10
200.2308746985
20
259.9128222958
11
198.9275367661
21
259.6712339527
0
LINE
5
3B3
100
AcDbEntity
8
0
100
AcDbLine
62
7
6
BYLAYER
10
167.3619043871
20
261.3409731118
11
173.2855575744
21
255.3632112128
0
LINE
5
3B4
100
AcDbEntity
8
0
100
AcDbLine
62
7
6
BYLAYER
10
167.3614346195
20
261.5661403799
11
173.2850878068
21
255.5883784809
0
LINE
5
3B5
100
AcDbEntity
8
0
100
AcDbLine
62
7
6
BYLAYER
10
187.6124667713
20
247.4033421752
11
188.9551614937
21
246.0483828114
0
LINE
5
3B6
100
AcDbEntity
8
0
100
AcDbLine
62
7
6
BYLAYER
10
189.3457311717
20
244.2628068470
11
190.6695299462
21
242.9043156362
0
LINE
5
3B7
100
AcDbEntity
8
0
100
AcDbLine
62
7
6
BYLAYER
10
174.8556765437
20
260.3504585708
11
169.8281062743
21
267.4601322036
0
LINE
5
3B8
100
AcDbEntity
8
0
100
AcDbLine
62
7
6
BYLAYER
10
173.2850878068
20
255.5883784809
11
173.2855575744
21
255.3632112128
0
LINE
5
3B9
100
AcDbEntity
8
0
100
AcDbLine
62
7
6
BYLAYER
10
176.7050524339
20
229.0423580539
11
176.7045826663
21
229.2675253220
0
LINE
5
3BA
100
AcDbEntity
8
0
100
AcDbLine
62
7
6
BYLAYER
10
178.8965086530
20
233.2161478806
11
178.8960388854
21
233.4413151487
0
LINE
5
3BB
100
AcDbEntity
8
0
100
AcDbLine
62
7
6
BYLAYER
10
181.6749860528
20
229.9790082667
11
181.6745162852
21
230.2041755348
0
LINE
5
3BC
100
AcDbEntity
8
0
100
AcDbLine
62
7
6
BYLAYER
10
181.7336386530
20
243.6813447756
11
181.7331688854
21
243.9065120437
0
LINE
5
3BD
100
AcDbEntity
8
0
100
AcDbLine
62
7
6
BYLAYER
10
183.7077494811
20
244.8341822960
11
183.7072797135
21
245.0593495641
0
LINE
5
3BE
100
AcDbEntity
8
0
100
AcDbLine
62
7
6
BYLAYER
10
185.6836244214
20
232.3218203737
11
185.6831546537
21
232.5469876418
0
LINE
5
3BF
100
AcDbEntity
8
0
100
AcDbLine
62
7
6
BYLAYER
10
185.6877780857
20
257.9258307246
11
185.6882478533
21
257.7006634565
0
LINE
5
3C0
100
AcDbEntity
8
0
100
AcDbLine
62
7
6
BYLAYER
10
188.1343164414
20
241.4211581469
11
188.1338466737
21
241.6463254150
0
LINE
5
3C1
100
AcDbEntity
8
0
100
AcDbLine
62
7
6
BYLAYER
10
188.7258620842
20
261.2414707340
11
188.7263318519
21
261.0163034659
0
LINE
5
3C2
100
AcDbEntity
8
0
100
AcDbLine
62
7
6
BYLAYER
10
188.9233864109
20
261.2786968253
11
188.9238561785
21
261.0535295572
0
LINE
5
3C3
100
AcDbEntity
8
0
100
AcDbLine
62
7
6
BYLAYER
10
188.9556312614
20
245.8232155433
11
188.9551614937
21
246.0483828114
0
LINE
5
3C4
100
AcDbEntity
8
0
100
AcDbLine
62
7
6
BYLAYER
10
178.3565417946
20
244.0736994168
11
175.5194117945
21
233.6085025218
0
LINE
5
3C5
100
AcDbEntity
8
0
100
AcDbLine
62
7
6
BYLAYER
10
173.2850878068
20
255.5883784809
11
185.6877780857
21
257.9258307246
0
LINE
5
3C6
100
AcDbEntity
8
0
100
AcDbLine
62
7
6
BYLAYER
10
188.7263318519
20
261.0163034659
11
188.9238561785
21
261.0535295572
0
LINE
5
3C7
100
AcDbEntity
8
0
100
AcDbLine
62
7
6
BYLAYER
10
188.7258620842
20
261.2414707340
11
188.9233864109
21
261.2786968253
0
LINE
5
3C8
100
AcDbEntity
8
0
100
AcDbLine
62
7
6
BYLAYER
10
187.3831673618
20
262.5964300977
11
187.5806916884
21
262.6336561890
0
LINE
5
3C9
100
AcDbEntity
8
0
100
AcDbLine
62
7
6
BYLAYER
10
179.7641248984
20
263.9035926236
11
167.3614346195
21
261.5661403799
0
LINE
5
3CA
100
AcDbEntity
8
0
100
AcDbLine
62
7
6
BYLAYER
10
198.9070759240
20
261.2713135066
11
197.6037379915
21
261.0297251635
0
LINE
5
3CB
100
AcDbEntity
8
0
100
AcDbLine
62
7
6
BYLAYER
10
210.2809167511
20
266.1156000986
11
201.9911348485
21
264.5789957960
0
LINE
5
3CC
100
AcDbEntity
8
0
100
AcDbLine
62
7
6
BYLAYER
10
169.8281062743
20
267.4601322036
11
162.8281062743
21
267.4601322036
0
LINE
5
3CD
100
AcDbEntity
8
0
100
AcDbLine
62
7
6
BYLAYER
10
200.5094049686
20
272.1926558013
11
193.5094049686
21
272.1926558013
0
LINE
5
3CE
100
AcDbEntity
8
0
100
AcDbLine
62
7
6
BYLAYER
10
187.3831673618
20
262.5964300977
11
179.7641248984
21
263.9035926236
0
LINE
5
3CF
100
AcDbEntity
8
0
100
AcDbLine
62
7
6
BYLAYER
10
200.2313444662
20
259.6876550277
11
207.8318933273
21
258.3604849507
0
LINE
5
3D0
100
AcDbEntity
8
0
100
AcDbLine
62
7
6
BYLAYER
10
200.2308746985
20
259.9128222958
11
207.8314235597
21
258.5856522188
0
LINE
5
3D1
100
AcDbEntity
8
0
100
AcDbLine
62
7
6
BYLAYER
10
191.5090313649
20
251.9670503280
11
192.8517260873
21
250.6120909642
0
LINE
5
3D2
100
AcDbEntity
8
0
100
AcDbLine
62
7
6
BYLAYER
10
187.5806916884
20
262.6336561890
11
188.9233864109
21
261.2786968253
0
LINE
5
3D3
100
AcDbEntity
8
0
100
AcDbLine
62
7
6
BYLAYER
10
191.4936981492
20
259.3165099586
11
192.8363928717
21
257.9615505948
0
LINE
5
3D4
100
AcDbEntity
8
0
100
AcDbLine
62
7
6
BYLAYER
10
192.1282562970
20
260.3931671916
11
190.7855615745
21
261.7481265554
0
LINE
5
3D5
100
AcDbEntity
8
0
100
AcDbLine
62
7
6
BYLAYER
10
193.2523643537
20
248.8162691031
11
194.5761631283
21
247.4577778922
0
LINE
5
3D6
100
AcDbEntity
8
0
100
AcDbLine
62
7
6
BYLAYER
10
193.2375009057
20
255.9405614655
11
194.5612996803
21
254.5820702547
0
LINE
5
3D7
100
AcDbEntity
8
0
100
AcDbLine
62
7
6
BYLAYER
10
197.6037379915
20
261.0297251635
11
198.9275367661
21
259.6712339527
0
LINE
5
3D8
100
AcDbEntity
8
0
100
AcDbLine
62
7
6
BYLAYER
10
190.1270605986
20
242.5785084972
11
190.1265908310
21
242.8036757652
0
LINE
5
3D9
100
AcDbEntity
8
0
100
AcDbLine
62
7
6
BYLAYER
10
190.6699997139
20
242.6791483681
11
190.6695299462
21
242.9043156362
0
LINE
5
3DA
100
AcDbEntity
8
0
100
AcDbLine
62
7
6
BYLAYER
10
191.4936981492
20
259.3165099586
11
191.5090313649
21
251.9670503280
0
LINE
5
3DB
100
AcDbEntity
8
0
100
AcDbLine
62
7
6
BYLAYER
10
192.8363928717
20
257.9615505948
11
192.8517260873
21
250.6120909642
0
LINE
5
3DC
100
AcDbEntity
8
0
100
AcDbLine
62
7
6
BYLAYER
10
193.0660723213
20
258.0048367475
11
193.0814055369
21
250.6553771169
0
LINE
5
3DD
100
AcDbEntity
8
0
100
AcDbLine
62
7
6
BYLAYER
10
193.2375009057
20
255.9405614656
11
193.2523643537
21
248.8162691031
0
LINE
5
3DE
100
AcDbEntity
8
0
100
AcDbLine
62
7
6
BYLAYER
10
194.5612996803
20
254.5820702547
11
194.5761631283
21
247.4577778922
0
LINE
5
3DF
100
AcDbEntity
8
0
100
AcDbLine
62
7
6
BYLAYER
10
194.7915713998
20
254.6247537076
11
194.8064348478
21
247.5004613451
0
LINE
5
3E0
100
AcDbEntity
8
0
100
AcDbLine
62
7
6
BYLAYER
10
198.9280065337
20
259.4460666846
11
198.9275367661
21
259.6712339527
0
LINE
5
3E1
100
AcDbEntity
8
0
100
AcDbLine
62
7
6
BYLAYER
10
200.2308746985
20
259.9128222958
11
200.2313444662
21
259.6876550277
0
LINE
5
3E2
100
AcDbEntity
8
0
100
AcDbLine
62
7
6
BYLAYER
10
184.7569175553
20
241.8123950528
11
182.3062255353
21
232.7130572796
0
LINE
5
3E3
100
AcDbEntity
8
0
100
AcDbLine
62
7
6
BYLAYER
10
188.1338466737
20
241.6463254150
11
185.6831546537
21
232.5469876418
0
LINE
5
3E4
100
AcDbEntity
8
0
100
AcDbLine
62
7
6
BYLAYER
10
181.7331688854
20
243.9065120437
11
178.8960388854
21
233.4413151487
0
LINE
5
3E5
100
AcDbEntity
8
0
100
AcDbLine
62
7
6
BYLAYER
10
185.6877780857
20
257.9258307246
11
188.7258620842
21
261.2414707340
0
LINE
5
3E6
100
AcDbEntity
8
0
100
AcDbLine
62
7
6
BYLAYER
10
185.6882478533
20
257.7006634565
11
188.7263318519
21
261.0163034659
0
LINE
5
3E7
100
AcDbEntity
8
0
100
AcDbLine
62
7
6
BYLAYER
10
201.9911348485
20
264.5789957960
11
198.9070759240
21
261.2713135066
0
LINE
5
3E8
100
AcDbEntity
8
0
100
AcDbLine
62
7
6
BYLAYER
10
216.1212054624
20
260.1222565214
11
210.2809167511
21
266.1156000986
0
LINE
5
3E9
100
AcDbEntity
8
0
100
AcDbLine
62
7
6
BYLAYER
10
205.8730474448
20
263.1801790311
11
200.5094049686
21
272.1926558013
0
LINE
5
3EA
100
AcDbEntity
8
0
100
AcDbLine
62
7
6
BYLAYER
10
207.8314235597
20
258.5856522188
11
207.8318933273
21
258.3604849507
0
LINE
5
3EB
100
AcDbEntity
8
0
100
AcDbLine
62
7
6
BYLAYER
10
216.1212054624
20
260.1222565214
11
216.1216752300
21
259.8970892533
0
LINE
5
3EC
100
AcDbEntity
8
0
100
AcDbLine
62
7
6
BYLAYER
10
153.3479535067
20
228.5707318548
11
94.4034492801
21
211.2780682138
0
LINE
5
3ED
100
AcDbEntity
8
0
100
AcDbLine
62
7
6
BYLAYER
10
157.8068043733
20
225.6922340406
11
98.8623001467
21
208.3995703995
0
LINE
5
3EE
100
AcDbEntity
8
0
100
AcDbLine
62
7
6
BYLAYER
10
157.8072741410
20
225.4670667725
11
98.8627699144
21
208.1744031315
0
LINE
5
3EF
100
AcDbEntity
8
0
100
AcDbLine
62
7
6
BYLAYER
10
135.9536098314
20
130.6768704250
11
135.9536098314
21
102.8768704250
0
LINE
5
3F0
100
AcDbEntity
8
0
100
AcDbLine
62
7
6
BYLAYER
10
175.9536098314
20
130.6768704250
11
175.9536098314
21
123.0768704250
0
LINE
5
3F1
100
AcDbEntity
8
0
100
AcDbLine
62
7
6
BYLAYER
10
175.9536098314
20
123.0768704250
11
175.9536098314
21
110.4768704250
0
LINE
5
3F2
100
AcDbEntity
8
0
100
AcDbLine
62
7
6
BYLAYER
10
175.9536098314
20
110.4768704250
11
175.9536098314
21
102.8768704250
0
LINE
5
3F3
100
AcDbEntity
8
0
100
AcDbLine
62
7
6
BYLAYER
10
230.3817510617
20
113.1031992780
11
224.1673591148
21
118.4509903050
0
LINE
5
3F4
100
AcDbEntity
8
0
100
AcDbLine
62
7
6
BYLAYER
10
183.9325914654
20
123.0768704250
11
183.9325914654
21
110.4768704250
0
LINE
5
3F5
100
AcDbEntity
8
0
100
AcDbLine
62
7
6
BYLAYER
10
197.9325914654
20
123.0768704250
11
197.9325914654
21
119.6768704250
0
LINE
5
3F6
100
AcDbEntity
8
0
100
AcDbLine
62
7
6
BYLAYER
10
197.9325914654
20
119.6768704250
11
197.9325914654
21
118.4768704250
0
LINE
5
3F7
100
AcDbEntity
8
0
100
AcDbLine
62
7
6
BYLAYER
10
197.9325914654
20
118.4768704250
11
197.9325914654
21
110.4768704250
0
LINE
5
3F8
100
AcDbEntity
8
0
100
AcDbLine
62
7
6
BYLAYER
10
204.7334758543
20
118.4768704250
11
204.7334758543
21
110.4768704250
0
LINE
5
3F9
100
AcDbEntity
8
0
100
AcDbLine
62
7
6
BYLAYER
10
205.1834758543
20
118.4768704250
11
205.1834758543
21
110.4768704250
0
LINE
5
3FA
100
AcDbEntity
8
0
100
AcDbLine
62
7
6
BYLAYER
10
207.0355643128
20
123.0866878944
11
207.0355643128
21
119.6903948568
0
LINE
5
3FB
100
AcDbEntity
8
0
100
AcDbLine
62
7
6
BYLAYER
10
222.9254747555
20
121.7760368907
11
223.1777676374
21
118.3891070981
0
LINE
5
3FC
100
AcDbEntity
8
0
100
AcDbLine
62
7
6
BYLAYER
10
243.8445328930
20
114.1155291850
11
242.7314760611
21
129.0578665052
0
LINE
5
3FD
100
AcDbEntity
8
0
100
AcDbLine
62
7
6
BYLAYER
10
212.3770593249
20
118.4768704250
11
212.3770593249
21
110.4768704250
0
LINE
5
3FE
100
AcDbEntity
8
0
100
AcDbLine
62
7
6
BYLAYER
10
213.0521020413
20
119.2165322204
11
213.0521020413
21
119.2282031710
0
LINE
5
3FF
100
AcDbEntity
8
0
100
AcDbLine
62
7
6
BYLAYER
10
216.8636502844
20
118.6274403279
11
216.8636502844
21
118.6391112785
0
LINE
5
400
100
AcDbEntity
8
0
100
AcDbLine
62
7
6
BYLAYER
10
223.1777676374
20
118.3774361475
11
223.1777676374
21
118.3891070981
0
LINE
5
401
100
AcDbEntity
8
0
100
AcDbLine
62
7
6
BYLAYER
10
224.1673591148
20
118.4509903050
11
224.1673591148
21
118.4626612556
0
LINE
5
402
100
AcDbEntity
8
0
100
AcDbLine
62
7
6
BYLAYER
10
230.3817510617
20
113.1031992780
11
230.3817510617
21
113.1148702286
0
LINE
5
403
100
AcDbEntity
8
0
100
AcDbLine
62
7
6
BYLAYER
10
213.5719749733
20
122.5845594613
11
213.0521020413
21
119.2282031710
0
LINE
5
404
100
AcDbEntity
8
0
100
AcDbLine
62
7
6
BYLAYER
10
175.9536098314
20
102.8768704250
11
135.9536098314
21
102.8768704250
0
LINE
5
405
100
AcDbEntity
8
0
100
AcDbLine
62
7
6
BYLAYER
10
217.6800360883
20
110.4768704250
11
175.9536098314
21
110.4768704250
0
LINE
5
406
100
AcDbEntity
8
0
100
AcDbLine
62
7
6
BYLAYER
10
216.8636502844
20
118.6274403279
11
213.0521020413
21
119.2165322204
0
LINE
5
407
100
AcDbEntity
8
0
100
AcDbLine
62
7
6
BYLAYER
10
217.3835232164
20
121.9954675688
11
213.5719749733
21
122.5845594613
0
LINE
5
408
100
AcDbEntity
8
0
100
AcDbLine
62
7
6
BYLAYER
10
243.8445328930
20
114.1038582343
11
243.8445328930
21
114.1155291850
0
LINE
5
409
100
AcDbEntity
8
0
100
AcDbLine
62
7
6
BYLAYER
10
217.3835232164
20
121.9954675688
11
216.8636502844
21
118.6391112785
0
LINE
5
40A
100
AcDbEntity
8
0
100
AcDbLine
62
7
6
BYLAYER
10
243.8445328930
20
114.1038582343
11
230.3817510617
21
113.1031992780
0
LINE
5
40B
100
AcDbEntity
8
0
100
AcDbLine
62
7
6
BYLAYER
10
224.1673591148
20
118.4509903050
11
223.1777676374
21
118.3774361475
0
LINE
5
40C
100
AcDbEntity
8
0
100
AcDbLine
62
7
6
BYLAYER
10
223.9150662329
20
121.8495910482
11
222.9254747555
21
121.7760368907
0
LINE
5
40D
100
AcDbEntity
8
0
100
AcDbLine
62
7
6
BYLAYER
10
229.2686942298
20
128.0572075488
11
242.7314760611
21
129.0578665052
0
LINE
5
40E
100
AcDbEntity
8
0
100
AcDbLine
62
7
6
BYLAYER
10
207.0355643128
20
119.6787239062
11
197.9325914654
21
119.6768704250
0
LINE
5
40F
100
AcDbEntity
8
0
100
AcDbLine
62
7
6
BYLAYER
10
217.6800360883
20
118.4768704250
11
197.9325914654
21
118.4768704250
0
LINE
5
410
100
AcDbEntity
8
0
100
AcDbLine
62
7
6
BYLAYER
10
197.9325914654
20
123.0768704250
11
175.9536098314
21
123.0768704250
0
LINE
5
411
100
AcDbEntity
8
0
100
AcDbLine
62
7
6
BYLAYER
10
175.9536098314
20
130.6768704250
11
135.9536098314
21
130.6768704250
0
LINE
5
412
100
AcDbEntity
8
0
100
AcDbLine
62
7
6
BYLAYER
10
316.0681523565
20
122.7027755342
11
290.3910430465
21
122.9958094049
0
LINE
5
413
100
AcDbEntity
8
0
100
AcDbLine
62
7
6
BYLAYER
10
316.1069515171
20
126.1025541483
11
310.6976625955
21
126.1642863648
0
LINE
5
414
100
AcDbEntity
8
0
100
AcDbLine
62
7
6
BYLAYER
10
310.7501555774
20
130.7639868428
11
290.4823351890
21
130.9952884970
0
LINE
5
415
100
AcDbEntity
8
0
100
AcDbLine
62
7
6
BYLAYER
10
365.1391922073
20
139.4370422753
11
374.1378214638
21
139.2799706173
0
LINE
5
416
100
AcDbEntity
8
0
100
AcDbLine
62
7
6
BYLAYER
10
290.0776404475
20
122.9703042309
11
243.7190351456
21
114.8302546251
0
LINE
5
417
100
AcDbEntity
8
0
100
AcDbLine
62
7
6
BYLAYER
10
236.4534075267
20
113.5544921458
11
220.1531203046
21
110.6923450705
0
LINE
5
418
100
AcDbEntity
8
0
100
AcDbLine
62
7
6
BYLAYER
10
288.6940968300
20
130.8497589747
11
218.7695766871
21
118.5717998143
0
LINE
5
419
100
AcDbEntity
8
0
100
AcDbLine
62
7
6
BYLAYER
10
313.3074175118
20
162.1730974005
11
306.3074175118
21
162.1730974005
0
LINE
5
41A
100
AcDbEntity
8
0
100
AcDbLine
62
7
6
BYLAYER
10
378.7020450886
20
146.7895961285
11
365.2029241208
21
146.9436516190
0
LINE
5
41B
100
AcDbEntity
8
0
100
AcDbLine
62
7
6
BYLAYER
10
359.4694885823
20
152.8094607641
11
331.7823423516
21
153.1254337006
0
LINE
5
41C
100
AcDbEntity
8
0
100
AcDbLine
62
7
6
BYLAYER
10
359.5082877429
20
156.2092393782
11
331.8211415122
21
156.5252123147
0
LINE
5
41D
100
AcDbEntity
8
0
100
AcDbLine
62
7
6
BYLAYER
10
365.3740968880
20
161.9426749166
11
378.8732178558
21
161.7886194262
0
LINE
5
41E
100
AcDbEntity
8
0
100
AcDbLine
62
7
6
BYLAYER
10
359.4412995328
20
145.3373828645
11
335.5360182814
21
145.7546511009
0
LINE
5
41F
100
AcDbEntity
8
0
100
AcDbLine
62
7
6
BYLAYER
10
359.5006377147
20
148.7368650280
11
335.5953564633
21
149.1541332644
0
LINE
5
420
100
AcDbEntity
8
0
100
AcDbLine
62
7
6
BYLAYER
10
374.3996075603
20
154.2776860447
11
365.4009783039
21
154.4347577026
0
LINE
5
421
100
AcDbEntity
8
0
100
AcDbLine
62
7
6
BYLAYER
10
359.4412995328
20
145.3373828645
11
365.1391922073
21
139.4370422753
0
LINE
5
422
100
AcDbEntity
8
0
100
AcDbLine
62
7
6
BYLAYER
10
320.8873929775
20
152.0421068646
11
313.3074175118
21
162.1730974005
0
LINE
5
423
100
AcDbEntity
8
0
100
AcDbLine
62
7
6
BYLAYER
10
310.7113564169
20
127.3642082286
11
310.6976625955
21
126.1642863648
0
LINE
5
424
100
AcDbEntity
8
0
100
AcDbLine
62
7
6
BYLAYER
10
365.2029241208
20
146.9436516190
11
359.4694885823
21
152.8094607641
0
LINE
5
425
100
AcDbEntity
8
0
100
AcDbLine
62
7
6
BYLAYER
10
337.5329499492
20
156.4600276666
11
337.4941507886
21
153.0602490525
0
LINE
5
426
100
AcDbEntity
8
0
100
AcDbLine
62
7
6
BYLAYER
10
344.3333915088
20
156.3824192532
11
344.2945923482
21
152.9826406391
0
LINE
5
427
100
AcDbEntity
8
0
100
AcDbLine
62
7
6
BYLAYER
10
336.1847215231
20
149.1438458590
11
336.1253833412
21
145.7443636955
0
LINE
5
428
100
AcDbEntity
8
0
100
AcDbLine
62
7
6
BYLAYER
10
342.9845701044
20
149.0251540605
11
342.9252319225
21
145.6256718970
0
LINE
5
429
100
AcDbEntity
8
0
100
AcDbLine
62
7
6
BYLAYER
10
350.8933653730
20
148.8871055256
11
350.8340271912
21
145.4876233621
0
LINE
5
42A
100
AcDbEntity
8
0
100
AcDbLine
62
7
6
BYLAYER
10
223.9150662329
20
121.8495910482
11
229.2686942298
21
128.0572075488
0
LINE
5
42B
100
AcDbEntity
8
0
100
AcDbLine
62
7
6
BYLAYER
10
352.4928601827
20
156.2893012679
11
352.4540610221
21
152.8895226537
0
LINE
5
42C
100
AcDbEntity
8
0
100
AcDbLine
62
7
6
BYLAYER
10
359.2933017423
20
156.2116928545
11
359.2545025817
21
152.8119142404
0
LINE
5
42D
100
AcDbEntity
8
0
100
AcDbLine
62
7
6
BYLAYER
10
378.8732178558
20
161.7886194262
11
378.7020450886
21
146.7895961285
0
LINE
5
42E
100
AcDbEntity
8
0
100
AcDbLine
62
7
6
BYLAYER
10
358.0858532260
20
148.7615601831
11
358.0265150441
21
145.3620780196
0
LINE
5
42F
100
AcDbEntity
8
0
100
AcDbLine
62
7
6
BYLAYER
10
374.1378214638
20
139.2799706173
11
374.3996075603
21
154.2776860447
0
LINE
5
430
100
AcDbEntity
8
0
100
AcDbLine
62
7
6
BYLAYER
10
329.7109691081
20
145.8649115592
11
318.9852969238
21
127.7229063018
0
LINE
5
431
100
AcDbEntity
8
0
100
AcDbLine
62
7
6
BYLAYER
10
332.6377379423
20
144.1345866789
11
321.9120657579
21
125.9925814215
0
LINE
5
432
100
AcDbEntity
8
0
100
AcDbLine
62
7
6
BYLAYER
10
325.9798261630
20
153.2397971024
11
313.6272213464
21
132.3821764250
0
LINE
5
433
100
AcDbEntity
8
0
100
AcDbLine
62
7
6
BYLAYER
10
328.9052765827
20
151.5072441184
11
316.5526717660
21
130.6496234409
0
LINE
5
434
100
AcDbEntity
8
0
100
AcDbLine
62
7
6
BYLAYER
10
359.5082877429
20
156.2092393782
11
365.3740968880
21
161.9426749166
0
LINE
5
435
100
AcDbEntity
8
0
100
AcDbLine
62
7
6
BYLAYER
10
365.4009783039
20
154.4347577026
11
359.5006377147
21
148.7368650280
0
ARC
5
436
100
AcDbEntity
8
DEFAULT_1
100
AcDbCircle
62
7
6
BYLAYER
10
321.0643387807
20
131.4428668256
40
20.6000000000
100
AcDbArc
50
2.4872551552
51
90.4921540000
0
ARC
5
437
100
AcDbEntity
8
0
100
AcDbCircle
62
7
6
BYLAYER
10
331.7446843429
20
149.8256485751
40
6.7000000000
100
AcDbArc
50
89.3461540000
51
149.3645146312
0
ARC
5
438
100
AcDbEntity
8
0
100
AcDbCircle
62
7
6
BYLAYER
10
310.7878135862
20
134.0637719683
40
3.3000000000
100
AcDbArc
50
269.3461540000
51
329.3645146312
0
ARC
5
439
100
AcDbEntity
8
0
100
AcDbCircle
62
7
6
BYLAYER
10
290.3716434662
20
121.2959200979
40
9.7000000000
100
AcDbArc
50
89.3461540000
51
99.9589728084
0
ARC
5
43A
100
AcDbEntity
8
0
100
AcDbCircle
62
7
6
BYLAYER
10
217.6800360883
20
124.7768704250
40
6.3000000000
100
AcDbArc
50
270.0000000000
51
279.9589728084
0
ARC
5
43B
100
AcDbEntity
8
0
100
AcDbCircle
62
7
6
BYLAYER
10
335.4784253402
20
142.4551537069
40
6.7000000000
100
AcDbArc
50
89.0000000000
51
149.4081428443
0
ARC
5
43C
100
AcDbEntity
8
0
100
AcDbCircle
62
7
6
BYLAYER
10
316.1446095259
20
129.4023392738
40
3.3000000000
100
AcDbArc
50
269.3461540000
51
329.4081428443
0
ARC
5
43D
100
AcDbEntity
8
0
100
AcDbCircle
62
7
6
BYLAYER
10
335.4784253402
20
142.4551537069
40
3.3000000000
100
AcDbArc
50
89.0000000000
51
149.4081428443
0
ARC
5
43E
100
AcDbEntity
8
0
100
AcDbCircle
62
7
6
BYLAYER
10
316.1446095259
20
129.4023392738
40
6.7000000000
100
AcDbArc
50
269.3461540000
51
329.4081428443
0
ARC
5
43F
100
AcDbEntity
8
0
100
AcDbCircle
62
7
6
BYLAYER
10
331.7446843429
20
149.8256485751
40
3.3000000000
100
AcDbArc
50
89.3461540000
51
149.3645146312
0
ARC
5
440
100
AcDbEntity
8
0
100
AcDbCircle
62
7
6
BYLAYER
10
310.7878135862
20
134.0637719683
40
6.7000000000
100
AcDbArc
50
269.3461540000
51
329.3645146312
0
ARC
5
441
100
AcDbEntity
8
0
100
AcDbCircle
62
7
6
BYLAYER
10
290.3716434662
20
121.2959200979
40
1.7000000000
100
AcDbArc
50
89.3461540000
51
99.9589728084
0
ARC
5
442
100
AcDbEntity
8
0
100
AcDbCircle
62
7
6
BYLAYER
10
217.6800360883
20
124.7768704250
40
14.3000000000
100
AcDbArc
50
270.0000000000
51
279.9589728084
0
SPLINE
5
443
100
AcDbEntity
8
0
100
AcDbSpline
62
7
6
BYLAYER
70
0
71
3
72
8
73
4
74
2
42
0.0000001000
43
0.0000001000
44
0.0000000001
40
0.0000000000
40
0.0000000000
40
0.0000000000
40
0.0000000000
40
1.0000000000
40
1.0000000000
40
1.0000000000
40
1.0000000000
10
90.0761585523
20
202.4257974785
30
0.0000000000
10
89.9696708399
20
202.5335499236
30
0.0000000000
10
89.8561477931
20
202.6340935009
30
0.0000000000
10
89.7360757204
20
202.7261469633
30
0.0000000000
11
90.0761585523
21
202.4257974785
31
0.0000000000
11
89.7360757204
21
202.7261469633
31
0.0000000000
0
SPLINE
5
444
100
AcDbEntity
8
0
100
AcDbSpline
62
7
6
BYLAYER
70
0
71
3
72
8
73
4
74
2
42
0.0000001000
43
0.0000001000
44
0.0000000001
40
0.0000000000
40
0.0000000000
40
0.0000000000
40
0.0000000000
40
1.0000000000
40
1.0000000000
40
1.0000000000
40
1.0000000000
10
89.7360757204
20
202.7261469633
30
0.0000000000
10
89.4586954080
20
202.9388010600
30
0.0000000000
10
89.1463653553
20
203.1061465382
30
0.0000000000
10
88.8159087834
20
203.2247556688
30
0.0000000000
11
89.7360757204
21
202.7261469633
31
0.0000000000
11
88.8159087834
21
203.2247556688
31
0.0000000000
0
SPLINE
5
445
100
AcDbEntity
8
0
100
AcDbSpline
62
7
6
BYLAYER
70
0
71
3
72
8
73
4
74
2
42
0.0000001000
43
0.0000001000
44
0.0000000001
40
0.0000000000
40
0.0000000000
40
0.0000000000
40
0.0000000000
40
1.0000000000
40
1.0000000000
40
1.0000000000
40
1.0000000000
10
88.8159087834
20
203.2247556688
30
0.0000000000
10
88.7837375213
20
203.2363027396
30
0.0000000000
10
88.7513944597
20
203.2473878972
30
0.0000000000
10
88.7188951215
20
203.2580079788
30
0.0000000000
11
88.8159087834
21
203.2247556688
31
0.0000000000
11
88.7188951215
21
203.2580079788
31
0.0000000000
0
SPLINE
5
446
100
AcDbEntity
8
0
100
AcDbSpline
62
7
6
BYLAYER
70
0
71
3
72
9
73
5
74
3
42
0.0000001000
43
0.0000001000
44
0.0000000001
40
0.0000000000
40
0.0000000000
40
0.0000000000
40
0.0000000000
40
0.4954052715
40
1.0000000000
40
1.0000000000
40
1.0000000000
40
1.0000000000
10
88.7188951215
20
203.2580079788
30
0.0000000000
10
88.6082602153
20
203.2941610758
30
0.0000000000
10
88.3812825093
20
203.3562586461
30
0.0000000000
10
88.1494208023
20
203.3958875383
30
0.0000000000
10
88.0317759675
20
203.4102641459
30
0.0000000000
11
88.7188951215
21
203.2580079788
31
0.0000000000
11
88.3821696484
21
203.3501735967
31
0.0000000000
11
88.0317759675
21
203.4102641459
31
0.0000000000
0
SPLINE
5
447
100
AcDbEntity
8
0
100
AcDbSpline
62
7
6
BYLAYER
70
0
71
3
72
8
73
4
74
2
42
0.0000001000
43
0.0000001000
44
0.0000000001
40
0.0000000000
40
0.0000000000
40
0.0000000000
40
0.0000000000
40
1.0000000000
40
1.0000000000
40
1.0000000000
40
1.0000000000
10
93.4288197395
20
193.3894628352
30
0.0000000000
10
93.2244322004
20
193.6049028571
30
0.0000000000
10
93.0509970721
20
193.8509617280
30
0.0000000000
10
92.9124412979
20
194.1147078420
30
0.0000000000
11
93.4288197395
21
193.3894628352
31
0.0000000000
11
92.9124412979
21
194.1147078420
31
0.0000000000
0
SPLINE
5
448
100
AcDbEntity
8
0
100
AcDbSpline
62
7
6
BYLAYER
70
0
71
3
72
8
73
4
74
2
42
0.0000001000
43
0.0000001000
44
0.0000000001
40
0.0000000000
40
0.0000000000
40
0.0000000000
40
0.0000000000
40
1.0000000000
40
1.0000000000
40
1.0000000000
40
1.0000000000
10
92.9124412979
20
194.1147078420
30
0.0000000000
10
92.8300296927
20
194.2715814242
30
0.0000000000
10
92.7599568875
20
194.4347127538
30
0.0000000000
10
92.7022435713
20
194.6019206725
30
0.0000000000
11
92.9124412979
21
194.1147078420
31
0.0000000000
11
92.7022435713
21
194.6019206725
31
0.0000000000
0
SPLINE
5
449
100
AcDbEntity
8
0
100
AcDbSpline
62
7
6
BYLAYER
70
0
71
3
72
8
73
4
74
2
42
0.0000001000
43
0.0000001000
44
0.0000000001
40
0.0000000000
40
0.0000000000
40
0.0000000000
40
0.0000000000
40
1.0000000000
40
1.0000000000
40
1.0000000000
40
1.0000000000
10
92.7022435713
20
194.6019206725
30
0.0000000000
10
92.6042693607
20
194.8857730817
30
0.0000000000
10
92.5419133528
20
195.1813736125
30
0.0000000000
10
92.5152767627
20
195.4780515284
30
0.0000000000
11
92.7022435713
21
194.6019206725
31
0.0000000000
11
92.5152767627
21
195.4780515284
31
0.0000000000
0
SPLINE
5
44A
100
AcDbEntity
8
0
100
AcDbSpline
62
7
6
BYLAYER
70
0
71
3
72
8
73
4
74
2
42
0.0000001000
43
0.0000001000
44
0.0000000001
40
0.0000000000
40
0.0000000000
40
0.0000000000
40
0.0000000000
40
1.0000000000
40
1.0000000000
40
1.0000000000
40
1.0000000000
10
191.1529434657
20
260.8092077525
30
0.0000000000
10
191.2089321753
20
260.6970607773
30
0.0000000000
10
191.2580874244
20
260.5814573369
30
0.0000000000
10
191.3001280134
20
260.4633628929
30
0.0000000000
11
191.1529434657
21
260.8092077525
31
0.0000000000
11
191.3001280134
21
260.4633628929
31
0.0000000000
0
SPLINE
5
44B
100
AcDbEntity
8
0
100
AcDbSpline
62
7
6
BYLAYER
70
0
71
3
72
8
73
4
74
2
42
0.0000001000
43
0.0000001000
44
0.0000000001
40
0.0000000000
40
0.0000000000
40
0.0000000000
40
0.0000000000
40
1.0000000000
40
1.0000000000
40
1.0000000000
40
1.0000000000
10
191.3001280134
20
260.4633628929
30
0.0000000000
10
191.3233416134
20
260.3981545488
30
0.0000000000
10
191.3443860035
20
260.3321867152
30
0.0000000000
10
191.3633046757
20
260.2656162298
30
0.0000000000
11
191.3001280134
21
260.4633628929
31
0.0000000000
11
191.3633046757
21
260.2656162298
31
0.0000000000
0
SPLINE
5
44C
100
AcDbEntity
8
0
100
AcDbSpline
62
7
6
BYLAYER
70
0
71
3
72
8
73
4
74
2
42
0.0000001000
43
0.0000001000
44
0.0000000001
40
0.0000000000
40
0.0000000000
40
0.0000000000
40
0.0000000000
40
1.0000000000
40
1.0000000000
40
1.0000000000
40
1.0000000000
10
191.3633046757
20
260.2656162298
30
0.0000000000
10
191.3765088154
20
260.2191538785
30
0.0000000000
10
191.3886774684
20
260.1723979614
30
0.0000000000
10
191.3998254212
20
260.1254018009
30
0.0000000000
11
191.3633046757
21
260.2656162298
31
0.0000000000
11
191.3998254212
21
260.1254018009
31
0.0000000000
0
SPLINE
5
44D
100
AcDbEntity
8
0
100
AcDbSpline
62
7
6
BYLAYER
70
0
71
3
72
8
73
4
74
2
42
0.0000001000
43
0.0000001000
44
0.0000000001
40
0.0000000000
40
0.0000000000
40
0.0000000000
40
0.0000000000
40
1.0000000000
40
1.0000000000
40
1.0000000000
40
1.0000000000
10
191.3998254212
20
260.1254018009
30
0.0000000000
10
191.4627275070
20
259.8602269673
30
0.0000000000
10
191.4931329829
20
259.5874033657
30
0.0000000000
10
191.4936981492
20
259.3165099586
30
0.0000000000
11
191.3998254212
21
260.1254018009
31
0.0000000000
11
191.4936981492
21
259.3165099586
31
0.0000000000
0
SPLINE
5
44E
100
AcDbEntity
8
0
100
AcDbSpline
62
7
6
BYLAYER
70
0
71
3
72
11
73
7
74
5
42
0.0000001000
43
0.0000001000
44
0.0000000001
40
0.0000000000
40
0.0000000000
40
0.0000000000
40
0.0000000000
40
0.2438564059
40
0.4967396055
40
0.7513860900
40
1.0000000000
40
1.0000000000
40
1.0000000000
40
1.0000000000
10
65.7257805054
20
199.3305839311
30
0.0000000000
10
65.2117253055
20
199.2306684796
30
0.0000000000
10
64.1914064212
20
198.8655333897
30
0.0000000000
10
62.8567436977
20
197.9286284899
30
0.0000000000
10
61.7946820894
20
196.6760797451
30
0.0000000000
10
61.3257825103
20
195.6887880486
30
0.0000000000
10
61.1681962326
20
195.1760924011
30
0.0000000000
11
65.7257805054
21
199.3305839311
31
0.0000000000
11
64.2431995838
21
198.8108951536
31
0.0000000000
11
62.9067096792
21
197.8792173727
31
0.0000000000
11
61.8471357355
21
196.6267497012
31
0.0000000000
11
61.1681962326
21
195.1760924011
31
0.0000000000
0
SPLINE
5
44F
100
AcDbEntity
8
0
100
AcDbSpline
62
7
6
BYLAYER
70
0
71
3
72
8
73
4
74
2
42
0.0000001000
43
0.0000001000
44
0.0000000001
40
0.0000000000
40
0.0000000000
40
0.0000000000
40
0.0000000000
40
1.0000000000
40
1.0000000000
40
1.0000000000
40
1.0000000000
10
61.1681962326
20
195.1760924011
30
0.0000000000
10
61.0412468086
20
194.7630715588
30
0.0000000000
10
60.9623556736
20
194.3338477997
30
0.0000000000
10
60.9417492520
20
193.9036170940
30
0.0000000000
11
61.1681962326
21
195.1760924011
31
0.0000000000
11
60.9417492520
21
193.9036170940
31
0.0000000000
0
SPLINE
5
450
100
AcDbEntity
8
0
100
AcDbSpline
62
7
6
BYLAYER
70
0
71
3
72
8
73
4
74
2
42
0.0000001000
43
0.0000001000
44
0.0000000001
40
0.0000000000
40
0.0000000000
40
0.0000000000
40
0.0000000000
40
1.0000000000
40
1.0000000000
40
1.0000000000
40
1.0000000000
10
60.9417492520
20
193.9036170940
30
0.0000000000
10
60.9380075590
20
193.8254962429
30
0.0000000000
10
60.9361875670
20
193.7473421918
30
0.0000000000
10
60.9363504996
20
193.6692459163
30
0.0000000000
11
60.9417492520
21
193.9036170940
31
0.0000000000
11
60.9363504996
21
193.6692459163
31
0.0000000000
0
SPLINE
5
451
100
AcDbEntity
8
0
100
AcDbSpline
62
7
6
BYLAYER
70
0
71
3
72
8
73
4
74
2
42
0.0000001000
43
0.0000001000
44
0.0000000001
40
0.0000000000
40
0.0000000000
40
0.0000000000
40
0.0000000000
40
1.0000000000
40
1.0000000000
40
1.0000000000
40
1.0000000000
10
83.8144025917
20
202.7884007798
30
0.0000000000
10
82.0538102453
20
202.4566895488
30
0.0000000000
10
80.2915711193
20
202.1336619209
30
0.0000000000
10
78.5278865283
20
201.8188587196
30
0.0000000000
11
83.8144025917
21
202.7884007798
31
0.0000000000
11
78.5278865283
21
201.8188587196
31
0.0000000000
0
SPLINE
5
452
100
AcDbEntity
8
0
100
AcDbSpline
62
7
6
BYLAYER
70
0
71
3
72
8
73
4
74
2
42
0.0000001000
43
0.0000001000
44
0.0000000001
40
0.0000000000
40
0.0000000000
40
0.0000000000
40
0.0000000000
40
1.0000000000
40
1.0000000000
40
1.0000000000
40
1.0000000000
10
84.2657533954
20
204.5771341335
30
0.0000000000
10
84.2668314665
20
204.0603971112
30
0.0000000000
10
84.1603511995
20
203.5403835591
30
0.0000000000
10
83.9730705716
20
203.0547998807
30
0.0000000000
11
84.2657533954
21
204.5771341335
31
0.0000000000
11
83.9730705716
21
203.0547998807
31
0.0000000000
0
SPLINE
5
453
100
AcDbEntity
8
0
100
AcDbSpline
62
7
6
BYLAYER
70
0
71
3
72
9
73
5
74
3
42
0.0000001000
43
0.0000001000
44
0.0000000001
40
0.0000000000
40
0.0000000000
40
0.0000000000
40
0.0000000000
40
0.5234825501
40
1.0000000000
40
1.0000000000
40
1.0000000000
40
1.0000000000
10
83.9730705716
20
203.0547998807
30
0.0000000000
10
83.7752797357
20
202.5419651964
30
0.0000000000
10
83.2252810323
20
201.6356657244
30
0.0000000000
10
82.4345014636
20
200.9343118420
30
0.0000000000
10
82.0153495267
20
200.6623997814
30
0.0000000000
11
83.9730705716
21
203.0547998807
31
0.0000000000
11
83.1334681492
21
201.6492633346
31
0.0000000000
11
82.0153495267
21
200.6623997814
31
0.0000000000
0
SPLINE
5
454
100
AcDbEntity
8
0
100
AcDbSpline
62
7
6
BYLAYER
70
0
71
3
72
8
73
4
74
2
42
0.0000001000
43
0.0000001000
44
0.0000000001
40
0.0000000000
40
0.0000000000
40
0.0000000000
40
0.0000000000
40
1.0000000000
40
1.0000000000
40
1.0000000000
40
1.0000000000
10
82.0153495267
20
200.6623997814
30
0.0000000000
10
81.9690010498
20
200.6323326177
30
0.0000000000
10
81.9221349738
20
200.6030271529
30
0.0000000000
10
81.8747679860
20
200.5745046931
30
0.0000000000
11
82.0153495267
21
200.6623997814
31
0.0000000000
11
81.8747679860
21
200.5745046931
31
0.0000000000
0
SPLINE
5
455
100
AcDbEntity
8
0
100
AcDbSpline
62
7
6
BYLAYER
70
0
71
3
72
8
73
4
74
2
42
0.0000001000
43
0.0000001000
44
0.0000000001
40
0.0000000000
40
0.0000000000
40
0.0000000000
40
0.0000000000
40
1.0000000000
40
1.0000000000
40
1.0000000000
40
1.0000000000
10
81.8747679860
20
200.5745046931
30
0.0000000000
10
81.4161842252
20
200.2983643374
30
0.0000000000
10
80.9106492250
20
200.0956162662
30
0.0000000000
10
80.3885957716
20
199.9941462168
30
0.0000000000
11
81.8747679860
21
200.5745046931
31
0.0000000000
11
80.3885957716
21
199.9941462168
31
0.0000000000
0
SPLINE
5
456
100
AcDbEntity
8
0
100
AcDbSpline
62
7
6
BYLAYER
70
0
71
3
72
8
73
4
74
2
42
0.0000001000
43
0.0000001000
44
0.0000000001
40
0.0000000000
40
0.0000000000
40
0.0000000000
40
0.0000000000
40
1.0000000000
40
1.0000000000
40
1.0000000000
40
1.0000000000
10
188.9238561785
20
261.0535295572
30
0.0000000000
10
189.3194348283
20
261.1280816246
30
0.0000000000
10
189.7293752407
20
261.1458100583
30
0.0000000000
10
190.1308195478
20
261.0935762239
30
0.0000000000
11
188.9238561785
21
261.0535295572
31
0.0000000000
11
190.1308195478
21
261.0935762239
31
0.0000000000
0
SPLINE
5
457
100
AcDbEntity
8
0
100
AcDbSpline
62
7
6
BYLAYER
70
0
71
3
72
8
73
4
74
2
42
0.0000001000
43
0.0000001000
44
0.0000000001
40
0.0000000000
40
0.0000000000
40
0.0000000000
40
0.0000000000
40
1.0000000000
40
1.0000000000
40
1.0000000000
40
1.0000000000
10
190.1308195478
20
261.0935762239
30
0.0000000000
10
190.2740032323
20
261.0749459114
30
0.0000000000
10
190.4161060894
20
261.0474153872
30
0.0000000000
10
190.5557550049
20
261.0108150421
30
0.0000000000
11
190.1308195478
21
261.0935762239
31
0.0000000000
11
190.5557550049
21
261.0108150421
31
0.0000000000
0
SPLINE
5
458
100
AcDbEntity
8
0
100
AcDbSpline
62
7
6
BYLAYER
70
0
71
3
72
8
73
4
74
2
42
0.0000001000
43
0.0000001000
44
0.0000000001
40
0.0000000000
40
0.0000000000
40
0.0000000000
40
0.0000000000
40
1.0000000000
40
1.0000000000
40
1.0000000000
40
1.0000000000
10
190.5557550049
20
261.0108150421
30
0.0000000000
10
190.7860345177
20
260.9504614791
30
0.0000000000
10
191.0096413598
20
260.8654455822
30
0.0000000000
10
191.2204186633
20
260.7550068462
30
0.0000000000
11
190.5557550049
21
261.0108150421
31
0.0000000000
11
191.2204186633
21
260.7550068462
31
0.0000000000
0
SPLINE
5
459
100
AcDbEntity
8
0
100
AcDbSpline
62
7
6
BYLAYER
70
0
71
3
72
8
73
4
74
2
42
0.0000001000
43
0.0000001000
44
0.0000000001
40
0.0000000000
40
0.0000000000
40
0.0000000000
40
0.0000000000
40
1.0000000000
40
1.0000000000
40
1.0000000000
40
1.0000000000
10
191.2204186633
20
260.7550068462
30
0.0000000000
10
191.4895041276
20
260.6140170051
30
0.0000000000
10
191.7376800831
20
260.4315931666
30
0.0000000000
10
191.9517587713
20
260.2158398121
30
0.0000000000
11
191.2204186633
21
260.7550068462
31
0.0000000000
11
191.9517587713
21
260.2158398121
31
0.0000000000
0
SPLINE
5
45A
100
AcDbEntity
8
0
100
AcDbSpline
62
7
6
BYLAYER
70
0
71
3
72
8
73
4
74
2
42
0.0000001000
43
0.0000001000
44
0.0000000001
40
0.0000000000
40
0.0000000000
40
0.0000000000
40
0.0000000000
40
1.0000000000
40
1.0000000000
40
1.0000000000
40
1.0000000000
10
92.1884267015
20
199.1185023039
30
0.0000000000
10
92.1453116489
20
199.5987170726
30
0.0000000000
10
92.0082596536
20
200.0759528008
30
0.0000000000
10
91.7805217359
20
200.5062400075
30
0.0000000000
11
92.1884267015
21
199.1185023039
31
0.0000000000
11
91.7805217359
21
200.5062400075
31
0.0000000000
0
SPLINE
5
45B
100
AcDbEntity
8
0
100
AcDbSpline
62
7
6
BYLAYER
70
0
71
3
72
8
73
4
74
2
42
0.0000001000
43
0.0000001000
44
0.0000000001
40
0.0000000000
40
0.0000000000
40
0.0000000000
40
0.0000000000
40
1.0000000000
40
1.0000000000
40
1.0000000000
40
1.0000000000
10
91.7805217359
20
200.5062400075
30
0.0000000000
10
91.7599715452
20
200.5450674644
30
0.0000000000
10
91.7386828930
20
200.5835126559
30
0.0000000000
10
91.7166695382
20
200.6215393315
30
0.0000000000
11
91.7805217359
21
200.5062400075
31
0.0000000000
11
91.7166695382
21
200.6215393315
31
0.0000000000
0
SPLINE
5
45C
100
AcDbEntity
8
0
100
AcDbSpline
62
7
6
BYLAYER
70
0
71
3
72
8
73
4
74
2
42
0.0000001000
43
0.0000001000
44
0.0000000001
40
0.0000000000
40
0.0000000000
40
0.0000000000
40
0.0000000000
40
1.0000000000
40
1.0000000000
40
1.0000000000
40
1.0000000000
10
91.7166695382
20
200.6215393315
30
0.0000000000
10
91.5749856278
20
200.8662893095
30
0.0000000000
10
91.4032804958
20
201.0937020232
30
0.0000000000
10
91.2052227251
20
201.2941120854
30
0.0000000000
11
91.7166695382
21
200.6215393315
31
0.0000000000
11
91.2052227251
21
201.2941120854
31
0.0000000000
0
SPLINE
5
45D
100
AcDbEntity
8
0
100
AcDbSpline
62
7
6
BYLAYER
70
0
71
3
72
11
73
7
74
5
42
0.0000001000
43
0.0000001000
44
0.0000000001
40
0.0000000000
40
0.0000000000
40
0.0000000000
40
0.0000000000
40
0.2475996555
40
0.5090445374
40
0.7738812911
40
1.0000000000
40
1.0000000000
40
1.0000000000
40
1.0000000000
10
193.2523643537
20
248.8162691031
30
0.0000000000
10
193.2534411861
20
248.3001258274
30
0.0000000000
10
193.0330212291
20
247.2320185233
30
0.0000000000
10
192.1737146370
20
245.8338454613
30
0.0000000000
10
190.9557164073
20
244.8051062585
30
0.0000000000
10
189.9896155982
20
244.4077249922
30
0.0000000000
10
189.5297328087
20
244.3011754933
30
0.0000000000
11
193.2523643537
21
248.8162691031
31
0.0000000000
11
192.9574378367
21
247.2961823573
31
0.0000000000
11
192.1114459164
21
245.8970461699
31
0.0000000000
11
190.8431831939
21
244.8318663422
31
0.0000000000
11
189.5297328087
21
244.3011754933
31
0.0000000000
0
SPLINE
5
45E
100
AcDbEntity
8
0
100
AcDbSpline
62
7
6
BYLAYER
70
0
71
3
72
8
73
4
74
2
42
0.0000001000
43
0.0000001000
44
0.0000000001
40
0.0000000000
40
0.0000000000
40
0.0000000000
40
0.0000000000
40
1.0000000000
40
1.0000000000
40
1.0000000000
40
1.0000000000
10
189.5297328087
20
244.3011754933
30
0.0000000000
10
189.4686455758
20
244.2870222912
30
0.0000000000
10
189.4072949649
20
244.2742183884
30
0.0000000000
10
189.3457311717
20
244.2628068470
30
0.0000000000
11
189.5297328087
21
244.3011754933
31
0.0000000000
11
189.3457311717
21
244.2628068470
31
0.0000000000
0
SPLINE
5
45F
100
AcDbEntity
8
0
100
AcDbSpline
62
7
6
BYLAYER
70
0
71
3
72
11
73
7
74
5
42
0.0000001000
43
0.0000001000
44
0.0000000001
40
0.0000000000
40
0.0000000000
40
0.0000000000
40
0.0000000000
40
0.2478199520
40
0.5049056800
40
0.7592094356
40
1.0000000000
40
1.0000000000
40
1.0000000000
40
1.0000000000
10
88.5982016284
20
210.1045981819
30
0.0000000000
10
88.0147301217
20
209.9911904796
30
0.0000000000
10
86.8635854799
20
209.5295164991
30
0.0000000000
10
85.4601785555
20
208.3233314362
30
0.0000000000
10
84.5083963302
20
206.7549645966
30
0.0000000000
10
84.2637029106
20
205.5599648293
30
0.0000000000
10
84.2649078136
20
204.9824352161
30
0.0000000000
11
88.5982016284
21
210.1045981819
31
0.0000000000
11
86.9371856241
21
209.4559622377
31
0.0000000000
11
85.5304030887
21
208.2547614031
31
0.0000000000
11
84.5920239107
21
206.6838676163
31
0.0000000000
11
84.2649078136
21
204.9824352161
31
0.0000000000
0
SPLINE
5
460
100
AcDbEntity
8
0
100
AcDbSpline
62
7
6
BYLAYER
70
0
71
3
72
11
73
7
74
5
42
0.0000001000
43
0.0000001000
44
0.0000000001
40
0.0000000000
40
0.0000000000
40
0.0000000000
40
0.0000000000
40
0.3218294917
40
0.5988761599
40
0.8231353541
40
1.0000000000
40
1.0000000000
40
1.0000000000
40
1.0000000000
10
182.3645849910
20
246.4143089279
30
0.0000000000
10
181.8557070892
20
246.3184041067
30
0.0000000000
10
180.9175324037
20
246.0830290720
30
0.0000000000
10
179.6937501142
20
245.5572724238
30
0.0000000000
10
178.7982274482
20
244.9142595572
30
0.0000000000
10
178.4310045864
20
244.3483670485
30
0.0000000000
10
178.3565417946
20
244.0736994168
30
0.0000000000
11
182.3645849910
21
246.4143089279
31
0.0000000000
11
180.8611831975
21
246.0229355379
31
0.0000000000
11
179.6407214528
21
245.4761784345
31
0.0000000000
11
178.7864228277
21
244.8113208880
31
0.0000000000
11
178.3565417946
21
244.0736994168
31
0.0000000000
0
SPLINE
5
461
100
AcDbEntity
8
0
100
AcDbSpline
62
7
6
BYLAYER
70
0
71
3
72
10
73
6
74
4
42
0.0000001000
43
0.0000001000
44
0.0000000001
40
0.0000000000
40
0.0000000000
40
0.0000000000
40
0.0000000000
40
0.2447548673
40
0.5795285565
40
1.0000000000
40
1.0000000000
40
1.0000000000
40
1.0000000000
10
175.5194117945
20
233.6085025218
30
0.0000000000
10
175.4687835955
20
233.4217525062
30
0.0000000000
10
175.1592924607
20
233.0419929545
30
0.0000000000
10
174.4525083811
20
232.6760424599
30
0.0000000000
10
173.8719543147
20
232.5172271775
30
0.0000000000
10
173.5453009664
20
232.4556650015
30
0.0000000000
11
175.5194117945
21
233.6085025218
31
0.0000000000
11
175.1895097330
21
233.1308900475
31
0.0000000000
11
174.5038908365
21
232.7305036167
31
0.0000000000
11
173.5453009664
21
232.4556650015
31
0.0000000000
0
SPLINE
5
462
100
AcDbEntity
8
0
100
AcDbSpline
62
7
6
BYLAYER
70
0
71
3
72
10
73
6
74
4
42
0.0000001000
43
0.0000001000
44
0.0000000001
40
0.0000000000
40
0.0000000000
40
0.0000000000
40
0.0000000000
40
0.3417711330
40
0.6754077043
40
1.0000000000
40
1.0000000000
40
1.0000000000
40
1.0000000000
10
154.9236811214
20
228.9461726164
30
0.0000000000
10
154.7422700543
20
228.9119832836
30
0.0000000000
10
154.3847610902
20
228.8389768996
30
0.0000000000
10
153.8591909284
20
228.7139869433
30
0.0000000000
10
153.5161888328
20
228.6200873790
30
0.0000000000
10
153.3479535067
20
228.5707318548
30
0.0000000000
11
154.9236811214
21
228.9461726164
31
0.0000000000
11
154.3811043415
21
228.8351752758
31
0.0000000000
11
153.8551937264
21
228.7098691759
31
0.0000000000
11
153.3479535067
21
228.5707318548
31
0.0000000000
0
SPLINE
5
463
100
AcDbEntity
8
0
100
AcDbSpline
62
7
6
BYLAYER
70
0
71
3
72
11
73
7
74
5
42
0.0000001000
43
0.0000001000
44
0.0000000001
40
0.0000000000
40
0.0000000000
40
0.0000000000
40
0.0000000000
40
0.2486850840
40
0.5057991991
40
0.7596203494
40
1.0000000000
40
1.0000000000
40
1.0000000000
40
1.0000000000
10
197.6037379915
20
261.0297251635
30
0.0000000000
10
197.0169349837
20
260.9209546268
30
0.0000000000
10
195.8586855447
20
260.4695245626
30
0.0000000000
10
194.4430505891
20
259.2738584770
30
0.0000000000
10
193.4826491038
20
257.7111944665
30
0.0000000000
10
193.2362973872
20
256.5174274795
30
0.0000000000
10
193.2375009057
20
255.9405614655
30
0.0000000000
11
197.6037379915
21
261.0297251635
31
0.0000000000
11
195.9301151432
21
260.3937174924
31
0.0000000000
11
194.5126450415
21
259.2032223908
31
0.0000000000
11
193.5671246600
21
257.6394819461
31
0.0000000000
11
193.2375009057
21
255.9405614655
31
0.0000000000
0
SPLINE
5
464
100
AcDbEntity
8
0
100
AcDbSpline
62
7
6
BYLAYER
70
0
71
3
72
10
73
6
74
4
42
0.0000001000
43
0.0000001000
44
0.0000000001
40
0.0000000000
40
0.0000000000
40
0.0000000000
40
0.0000000000
40
0.3250417519
40
0.6586410834
40
1.0000000000
40
1.0000000000
40
1.0000000000
40
1.0000000000
10
94.4034492801
20
211.2780682138
30
0.0000000000
10
94.3010052421
20
211.2480140074
30
0.0000000000
10
94.0923687336
20
211.1906445768
30
0.0000000000
10
93.7730165268
20
211.1136525738
30
0.0000000000
10
93.5559868716
20
211.0682288414
30
0.0000000000
10
93.4459255398
20
211.0468365324
30
0.0000000000
11
94.4034492801
21
211.2780682138
31
0.0000000000
11
94.0946649932
21
211.1930118182
31
0.0000000000
11
93.7751329650
21
211.1158482713
31
0.0000000000
11
93.4459255398
21
211.0468365324
31
0.0000000000
0
SPLINE
5
465
100
AcDbEntity
8
0
100
AcDbSpline
62
7
6
BYLAYER
70
0
71
3
72
10
73
6
74
4
42
0.0000001000
43
0.0000001000
44
0.0000000001
40
0.0000000000
40
0.0000000000
40
0.0000000000
40
0.0000000000
40
0.4207217281
40
0.7556069823
40
1.0000000000
40
1.0000000000
40
1.0000000000
40
1.0000000000
10
188.8027920565
20
244.1621669761
30
0.0000000000
10
188.1333449673
20
244.0380774295
30
0.0000000000
10
186.9434201283
20
243.7160193975
30
0.0000000000
10
185.4946717154
20
242.9709742691
30
0.0000000000
10
184.8597709382
20
242.1942862347
30
0.0000000000
10
184.7569175553
20
241.8123950528
30
0.0000000000
11
188.8027920565
21
244.1621669761
31
0.0000000000
11
186.8377724177
21
243.6047475596
31
0.0000000000
11
185.4318592983
21
242.7882182348
31
0.0000000000
11
184.7569175553
21
241.8123950528
31
0.0000000000
0
SPLINE
5
466
100
AcDbEntity
8
0
100
AcDbSpline
62
7
6
BYLAYER
70
0
71
3
72
10
73
6
74
4
42
0.0000001000
43
0.0000001000
44
0.0000000001
40
0.0000000000
40
0.0000000000
40
0.0000000000
40
0.0000000000
40
0.2446840739
40
0.5794431957
40
1.0000000000
40
1.0000000000
40
1.0000000000
40
1.0000000000
10
182.3062255353
20
232.7130572796
30
0.0000000000
10
182.2558980517
20
232.5261930107
30
0.0000000000
10
181.9466084323
20
232.1459380222
30
0.0000000000
10
181.2395531312
20
231.7796809113
30
0.0000000000
10
180.6586895559
20
231.6207375272
30
0.0000000000
10
180.3318215628
20
231.5591348985
30
0.0000000000
11
182.3062255353
21
232.7130572796
31
0.0000000000
11
181.9767833629
21
232.2350114130
31
0.0000000000
11
181.2910212779
21
231.8342240214
31
0.0000000000
11
180.3318215628
21
231.5591348985
31
0.0000000000
0
SPLINE
5
467
100
AcDbEntity
8
0
100
AcDbSpline
62
7
6
BYLAYER
70
0
71
3
72
12
73
8
74
6
42
0.0000001000
43
0.0000001000
44
0.0000000001
40
0.0000000000
40
0.0000000000
40
0.0000000000
40
0.0000000000
40
0.1911644070
40
0.3919217057
40
0.5976849880
40
0.8023105541
40
1.0000000000
40
1.0000000000
40
1.0000000000
40
1.0000000000
10
191.5090313649
20
251.9670503280
30
0.0000000000
10
191.5098891089
20
251.5559196726
30
0.0000000000
10
191.3716858475
20
250.7088892575
30
0.0000000000
10
190.8104790311
20
249.5360265916
30
0.0000000000
10
189.9459428270
20
248.5260710679
30
0.0000000000
10
188.8596800203
20
247.7730688478
30
0.0000000000
10
188.0302763003
20
247.4820839480
30
0.0000000000
10
187.6124667713
20
247.4033421752
30
0.0000000000
11
191.5090313649
21
251.9670503280
31
0.0000000000
11
191.3203968792
21
250.7481658401
31
0.0000000000
11
190.7680226297
21
249.5765627046
31
0.0000000000
11
189.9059788565
21
248.5669255996
31
0.0000000000
11
188.8186484104
21
247.8180848394
31
0.0000000000
11
187.6124667713
21
247.4033421752
31
0.0000000000
0
SPLINE
5
468
100
AcDbEntity
8
0
100
AcDbSpline
62
7
6
BYLAYER
70
0
71
3
72
8
73
4
74
2
42
0.0000001000
43
0.0000001000
44
0.0000000001
40
0.0000000000
40
0.0000000000
40
0.0000000000
40
0.0000000000
40
1.0000000000
40
1.0000000000
40
1.0000000000
40
1.0000000000
10
94.8301172314
20
193.8610631339
30
0.0000000000
10
94.4391225178
20
193.7750277174
30
0.0000000000
10
94.0251576681
20
193.7685882496
30
0.0000000000
10
93.6291091124
20
193.8507766680
30
0.0000000000
11
94.8301172314
21
193.8610631339
31
0.0000000000
11
93.6291091124
21
193.8507766680
31
0.0000000000
0
SPLINE
5
469
100
AcDbEntity
8
0
100
AcDbSpline
62
7
6
BYLAYER
70
0
71
3
72
8
73
4
74
2
42
0.0000001000
43
0.0000001000
44
0.0000000001
40
0.0000000000
40
0.0000000000
40
0.0000000000
40
0.0000000000
40
1.0000000000
40
1.0000000000
40
1.0000000000
40
1.0000000000
10
93.6291091124
20
193.8507766680
30
0.0000000000
10
93.3605370042
20
193.9065110380
30
0.0000000000
10
93.1002031860
20
194.0030056114
30
0.0000000000
10
92.8619297680
20
194.1370469765
30
0.0000000000
11
93.6291091124
21
193.8507766680
31
0.0000000000
11
92.8619297680
21
194.1370469765
31
0.0000000000
0
SPLINE
5
46A
100
AcDbEntity
8
0
100
AcDbSpline
62
7
6
BYLAYER
70
0
71
3
72
8
73
4
74
2
42
0.0000001000
43
0.0000001000
44
0.0000000001
40
0.0000000000
40
0.0000000000
40
0.0000000000
40
0.0000000000
40
1.0000000000
40
1.0000000000
40
1.0000000000
40
1.0000000000
10
191.9517587713
20
260.2158398121
30
0.0000000000
10
191.9981504683
20
260.1690852083
30
0.0000000000
10
192.0429409371
20
260.1207654303
30
0.0000000000
10
192.0859959719
20
260.0709629539
30
0.0000000000
11
191.9517587713
21
260.2158398121
31
0.0000000000
11
192.0859959719
21
260.0709629539
31
0.0000000000
0
SPLINE
5
46B
100
AcDbEntity
8
0
100
AcDbSpline
62
7
6
BYLAYER
70
0
71
3
72
8
73
4
74
2
42
0.0000001000
43
0.0000001000
44
0.0000000001
40
0.0000000000
40
0.0000000000
40
0.0000000000
40
0.0000000000
40
1.0000000000
40
1.0000000000
40
1.0000000000
40
1.0000000000
10
192.0859959719
20
260.0709629539
30
0.0000000000
10
192.1637321047
20
259.9810442733
30
0.0000000000
10
192.2358109783
20
259.8862922142
30
0.0000000000
10
192.3019920478
20
259.7875326544
30
0.0000000000
11
192.0859959719
21
260.0709629539
31
0.0000000000
11
192.3019920478
21
259.7875326544
31
0.0000000000
0
SPLINE
5
46C
100
AcDbEntity
8
0
100
AcDbSpline
62
7
6
BYLAYER
70
0
71
3
72
9
73
5
74
3
42
0.0000001000
43
0.0000001000
44
0.0000000001
40
0.0000000000
40
0.0000000000
40
0.0000000000
40
0.0000000000
40
0.3943317260
40
1.0000000000
40
1.0000000000
40
1.0000000000
40
1.0000000000
10
192.3019920478
20
259.7875326544
30
0.0000000000
10
192.4432512752
20
259.5767367393
30
0.0000000000
10
192.7333367921
20
258.9958721228
30
0.0000000000
10
192.8355840310
20
258.3492410731
30
0.0000000000
10
192.8363928717
20
257.9615505948
30
0.0000000000
11
192.3019920478
21
259.7875326544
31
0.0000000000
11
192.6428227358
21
259.1084035291
31
0.0000000000
11
192.8363928717
21
257.9615505948
31
0.0000000000
0
SPLINE
5
46D
100
AcDbEntity
8
0
100
AcDbSpline
62
7
6
BYLAYER
70
0
71
3
72
11
73
7
74
5
42
0.0000001000
43
0.0000001000
44
0.0000000001
40
0.0000000000
40
0.0000000000
40
0.0000000000
40
0.0000000000
40
0.2403796506
40
0.4942008009
40
0.7513149160
40
1.0000000000
40
1.0000000000
40
1.0000000000
40
1.0000000000
10
194.5761631283
20
247.4577778922
30
0.0000000000
10
194.5772399606
20
246.9416346166
30
0.0000000000
10
194.3568200036
20
245.8735273125
30
0.0000000000
10
193.4975134115
20
244.4753542504
30
0.0000000000
10
192.2308926618
20
243.4055477528
30
0.0000000000
10
191.1945642163
20
243.0016366427
30
0.0000000000
10
190.6695299462
20
242.9043156362
30
0.0000000000
11
194.5761631283
21
247.4577778922
31
0.0000000000
11
194.2812366112
21
245.9376911465
31
0.0000000000
11
193.4352446910
21
244.5385549591
31
0.0000000000
11
192.1669819684
21
243.4733751314
31
0.0000000000
11
190.6695299462
21
242.9043156362
31
0.0000000000
0
SPLINE
5
46E
100
AcDbEntity
8
0
100
AcDbSpline
62
7
6
BYLAYER
70
0
71
3
72
9
73
5
74
3
42
0.0000001000
43
0.0000001000
44
0.0000000001
40
0.0000000000
40
0.0000000000
40
0.0000000000
40
0.0000000000
40
0.8210843418
40
1.0000000000
40
1.0000000000
40
1.0000000000
40
1.0000000000
10
192.8517260873
20
250.6120909642
30
0.0000000000
10
192.8525838313
20
250.2009603088
30
0.0000000000
10
192.7704847610
20
249.6977854280
30
0.0000000000
10
192.6072919942
20
249.2221168704
30
0.0000000000
10
192.5756157508
20
249.1379844733
30
0.0000000000
11
192.8517260873
21
250.6120909642
31
0.0000000000
11
192.6630916016
21
249.3932064763
31
0.0000000000
11
192.5756157508
21
249.1379844733
31
0.0000000000
0
SPLINE
5
46F
100
AcDbEntity
8
0
100
AcDbSpline
62
7
6
BYLAYER
70
0
71
3
72
9
73
5
74
3
42
0.0000001000
43
0.0000001000
44
0.0000000001
40
0.0000000000
40
0.0000000000
40
0.0000000000
40
0.0000000000
40
0.4360572256
40
1.0000000000
40
1.0000000000
40
1.0000000000
40
1.0000000000
10
192.5756157508
20
249.1379844733
30
0.0000000000
10
192.4546277260
20
248.8166391541
30
0.0000000000
10
192.0942479218
20
248.1122297761
30
0.0000000000
10
191.5781038432
20
247.5092676783
30
0.0000000000
10
191.2486735789
20
247.2119662358
30
0.0000000000
11
192.5756157508
21
249.1379844733
31
0.0000000000
11
192.1107173521
21
248.2216033409
31
0.0000000000
11
191.2486735789
21
247.2119662358
31
0.0000000000
0
SPLINE
5
470
100
AcDbEntity
8
0
100
AcDbSpline
62
7
6
BYLAYER
70
0
71
3
72
9
73
5
74
3
42
0.0000001000
43
0.0000001000
44
0.0000000001
40
0.0000000000
40
0.0000000000
40
0.0000000000
40
0.0000000000
40
0.5086202602
40
1.0000000000
40
1.0000000000
40
1.0000000000
40
1.0000000000
10
191.2486735789
20
247.2119662358
30
0.0000000000
10
190.9210648164
20
246.9163086469
30
0.0000000000
10
190.2023747428
20
246.4181094840
30
0.0000000000
10
189.3729710228
20
246.1271245843
30
0.0000000000
10
188.9551614937
20
246.0483828114
30
0.0000000000
11
191.2486735789
21
247.2119662358
31
0.0000000000
11
190.1613431328
21
246.4631254757
31
0.0000000000
11
188.9551614937
21
246.0483828114
31
0.0000000000
0
SPLINE
5
471
100
AcDbEntity
8
0
100
AcDbSpline
62
7
6
BYLAYER
70
0
71
3
72
8
73
4
74
2
42
0.0000001000
43
0.0000001000
44
0.0000000001
40
0.0000000000
40
0.0000000000
40
0.0000000000
40
0.0000000000
40
1.0000000000
40
1.0000000000
40
1.0000000000
40
1.0000000000
10
96.3567814133
20
192.5436396707
30
0.0000000000
10
95.9100849021
20
192.4453474967
30
0.0000000000
10
95.4371458887
20
192.4379906510
30
0.0000000000
10
94.9846755561
20
192.5318877766
30
0.0000000000
11
96.3567814133
21
192.5436396707
31
0.0000000000
11
94.9846755561
21
192.5318877766
31
0.0000000000
0
SPLINE
5
472
100
AcDbEntity
8
0
100
AcDbSpline
62
7
6
BYLAYER
70
0
71
3
72
8
73
4
74
2
42
0.0000001000
43
0.0000001000
44
0.0000000001
40
0.0000000000
40
0.0000000000
40
0.0000000000
40
0.0000000000
40
1.0000000000
40
1.0000000000
40
1.0000000000
40
1.0000000000
10
94.9846755561
20
192.5318877766
30
0.0000000000
10
94.5468784829
20
192.6227398917
30
0.0000000000
10
94.1282424584
20
192.8083942413
30
0.0000000000
10
93.7746372844
20
193.0781868446
30
0.0000000000
11
94.9846755561
21
192.5318877766
31
0.0000000000
11
93.7746372844
21
193.0781868446
31
0.0000000000
0
SPLINE
5
473
100
AcDbEntity
8
0
100
AcDbSpline
62
7
6
BYLAYER
70
0
71
3
72
8
73
4
74
2
42
0.0000001000
43
0.0000001000
44
0.0000000001
40
0.0000000000
40
0.0000000000
40
0.0000000000
40
0.0000000000
40
1.0000000000
40
1.0000000000
40
1.0000000000
40
1.0000000000
10
93.7746372844
20
193.0781868446
30
0.0000000000
10
93.6512602387
20
193.1723206888
30
0.0000000000
10
93.5358000162
20
193.2766974814
30
0.0000000000
10
93.4288197395
20
193.3894628352
30
0.0000000000
11
93.7746372844
21
193.0781868446
31
0.0000000000
11
93.4288197395
21
193.3894628352
31
0.0000000000
0
SPLINE
5
474
100
AcDbEntity
8
0
100
AcDbSpline
62
7
6
BYLAYER
70
0
71
3
72
11
73
7
74
5
42
0.0000001000
43
0.0000001000
44
0.0000000001
40
0.0000000000
40
0.0000000000
40
0.0000000000
40
0.0000000000
40
0.2478199520
40
0.5049056800
40
0.7592094356
40
1.0000000000
40
1.0000000000
40
1.0000000000
40
1.0000000000
10
91.8411493326
20
206.9324728358
30
0.0000000000
10
91.2576778259
20
206.8190651335
30
0.0000000000
10
90.1065331841
20
206.3573911530
30
0.0000000000
10
88.7031262597
20
205.1512060901
30
0.0000000000
10
87.7513440344
20
203.5828392505
30
0.0000000000
10
87.5066506148
20
202.3878394832
30
0.0000000000
10
87.5078555178
20
201.8103098700
30
0.0000000000
11
91.8411493326
21
206.9324728358
31
0.0000000000
11
90.1801333283
21
206.2838368916
31
0.0000000000
11
88.7733507929
21
205.0826360570
31
0.0000000000
11
87.8349716150
21
203.5117422702
31
0.0000000000
11
87.5078555178
21
201.8103098700
31
0.0000000000
0
SPLINE
5
475
100
AcDbEntity
8
0
100
AcDbSpline
62
7
6
BYLAYER
70
0
71
3
72
12
73
8
74
6
42
0.0000001000
43
0.0000001000
44
0.0000000001
40
0.0000000000
40
0.0000000000
40
0.0000000000
40
0.0000000000
40
0.1971916466
40
0.4016827050
40
0.6075996232
40
0.8086383701
40
1.0000000000
40
1.0000000000
40
1.0000000000
40
1.0000000000
10
70.8334231395
20
194.3344865110
30
0.0000000000
10
70.3193679396
20
194.2345710595
30
0.0000000000
10
69.2990490553
20
193.8694359696
30
0.0000000000
10
67.9643863318
20
192.9325310698
30
0.0000000000
10
66.9023247235
20
191.6799823250
30
0.0000000000
10
66.2129358002
20
190.2284392017
30
0.0000000000
10
66.0429328909
20
189.1813401328
30
0.0000000000
10
66.0439931338
20
188.6731484962
30
0.0000000000
11
70.8334231395
21
194.3344865110
31
0.0000000000
11
69.3508422179
21
193.8147977335
31
0.0000000000
11
68.0143523134
21
192.8831199526
31
0.0000000000
11
66.9547783696
21
191.6306522811
31
0.0000000000
11
66.2758388667
21
190.1799949810
31
0.0000000000
11
66.0439931338
21
188.6731484962
31
0.0000000000
0
SPLINE
5
476
100
AcDbEntity
8
0
100
AcDbSpline
62
7
6
BYLAYER
70
0
71
3
72
9
73
5
74
3
42
0.0000001000
43
0.0000001000
44
0.0000000001
40
0.0000000000
40
0.0000000000
40
0.0000000000
40
0.0000000000
40
0.5567996829
40
1.0000000000
40
1.0000000000
40
1.0000000000
40
1.0000000000
10
190.1265908310
20
242.8036757652
30
0.0000000000
10
189.7968631602
20
242.7425570333
30
0.0000000000
10
189.2107807768
20
242.5839314355
30
0.0000000000
10
188.6716078554
20
242.3066519887
30
0.0000000000
10
188.4662806665
20
242.1269547434
30
0.0000000000
11
190.1265908310
21
242.8036757652
31
0.0000000000
11
189.1587453373
21
242.5291259034
31
0.0000000000
11
188.4662806665
21
242.1269547434
31
0.0000000000
0
SPLINE
5
477
100
AcDbEntity
8
0
100
AcDbSpline
62
7
6
BYLAYER
70
0
71
3
72
8
73
4
74
2
42
0.0000001000
43
0.0000001000
44
0.0000000001
40
0.0000000000
40
0.0000000000
40
0.0000000000
40
0.0000000000
40
1.0000000000
40
1.0000000000
40
1.0000000000
40
1.0000000000
10
188.4662806665
20
242.1269547434
30
0.0000000000
10
188.3164367105
20
241.9958150426
30
0.0000000000
10
188.1845058026
20
241.8344210717
30
0.0000000000
10
188.1338466737
20
241.6463254150
30
0.0000000000
11
188.4662806665
21
242.1269547434
31
0.0000000000
11
188.1338466737
21
241.6463254150
31
0.0000000000
0
SPLINE
5
478
100
AcDbEntity
8
0
100
AcDbSpline
62
7
6
BYLAYER
70
0
71
3
72
11
73
7
74
5
42
0.0000001000
43
0.0000001000
44
0.0000000001
40
0.0000000000
40
0.0000000000
40
0.0000000000
40
0.0000000000
40
0.2486850840
40
0.5057991991
40
0.7596203494
40
1.0000000000
40
1.0000000000
40
1.0000000000
40
1.0000000000
10
198.9275367661
20
259.6712339527
30
0.0000000000
10
198.3407337583
20
259.5624634160
30
0.0000000000
10
197.1824843192
20
259.1110333517
30
0.0000000000
10
195.7668493637
20
257.9153672661
30
0.0000000000
10
194.8064478784
20
256.3527032556
30
0.0000000000
10
194.5600961617
20
255.1589362687
30
0.0000000000
10
194.5612996803
20
254.5820702547
30
0.0000000000
11
198.9275367661
21
259.6712339527
31
0.0000000000
11
197.2539139177
21
259.0352262816
31
0.0000000000
11
195.8364438160
21
257.8447311800
31
0.0000000000
11
194.8909234346
21
256.2809907352
31
0.0000000000
11
194.5612996803
21
254.5820702547
31
0.0000000000
0
SPLINE
5
479
100
AcDbEntity
8
0
100
AcDbSpline
62
7
6
BYLAYER
70
0
71
3
72
9
73
5
74
3
42
0.0000001000
43
0.0000001000
44
0.0000000001
40
0.0000000000
40
0.0000000000
40
0.0000000000
40
0.0000000000
40
0.2324451381
40
1.0000000000
40
1.0000000000
40
1.0000000000
40
1.0000000000
10
91.2052227251
20
201.2941120854
30
0.0000000000
10
91.1068793928
20
201.3936234212
30
0.0000000000
10
90.6558456906
20
201.7930889326
30
0.0000000000
10
90.0928730491
20
202.0474375175
30
0.0000000000
10
89.6401883120
20
202.1479245314
30
0.0000000000
11
91.2052227251
21
201.2941120854
31
0.0000000000
11
90.8911500665
21
201.5714902779
31
0.0000000000
11
89.6401883120
21
202.1479245314
31
0.0000000000
0
SPLINE
5
47A
100
AcDbEntity
8
0
100
AcDbSpline
62
7
6
BYLAYER
70
0
71
3
72
8
73
4
74
2
42
0.0000001000
43
0.0000001000
44
0.0000000001
40
0.0000000000
40
0.0000000000
40
0.0000000000
40
0.0000000000
40
1.0000000000
40
1.0000000000
40
1.0000000000
40
1.0000000000
10
89.6401883120
20
202.1479245314
30
0.0000000000
10
89.1727590875
20
202.2516845283
30
0.0000000000
10
88.6833938198
20
202.2544407276
30
0.0000000000
10
88.2180184737
20
202.1639870412
30
0.0000000000
11
89.6401883120
21
202.1479245314
31
0.0000000000
11
88.2180184737
21
202.1639870412
31
0.0000000000
0
SPLINE
5
47B
100
AcDbEntity
8
0
100
AcDbSpline
62
7
6
BYLAYER
70
0
71
3
72
8
73
4
74
2
42
0.0000001000
43
0.0000001000
44
0.0000000001
40
0.0000000000
40
0.0000000000
40
0.0000000000
40
0.0000000000
40
1.0000000000
40
1.0000000000
40
1.0000000000
40
1.0000000000
10
185.6831546537
20
232.5469876418
30
0.0000000000
10
185.5809746112
20
232.1675965503
30
0.0000000000
10
185.3158066544
20
231.8415867781
30
0.0000000000
10
185.0142872128
20
231.5764096702
30
0.0000000000
11
185.6831546537
21
232.5469876418
31
0.0000000000
11
185.0142872128
21
231.5764096702
31
0.0000000000
0
SPLINE
5
47C
100
AcDbEntity
8
0
100
AcDbSpline
62
7
6
BYLAYER
70
0
71
3
72
8
73
4
74
2
42
0.0000001000
43
0.0000001000
44
0.0000000001
40
0.0000000000
40
0.0000000000
40
0.0000000000
40
0.0000000000
40
1.0000000000
40
1.0000000000
40
1.0000000000
40
1.0000000000
10
185.0142872128
20
231.5764096702
30
0.0000000000
10
184.6017700357
20
231.2136134558
30
0.0000000000
10
184.1212110908
20
230.9646822471
30
0.0000000000
10
183.6219823734
20
230.7626898146
30
0.0000000000
11
185.0142872128
21
231.5764096702
31
0.0000000000
11
183.6219823734
21
230.7626898146
31
0.0000000000
0
SPLINE
5
47D
100
AcDbEntity
8
0
100
AcDbSpline
62
7
6
BYLAYER
70
0
71
3
72
8
73
4
74
2
42
0.0000001000
43
0.0000001000
44
0.0000000001
40
0.0000000000
40
0.0000000000
40
0.0000000000
40
0.0000000000
40
1.0000000000
40
1.0000000000
40
1.0000000000
40
1.0000000000
10
183.6219823734
20
230.7626898146
30
0.0000000000
10
182.9948029468
20
230.5089273735
30
0.0000000000
10
182.3381573621
20
230.3292475384
30
0.0000000000
10
181.6745162852
20
230.2041755348
30
0.0000000000
11
183.6219823734
21
230.7626898146
31
0.0000000000
11
181.6745162852
21
230.2041755348
31
0.0000000000
0
SPLINE
5
47E
100
AcDbEntity
8
0
100
AcDbSpline
62
7
6
BYLAYER
70
0
71
3
72
11
73
7
74
5
42
0.0000001000
43
0.0000001000
44
0.0000000001
40
0.0000000000
40
0.0000000000
40
0.0000000000
40
0.0000000000
40
0.2407905644
40
0.4950943200
40
0.7521800480
40
1.0000000000
40
1.0000000000
40
1.0000000000
40
1.0000000000
10
87.5087010996
20
201.4050087874
30
0.0000000000
10
87.5097791707
20
200.8882717651
30
0.0000000000
10
87.2908429531
20
199.8190614470
30
0.0000000000
10
86.4392483306
20
198.4157858537
30
0.0000000000
10
85.1835684508
20
197.3365676394
30
0.0000000000
10
84.1535969292
20
196.9234909201
30
0.0000000000
10
83.6315434759
20
196.8220208707
30
0.0000000000
11
87.5087010996
21
201.4050087874
31
0.0000000000
11
87.2160182758
21
199.8826745346
31
0.0000000000
11
86.3764158535
21
198.4771379885
31
0.0000000000
11
85.1177156902
21
197.4023793470
31
0.0000000000
11
83.6315434759
21
196.8220208707
31
0.0000000000
0
SPLINE
5
47F
100
AcDbEntity
8
0
100
AcDbSpline
62
7
6
BYLAYER
70
0
71
3
72
8
73
4
74
2
42
0.0000001000
43
0.0000001000
44
0.0000000001
40
0.0000000000
40
0.0000000000
40
0.0000000000
40
0.0000000000
40
1.0000000000
40
1.0000000000
40
1.0000000000
40
1.0000000000
10
98.8623001467
20
208.3995703995
30
0.0000000000
10
98.6297684413
20
208.3313521217
30
0.0000000000
10
98.3960590697
20
208.2670883278
30
0.0000000000
10
98.1614088288
20
208.2065058827
30
0.0000000000
11
98.8623001467
21
208.3995703995
31
0.0000000000
11
98.1614088288
21
208.2065058827
31
0.0000000000
0
SPLINE
5
480
100
AcDbEntity
8
0
100
AcDbSpline
62
7
6
BYLAYER
70
0
71
3
72
8
73
4
74
2
42
0.0000001000
43
0.0000001000
44
0.0000000001
40
0.0000000000
40
0.0000000000
40
0.0000000000
40
0.0000000000
40
1.0000000000
40
1.0000000000
40
1.0000000000
40
1.0000000000
10
98.1614088288
20
208.2065058827
30
0.0000000000
10
97.9205808028
20
208.1443284454
30
0.0000000000
10
97.6787617136
20
208.0860287510
30
0.0000000000
10
97.4361218442
20
208.0313568792
30
0.0000000000
11
98.1614088288
21
208.2065058827
31
0.0000000000
11
97.4361218442
21
208.0313568792
31
0.0000000000
0
SPLINE
5
481
100
AcDbEntity
8
0
100
AcDbSpline
62
7
6
BYLAYER
70
0
71
3
72
8
73
4
74
2
42
0.0000001000
43
0.0000001000
44
0.0000000001
40
0.0000000000
40
0.0000000000
40
0.0000000000
40
0.0000000000
40
1.0000000000
40
1.0000000000
40
1.0000000000
40
1.0000000000
10
97.4361218442
20
208.0313568792
30
0.0000000000
10
97.1878381244
20
207.9754133291
30
0.0000000000
10
96.9386949973
20
207.9232683321
30
0.0000000000
10
96.6888732440
20
207.8747111863
30
0.0000000000
11
97.4361218442
21
208.0313568792
31
0.0000000000
11
96.6888732440
21
207.8747111863
31
0.0000000000
0
SPLINE
5
482
100
AcDbEntity
8
0
100
AcDbSpline
62
7
6
BYLAYER
70
0
71
3
72
8
73
4
74
2
42
0.0000001000
43
0.0000001000
44
0.0000000001
40
0.0000000000
40
0.0000000000
40
0.0000000000
40
0.0000000000
40
1.0000000000
40
1.0000000000
40
1.0000000000
40
1.0000000000
10
88.2180184737
20
202.1639870412
30
0.0000000000
10
88.0716546675
20
202.1355387232
30
0.0000000000
10
87.9253046032
20
202.1070198805
30
0.0000000000
10
87.7789682731
20
202.0784307107
30
0.0000000000
11
88.2180184737
21
202.1639870412
31
0.0000000000
11
87.7789682731
21
202.0784307107
31
0.0000000000
0
SPLINE
5
483
100
AcDbEntity
8
0
100
AcDbSpline
62
7
6
BYLAYER
70
0
71
3
72
8
73
4
74
2
42
0.0000001000
43
0.0000001000
44
0.0000000001
40
0.0000000000
40
0.0000000000
40
0.0000000000
40
0.0000000000
40
1.0000000000
40
1.0000000000
40
1.0000000000
40
1.0000000000
10
82.3551994277
20
200.9856840579
30
0.0000000000
10
81.6605507908
20
200.8415285459
30
0.0000000000
10
80.9662213825
20
200.6958404885
30
0.0000000000
10
80.2722161332
20
200.5486435215
30
0.0000000000
11
82.3551994277
21
200.9856840579
31
0.0000000000
11
80.2722161332
21
200.5486435215
31
0.0000000000
0
SPLINE
5
484
100
AcDbEntity
8
0
100
AcDbSpline
62
7
6
BYLAYER
70
0
71
3
72
8
73
4
74
2
42
0.0000001000
43
0.0000001000
44
0.0000000001
40
0.0000000000
40
0.0000000000
40
0.0000000000
40
0.0000000000
40
1.0000000000
40
1.0000000000
40
1.0000000000
40
1.0000000000
10
80.2722161332
20
200.5486435215
30
0.0000000000
10
80.1475229722
20
200.5221963799
30
0.0000000000
10
80.0228402757
20
200.4957005277
30
0.0000000000
10
79.8981680723
20
200.4691561021
30
0.0000000000
11
80.2722161332
21
200.5486435215
31
0.0000000000
11
79.8981680723
21
200.4691561021
31
0.0000000000
0
SPLINE
5
485
100
AcDbEntity
8
0
100
AcDbSpline
62
7
6
BYLAYER
70
0
71
3
72
9
73
5
74
3
42
0.0000001000
43
0.0000001000
44
0.0000000001
40
0.0000000000
40
0.0000000000
40
0.0000000000
40
0.0000000000
40
0.5060219640
40
1.0000000000
40
1.0000000000
40
1.0000000000
40
1.0000000000
10
158.0829628212
20
225.7580329370
30
0.0000000000
10
158.0511691291
20
225.7520409920
30
0.0000000000
10
157.9885129189
20
225.7392460587
30
0.0000000000
10
157.9263009568
20
225.7244509448
30
0.0000000000
10
157.8957021438
20
225.7166189319
30
0.0000000000
11
158.0829628212
21
225.7580329370
31
0.0000000000
11
157.9878720454
21
225.7385797948
31
0.0000000000
11
157.8957021438
21
225.7166189319
31
0.0000000000
0
SPLINE
5
486
100
AcDbEntity
8
0
100
AcDbSpline
62
7
6
BYLAYER
70
0
71
3
72
8
73
4
74
2
42
0.0000001000
43
0.0000001000
44
0.0000000001
40
0.0000000000
40
0.0000000000
40
0.0000000000
40
0.0000000000
40
1.0000000000
40
1.0000000000
40
1.0000000000
40
1.0000000000
10
157.8957021438
20
225.7166189319
30
0.0000000000
10
157.8659328084
20
225.7089992305
30
0.0000000000
10
157.8362889150
20
225.7008839778
30
0.0000000000
10
157.8068043733
20
225.6922340406
30
0.0000000000
11
157.8957021438
21
225.7166189319
31
0.0000000000
11
157.8068043733
21
225.6922340406
31
0.0000000000
0
SPLINE
5
487
100
AcDbEntity
8
0
100
AcDbSpline
62
7
6
BYLAYER
70
0
71
3
72
8
73
4
74
2
42
0.0000001000
43
0.0000001000
44
0.0000000001
40
0.0000000000
40
0.0000000000
40
0.0000000000
40
0.0000000000
40
1.0000000000
40
1.0000000000
40
1.0000000000
40
1.0000000000
10
178.8960388854
20
233.4413151487
30
0.0000000000
10
178.8215760935
20
233.1666475170
30
0.0000000000
10
178.6596591618
20
232.9171326088
30
0.0000000000
10
178.4661578522
20
232.7036936776
30
0.0000000000
11
178.8960388854
21
233.4413151487
31
0.0000000000
11
178.4661578522
21
232.7036936776
31
0.0000000000
0
SPLINE
5
488
100
AcDbEntity
8
0
100
AcDbSpline
62
7
6
BYLAYER
70
0
71
3
72
8
73
4
74
2
42
0.0000001000
43
0.0000001000
44
0.0000000001
40
0.0000000000
40
0.0000000000
40
0.0000000000
40
0.0000000000
40
1.0000000000
40
1.0000000000
40
1.0000000000
40
1.0000000000
10
178.4661578522
20
232.7036936776
30
0.0000000000
10
178.2208038554
20
232.4330593602
30
0.0000000000
10
177.9246700823
20
232.2204261867
30
0.0000000000
10
177.6118592271
20
232.0388361310
30
0.0000000000
11
178.4661578522
21
232.7036936776
31
0.0000000000
11
177.6118592271
21
232.0388361310
31
0.0000000000
0
SPLINE
5
489
100
AcDbEntity
8
0
100
AcDbSpline
62
7
6
BYLAYER
70
0
71
3
72
8
73
4
74
2
42
0.0000001000
43
0.0000001000
44
0.0000000001
40
0.0000000000
40
0.0000000000
40
0.0000000000
40
0.0000000000
40
1.0000000000
40
1.0000000000
40
1.0000000000
40
1.0000000000
10
177.6118592271
20
232.0388361310
30
0.0000000000
10
177.2254170770
20
231.8145023190
30
0.0000000000
10
176.8135227219
20
231.6375458477
30
0.0000000000
10
176.3913974824
20
231.4920790276
30
0.0000000000
11
177.6118592271
21
232.0388361310
31
0.0000000000
11
176.3913974824
21
231.4920790276
31
0.0000000000
0
SPLINE
5
48A
100
AcDbEntity
8
0
100
AcDbSpline
62
7
6
BYLAYER
70
0
71
3
72
8
73
4
74
2
42
0.0000001000
43
0.0000001000
44
0.0000000001
40
0.0000000000
40
0.0000000000
40
0.0000000000
40
0.0000000000
40
1.0000000000
40
1.0000000000
40
1.0000000000
40
1.0000000000
10
176.3913974824
20
231.4920790276
30
0.0000000000
10
175.9010383954
20
231.3230984256
30
0.0000000000
10
175.3968735907
20
231.1966104589
30
0.0000000000
10
174.8879956889
20
231.1007056377
30
0.0000000000
11
176.3913974824
21
231.4920790276
31
0.0000000000
11
174.8879956889
21
231.1007056377
31
0.0000000000
0
SPLINE
5
48B
100
AcDbEntity
8
0
100
AcDbSpline
62
7
6
BYLAYER
70
0
71
3
72
9
73
5
74
3
42
0.0000001000
43
0.0000001000
44
0.0000000001
40
0.0000000000
40
0.0000000000
40
0.0000000000
40
0.0000000000
40
0.5567350590
40
1.0000000000
40
1.0000000000
40
1.0000000000
40
1.0000000000
10
183.7072797135
20
245.0593495641
30
0.0000000000
10
183.3806263652
20
244.9977873881
30
0.0000000000
10
182.8000722988
20
244.8389721056
30
0.0000000000
10
182.2662770628
20
244.5625897758
30
0.0000000000
10
182.0630709469
20
244.3841245180
30
0.0000000000
11
183.7072797135
21
245.0593495641
31
0.0000000000
11
182.7486898434
21
244.7845109489
31
0.0000000000
11
182.0630709469
21
244.3841245180
31
0.0000000000
0
SPLINE
5
48C
100
AcDbEntity
8
0
100
AcDbSpline
62
7
6
BYLAYER
70
0
71
3
72
8
73
4
74
2
42
0.0000001000
43
0.0000001000
44
0.0000000001
40
0.0000000000
40
0.0000000000
40
0.0000000000
40
0.0000000000
40
1.0000000000
40
1.0000000000
40
1.0000000000
40
1.0000000000
10
182.0630709469
20
244.3841245180
30
0.0000000000
10
181.9145058490
20
244.2536475962
30
0.0000000000
10
181.7837970845
20
244.0932620593
30
0.0000000000
10
181.7331688854
20
243.9065120437
30
0.0000000000
11
182.0630709469
21
244.3841245180
31
0.0000000000
11
181.7331688854
21
243.9065120437
31
0.0000000000
0
SPLINE
5
48D
100
AcDbEntity
8
0
100
AcDbSpline
62
7
6
BYLAYER
70
0
71
3
72
8
73
4
74
2
42
0.0000001000
43
0.0000001000
44
0.0000000001
40
0.0000000000
40
0.0000000000
40
0.0000000000
40
0.0000000000
40
1.0000000000
40
1.0000000000
40
1.0000000000
40
1.0000000000
10
92.0868198518
20
194.4285093184
30
0.0000000000
10
91.9479977398
20
194.5748383900
30
0.0000000000
10
91.8244133857
20
194.7362410090
30
0.0000000000
10
91.7174680017
20
194.9081029215
30
0.0000000000
11
92.0868198518
21
194.4285093184
31
0.0000000000
11
91.7174680017
21
194.9081029215
31
0.0000000000
0
SPLINE
5
48E
100
AcDbEntity
8
0
100
AcDbSpline
62
7
6
BYLAYER
70
0
71
3
72
8
73
4
74
2
42
0.0000001000
43
0.0000001000
44
0.0000000001
40
0.0000000000
40
0.0000000000
40
0.0000000000
40
0.0000000000
40
1.0000000000
40
1.0000000000
40
1.0000000000
40
1.0000000000
10
91.7174680017
20
194.9081029215
30
0.0000000000
10
91.6768632288
20
194.9733550499
30
0.0000000000
10
91.6386570489
20
195.0401149389
30
0.0000000000
10
91.6029261532
20
195.1081300393
30
0.0000000000
11
91.7174680017
21
194.9081029215
31
0.0000000000
11
91.6029261532
21
195.1081300393
31
0.0000000000
0
SPLINE
5
48F
100
AcDbEntity
8
0
100
AcDbSpline
62
7
6
BYLAYER
70
0
71
3
72
8
73
4
74
2
42
0.0000001000
43
0.0000001000
44
0.0000000001
40
0.0000000000
40
0.0000000000
40
0.0000000000
40
0.0000000000
40
1.0000000000
40
1.0000000000
40
1.0000000000
40
1.0000000000
10
91.6029261532
20
195.1081300393
30
0.0000000000
10
91.5871367078
20
195.1381858409
30
0.0000000000
10
91.5718305972
20
195.1684867707
30
0.0000000000
10
91.5570079872
20
195.1990153599
30
0.0000000000
11
91.6029261532
21
195.1081300393
31
0.0000000000
11
91.5570079872
21
195.1990153599
31
0.0000000000
0
SPLINE
5
490
100
AcDbEntity
8
0
100
AcDbSpline
62
7
6
BYLAYER
70
0
71
3
72
8
73
4
74
2
42
0.0000001000
43
0.0000001000
44
0.0000000001
40
0.0000000000
40
0.0000000000
40
0.0000000000
40
0.0000000000
40
1.0000000000
40
1.0000000000
40
1.0000000000
40
1.0000000000
10
91.5570079872
20
195.1990153599
30
0.0000000000
10
91.3762589756
20
195.5712853112
30
0.0000000000
10
91.2674050846
20
195.9774075700
30
0.0000000000
10
91.2307467584
20
196.3857074238
30
0.0000000000
11
91.5570079872
21
195.1990153599
31
0.0000000000
11
91.2307467584
21
196.3857074238
31
0.0000000000
0
SPLINE
5
491
100
AcDbEntity
8
0
100
AcDbSpline
62
7
6
BYLAYER
70
0
71
3
72
8
73
4
74
2
42
0.0000001000
43
0.0000001000
44
0.0000000001
40
0.0000000000
40
0.0000000000
40
0.0000000000
40
0.0000000000
40
1.0000000000
40
1.0000000000
40
1.0000000000
40
1.0000000000
10
91.0282817816
20
201.1176021917
30
0.0000000000
10
90.9359348173
20
201.2110459419
30
0.0000000000
10
90.8374867567
20
201.2982381065
30
0.0000000000
10
90.7333593306
20
201.3780675781
30
0.0000000000
11
91.0282817816
21
201.1176021917
31
0.0000000000
11
90.7333593306
21
201.3780675781
31
0.0000000000
0
SPLINE
5
492
100
AcDbEntity
8
0
100
AcDbSpline
62
7
6
BYLAYER
70
0
71
3
72
8
73
4
74
2
42
0.0000001000
43
0.0000001000
44
0.0000000001
40
0.0000000000
40
0.0000000000
40
0.0000000000
40
0.0000000000
40
1.0000000000
40
1.0000000000
40
1.0000000000
40
1.0000000000
10
90.7333593306
20
201.3780675781
30
0.0000000000
10
90.3895211550
20
201.6416717107
30
0.0000000000
10
89.9837563071
20
201.8249944996
30
0.0000000000
10
89.5586734846
20
201.9193544370
30
0.0000000000
11
90.7333593306
21
201.3780675781
31
0.0000000000
11
89.5586734846
21
201.9193544370
31
0.0000000000
0
SPLINE
5
493
100
AcDbEntity
8
0
100
AcDbSpline
62
7
6
BYLAYER
70
0
71
3
72
8
73
4
74
2
42
0.0000001000
43
0.0000001000
44
0.0000000001
40
0.0000000000
40
0.0000000000
40
0.0000000000
40
0.0000000000
40
1.0000000000
40
1.0000000000
40
1.0000000000
40
1.0000000000
10
89.5586734846
20
201.9193544370
30
0.0000000000
10
89.1197452023
20
202.0167877913
30
0.0000000000
10
88.6602184011
20
202.0193759346
30
0.0000000000
10
88.2232187645
20
201.9344375544
30
0.0000000000
11
89.5586734846
21
201.9193544370
31
0.0000000000
11
88.2232187645
21
201.9344375544
31
0.0000000000
0
SPLINE
5
494
100
AcDbEntity
8
0
100
AcDbSpline
62
7
6
BYLAYER
70
0
71
3
72
9
73
5
74
3
42
0.0000001000
43
0.0000001000
44
0.0000000001
40
0.0000000000
40
0.0000000000
40
0.0000000000
40
0.0000000000
40
0.3383219283
40
1.0000000000
40
1.0000000000
40
1.0000000000
40
1.0000000000
10
192.1294009209
20
260.3917312128
30
0.0000000000
10
192.1785215412
20
260.3422263382
30
0.0000000000
10
192.3186992782
20
260.1910031583
30
0.0000000000
10
192.4428234537
20
260.0260643368
30
0.0000000000
10
192.5176014405
20
259.9120344385
30
0.0000000000
11
192.1294009209
21
260.3917312128
31
0.0000000000
11
192.2715344274
21
260.2383321865
31
0.0000000000
11
192.5176014405
21
259.9120344385
31
0.0000000000
0
SPLINE
5
495
100
AcDbEntity
8
0
100
AcDbSpline
62
7
6
BYLAYER
70
0
71
3
72
8
73
4
74
2
42
0.0000001000
43
0.0000001000
44
0.0000000001
40
0.0000000000
40
0.0000000000
40
0.0000000000
40
0.0000000000
40
1.0000000000
40
1.0000000000
40
1.0000000000
40
1.0000000000
10
192.5176014405
20
259.9120344385
30
0.0000000000
10
192.6592026511
20
259.6961049609
30
0.0000000000
10
192.7744401140
20
259.4626283686
30
0.0000000000
10
192.8611157068
20
259.2191516191
30
0.0000000000
11
192.5176014405
21
259.9120344385
31
0.0000000000
11
192.8611157068
21
259.2191516191
31
0.0000000000
0
SPLINE
5
496
100
AcDbEntity
8
0
100
AcDbSpline
62
7
6
BYLAYER
70
0
71
3
72
8
73
4
74
2
42
0.0000001000
43
0.0000001000
44
0.0000000001
40
0.0000000000
40
0.0000000000
40
0.0000000000
40
0.0000000000
40
1.0000000000
40
1.0000000000
40
1.0000000000
40
1.0000000000
10
192.8611157068
20
259.2191516191
30
0.0000000000
10
192.9996451749
20
258.8300143369
30
0.0000000000
10
193.0652159018
20
258.4153325480
30
0.0000000000
10
193.0660723213
20
258.0048367475
30
0.0000000000
11
192.8611157068
21
259.2191516191
31
0.0000000000
11
193.0660723213
21
258.0048367475
31
0.0000000000
0
SPLINE
5
497
100
AcDbEntity
8
0
100
AcDbSpline
62
7
6
BYLAYER
70
0
71
3
72
9
73
5
74
3
42
0.0000001000
43
0.0000001000
44
0.0000000001
40
0.0000000000
40
0.0000000000
40
0.0000000000
40
0.0000000000
40
0.5141868100
40
1.0000000000
40
1.0000000000
40
1.0000000000
40
1.0000000000
10
187.5806916884
20
262.6336561890
30
0.0000000000
10
187.9995396706
20
262.7125936722
30
0.0000000000
10
188.8436969804
20
262.7491004095
30
0.0000000000
10
189.6538290183
20
262.5054216823
30
0.0000000000
10
190.0123460841
20
262.3175733186
30
0.0000000000
11
187.5806916884
21
262.6336561890
31
0.0000000000
11
188.8586529030
21
262.6760585420
31
0.0000000000
11
190.0123460841
21
262.3175733186
31
0.0000000000
0
SPLINE
5
498
100
AcDbEntity
8
0
100
AcDbSpline
62
7
6
BYLAYER
70
0
71
3
72
8
73
4
74
2
42
0.0000001000
43
0.0000001000
44
0.0000000001
40
0.0000000000
40
0.0000000000
40
0.0000000000
40
0.0000000000
40
1.0000000000
40
1.0000000000
40
1.0000000000
40
1.0000000000
10
190.0123460841
20
262.3175733186
30
0.0000000000
10
190.2972601051
20
262.1682899575
30
0.0000000000
10
190.5600346462
20
261.9751353049
30
0.0000000000
10
190.7867061984
20
261.7466905766
30
0.0000000000
11
190.0123460841
21
262.3175733186
31
0.0000000000
11
190.7867061984
21
261.7466905766
31
0.0000000000
0
SPLINE
5
499
100
AcDbEntity
8
0
100
AcDbSpline
62
7
6
BYLAYER
70
0
71
3
72
8
73
4
74
2
42
0.0000001000
43
0.0000001000
44
0.0000000001
40
0.0000000000
40
0.0000000000
40
0.0000000000
40
0.0000000000
40
1.0000000000
40
1.0000000000
40
1.0000000000
40
1.0000000000
10
70.8338929072
20
194.1093192429
30
0.0000000000
10
70.3443165263
20
194.0141616700
30
0.0000000000
10
69.8672795909
20
193.8434474679
30
0.0000000000
10
69.4219110771
20
193.6143775500
30
0.0000000000
11
70.8338929072
21
194.1093192429
31
0.0000000000
11
69.4219110771
21
193.6143775500
31
0.0000000000
0
SPLINE
5
49A
100
AcDbEntity
8
0
100
AcDbSpline
62
7
6
BYLAYER
70
0
71
3
72
10
73
6
74
4
42
0.0000001000
43
0.0000001000
44
0.0000000001
40
0.0000000000
40
0.0000000000
40
0.0000000000
40
0.0000000000
40
0.3344380638
40
0.6712080722
40
1.0000000000
40
1.0000000000
40
1.0000000000
40
1.0000000000
10
69.4219110771
20
193.6143775500
30
0.0000000000
10
68.9600564280
20
193.3768281876
30
0.0000000000
10
68.1014768998
20
192.7741235846
30
0.0000000000
10
67.0899896538
20
191.5812200181
30
0.0000000000
10
66.6434186261
20
190.6409422120
30
0.0000000000
10
66.4933364569
20
190.1526606429
30
0.0000000000
11
69.4219110771
21
193.6143775500
31
0.0000000000
11
68.1490635489
21
192.7270653778
31
0.0000000000
11
67.1399455072
21
191.5342390240
31
0.0000000000
11
66.4933364569
21
190.1526606429
31
0.0000000000
0
SPLINE
5
49B
100
AcDbEntity
8
0
100
AcDbSpline
62
7
6
BYLAYER
70
0
71
3
72
8
73
4
74
2
42
0.0000001000
43
0.0000001000
44
0.0000000001
40
0.0000000000
40
0.0000000000
40
0.0000000000
40
0.0000000000
40
1.0000000000
40
1.0000000000
40
1.0000000000
40
1.0000000000
10
66.4933364569
20
190.1526606429
30
0.0000000000
10
66.3504785802
20
189.6878827914
30
0.0000000000
10
66.2715212418
20
189.2015607875
30
0.0000000000
10
66.2725309969
20
188.7175687526
30
0.0000000000
11
66.4933364569
21
190.1526606429
31
0.0000000000
11
66.2725309969
21
188.7175687526
31
0.0000000000
0
SPLINE
5
49C
100
AcDbEntity
8
0
100
AcDbSpline
62
7
6
BYLAYER
70
0
71
3
72
11
73
7
74
5
42
0.0000001000
43
0.0000001000
44
0.0000000001
40
0.0000000000
40
0.0000000000
40
0.0000000000
40
0.0000000000
40
0.2407905644
40
0.4950943200
40
0.7521800480
40
1.0000000000
40
1.0000000000
40
1.0000000000
40
1.0000000000
10
87.7372389627
20
201.4494290438
30
0.0000000000
10
87.7383804498
20
200.9022957260
30
0.0000000000
10
87.5065656312
20
199.7701906834
30
0.0000000000
10
86.6048772073
20
198.2843694669
30
0.0000000000
10
85.2753338052
20
197.1416678283
30
0.0000000000
10
84.1847757235
20
196.7042924784
30
0.0000000000
10
83.6320132435
20
196.5968536026
30
0.0000000000
11
87.7372389627
21
201.4494290438
31
0.0000000000
11
87.4273395023
21
199.8375457173
31
0.0000000000
11
86.5383487021
21
198.3493305509
31
0.0000000000
11
85.2056073528
21
197.2113508128
31
0.0000000000
11
83.6320132435
21
196.5968536026
31
0.0000000000
0
SPLINE
5
49D
100
AcDbEntity
8
0
100
AcDbSpline
62
7
6
BYLAYER
70
0
71
3
72
8
73
4
74
2
42
0.0000001000
43
0.0000001000
44
0.0000000001
40
0.0000000000
40
0.0000000000
40
0.0000000000
40
0.0000000000
40
1.0000000000
40
1.0000000000
40
1.0000000000
40
1.0000000000
10
88.2232187645
20
201.9344375544
30
0.0000000000
10
88.0364882862
20
201.8981432808
30
0.0000000000
10
87.8497788158
20
201.8617411517
30
0.0000000000
10
87.6630903016
20
201.8252317411
30
0.0000000000
11
88.2232187645
21
201.9344375544
31
0.0000000000
11
87.6630903016
21
201.8252317411
31
0.0000000000
0
SPLINE
5
49E
100
AcDbEntity
8
0
100
AcDbSpline
62
7
6
BYLAYER
70
0
71
3
72
8
73
4
74
2
42
0.0000001000
43
0.0000001000
44
0.0000000001
40
0.0000000000
40
0.0000000000
40
0.0000000000
40
0.0000000000
40
1.0000000000
40
1.0000000000
40
1.0000000000
40
1.0000000000
10
82.0016472888
20
200.6844524961
30
0.0000000000
10
81.4402245595
20
200.5680468833
30
0.0000000000
10
80.8789934284
20
200.4507215975
30
0.0000000000
10
80.3179549073
20
200.3324932482
30
0.0000000000
11
82.0016472888
21
200.6844524961
31
0.0000000000
11
80.3179549073
21
200.3324932482
31
0.0000000000
0
SPLINE
5
49F
100
AcDbEntity
8
0
100
AcDbSpline
62
7
6
BYLAYER
70
0
71
3
72
8
73
4
74
2
42
0.0000001000
43
0.0000001000
44
0.0000000001
40
0.0000000000
40
0.0000000000
40
0.0000000000
40
0.0000000000
40
1.0000000000
40
1.0000000000
40
1.0000000000
40
1.0000000000
10
80.3179549073
20
200.3324932482
30
0.0000000000
10
80.2425802207
20
200.3166094462
30
0.0000000000
10
80.1672090107
20
200.3007093444
30
0.0000000000
10
80.0918412797
20
200.2847929829
30
0.0000000000
11
80.3179549073
21
200.3324932482
31
0.0000000000
11
80.0918412797
21
200.2847929829
31
0.0000000000
0
SPLINE
5
4A0
100
AcDbEntity
8
0
100
AcDbSpline
62
7
6
BYLAYER
70
0
71
3
72
8
73
4
74
2
42
0.0000001000
43
0.0000001000
44
0.0000000001
40
0.0000000000
40
0.0000000000
40
0.0000000000
40
0.0000000000
40
1.0000000000
40
1.0000000000
40
1.0000000000
40
1.0000000000
10
198.9280065337
20
259.4460666846
30
0.0000000000
10
198.3720878948
20
259.3430209130
30
0.0000000000
10
197.8325864616
20
259.1327491370
30
0.0000000000
10
197.3424690984
20
258.8435331014
30
0.0000000000
11
198.9280065337
21
259.4460666846
31
0.0000000000
11
197.3424690984
21
258.8435331014
31
0.0000000000
0
SPLINE
5
4A1
100
AcDbEntity
8
0
100
AcDbSpline
62
7
6
BYLAYER
70
0
71
3
72
9
73
5
74
3
42
0.0000001000
43
0.0000001000
44
0.0000000001
40
0.0000000000
40
0.0000000000
40
0.0000000000
40
0.0000000000
40
0.5032224873
40
1.0000000000
40
1.0000000000
40
1.0000000000
40
1.0000000000
10
197.3424690984
20
258.8435331014
30
0.0000000000
10
196.8357395026
20
258.5445142627
30
0.0000000000
10
195.9336710998
20
257.7826140342
30
0.0000000000
10
195.3149205535
20
256.7758484001
30
0.0000000000
10
195.1038465355
20
256.2342573207
30
0.0000000000
11
197.3424690984
21
258.8435331014
31
0.0000000000
11
195.9996026863
21
257.7156956368
31
0.0000000000
11
195.1038465355
21
256.2342573207
31
0.0000000000
0
SPLINE
5
4A2
100
AcDbEntity
8
0
100
AcDbSpline
62
7
6
BYLAYER
70
0
71
3
72
8
73
4
74
2
42
0.0000001000
43
0.0000001000
44
0.0000000001
40
0.0000000000
40
0.0000000000
40
0.0000000000
40
0.0000000000
40
1.0000000000
40
1.0000000000
40
1.0000000000
40
1.0000000000
10
195.1038465355
20
256.2342573207
30
0.0000000000
10
194.9039502753
20
255.7213470519
30
0.0000000000
10
194.7904312243
20
255.1712583524
30
0.0000000000
10
194.7915713998
20
254.6247537076
30
0.0000000000
11
195.1038465355
21
256.2342573207
31
0.0000000000
11
194.7915713998
21
254.6247537076
31
0.0000000000
0
SPLINE
5
4A3
100
AcDbEntity
8
0
100
AcDbSpline
62
7
6
BYLAYER
70
0
71
3
72
8
73
4
74
2
42
0.0000001000
43
0.0000001000
44
0.0000000001
40
0.0000000000
40
0.0000000000
40
0.0000000000
40
0.0000000000
40
1.0000000000
40
1.0000000000
40
1.0000000000
40
1.0000000000
10
90.9038966972
20
200.0261581994
30
0.0000000000
10
90.8598399269
20
200.5168618047
30
0.0000000000
10
90.7197944460
20
201.0045213015
30
0.0000000000
10
90.4870822835
20
201.4442068285
30
0.0000000000
11
90.9038966972
21
200.0261581994
31
0.0000000000
11
90.4870822835
21
201.4442068285
31
0.0000000000
0
SPLINE
5
4A4
100
AcDbEntity
8
0
100
AcDbSpline
62
7
6
BYLAYER
70
0
71
3
72
11
73
7
74
5
42
0.0000001000
43
0.0000001000
44
0.0000000001
40
0.0000000000
40
0.0000000000
40
0.0000000000
40
0.0000000000
40
0.2403796506
40
0.4942008009
40
0.7513149160
40
1.0000000000
40
1.0000000000
40
1.0000000000
40
1.0000000000
10
194.8064348478
20
247.5004613451
30
0.0000000000
10
194.8075750232
20
246.9539567003
30
0.0000000000
10
194.5741891864
20
245.8230195547
30
0.0000000000
10
193.6643351477
20
244.3426010185
30
0.0000000000
10
192.3232072951
20
243.2098647268
30
0.0000000000
10
191.2259183528
20
242.7821941397
30
0.0000000000
10
190.6699997139
20
242.6791483681
30
0.0000000000
11
194.8064348478
21
247.5004613451
31
0.0000000000
11
194.4941597121
21
245.8909577320
31
0.0000000000
11
193.5984035613
21
244.4095194159
31
0.0000000000
11
192.2555371491
21
243.2816819512
31
0.0000000000
11
190.6699997139
21
242.6791483681
31
0.0000000000
0
SPLINE
5
4A5
100
AcDbEntity
8
0
100
AcDbSpline
62
7
6
BYLAYER
70
0
71
3
72
9
73
5
74
3
42
0.0000001000
43
0.0000001000
44
0.0000000001
40
0.0000000000
40
0.0000000000
40
0.0000000000
40
0.0000000000
40
0.7952651808
40
1.0000000000
40
1.0000000000
40
1.0000000000
40
1.0000000000
10
193.0814055369
20
250.6553771169
30
0.0000000000
10
193.0823137365
20
250.2200623052
30
0.0000000000
10
192.9925630819
20
249.6699918261
30
0.0000000000
10
192.8112826753
20
249.1509674953
30
0.0000000000
10
192.7705366220
20
249.0461665294
30
0.0000000000
11
193.0814055369
21
250.6553771169
31
0.0000000000
11
192.8816749050
21
249.3647935414
31
0.0000000000
11
192.7705366220
21
249.0461665294
31
0.0000000000
0
SPLINE
5
4A6
100
AcDbEntity
8
0
100
AcDbSpline
62
7
6
BYLAYER
70
0
71
3
72
9
73
5
74
3
42
0.0000001000
43
0.0000001000
44
0.0000000001
40
0.0000000000
40
0.0000000000
40
0.0000000000
40
0.0000000000
40
0.4241271504
40
1.0000000000
40
1.0000000000
40
1.0000000000
40
1.0000000000
10
192.7705366220
20
249.0461665294
30
0.0000000000
10
192.6450677124
20
248.7234539751
30
0.0000000000
10
192.2680481462
20
247.9952392202
30
0.0000000000
10
191.7328643373
20
247.3700348141
30
0.0000000000
10
191.3840558222
20
247.0552450515
30
0.0000000000
11
192.7705366220
21
249.0461665294
31
0.0000000000
11
192.2968080526
21
248.1242725745
31
0.0000000000
11
191.3840558222
21
247.0552450515
31
0.0000000000
0
SPLINE
5
4A7
100
AcDbEntity
8
0
100
AcDbSpline
62
7
6
BYLAYER
70
0
71
3
72
9
73
5
74
3
42
0.0000001000
43
0.0000001000
44
0.0000000001
40
0.0000000000
40
0.0000000000
40
0.0000000000
40
0.0000000000
40
0.5086202602
40
1.0000000000
40
1.0000000000
40
1.0000000000
40
1.0000000000
10
191.3840558222
20
247.0552450515
30
0.0000000000
10
191.0371759559
20
246.7421958397
30
0.0000000000
10
190.2762099957
20
246.2146908437
30
0.0000000000
10
189.3980178215
20
245.9065891852
30
0.0000000000
10
188.9556312614
20
245.8232155433
30
0.0000000000
11
191.3840558222
21
247.0552450515
31
0.0000000000
11
190.2327647616
21
246.2623548349
31
0.0000000000
11
188.9556312614
21
245.8232155433
31
0.0000000000
0
SPLINE
5
4A8
100
AcDbEntity
8
0
100
AcDbSpline
62
7
6
BYLAYER
70
0
71
3
72
8
73
4
74
2
42
0.0000001000
43
0.0000001000
44
0.0000000001
40
0.0000000000
40
0.0000000000
40
0.0000000000
40
0.0000000000
40
1.0000000000
40
1.0000000000
40
1.0000000000
40
1.0000000000
10
96.3572511809
20
192.3184724026
30
0.0000000000
10
95.8829540092
20
192.2141069130
30
0.0000000000
10
95.3807928532
20
192.2062954995
30
0.0000000000
10
94.9003651051
20
192.3059943778
30
0.0000000000
11
96.3572511809
21
192.3184724026
31
0.0000000000
11
94.9003651051
21
192.3059943778
31
0.0000000000
0
SPLINE
5
4A9
100
AcDbEntity
8
0
100
AcDbSpline
62
7
6
BYLAYER
70
0
71
3
72
8
73
4
74
2
42
0.0000001000
43
0.0000001000
44
0.0000000001
40
0.0000000000
40
0.0000000000
40
0.0000000000
40
0.0000000000
40
1.0000000000
40
1.0000000000
40
1.0000000000
40
1.0000000000
10
94.9003651051
20
192.3059943778
30
0.0000000000
10
94.6673018362
20
192.3543599157
30
0.0000000000
10
94.4393528330
20
192.4280290658
30
0.0000000000
10
94.2226564759
20
192.5255747593
30
0.0000000000
11
94.9003651051
21
192.3059943778
31
0.0000000000
11
94.2226564759
21
192.5255747593
31
0.0000000000
0
SPLINE
5
4AA
100
AcDbEntity
8
0
100
AcDbSpline
62
7
6
BYLAYER
70
0
71
3
72
8
73
4
74
2
42
0.0000001000
43
0.0000001000
44
0.0000000001
40
0.0000000000
40
0.0000000000
40
0.0000000000
40
0.0000000000
40
1.0000000000
40
1.0000000000
40
1.0000000000
40
1.0000000000
10
94.2226564759
20
192.5255747593
30
0.0000000000
10
94.0071490090
20
192.6225852748
30
0.0000000000
10
93.8027710534
20
192.7432110562
30
0.0000000000
10
93.6155605106
20
192.8860483885
30
0.0000000000
11
94.2226564759
21
192.5255747593
31
0.0000000000
11
93.6155605106
21
192.8860483885
31
0.0000000000
0
SPLINE
5
4AB
100
AcDbEntity
8
0
100
AcDbSpline
62
7
6
BYLAYER
70
0
71
3
72
8
73
4
74
2
42
0.0000001000
43
0.0000001000
44
0.0000000001
40
0.0000000000
40
0.0000000000
40
0.0000000000
40
0.0000000000
40
1.0000000000
40
1.0000000000
40
1.0000000000
40
1.0000000000
10
93.6155605106
20
192.8860483885
30
0.0000000000
10
93.4845601952
20
192.9859986118
30
0.0000000000
10
93.3619658709
20
193.0968246789
30
0.0000000000
10
93.2483754546
20
193.2165576229
30
0.0000000000
11
93.6155605106
21
192.8860483885
31
0.0000000000
11
93.2483754546
21
193.2165576229
31
0.0000000000
0
SPLINE
5
4AC
100
AcDbEntity
8
0
100
AcDbSpline
62
7
6
BYLAYER
70
0
71
3
72
8
73
4
74
2
42
0.0000001000
43
0.0000001000
44
0.0000000001
40
0.0000000000
40
0.0000000000
40
0.0000000000
40
0.0000000000
40
1.0000000000
40
1.0000000000
40
1.0000000000
40
1.0000000000
10
91.8416191002
20
206.7073055677
30
0.0000000000
10
91.2888566202
20
206.5998666918
30
0.0000000000
10
90.7535842671
20
206.3851922635
30
0.0000000000
10
90.2680249909
20
206.0928083574
30
0.0000000000
11
91.8416191002
21
206.7073055677
31
0.0000000000
11
90.2680249909
21
206.0928083574
31
0.0000000000
0
SPLINE
5
4AD
100
AcDbEntity
8
0
100
AcDbSpline
62
7
6
BYLAYER
70
0
71
3
72
9
73
5
74
3
42
0.0000001000
43
0.0000001000
44
0.0000000001
40
0.0000000000
40
0.0000000000
40
0.0000000000
40
0.0000000000
40
0.5027200133
40
1.0000000000
40
1.0000000000
40
1.0000000000
40
1.0000000000
10
90.2680249909
20
206.0928083574
30
0.0000000000
10
89.7643110686
20
205.7894924671
30
0.0000000000
10
88.8687551364
20
205.0197897033
30
0.0000000000
10
88.2557184324
20
204.0096148833
30
0.0000000000
10
88.0462928414
20
203.4666134529
30
0.0000000000
11
90.2680249909
21
206.0928083574
31
0.0000000000
11
88.9352836416
21
204.9548286194
31
0.0000000000
11
88.0462928414
21
203.4666134529
31
0.0000000000
0
SPLINE
5
4AE
100
AcDbEntity
8
0
100
AcDbSpline
62
7
6
BYLAYER
70
0
71
3
72
8
73
4
74
2
42
0.0000001000
43
0.0000001000
44
0.0000000001
40
0.0000000000
40
0.0000000000
40
0.0000000000
40
0.0000000000
40
1.0000000000
40
1.0000000000
40
1.0000000000
40
1.0000000000
10
88.0462928414
20
203.4666134529
30
0.0000000000
10
87.8479957060
20
202.9524660287
30
0.0000000000
10
87.7352518939
20
202.4018634442
30
0.0000000000
10
87.7363933810
20
201.8547301264
30
0.0000000000
11
88.0462928414
21
203.4666134529
31
0.0000000000
11
87.7363933810
21
201.8547301264
31
0.0000000000
0
SPLINE
5
4AF
100
AcDbEntity
8
0
100
AcDbSpline
62
7
6
BYLAYER
70
0
71
3
72
8
73
4
74
2
42
0.0000001000
43
0.0000001000
44
0.0000000001
40
0.0000000000
40
0.0000000000
40
0.0000000000
40
0.0000000000
40
1.0000000000
40
1.0000000000
40
1.0000000000
40
1.0000000000
10
190.1270605986
20
242.5785084972
30
0.0000000000
10
189.7973329279
20
242.5173897653
30
0.0000000000
10
189.4710024426
20
242.4290670827
30
0.0000000000
10
189.1592151049
20
242.3039586353
30
0.0000000000
11
190.1270605986
21
242.5785084972
31
0.0000000000
11
189.1592151049
21
242.3039586353
31
0.0000000000
0
SPLINE
5
4B0
100
AcDbEntity
8
0
100
AcDbSpline
62
7
6
BYLAYER
70
0
71
3
72
8
73
4
74
2
42
0.0000001000
43
0.0000001000
44
0.0000000001
40
0.0000000000
40
0.0000000000
40
0.0000000000
40
0.0000000000
40
1.0000000000
40
1.0000000000
40
1.0000000000
40
1.0000000000
10
189.1592151049
20
242.3039586353
30
0.0000000000
10
188.9110392327
20
242.2043750593
30
0.0000000000
10
188.6720776230
20
242.0814847206
30
0.0000000000
10
188.4667504342
20
241.9017874753
30
0.0000000000
11
189.1592151049
21
242.3039586353
31
0.0000000000
11
188.4667504342
21
241.9017874753
31
0.0000000000
0
SPLINE
5
4B1
100
AcDbEntity
8
0
100
AcDbSpline
62
7
6
BYLAYER
70
0
71
3
72
8
73
4
74
2
42
0.0000001000
43
0.0000001000
44
0.0000000001
40
0.0000000000
40
0.0000000000
40
0.0000000000
40
0.0000000000
40
1.0000000000
40
1.0000000000
40
1.0000000000
40
1.0000000000
10
188.4667504342
20
241.9017874753
30
0.0000000000
10
188.3645795740
20
241.8123700815
30
0.0000000000
10
188.2707367986
20
241.7088869563
30
0.0000000000
10
188.2053070195
20
241.5924642799
30
0.0000000000
11
188.4667504342
21
241.9017874753
31
0.0000000000
11
188.2053070195
21
241.5924642799
31
0.0000000000
0
SPLINE
5
4B2
100
AcDbEntity
8
0
100
AcDbSpline
62
7
6
BYLAYER
70
0
71
3
72
8
73
4
74
2
42
0.0000001000
43
0.0000001000
44
0.0000000001
40
0.0000000000
40
0.0000000000
40
0.0000000000
40
0.0000000000
40
1.0000000000
40
1.0000000000
40
1.0000000000
40
1.0000000000
10
185.6836244214
20
232.3218203737
30
0.0000000000
10
185.5814443789
20
231.9424292822
30
0.0000000000
10
185.3162764220
20
231.6164195100
30
0.0000000000
10
185.0147569804
20
231.3512424021
30
0.0000000000
11
185.6836244214
21
232.3218203737
31
0.0000000000
11
185.0147569804
21
231.3512424021
31
0.0000000000
0
SPLINE
5
4B3
100
AcDbEntity
8
0
100
AcDbSpline
62
7
6
BYLAYER
70
0
71
3
72
8
73
4
74
2
42
0.0000001000
43
0.0000001000
44
0.0000000001
40
0.0000000000
40
0.0000000000
40
0.0000000000
40
0.0000000000
40
1.0000000000
40
1.0000000000
40
1.0000000000
40
1.0000000000
10
185.0147569804
20
231.3512424021
30
0.0000000000
10
184.6022398033
20
230.9884461877
30
0.0000000000
10
184.1216808584
20
230.7395149790
30
0.0000000000
10
183.6224521411
20
230.5375225465
30
0.0000000000
11
185.0147569804
21
231.3512424021
31
0.0000000000
11
183.6224521411
21
230.5375225465
31
0.0000000000
0
SPLINE
5
4B4
100
AcDbEntity
8
0
100
AcDbSpline
62
7
6
BYLAYER
70
0
71
3
72
8
73
4
74
2
42
0.0000001000
43
0.0000001000
44
0.0000000001
40
0.0000000000
40
0.0000000000
40
0.0000000000
40
0.0000000000
40
1.0000000000
40
1.0000000000
40
1.0000000000
40
1.0000000000
10
183.6224521411
20
230.5375225465
30
0.0000000000
10
182.9952727145
20
230.2837601054
30
0.0000000000
10
182.3386271298
20
230.1040802703
30
0.0000000000
10
181.6749860528
20
229.9790082667
30
0.0000000000
11
183.6224521411
21
230.5375225465
31
0.0000000000
11
181.6749860528
21
229.9790082667
31
0.0000000000
0
SPLINE
5
4B5
100
AcDbEntity
8
0
100
AcDbSpline
62
7
6
BYLAYER
70
0
71
3
72
8
73
4
74
2
42
0.0000001000
43
0.0000001000
44
0.0000000001
40
0.0000000000
40
0.0000000000
40
0.0000000000
40
0.0000000000
40
1.0000000000
40
1.0000000000
40
1.0000000000
40
1.0000000000
10
98.8627699144
20
208.1744031315
30
0.0000000000
10
98.6302382089
20
208.1061848536
30
0.0000000000
10
98.3965288374
20
208.0419210597
30
0.0000000000
10
98.1618785965
20
207.9813386146
30
0.0000000000
11
98.8627699144
21
208.1744031315
31
0.0000000000
11
98.1618785965
21
207.9813386146
31
0.0000000000
0
SPLINE
5
4B6
100
AcDbEntity
8
0
100
AcDbSpline
62
7
6
BYLAYER
70
0
71
3
72
8
73
4
74
2
42
0.0000001000
43
0.0000001000
44
0.0000000001
40
0.0000000000
40
0.0000000000
40
0.0000000000
40
0.0000000000
40
1.0000000000
40
1.0000000000
40
1.0000000000
40
1.0000000000
10
98.1618785965
20
207.9813386146
30
0.0000000000
10
97.9210505704
20
207.9191611773
30
0.0000000000
10
97.6792314812
20
207.8608614829
30
0.0000000000
10
97.4365916118
20
207.8061896111
30
0.0000000000
11
98.1618785965
21
207.9813386146
31
0.0000000000
11
97.4365916118
21
207.8061896111
31
0.0000000000
0
SPLINE
5
4B7
100
AcDbEntity
8
0
100
AcDbSpline
62
7
6
BYLAYER
70
0
71
3
72
8
73
4
74
2
42
0.0000001000
43
0.0000001000
44
0.0000000001
40
0.0000000000
40
0.0000000000
40
0.0000000000
40
0.0000000000
40
1.0000000000
40
1.0000000000
40
1.0000000000
40
1.0000000000
10
97.4365916118
20
207.8061896111
30
0.0000000000
10
97.1883078920
20
207.7502460610
30
0.0000000000
10
96.9391647649
20
207.6981010640
30
0.0000000000
10
96.6893430116
20
207.6495439182
30
0.0000000000
11
97.4365916118
21
207.8061896111
31
0.0000000000
11
96.6893430116
21
207.6495439182
31
0.0000000000
0
SPLINE
5
4B8
100
AcDbEntity
8
0
100
AcDbSpline
62
7
6
BYLAYER
70
0
71
3
72
9
73
5
74
3
42
0.0000001000
43
0.0000001000
44
0.0000000001
40
0.0000000000
40
0.0000000000
40
0.0000000000
40
0.0000000000
40
0.5060219640
40
1.0000000000
40
1.0000000000
40
1.0000000000
40
1.0000000000
10
158.0834325889
20
225.5328656689
30
0.0000000000
10
158.0516388967
20
225.5268737239
30
0.0000000000
10
157.9889826865
20
225.5140787906
30
0.0000000000
10
157.9267707245
20
225.4992836767
30
0.0000000000
10
157.8961719114
20
225.4914516638
30
0.0000000000
11
158.0834325889
21
225.5328656689
31
0.0000000000
11
157.9883418130
21
225.5134125267
31
0.0000000000
11
157.8961719114
21
225.4914516638
31
0.0000000000
0
SPLINE
5
4B9
100
AcDbEntity
8
0
100
AcDbSpline
62
7
6
BYLAYER
70
0
71
3
72
8
73
4
74
2
42
0.0000001000
43
0.0000001000
44
0.0000000001
40
0.0000000000
40
0.0000000000
40
0.0000000000
40
0.0000000000
40
1.0000000000
40
1.0000000000
40
1.0000000000
40
1.0000000000
10
157.8961719114
20
225.4914516638
30
0.0000000000
10
157.8664025761
20
225.4838319624
30
0.0000000000
10
157.8367586826
20
225.4757167097
30
0.0000000000
10
157.8072741410
20
225.4670667725
30
0.0000000000
11
157.8961719114
21
225.4914516638
31
0.0000000000
11
157.8072741410
21
225.4670667725
31
0.0000000000
0
SPLINE
5
4BA
100
AcDbEntity
8
0
100
AcDbSpline
62
7
6
BYLAYER
70
0
71
3
72
9
73
5
74
3
42
0.0000001000
43
0.0000001000
44
0.0000000001
40
0.0000000000
40
0.0000000000
40
0.0000000000
40
0.0000000000
40
0.4409227980
40
1.0000000000
40
1.0000000000
40
1.0000000000
40
1.0000000000
10
178.8965086530
20
233.2161478806
30
0.0000000000
10
178.8220458612
20
232.9414802490
30
0.0000000000
10
178.4548229993
20
232.3755877403
30
0.0000000000
10
177.9251398499
20
231.9952589187
30
0.0000000000
10
177.6123289948
20
231.8136688629
30
0.0000000000
11
178.8965086530
21
233.2161478806
31
0.0000000000
11
178.4666276199
21
232.4785264095
31
0.0000000000
11
177.6123289948
21
231.8136688629
31
0.0000000000
0
SPLINE
5
4BB
100
AcDbEntity
8
0
100
AcDbSpline
62
7
6
BYLAYER
70
0
71
3
72
8
73
4
74
2
42
0.0000001000
43
0.0000001000
44
0.0000000001
40
0.0000000000
40
0.0000000000
40
0.0000000000
40
0.0000000000
40
1.0000000000
40
1.0000000000
40
1.0000000000
40
1.0000000000
10
177.6123289948
20
231.8136688629
30
0.0000000000
10
177.2258868446
20
231.5893350509
30
0.0000000000
10
176.8139924895
20
231.4123785796
30
0.0000000000
10
176.3918672501
20
231.2669117595
30
0.0000000000
11
177.6123289948
21
231.8136688629
31
0.0000000000
11
176.3918672501
21
231.2669117595
31
0.0000000000
0
SPLINE
5
4BC
100
AcDbEntity
8
0
100
AcDbSpline
62
7
6
BYLAYER
70
0
71
3
72
8
73
4
74
2
42
0.0000001000
43
0.0000001000
44
0.0000000001
40
0.0000000000
40
0.0000000000
40
0.0000000000
40
0.0000000000
40
1.0000000000
40
1.0000000000
40
1.0000000000
40
1.0000000000
10
176.3918672501
20
231.2669117595
30
0.0000000000
10
176.0258895230
20
231.1407936997
30
0.0000000000
10
175.6522215568
20
231.0383454363
30
0.0000000000
10
175.2746435129
20
230.9546157240
30
0.0000000000
11
176.3918672501
21
231.2669117595
31
0.0000000000
11
175.2746435129
21
230.9546157240
31
0.0000000000
0
SPLINE
5
4BD
100
AcDbEntity
8
0
100
AcDbSpline
62
7
6
BYLAYER
70
0
71
3
72
8
73
4
74
2
42
0.0000001000
43
0.0000001000
44
0.0000000001
40
0.0000000000
40
0.0000000000
40
0.0000000000
40
0.0000000000
40
1.0000000000
40
1.0000000000
40
1.0000000000
40
1.0000000000
10
175.2746435129
20
230.9546157240
30
0.0000000000
10
175.2057835558
20
230.9393457037
30
0.0000000000
10
175.1367935502
20
230.9246982592
30
0.0000000000
10
175.0676964253
20
230.9106433579
30
0.0000000000
11
175.2746435129
21
230.9546157240
31
0.0000000000
11
175.0676964253
21
230.9106433579
31
0.0000000000
0
SPLINE
5
4BE
100
AcDbEntity
8
0
100
AcDbSpline
62
7
6
BYLAYER
70
0
71
3
72
9
73
5
74
3
42
0.0000001000
43
0.0000001000
44
0.0000000001
40
0.0000000000
40
0.0000000000
40
0.0000000000
40
0.0000000000
40
0.5567350590
40
1.0000000000
40
1.0000000000
40
1.0000000000
40
1.0000000000
10
183.7077494811
20
244.8341822960
30
0.0000000000
10
183.3810961328
20
244.7726201200
30
0.0000000000
10
182.8005420665
20
244.6138048375
30
0.0000000000
10
182.2667468305
20
244.3374225077
30
0.0000000000
10
182.0635407145
20
244.1589572499
30
0.0000000000
11
183.7077494811
21
244.8341822960
31
0.0000000000
11
182.7491596111
21
244.5593436808
31
0.0000000000
11
182.0635407145
21
244.1589572499
31
0.0000000000
0
SPLINE
5
4BF
100
AcDbEntity
8
0
100
AcDbSpline
62
7
6
BYLAYER
70
0
71
3
72
8
73
4
74
2
42
0.0000001000
43
0.0000001000
44
0.0000000001
40
0.0000000000
40
0.0000000000
40
0.0000000000
40
0.0000000000
40
1.0000000000
40
1.0000000000
40
1.0000000000
40
1.0000000000
10
182.0635407145
20
244.1589572499
30
0.0000000000
10
181.9625853447
20
244.0702934515
30
0.0000000000
10
181.8698754853
20
243.9678187663
30
0.0000000000
10
181.8049364239
20
243.8526453058
30
0.0000000000
11
182.0635407145
21
244.1589572499
31
0.0000000000
11
181.8049364239
21
243.8526453058
31
0.0000000000
0
SPLINE
5
4C0
100
AcDbEntity
8
0
100
AcDbSpline
62
7
6
BYLAYER
70
0
71
3
72
9
73
5
74
3
42
0.0000001000
43
0.0000001000
44
0.0000000001
40
0.0000000000
40
0.0000000000
40
0.0000000000
40
0.0000000000
40
0.5141868100
40
1.0000000000
40
1.0000000000
40
1.0000000000
40
1.0000000000
10
188.9233864109
20
261.2786968253
30
0.0000000000
10
189.3422343930
20
261.3576343085
30
0.0000000000
10
190.1863917028
20
261.3941410457
30
0.0000000000
10
190.9965237408
20
261.1504623185
30
0.0000000000
10
191.3550408066
20
260.9626139549
30
0.0000000000
11
188.9233864109
21
261.2786968253
31
0.0000000000
11
190.2013476254
21
261.3210991782
31
0.0000000000
11
191.3550408066
21
260.9626139549
31
0.0000000000
0
SPLINE
5
4C1
100
AcDbEntity
8
0
100
AcDbSpline
62
7
6
BYLAYER
70
0
71
3
72
8
73
4
74
2
42
0.0000001000
43
0.0000001000
44
0.0000000001
40
0.0000000000
40
0.0000000000
40
0.0000000000
40
0.0000000000
40
1.0000000000
40
1.0000000000
40
1.0000000000
40
1.0000000000
10
191.3550408066
20
260.9626139549
30
0.0000000000
10
191.6399548275
20
260.8133305937
30
0.0000000000
10
191.9027293687
20
260.6201759412
30
0.0000000000
10
192.1294009209
20
260.3917312128
30
0.0000000000
11
191.3550408066
21
260.9626139549
31
0.0000000000
11
192.1294009209
21
260.3917312128
31
0.0000000000
0
SPLINE
5
4C2
100
AcDbEntity
8
0
100
AcDbSpline
62
7
6
BYLAYER
70
0
71
3
72
8
73
4
74
2
42
0.0000001000
43
0.0000001000
44
0.0000000001
40
0.0000000000
40
0.0000000000
40
0.0000000000
40
0.0000000000
40
1.0000000000
40
1.0000000000
40
1.0000000000
40
1.0000000000
10
91.9515360623
20
199.0746476349
30
0.0000000000
10
91.9110498989
20
199.5255818779
30
0.0000000000
10
91.7823544863
20
199.9737187239
30
0.0000000000
10
91.5685026179
20
200.3777696788
30
0.0000000000
11
91.9515360623
21
199.0746476349
31
0.0000000000
11
91.5685026179
21
200.3777696788
31
0.0000000000
0
SPLINE
5
4C3
100
AcDbEntity
8
0
100
AcDbSpline
62
7
6
BYLAYER
70
0
71
3
72
8
73
4
74
2
42
0.0000001000
43
0.0000001000
44
0.0000000001
40
0.0000000000
40
0.0000000000
40
0.0000000000
40
0.0000000000
40
1.0000000000
40
1.0000000000
40
1.0000000000
40
1.0000000000
10
91.5685026179
20
200.3777696788
30
0.0000000000
10
91.4250036588
20
200.6488960987
30
0.0000000000
10
91.2431590524
20
200.9001728676
30
0.0000000000
10
91.0282817816
20
201.1176021917
30
0.0000000000
11
91.5685026179
21
200.3777696788
31
0.0000000000
11
91.0282817816
21
201.1176021917
31
0.0000000000
0
SPLINE
5
4C4
100
AcDbEntity
8
0
100
AcDbSpline
62
7
6
BYLAYER
70
0
71
3
72
8
73
4
74
2
42
0.0000001000
43
0.0000001000
44
0.0000000001
40
0.0000000000
40
0.0000000000
40
0.0000000000
40
0.0000000000
40
1.0000000000
40
1.0000000000
40
1.0000000000
40
1.0000000000
10
93.2483754546
20
193.2165576229
30
0.0000000000
10
93.0313591375
20
193.4453093379
30
0.0000000000
10
92.8472077310
20
193.7065717916
30
0.0000000000
10
92.7000908179
20
193.9866143547
30
0.0000000000
11
93.2483754546
21
193.2165576229
31
0.0000000000
11
92.7000908179
21
193.9866143547
31
0.0000000000
0
SPLINE
5
4C5
100
AcDbEntity
8
0
100
AcDbSpline
62
7
6
BYLAYER
70
0
71
3
72
8
73
4
74
2
42
0.0000001000
43
0.0000001000
44
0.0000000001
40
0.0000000000
40
0.0000000000
40
0.0000000000
40
0.0000000000
40
1.0000000000
40
1.0000000000
40
1.0000000000
40
1.0000000000
10
92.7000908179
20
193.9866143547
30
0.0000000000
10
92.4640407456
20
194.4359445229
30
0.0000000000
10
92.3233287705
20
194.9336263723
30
0.0000000000
10
92.2783861235
20
195.4341968593
30
0.0000000000
11
92.7000908179
21
193.9866143547
31
0.0000000000
11
92.2783861235
21
195.4341968593
31
0.0000000000
0
SPLINE
5
4C6
100
AcDbEntity
8
0
100
AcDbSpline
62
7
6
BYLAYER
70
0
71
3
72
8
73
4
74
2
42
0.0000001000
43
0.0000001000
44
0.0000000001
40
0.0000000000
40
0.0000000000
40
0.0000000000
40
0.0000000000
40
1.0000000000
40
1.0000000000
40
1.0000000000
40
1.0000000000
10
207.0355643128
20
123.0866878944
30
0.0000000000
10
204.0026915671
20
123.0866878944
30
0.0000000000
10
200.9698141342
20
123.0846523894
30
0.0000000000
10
197.9369513722
20
123.0768704250
30
0.0000000000
11
207.0355643128
21
123.0866878944
31
0.0000000000
11
197.9369513722
21
123.0768704250
31
0.0000000000
0
SPLINE
5
4C7
100
AcDbEntity
8
0
100
AcDbSpline
62
7
6
BYLAYER
70
0
71
3
72
8
73
4
74
2
42
0.0000001000
43
0.0000001000
44
0.0000000001
40
0.0000000000
40
0.0000000000
40
0.0000000000
40
0.0000000000
40
1.0000000000
40
1.0000000000
40
1.0000000000
40
1.0000000000
10
213.5719749733
20
122.5845594613
30
0.0000000000
10
211.4123927911
20
122.9183325828
30
0.0000000000
10
209.2207873446
20
123.0866878944
30
0.0000000000
10
207.0355643128
20
123.0866878944
30
0.0000000000
11
213.5719749733
21
122.5845594613
31
0.0000000000
11
207.0355643128
21
123.0866878944
31
0.0000000000
0
SPLINE
5
4C8
100
AcDbEntity
8
0
100
AcDbSpline
62
7
6
BYLAYER
70
0
71
3
72
8
73
4
74
2
42
0.0000001000
43
0.0000001000
44
0.0000000001
40
0.0000000000
40
0.0000000000
40
0.0000000000
40
0.0000000000
40
1.0000000000
40
1.0000000000
40
1.0000000000
40
1.0000000000
10
222.9254747555
20
121.7760368907
30
0.0000000000
10
221.0817959021
20
121.6390002975
30
0.0000000000
10
219.2105949368
20
121.7130854319
30
0.0000000000
10
217.3835232164
20
121.9954675688
30
0.0000000000
11
222.9254747555
21
121.7760368907
31
0.0000000000
11
217.3835232164
21
121.9954675688
31
0.0000000000
0
SPLINE
5
4C9
100
AcDbEntity
8
0
100
AcDbSpline
62
7
6
BYLAYER
70
0
71
3
72
8
73
4
74
2
42
0.0000001000
43
0.0000001000
44
0.0000000001
40
0.0000000000
40
0.0000000000
40
0.0000000000
40
0.0000000000
40
1.0000000000
40
1.0000000000
40
1.0000000000
40
1.0000000000
10
213.0521020413
20
119.2282031710
30
0.0000000000
10
212.8648795403
20
119.2571392491
30
0.0000000000
10
212.6773955614
20
119.2847246499
30
0.0000000000
10
212.4896796402
20
119.3109571146
30
0.0000000000
11
213.0521020413
21
119.2282031710
31
0.0000000000
11
212.4896796402
21
119.3109571146
31
0.0000000000
0
SPLINE
5
4CA
100
AcDbEntity
8
0
100
AcDbSpline
62
7
6
BYLAYER
70
0
71
3
72
8
73
4
74
2
42
0.0000001000
43
0.0000001000
44
0.0000000001
40
0.0000000000
40
0.0000000000
40
0.0000000000
40
0.0000000000
40
1.0000000000
40
1.0000000000
40
1.0000000000
40
1.0000000000
10
212.4896796402
20
119.3109571146
30
0.0000000000
10
210.6843367376
20
119.5632457511
30
0.0000000000
10
208.8575403894
20
119.6903948568
30
0.0000000000
10
207.0355643128
20
119.6903948568
30
0.0000000000
11
212.4896796402
21
119.3109571146
31
0.0000000000
11
207.0355643128
21
119.6903948568
31
0.0000000000
0
SPLINE
5
4CB
100
AcDbEntity
8
0
100
AcDbSpline
62
7
6
BYLAYER
70
0
71
3
72
8
73
4
74
2
42
0.0000001000
43
0.0000001000
44
0.0000000001
40
0.0000000000
40
0.0000000000
40
0.0000000000
40
0.0000000000
40
1.0000000000
40
1.0000000000
40
1.0000000000
40
1.0000000000
10
207.0355643128
20
119.6903948568
30
0.0000000000
10
203.9997833808
20
119.6903948568
30
0.0000000000
10
200.9640025164
20
119.6846523885
30
0.0000000000
10
197.9282315586
20
119.6768704250
30
0.0000000000
11
207.0355643128
21
119.6903948568
31
0.0000000000
11
197.9282315586
21
119.6768704250
31
0.0000000000
0
SPLINE
5
4CC
100
AcDbEntity
8
0
100
AcDbSpline
62
7
6
BYLAYER
70
0
71
3
72
9
73
5
74
3
42
0.0000001000
43
0.0000001000
44
0.0000000001
40
0.0000000000
40
0.0000000000
40
0.0000000000
40
0.0000000000
40
0.5002685001
40
1.0000000000
40
1.0000000000
40
1.0000000000
40
1.0000000000
10
223.1777676374
20
118.3891070981
30
0.0000000000
10
222.6515646393
20
118.3499955869
30
0.0000000000
10
221.5977052610
20
118.3018029615
30
0.0000000000
10
220.5411129916
20
118.3137209062
30
0.0000000000
10
220.0135871257
20
118.3346320931
30
0.0000000000
11
223.1777676374
21
118.3891070981
31
0.0000000000
11
221.5964553815
21
118.3168208686
31
0.0000000000
11
220.0135871257
21
118.3346320931
31
0.0000000000
0
SPLINE
5
4CD
100
AcDbEntity
8
0
100
AcDbSpline
62
7
6
BYLAYER
70
0
71
3
72
8
73
4
74
2
42
0.0000001000
43
0.0000001000
44
0.0000000001
40
0.0000000000
40
0.0000000000
40
0.0000000000
40
0.0000000000
40
1.0000000000
40
1.0000000000
40
1.0000000000
40
1.0000000000
10
220.0135871257
20
118.3346320931
30
0.0000000000
10
219.4866520794
20
118.3555198598
30
0.0000000000
10
218.9602025175
20
118.3913295601
30
0.0000000000
10
218.4354035791
20
118.4420052897
30
0.0000000000
11
220.0135871257
21
118.3346320931
31
0.0000000000
11
218.4354035791
21
118.4420052897
31
0.0000000000
0
SPLINE
5
4CE
100
AcDbEntity
8
0
100
AcDbSpline
62
7
6
BYLAYER
70
0
71
3
72
8
73
4
74
2
42
0.0000001000
43
0.0000001000
44
0.0000000001
40
0.0000000000
40
0.0000000000
40
0.0000000000
40
0.0000000000
40
1.0000000000
40
1.0000000000
40
1.0000000000
40
1.0000000000
10
218.4342870200
20
118.4421131298
30
0.0000000000
10
218.3093595842
20
118.4541814686
30
0.0000000000
10
218.1845257318
20
118.4670922251
30
0.0000000000
10
218.0598011803
20
118.4808446452
30
0.0000000000
11
218.4342870200
21
118.4421131298
31
0.0000000000
11
218.0598011803
21
118.4808446452
31
0.0000000000
0
SPLINE
5
4CF
100
AcDbEntity
8
0
100
AcDbSpline
62
7
6
BYLAYER
70
0
71
3
72
8
73
4
74
2
42
0.0000001000
43
0.0000001000
44
0.0000000001
40
0.0000000000
40
0.0000000000
40
0.0000000000
40
0.0000000000
40
1.0000000000
40
1.0000000000
40
1.0000000000
40
1.0000000000
10
218.0598011803
20
118.4808446452
30
0.0000000000
10
217.6597871140
20
118.5249511293
30
0.0000000000
10
217.2608973156
20
118.5777149664
30
0.0000000000
10
216.8636502844
20
118.6391112785
30
0.0000000000
11
218.0598011803
21
118.4808446452
31
0.0000000000
11
216.8636502844
21
118.6391112785
31
0.0000000000
0
SPLINE
5
4D0
100
AcDbEntity
8
0
100
AcDbSpline
62
7
6
BYLAYER
70
0
71
3
72
9
73
5
74
3
42
0.0000001000
43
0.0000001000
44
0.0000000001
40
0.0000000000
40
0.0000000000
40
0.0000000000
40
0.0000000000
40
0.5002685001
40
1.0000000000
40
1.0000000000
40
1.0000000000
40
1.0000000000
10
223.1777676374
20
118.3774361475
30
0.0000000000
10
222.6515646393
20
118.3383246362
30
0.0000000000
10
221.5977052610
20
118.2901320109
30
0.0000000000
10
220.5411129916
20
118.3020499556
30
0.0000000000
10
220.0135871257
20
118.3229611424
30
0.0000000000
11
223.1777676374
21
118.3774361475
31
0.0000000000
11
221.5964553815
21
118.3051499180
31
0.0000000000
11
220.0135871257
21
118.3229611424
31
0.0000000000
0
SPLINE
5
4D1
100
AcDbEntity
8
0
100
AcDbSpline
62
7
6
BYLAYER
70
0
71
3
72
8
73
4
74
2
42
0.0000001000
43
0.0000001000
44
0.0000000001
40
0.0000000000
40
0.0000000000
40
0.0000000000
40
0.0000000000
40
1.0000000000
40
1.0000000000
40
1.0000000000
40
1.0000000000
10
220.0135871257
20
118.3229611424
30
0.0000000000
10
219.4862783773
20
118.3438637227
30
0.0000000000
10
218.9594558021
20
118.3797094095
30
0.0000000000
10
218.4342870200
20
118.4304421791
30
0.0000000000
11
220.0135871257
21
118.3229611424
31
0.0000000000
11
218.4342870200
21
118.4304421791
31
0.0000000000
0
SPLINE
5
4D2
100
AcDbEntity
8
0
100
AcDbSpline
62
7
6
BYLAYER
70
0
71
3
72
8
73
4
74
2
42
0.0000001000
43
0.0000001000
44
0.0000000001
40
0.0000000000
40
0.0000000000
40
0.0000000000
40
0.0000000000
40
1.0000000000
40
1.0000000000
40
1.0000000000
40
1.0000000000
10
218.4342870200
20
118.4304421791
30
0.0000000000
10
218.2860859440
20
118.4447588166
30
0.0000000000
10
218.1380165681
20
118.4602609894
30
0.0000000000
10
217.9901051321
20
118.4769474386
30
0.0000000000
11
218.4342870200
21
118.4304421791
31
0.0000000000
11
217.9901051321
21
118.4769474386
31
0.0000000000
0
SPLINE
5
4D3
100
AcDbEntity
8
0
100
AcDbSpline
62
7
6
BYLAYER
70
0
71
3
72
8
73
4
74
2
42
0.0000001000
43
0.0000001000
44
0.0000000001
40
0.0000000000
40
0.0000000000
40
0.0000000000
40
0.0000000000
40
1.0000000000
40
1.0000000000
40
1.0000000000
40
1.0000000000
10
217.9901051321
20
118.4769474386
30
0.0000000000
10
217.6134515821
20
118.5194391518
30
0.0000000000
10
217.2378222026
20
118.5696103781
30
0.0000000000
10
216.8636502844
20
118.6274403279
30
0.0000000000
11
217.9901051321
21
118.4769474386
31
0.0000000000
11
216.8636502844
21
118.6274403279
31
0.0000000000
0
SPLINE
5
4D4
100
AcDbEntity
8
0
100
AcDbSpline
62
7
6
BYLAYER
70
0
71
3
72
8
73
4
74
2
42
0.0000001000
43
0.0000001000
44
0.0000000001
40
0.0000000000
40
0.0000000000
40
0.0000000000
40
0.0000000000
40
1.0000000000
40
1.0000000000
40
1.0000000000
40
1.0000000000
10
213.0521020413
20
119.2165322204
30
0.0000000000
10
212.8643654096
20
119.2455477597
30
0.0000000000
10
212.6763658619
20
119.2732051934
30
0.0000000000
10
212.4881331780
20
119.2995022438
30
0.0000000000
11
213.0521020413
21
119.2165322204
31
0.0000000000
11
212.4881331780
21
119.2995022438
31
0.0000000000
0
SPLINE
5
4D5
100
AcDbEntity
8
0
100
AcDbSpline
62
7
6
BYLAYER
70
0
71
3
72
8
73
4
74
2
42
0.0000001000
43
0.0000001000
44
0.0000000001
40
0.0000000000
40
0.0000000000
40
0.0000000000
40
0.0000000000
40
1.0000000000
40
1.0000000000
40
1.0000000000
40
1.0000000000
10
212.4881331780
20
119.2995022438
30
0.0000000000
10
210.6832935153
20
119.5516474007
30
0.0000000000
10
208.8570201544
20
119.6787239062
30
0.0000000000
10
207.0355643128
20
119.6787239062
30
0.0000000000
11
212.4881331780
21
119.2995022438
31
0.0000000000
11
207.0355643128
21
119.6787239062
31
0.0000000000
0
ENDSEC
0
SECTION
2
OBJECTS
0
DICTIONARY
5
4D6
100
AcDbDictionary
3
ACAD_GROUP
350
4D7
3
ACAD_MLINESTYLE
350
4D8
0
DICTIONARY
5
4D7
102
{ACAD_REACTORS
330
4D6
102
}
100
AcDbDictionary
0
DICTIONARY
5
4D8
102
{ACAD_REACTORS
330
4D6
102
}
100
AcDbDictionary
3
STANDARD
350
4D9
0
MLINESTYLE
5
4D9
102
{ACAD_REACTORS
330
4D8
102
}
100
AcDbMlineStyle
2
STANDARD
70
0
3

62
256
51
90.0
52
90.0
71
2
49
0.5
62
256
6
BYLAYER
49
-0.5
62
256
6
BYLAYER
0
ENDSEC
0
EOF
