999
DXF file: td-1002-948.dxf
999
Pro/ENGINEER 2003060 by Parametric Technology Corporation
0
SECTION
2
HEADER
9
$ACADVER
1
AC1014
9
$HANDSEED
5
       465
9
$EXTMAX
10
420.0000000000
20
297.0000000000
9
$EXTMIN
10
0.0000000000
20
0.0000000000
9
$LIMMIN
10
0.0000000000
20
0.0000000000
9
$LIMMAX
10
420.0000000000
20
297.0000000000
9
$VIEWCTR
10
210.0000000000
20
148.5000000000
9
$VIEWSIZE
40
297.0000000000
9
$CLAYER
8
0
9
$LTSCALE
40
23.1000000000
9
$CELTYPE
6
BYLAYER
9
$DIMSCALE
40
1
9
$DIMASZ
40
5.0000000000
9
$DIMEXO
40
2.6250000000
9
$DIMDLI
40
15.9600000000
9
$DIMEXE
40
7.5600000000
9
$DIMCEN
40
3.7800000000
9
$DIMLFAC
40
1.0000000000
9
$DIMTXT
40
4.0000000000
9
$DIMTOL
70
1
9
$DIMLIM
70
0
9
$DIMTFAC
40
1.0000000000
9
$DIMTP
40
0.0100000000
9
$DIMTM
40
0.0100000000
0
ENDSEC
0
SECTION
2
CLASSES
0
ENDSEC
0
SECTION
2
TABLES
0
TABLE
2
VPORT
5
8
100
AcDbSymbolTable
70
2
0
VPORT
5
1F4
100
AcDbSymbolTableRecord
100
AcDbViewportTableRecord
2
*ACTIVE
70
0
10
0.0
20
0.0
11
1.0
21
1.0
12
210.0000000000
22
148.5000000000
13
0.0
23
0.0
14
1.0
24
1.0
15
0.0
25
0.0
16
0.0
26
0.0
36
1.0
17
0.0
27
0.0
37
0.0
40
297.0000000000
41
1.4141414141
42
50.0
43
0.0
44
0.0
50
0.0
51
0.0
71
0
72
100
73
1
74
1
75
0
76
0
77
0
78
0
0
ENDTAB
0
TABLE
2
LTYPE
5
5
100
AcDbSymbolTable
70
6
0
LTYPE
5
14
100
AcDbSymbolTableRecord
100
AcDbLinetypeTableRecord
2
BYBLOCK
70
0
3

72
65
73
0
40
0.0
0
LTYPE
5
15
100
AcDbSymbolTableRecord
100
AcDbLinetypeTableRecord
2
BYLAYER
70
0
3

72
65
73
0
40
0.0
0
LTYPE
5
16
100
AcDbSymbolTableRecord
100
AcDbLinetypeTableRecord
2
CONTINUOUS
70
64
3
Solid line
72
65
73
0
40
0
0
LTYPE
5
1F5
100
AcDbSymbolTableRecord
100
AcDbLinetypeTableRecord
2
CENTER
70
64
3
____ _ ____ _ ____ _ ____ _ ____ _ ____ _ ____
72
65
73
4
40
0.6
49
0.375
74
0
49
-0.075
74
0
49
0.075
74
0
49
-0.075
74
0
0
LTYPE
5
1F6
100
AcDbSymbolTableRecord
100
AcDbLinetypeTableRecord
2
HIDDEN
70
64
3
- - - - - - - - - - - - - - - - - - - -
72
65
73
2
40
0.2
49
0.1
74
0
49
-0.1
74
0
0
LTYPE
5
1F7
100
AcDbSymbolTableRecord
100
AcDbLinetypeTableRecord
2
PHANTOM
70
64
3
_____ _ _ _____ _ _ _____ _ _ _____
72
65
73
6
40
0.8
49
0.45
74
0
49
-0.05
74
0
49
0.1
74
0
49
-0.05
74
0
49
0.1
74
0
49
-0.05
74
0
0
LTYPE
5
1F8
100
AcDbSymbolTableRecord
100
AcDbLinetypeTableRecord
2
DOT
70
64
3
. . . . . . . . . . . . . . . . . . . .
72
65
73
2
40
0.2
49
0.1
74
0
49
-0.1
74
0
0
LTYPE
5
1F9
100
AcDbSymbolTableRecord
100
AcDbLinetypeTableRecord
2
DASHED
70
64
3
- - - - - - - - - - - - - - - - - - - -
72
65
73
2
40
0.2
49
0.1
74
0
49
-0.1
74
0
0
ENDTAB
0
TABLE
2
LAYER
5
2
100
AcDbSymbolTable
70
36
0
LAYER
5
10
100
AcDbSymbolTableRecord
100
AcDbLayerTableRecord
2
0
70
0
62
7
6
CONTINUOUS
0
LAYER
5
1FA
100
AcDbSymbolTableRecord
100
AcDbLayerTableRecord
2
DEFAULT_1
70
0
62
7
6
CENTER
0
LAYER
5
1FB
100
AcDbSymbolTableRecord
100
AcDbLayerTableRecord
2
DEFAULT_2
70
0
62
7
6
HIDDEN
0
LAYER
5
1FC
100
AcDbSymbolTableRecord
100
AcDbLayerTableRecord
2
DEFAULT_3
70
0
62
7
6
PHANTOM
0
LAYER
5
1FD
100
AcDbSymbolTableRecord
100
AcDbLayerTableRecord
2
AXIS
70
0
62
7
6
CONTINUOUS
0
LAYER
5
1FE
100
AcDbSymbolTableRecord
100
AcDbLayerTableRecord
2
CSYS
70
0
62
7
6
CONTINUOUS
0
LAYER
5
1FF
100
AcDbSymbolTableRecord
100
AcDbLayerTableRecord
2
CURVES
70
0
62
7
6
CONTINUOUS
0
LAYER
5
200
100
AcDbSymbolTableRecord
100
AcDbLayerTableRecord
2
DTMS
70
0
62
7
6
CONTINUOUS
0
LAYER
5
201
100
AcDbSymbolTableRecord
100
AcDbLayerTableRecord
2
GEOM
70
0
62
7
6
CONTINUOUS
0
LAYER
5
202
100
AcDbSymbolTableRecord
100
AcDbLayerTableRecord
2
PLANES
70
0
62
7
6
CONTINUOUS
0
LAYER
5
203
100
AcDbSymbolTableRecord
100
AcDbLayerTableRecord
2
POINTS
70
0
62
7
6
CONTINUOUS
0
LAYER
5
204
100
AcDbSymbolTableRecord
100
AcDbLayerTableRecord
2
SKELETON
70
0
62
7
6
CONTINUOUS
0
ENDTAB
0
TABLE
2
STYLE
5
3
100
AcDbSymbolTable
70
1
0
STYLE
5
11
100
AcDbSymbolTableRecord
100
AcDbTextStyleTableRecord
2
STANDARD
70
0
40
0.0
41
0.8000000000
50
0.0
71
0
42
0.2
3
txt
4

0
STYLE
5
205
100
AcDbSymbolTableRecord
100
AcDbTextStyleTableRecord
2
TEXTSTYLE_1
70
0
40
0.0
41
0.8000000000
50
0.0
71
0
42
0.2
3
txt
4

0
STYLE
5
206
100
AcDbSymbolTableRecord
100
AcDbTextStyleTableRecord
2
TEXTSTYLE_2
70
0
40
0.0
41
0.8000000000
50
0.0
71
0
42
0.2
3
cgtime.ttf
4

0
ENDTAB
0
TABLE
2
VIEW
5
6
100
AcDbSymbolTable
70
0
0
ENDTAB
0
TABLE
2
UCS
5
7
100
AcDbSymbolTable
70
0
0
ENDTAB
0
TABLE
2
APPID
5
9
100
AcDbSymbolTable
70
1
0
APPID
5
207
100
AcDbSymbolTableRecord
100
AcDbRegAppTableRecord
2
ACAD
70
0
0
ENDTAB
0
TABLE
2
DIMSTYLE
5
A
100
AcDbSymbolTable
70
1
0
DIMSTYLE
105
208
100
AcDbSymbolTableRecord
100
AcDbDimStyleTableRecord
2
STANDARD
70
0
3

4

5

6

7

40
1.0
41
5.0000000000
42
0.0625
43
0.38
44
0.18
45
0.0
46
0.0
47
0.0100000000
48
0.0100000000
140
4.0000000000
141
0.09
142
0.0
143
25.4
144
1.0000000000
145
0.0
146
1.0000000000
147
0.09
71
1
72
0
73
0
74
0
75
0
76
0
77
1
78
8
170
0
171
2
172
0
173
0
174
0
175
0
176
0
177
0
178
0
270
2
271
2
272
2
273
2
274
2
340
11
275
0
280
0
281
0
282
0
283
1
284
8
285
0
286
0
287
3
288
0
0
DIMSTYLE
105
209
100
AcDbSymbolTableRecord
100
AcDbDimStyleTableRecord
2
DIMSTYLE_1
70
0
3

4

5

6

7

40
1.0
41
5.0000000000
42
0.0625
43
0.38
44
0.18
45
0.0
46
0.0
47
0.2000000000
48
0.2000000000
140
4.0000000000
141
0.09
142
0.0
143
25.4
144
1.0000000000
145
0.0
146
1.0000000000
147
0.09
71
0
72
0
73
0
74
0
75
0
76
0
77
1
78
8
170
0
171
2
172
0
173
0
174
0
175
0
176
0
177
0
178
0
270
2
271
2
272
2
273
2
274
2
340
11
275
0
280
0
281
0
282
0
283
1
284
8
285
0
286
0
287
3
288
0
0
DIMSTYLE
105
20A
100
AcDbSymbolTableRecord
100
AcDbDimStyleTableRecord
2
DIMSTYLE_2
70
0
3

4

5

6

7

40
1.0
41
5.0000000000
42
0.0625
43
0.38
44
0.18
45
0.0
46
0.0
47
0.3000000000
48
0.3000000000
140
4.0000000000
141
0.09
142
0.0
143
25.4
144
1.0000000000
145
0.0
146
1.0000000000
147
0.09
71
0
72
0
73
0
74
0
75
0
76
0
77
1
78
8
170
0
171
2
172
0
173
0
174
0
175
0
176
0
177
0
178
0
270
2
271
2
272
2
273
2
274
2
340
11
275
0
280
0
281
0
282
0
283
1
284
8
285
0
286
0
287
3
288
0
0
DIMSTYLE
105
20B
100
AcDbSymbolTableRecord
100
AcDbDimStyleTableRecord
2
DIMSTYLE_3
70
0
3

4

5

6

7

40
1.0
41
5.0000000000
42
0.0625
43
0.38
44
0.18
45
0.0
46
0.0
47
0.5000000000
48
0.5000000000
140
4.0000000000
141
0.09
142
0.0
143
25.4
144
1.0000000000
145
0.0
146
1.0000000000
147
0.09
71
0
72
0
73
0
74
0
75
0
76
0
77
1
78
8
170
0
171
2
172
0
173
0
174
0
175
0
176
0
177
0
178
0
270
2
271
1
272
1
273
2
274
2
340
11
275
0
280
0
281
0
282
0
283
1
284
8
285
0
286
0
287
3
288
0
0
ENDTAB
0
TABLE
2
BLOCK_RECORD
5
1
100
AcDbSymbolTable
70
0
0
BLOCK_RECORD
5
1B
100
AcDbSymbolTableRecord
100
AcDbBlockTableRecord
2
*MODEL_SPACE
0
BLOCK_RECORD
5
1C
100
AcDbSymbolTableRecord
100
AcDbBlockTableRecord
2
*PAPER_SPACE
0
BLOCK_RECORD
5
20C
100
AcDbSymbolTableRecord
100
AcDbBlockTableRecord
2
COPYRIGHT_BL0
0
BLOCK_RECORD
5
20D
100
AcDbSymbolTableRecord
100
AcDbBlockTableRecord
2
MICRO_U_BL1
0
BLOCK_RECORD
5
20E
100
AcDbSymbolTableRecord
100
AcDbBlockTableRecord
2
PROJECTION_BL2
0
BLOCK_RECORD
5
20F
100
AcDbSymbolTableRecord
100
AcDbBlockTableRecord
2
SURFACE_FINISH_BL3
0
BLOCK_RECORD
5
210
100
AcDbSymbolTableRecord
100
AcDbBlockTableRecord
2
*D0
0
BLOCK_RECORD
5
211
100
AcDbSymbolTableRecord
100
AcDbBlockTableRecord
2
*D1
0
BLOCK_RECORD
5
212
100
AcDbSymbolTableRecord
100
AcDbBlockTableRecord
2
*D2
0
BLOCK_RECORD
5
213
100
AcDbSymbolTableRecord
100
AcDbBlockTableRecord
2
*D3
0
BLOCK_RECORD
5
214
100
AcDbSymbolTableRecord
100
AcDbBlockTableRecord
2
*D4
0
BLOCK_RECORD
5
215
100
AcDbSymbolTableRecord
100
AcDbBlockTableRecord
2
COPYRIGHT_BL4
0
BLOCK_RECORD
5
216
100
AcDbSymbolTableRecord
100
AcDbBlockTableRecord
2
MICRO_U_BL5
0
BLOCK_RECORD
5
217
100
AcDbSymbolTableRecord
100
AcDbBlockTableRecord
2
SURFACE_FINISH_BL6
0
BLOCK_RECORD
5
218
100
AcDbSymbolTableRecord
100
AcDbBlockTableRecord
2
PROJECTION_BL7
0
ENDTAB
0
ENDSEC
0
SECTION
2
BLOCKS
0
BLOCK
5
1E
100
AcDbEntity
8
0
100
AcDbBlockBegin
2
*MODEL_SPACE
70
0
10
0.0
20
0.0
30
0.0
3
*MODEL_SPACE
1

0
ENDBLK
5
1F
100
AcDbEntity
8
0
100
AcDbBlockEnd
0
BLOCK
5
20
100
AcDbEntity
8
0
100
AcDbBlockBegin
2
*PAPER_SPACE
70
0
10
0.0
20
0.0
30
0.0
3
*PAPER_SPACE
1

0
ENDBLK
5
21
100
AcDbEntity
8
0
100
AcDbBlockEnd
0
BLOCK
5
219
100
AcDbEntity
8
0
100
AcDbBlockBegin
62
7
6
BYLAYER
2
COPYRIGHT_BL0
70
64
10
0.0000000000
20
0.0000000000
3
COPYRIGHT_BL0
1

0
TEXT
5
21A
100
AcDbEntity
8
0
100
AcDbText
62
7
6
BYLAYER
10
409.9593803245
20
9.9568590072
7
TEXTSTYLE_1
40
0.1000000000
1
C
41
0.8000000000
72
0
100
AcDbText
0
CIRCLE
5
21B
100
AcDbEntity
8
0
100
AcDbCircle
62
7
6
BYLAYER
10
409.9943527832
20
10.0069663115
40
0.0753936874
0
ENDBLK
5
21C
100
AcDbEntity
8
0
100
AcDbBlockEnd
0
BLOCK
5
21D
100
AcDbEntity
8
0
100
AcDbBlockBegin
62
7
6
BYLAYER
2
MICRO_U_BL1
70
64
10
0.0000000000
20
0.0000000000
3
MICRO_U_BL1
1

0
TEXT
5
21E
100
AcDbEntity
8
0
100
AcDbText
62
7
6
BYLAYER
10
409.9173172813
20
9.9658183152
7
STANDARD
40
0.1000000000
1
um
41
0.8000000000
72
0
100
AcDbText
0
ARC
5
21F
100
AcDbEntity
8
0
100
AcDbCircle
62
7
6
BYLAYER
10
409.8795565990
20
9.9804558390
40
0.0627552936
100
AcDbArc
50
303.7730668774
51
1.5957171757
0
ENDBLK
5
220
100
AcDbEntity
8
0
100
AcDbBlockEnd
0
BLOCK
5
221
100
AcDbEntity
8
0
100
AcDbBlockBegin
62
7
6
BYLAYER
2
PROJECTION_BL2
70
64
10
0.0000000000
20
0.0000000000
3
PROJECTION_BL2
1

0
LINE
5
222
100
AcDbEntity
8
0
100
AcDbLine
62
7
6
BYLAYER
10
409.6178469936
20
9.9332236616
11
409.6178469936
21
10.0582236616
0
LINE
5
223
100
AcDbEntity
8
0
100
AcDbLine
62
7
6
BYLAYER
10
409.6178469936
20
10.0582236616
11
409.7928469936
21
10.1207236616
0
LINE
5
224
100
AcDbEntity
8
0
100
AcDbLine
62
7
6
BYLAYER
10
409.7928469936
20
10.1207236616
11
409.7928469936
21
9.8707236616
0
LINE
5
225
100
AcDbEntity
8
0
100
AcDbLine
62
7
6
BYLAYER
10
409.7928469936
20
9.8707236616
11
409.6178469936
21
9.9332236616
0
ARC
5
226
100
AcDbEntity
8
0
100
AcDbCircle
62
7
6
BYLAYER
10
409.2678469936
20
9.9957236616
40
0.0625000000
100
AcDbArc
50
180.0000000000
51
360.0000000000
0
ARC
5
227
100
AcDbEntity
8
0
100
AcDbCircle
62
7
6
BYLAYER
10
409.2678469936
20
9.9957236616
40
0.0625000000
100
AcDbArc
50
0.0000000000
51
180.0000000000
0
ARC
5
228
100
AcDbEntity
8
0
100
AcDbCircle
62
7
6
BYLAYER
10
409.2678469936
20
9.9957236616
40
0.1250000000
100
AcDbArc
50
180.0000000000
51
360.0000000000
0
ARC
5
229
100
AcDbEntity
8
0
100
AcDbCircle
62
7
6
BYLAYER
10
409.2678469936
20
9.9957236616
40
0.1250000000
100
AcDbArc
50
0.0000000000
51
180.0000000000
0
LINE
5
22A
100
AcDbEntity
8
0
100
AcDbLine
62
7
6
BYLAYER
10
409.0671219936
20
9.9957236616
11
409.4456219936
21
9.9957236616
0
LINE
5
22B
100
AcDbEntity
8
0
100
AcDbLine
62
7
6
BYLAYER
10
409.5241469936
20
9.9957236616
11
409.8669219936
21
9.9957236616
0
LINE
5
22C
100
AcDbEntity
8
0
100
AcDbLine
62
7
6
BYLAYER
10
409.2678469936
20
10.1398736616
11
409.2678469936
21
9.8515736616
0
TEXT
5
22D
100
AcDbEntity
8
0
100
AcDbText
62
7
6
BYLAYER
10
409.2283663134
20
9.9568432128
7
STANDARD
40
0.1000000000
1
l
41
0.8000000000
72
0
100
AcDbText
0
ENDBLK
5
22E
100
AcDbEntity
8
0
100
AcDbBlockEnd
0
BLOCK
5
22F
100
AcDbEntity
8
0
100
AcDbBlockBegin
62
7
6
BYLAYER
2
SURFACE_FINISH_BL3
70
64
10
0.0000000000
20
0.0000000000
3
SURFACE_FINISH_BL3
1

0
LINE
5
230
100
AcDbEntity
8
0
100
AcDbLine
62
7
6
BYLAYER
10
409.9768652881
20
9.9666906703
11
410.0571314064
21
10.1057156653
0
LINE
5
231
100
AcDbEntity
8
0
100
AcDbLine
62
7
6
BYLAYER
10
409.9768652881
20
9.9666906703
11
409.9405459599
21
10.0295975921
0
LINE
5
232
100
AcDbEntity
8
0
100
AcDbLine
62
7
6
BYLAYER
10
409.9405459599
20
10.0295975921
11
410.0131846164
21
10.0295975921
0
TEXT
5
233
100
AcDbEntity
8
0
100
AcDbText
62
7
6
BYLAYER
10
409.9369531437
20
9.9795701528
7
STANDARD
40
0.1000000000
1
-
41
0.8000000000
72
0
100
AcDbText
0
ENDBLK
5
234
100
AcDbEntity
8
0
100
AcDbBlockEnd
0
BLOCK
5
235
100
AcDbEntity
8
0
100
AcDbBlockBegin
62
7
6
BYLAYER
2
*D0
70
65
10
0.0000000000
20
0.0000000000
3
*D0
1

0
TEXT
5
236
100
AcDbEntity
8
0
100
AcDbText
62
7
6
BYLAYER
10
141.1099440854
20
135.2832841645
7
STANDARD
40
4.0000000000
1
27.8
50
90.0000000000
41
0.8000000000
72
0
100
AcDbText
0
LINE
5
237
100
AcDbEntity
8
0
100
AcDbLine
62
7
6
BYLAYER
10
152.4019407781
20
154.5415130378
11
139.1099440854
21
154.5415130378
0
LINE
5
238
100
AcDbEntity
8
0
100
AcDbLine
62
7
6
BYLAYER
10
152.4019407781
20
126.7415130378
11
139.1099440854
21
126.7415130378
0
LINE
5
239
100
AcDbEntity
8
0
100
AcDbLine
62
7
6
BYLAYER
10
142.1099440854
20
154.5415130378
11
142.1099440854
21
140.6415130378
0
LINE
5
23A
100
AcDbEntity
8
0
100
AcDbLine
62
7
6
BYLAYER
10
142.1099440854
20
126.7415130378
11
142.1099440854
21
140.6415130378
0
SOLID
5
23B
100
AcDbEntity
8
0
100
AcDbTrace
62
7
6
BYLAYER
10
142.9099440854
20
149.5415130378
11
142.1099440854
21
154.5415130378
12
141.3099440854
22
149.5415130378
13
141.3099440854
23
149.5415130378
0
SOLID
5
23C
100
AcDbEntity
8
0
100
AcDbTrace
62
7
6
BYLAYER
10
141.3099440854
20
131.7415130378
11
142.1099440854
21
126.7415130378
12
142.9099440854
22
131.7415130378
13
142.9099440854
23
131.7415130378
0
ENDBLK
5
23D
100
AcDbEntity
8
0
100
AcDbBlockEnd
0
BLOCK
5
23E
100
AcDbEntity
8
0
100
AcDbBlockBegin
62
7
6
BYLAYER
2
*D1
70
65
10
0.0000000000
20
0.0000000000
3
*D1
1

0
TEXT
5
23F
100
AcDbEntity
8
0
100
AcDbText
62
7
6
BYLAYER
10
166.9415435519
20
172.9630734816
7
STANDARD
40
4.0000000000
1
32
41
0.8000000000
72
0
100
AcDbText
0
LINE
5
240
100
AcDbEntity
8
0
100
AcDbLine
62
7
6
BYLAYER
10
186.4019407781
20
156.5415130378
11
186.4019407781
21
174.9630734816
0
LINE
5
241
100
AcDbEntity
8
0
100
AcDbLine
62
7
6
BYLAYER
10
154.4019407781
20
156.5415130378
11
154.4019407781
21
174.9630734816
0
LINE
5
242
100
AcDbEntity
8
0
100
AcDbLine
62
7
6
BYLAYER
10
186.4019407781
20
171.9630734816
11
170.4019407781
21
171.9630734816
0
LINE
5
243
100
AcDbEntity
8
0
100
AcDbLine
62
7
6
BYLAYER
10
154.4019407781
20
171.9630734816
11
170.4019407781
21
171.9630734816
0
SOLID
5
244
100
AcDbEntity
8
0
100
AcDbTrace
62
7
6
BYLAYER
10
181.4019407781
20
171.1630734816
11
186.4019407781
21
171.9630734816
12
181.4019407781
22
172.7630734816
13
181.4019407781
23
172.7630734816
0
SOLID
5
245
100
AcDbEntity
8
0
100
AcDbTrace
62
7
6
BYLAYER
10
159.4019407781
20
172.7630734816
11
154.4019407781
21
171.9630734816
12
159.4019407781
22
171.1630734816
13
159.4019407781
23
171.1630734816
0
ENDBLK
5
246
100
AcDbEntity
8
0
100
AcDbBlockEnd
0
BLOCK
5
247
100
AcDbEntity
8
0
100
AcDbBlockBegin
62
7
6
BYLAYER
2
*D2
70
65
10
0.0000000000
20
0.0000000000
3
*D2
1

0
TEXT
5
248
100
AcDbEntity
8
0
100
AcDbText
62
7
6
BYLAYER
10
284.9465540728
20
156.1064933315
7
STANDARD
40
4.0000000000
1
38.9%%d
50
-72.6356211858
41
0.7733333333
72
0
100
AcDbText
0
LINE
5
249
100
AcDbEntity
8
0
100
AcDbLine
62
7
6
BYLAYER
10
256.6202467035
20
138.4884054230
11
285.8086866424
21
138.0128167786
0
LINE
5
24A
100
AcDbEntity
8
0
100
AcDbLine
62
7
6
BYLAYER
10
272.2995596141
20
152.2994356807
11
279.2232872657
21
157.6955530575
0
ARC
5
24B
100
AcDbEntity
8
0
100
AcDbCircle
62
7
6
BYLAYER
10
254.6205121364
20
138.5209885639
40
28.1923142390
100
AcDbArc
50
359.0665204746
51
18.4990783503
0
ARC
5
24C
100
AcDbEntity
8
0
100
AcDbCircle
62
7
6
BYLAYER
10
254.6205121364
20
138.5209885639
40
28.1923142390
100
AcDbArc
50
18.4990783503
51
37.9316362261
0
SOLID
5
24D
100
AcDbEntity
8
0
100
AcDbTrace
62
7
6
BYLAYER
10
282.8090847917
20
138.0616914900
11
281.6495738431
21
142.9907415364
12
283.2453840766
22
143.1064554026
13
283.2453840766
23
143.1064554026
0
SOLID
5
24E
100
AcDbEntity
8
0
100
AcDbTrace
62
7
6
BYLAYER
10
276.8570529163
20
155.8513906449
11
280.2413905575
21
152.0849256270
12
278.8972535714
22
151.2169994996
13
278.8972535714
23
151.2169994996
0
ENDBLK
5
24F
100
AcDbEntity
8
0
100
AcDbBlockEnd
0
BLOCK
5
250
100
AcDbEntity
8
0
100
AcDbBlockBegin
62
7
6
BYLAYER
2
*D3
70
65
10
0.0000000000
20
0.0000000000
3
*D3
1

0
TEXT
5
251
100
AcDbEntity
8
0
100
AcDbText
62
7
6
BYLAYER
10
327.4620091851
20
192.9197181836
7
STANDARD
40
4.0000000000
1
46.4%%d
50
-74.5724413197
41
0.7733333333
72
0
100
AcDbText
0
LINE
5
252
100
AcDbEntity
8
0
100
AcDbLine
62
7
6
BYLAYER
10
320.0064704316
20
173.6057719112
11
327.3686838158
21
172.5124753909
0
LINE
5
253
100
AcDbEntity
8
0
100
AcDbLine
62
7
6
BYLAYER
10
299.8292783910
20
178.0658068831
11
321.4694343548
21
194.9314069627
0
ARC
5
254
100
AcDbEntity
8
0
100
AcDbCircle
62
7
6
BYLAYER
10
298.2517888248
20
176.8363652747
40
26.4361953664
100
AcDbArc
50
351.5532456757
51
14.7424409509
0
ARC
5
255
100
AcDbEntity
8
0
100
AcDbCircle
62
7
6
BYLAYER
10
298.2517888248
20
176.8363652747
40
26.4361953664
100
AcDbArc
50
14.7424409509
51
37.9316362261
0
SOLID
5
256
100
AcDbEntity
8
0
100
AcDbTrace
62
7
6
BYLAYER
10
324.4012254237
20
172.9531461192
11
323.8665014385
21
177.9884286594
12
325.4642669230
22
177.9038978572
13
325.4642669230
23
177.9038978572
0
SOLID
5
257
100
AcDbEntity
8
0
100
AcDbTrace
62
7
6
BYLAYER
10
319.1032000055
20
193.0872445501
11
322.4652920777
21
189.3009090000
12
321.1160657808
22
188.4409157444
13
321.1160657808
23
188.4409157444
0
ENDBLK
5
258
100
AcDbEntity
8
0
100
AcDbBlockEnd
0
BLOCK
5
259
100
AcDbEntity
8
0
100
AcDbBlockBegin
62
7
6
BYLAYER
2
*D4
70
65
10
0.0000000000
20
0.0000000000
3
*D4
1

0
TEXT
5
25A
100
AcDbEntity
8
0
100
AcDbText
62
7
6
BYLAYER
10
369.4806089578
20
202.8695975307
7
STANDARD
40
4.0000000000
1
58.5%%d
50
-67.4269347931
41
0.7733333333
72
0
100
AcDbText
0
LINE
5
25B
100
AcDbEntity
8
0
100
AcDbLine
62
7
6
BYLAYER
10
364.8895569805
20
183.4628583811
11
371.0292189585
21
182.3879179579
0
LINE
5
25C
100
AcDbEntity
8
0
100
AcDbLine
62
7
6
BYLAYER
10
350.7693566689
20
187.6670607908
11
363.9331379789
21
202.6049596678
0
ARC
5
25D
100
AcDbEntity
8
0
100
AcDbCircle
62
7
6
BYLAYER
10
349.4470578486
20
186.1665522670
40
18.9104485443
100
AcDbArc
50
350.0692310000
51
19.3408193212
0
ARC
5
25E
100
AcDbEntity
8
0
100
AcDbCircle
62
7
6
BYLAYER
10
349.4470578486
20
186.1665522670
40
18.9104485443
100
AcDbArc
50
19.3408193212
51
48.6124076424
0
SOLID
5
25F
100
AcDbEntity
8
0
100
AcDbTrace
62
7
6
BYLAYER
10
368.0741683944
20
182.9052922555
11
367.4803996279
21
187.9339539713
12
369.0790469660
22
187.8681764025
13
369.0790469660
23
187.8681764025
0
SOLID
5
260
100
AcDbEntity
8
0
100
AcDbTrace
62
7
6
BYLAYER
10
361.9496897486
20
200.3541968820
11
365.8358943308
21
197.1080585693
12
364.6290515708
22
196.0575679446
13
364.6290515708
23
196.0575679446
0
ENDBLK
5
261
100
AcDbEntity
8
0
100
AcDbBlockEnd
0
BLOCK
5
262
100
AcDbEntity
8
0
100
AcDbBlockBegin
62
7
6
BYLAYER
2
COPYRIGHT_BL4
70
64
10
0.0000000000
20
0.0000000000
3
COPYRIGHT_BL4
1

0
CIRCLE
5
263
100
AcDbEntity
8
0
100
AcDbCircle
62
7
6
BYLAYER
10
368.4166666667
20
59.2552477502
40
2.6387790604
0
ENDBLK
5
264
100
AcDbEntity
8
0
100
AcDbBlockEnd
0
BLOCK
5
265
100
AcDbEntity
8
0
100
AcDbBlockBegin
62
7
6
BYLAYER
2
MICRO_U_BL5
70
64
10
0.0000000000
20
0.0000000000
3
MICRO_U_BL5
1

0
ARC
5
266
100
AcDbEntity
8
0
100
AcDbCircle
62
7
6
BYLAYER
10
115.8029987548
20
24.2743672858
40
1.1407767248
100
AcDbArc
50
303.7730668774
51
1.5957171757
0
ENDBLK
5
267
100
AcDbEntity
8
0
100
AcDbBlockEnd
0
BLOCK
5
268
100
AcDbEntity
8
0
100
AcDbBlockBegin
62
7
6
BYLAYER
2
SURFACE_FINISH_BL6
70
64
10
0.0000000000
20
0.0000000000
3
SURFACE_FINISH_BL6
1

0
LINE
5
269
100
AcDbEntity
8
0
100
AcDbLine
62
7
6
BYLAYER
10
97.0309676193
20
12.0901401771
11
99.8402817594
21
16.9560150021
0
LINE
5
26A
100
AcDbEntity
8
0
100
AcDbLine
62
7
6
BYLAYER
10
97.0309676193
20
12.0901401771
11
95.7597911309
21
14.2918824404
0
LINE
5
26B
100
AcDbEntity
8
0
100
AcDbLine
62
7
6
BYLAYER
10
95.7597911309
20
14.2918824404
11
98.3021441078
21
14.2918824404
0
ENDBLK
5
26C
100
AcDbEntity
8
0
100
AcDbBlockEnd
0
BLOCK
5
26D
100
AcDbEntity
8
0
100
AcDbBlockBegin
62
7
6
BYLAYER
2
PROJECTION_BL7
70
64
10
0.0000000000
20
0.0000000000
3
PROJECTION_BL7
1

0
LINE
5
26E
100
AcDbEntity
8
0
100
AcDbLine
62
7
6
BYLAYER
10
304.4288585399
20
278.0624994947
11
304.4288585399
21
282.4374994947
0
LINE
5
26F
100
AcDbEntity
8
0
100
AcDbLine
62
7
6
BYLAYER
10
304.4288585399
20
282.4374994947
11
310.5538585399
21
284.6249994947
0
LINE
5
270
100
AcDbEntity
8
0
100
AcDbLine
62
7
6
BYLAYER
10
310.5538585399
20
284.6249994947
11
310.5538585399
21
275.8749994947
0
LINE
5
271
100
AcDbEntity
8
0
100
AcDbLine
62
7
6
BYLAYER
10
310.5538585399
20
275.8749994947
11
304.4288585399
21
278.0624994947
0
ARC
5
272
100
AcDbEntity
8
0
100
AcDbCircle
62
7
6
BYLAYER
10
292.1788585399
20
280.2499994947
40
2.1875000000
100
AcDbArc
50
180.0000000000
51
360.0000000000
0
ARC
5
273
100
AcDbEntity
8
0
100
AcDbCircle
62
7
6
BYLAYER
10
292.1788585399
20
280.2499994947
40
2.1875000000
100
AcDbArc
50
0.0000000000
51
180.0000000000
0
ARC
5
274
100
AcDbEntity
8
0
100
AcDbCircle
62
7
6
BYLAYER
10
292.1788585399
20
280.2499994947
40
4.3750000000
100
AcDbArc
50
180.0000000000
51
360.0000000000
0
ARC
5
275
100
AcDbEntity
8
0
100
AcDbCircle
62
7
6
BYLAYER
10
292.1788585399
20
280.2499994947
40
4.3750000000
100
AcDbArc
50
0.0000000000
51
180.0000000000
0
LINE
5
276
100
AcDbEntity
8
0
100
AcDbLine
62
7
6
BYLAYER
10
285.1534835399
20
280.2499994947
11
298.4009835399
21
280.2499994947
0
LINE
5
277
100
AcDbEntity
8
0
100
AcDbLine
62
7
6
BYLAYER
10
301.1493585399
20
280.2499994947
11
313.1464835399
21
280.2499994947
0
LINE
5
278
100
AcDbEntity
8
0
100
AcDbLine
62
7
6
BYLAYER
10
292.1788585399
20
285.2952494947
11
292.1788585399
21
275.2047494947
0
ENDBLK
5
279
100
AcDbEntity
8
0
100
AcDbBlockEnd
0
ENDSEC
0
SECTION
2
ENTITIES
0
INSERT
5
27A
100
AcDbEntity
8
0
100
AcDbBlockReference
62
7
6
BYLAYER
2
COPYRIGHT_BL0
10
0.0000000000
20
0.0000000000
0
INSERT
5
27B
100
AcDbEntity
8
0
100
AcDbBlockReference
62
7
6
BYLAYER
2
MICRO_U_BL1
10
0.0000000000
20
0.0000000000
0
INSERT
5
27C
100
AcDbEntity
8
0
100
AcDbBlockReference
62
7
6
BYLAYER
2
PROJECTION_BL2
10
0.0000000000
20
0.0000000000
0
INSERT
5
27D
100
AcDbEntity
8
0
100
AcDbBlockReference
62
7
6
BYLAYER
2
SURFACE_FINISH_BL3
10
0.0000000000
20
0.0000000000
0
DIMENSION
5
27E
100
AcDbEntity
8
0
100
AcDbDimension
62
7
6
BYLAYER
2
*D0
10
142.1099440854
20
126.7415130378
11
139.1099440854
21
141.6832841645
70
160
3
DIMSTYLE_1
100
AcDbAlignedDimension
13
152.4019407781
23
154.5415130378
14
152.4019407781
24
126.7415130378
50
270.000000
100
AcDbRotatedDimension
0
DIMENSION
5
27F
100
AcDbEntity
8
0
100
AcDbDimension
62
7
6
BYLAYER
2
*D1
10
154.4019407781
20
171.9630734816
11
170.1415435519
21
174.9630734816
70
160
3
DIMSTYLE_2
100
AcDbAlignedDimension
13
186.4019407781
23
156.5415130378
14
154.4019407781
24
156.5415130378
50
180.000000
100
AcDbRotatedDimension
0
DIMENSION
5
280
100
AcDbEntity
8
0
100
AcDbDimension
62
7
6
BYLAYER
2
*D2
10
272.2995596141
20
152.2994356807
11
289.1634000118
21
149.3224934220
70
162
3
DIMSTYLE_3
100
AcDb2LineAngularDimension
13
256.6202467035
23
138.4884054230
14
285.8086866424
24
138.0128167786
15
279.2232872657
25
157.6955530575
16
281.3560945173
26
147.4661110841
0
DIMENSION
5
281
100
AcDbEntity
8
0
100
AcDbDimension
62
7
6
BYLAYER
2
*D3
10
299.8292783910
20
178.0658068831
11
331.4471641496
21
185.9970753102
70
162
3
DIMSTYLE_3
100
AcDb2LineAngularDimension
13
320.0064704316
23
173.6057719112
14
327.3686838158
24
172.5124753909
15
321.4694343548
25
194.9314069627
16
323.8176919558
26
183.5636992595
0
DIMENSION
5
282
100
AcDbEntity
8
0
100
AcDbDimension
62
7
6
BYLAYER
2
*D4
10
350.7693566689
20
187.6670607908
11
374.2959177221
21
196.4964314456
70
162
3
DIMSTYLE_3
100
AcDb2LineAngularDimension
13
364.8895569805
23
183.4628583811
14
371.0292189585
24
182.3879179579
15
363.9331379789
25
202.6049596678
16
367.2902998285
26
192.4294413605
0
LINE
5
283
100
AcDbEntity
8
0
100
AcDbLine
62
7
6
BYLAYER
10
209.0000000000
20
82.0000000000
11
410.0000000000
21
82.0000000000
0
LINE
5
284
100
AcDbEntity
8
0
100
AcDbLine
62
7
6
BYLAYER
10
209.0000000000
20
82.0000000000
11
209.0000000000
21
10.0000000000
0
LINE
5
285
100
AcDbEntity
8
0
100
AcDbLine
62
7
6
BYLAYER
10
209.0000000000
20
73.0000000000
11
410.0000000000
21
73.0000000000
0
LINE
5
286
100
AcDbEntity
8
0
100
AcDbLine
62
7
6
BYLAYER
10
209.0000000000
20
64.0000000000
11
410.0000000000
21
64.0000000000
0
LINE
5
287
100
AcDbEntity
8
0
100
AcDbLine
62
7
6
BYLAYER
10
209.0000000000
20
55.0000000000
11
410.0000000000
21
55.0000000000
0
LINE
5
288
100
AcDbEntity
8
0
100
AcDbLine
62
7
6
BYLAYER
10
209.0000000000
20
46.0000000000
11
410.0000000000
21
46.0000000000
0
LINE
5
289
100
AcDbEntity
8
0
100
AcDbLine
62
7
6
BYLAYER
10
209.0000000000
20
21.0000000000
11
410.0000000000
21
21.0000000000
0
LINE
5
28A
100
AcDbEntity
8
0
100
AcDbLine
62
7
6
BYLAYER
10
209.0000000000
20
10.0000000000
11
410.0000000000
21
10.0000000000
0
LINE
5
28B
100
AcDbEntity
8
0
100
AcDbLine
62
7
6
BYLAYER
10
224.0000000000
20
82.0000000000
11
224.0000000000
21
64.0000000000
0
LINE
5
28C
100
AcDbEntity
8
0
100
AcDbLine
62
7
6
BYLAYER
10
224.0000000000
20
21.0000000000
11
224.0000000000
21
10.0000000000
0
LINE
5
28D
100
AcDbEntity
8
0
100
AcDbLine
62
7
6
BYLAYER
10
253.5000000000
20
82.0000000000
11
253.5000000000
21
64.0000000000
0
LINE
5
28E
100
AcDbEntity
8
0
100
AcDbLine
62
7
6
BYLAYER
10
283.0000000000
20
82.0000000000
11
283.0000000000
21
64.0000000000
0
LINE
5
28F
100
AcDbEntity
8
0
100
AcDbLine
62
7
6
BYLAYER
10
315.5000000000
20
82.0000000000
11
315.5000000000
21
64.0000000000
0
LINE
5
290
100
AcDbEntity
8
0
100
AcDbLine
62
7
6
BYLAYER
10
344.0000000000
20
21.0000000000
11
344.0000000000
21
10.0000000000
0
LINE
5
291
100
AcDbEntity
8
0
100
AcDbLine
62
7
6
BYLAYER
10
348.0000000000
20
82.0000000000
11
348.0000000000
21
64.0000000000
0
LINE
5
292
100
AcDbEntity
8
0
100
AcDbLine
62
7
6
BYLAYER
10
365.0000000000
20
64.0000000000
11
365.0000000000
21
55.0000000000
0
LINE
5
293
100
AcDbEntity
8
0
100
AcDbLine
62
7
6
BYLAYER
10
380.5000000000
20
82.0000000000
11
380.5000000000
21
64.0000000000
0
LINE
5
294
100
AcDbEntity
8
0
100
AcDbLine
62
7
6
BYLAYER
10
410.0000000000
20
82.0000000000
11
410.0000000000
21
10.0000000000
0
TEXT
5
295
100
AcDbEntity
8
0
100
AcDbText
62
7
6
BYLAYER
10
215.3000000000
20
76.0000000000
7
STANDARD
40
3.0000000000
1
D
41
0.8000000000
72
1
11
216.5000000000
21
76.0000000000
100
AcDbText
0
TEXT
5
296
100
AcDbEntity
8
0
100
AcDbText
62
7
6
BYLAYER
10
227.9500000000
20
76.0000000000
7
STANDARD
40
3.0000000000
1
29/MAY/03
41
0.8000000000
72
1
11
238.7500000000
21
76.0000000000
100
AcDbText
0
TEXT
5
297
100
AcDbEntity
8
0
100
AcDbText
62
7
6
BYLAYER
10
259.8500000000
20
76.0000000000
7
STANDARD
40
3.0000000000
1
------
41
0.8000000000
72
1
11
267.0500000000
21
76.0000000000
100
AcDbText
0
TEXT
5
298
100
AcDbEntity
8
0
100
AcDbText
62
7
6
BYLAYER
10
274.2500000000
20
76.0000000000
7
STANDARD
40
3.0000000000
1
.
41
0.8000000000
72
1
11
275.4500000000
21
76.0000000000
100
AcDbText
0
TEXT
5
299
100
AcDbEntity
8
0
100
AcDbText
62
7
6
BYLAYER
10
289.6500000000
20
76.0000000000
7
STANDARD
40
3.0000000000
1
J NOVISS
41
0.8000000000
72
1
11
299.2500000000
21
76.0000000000
100
AcDbText
0
TEXT
5
29A
100
AcDbEntity
8
0
100
AcDbText
62
7
6
BYLAYER
10
329.3500000000
20
76.0000000000
7
STANDARD
40
3.0000000000
1
IW
41
0.8000000000
72
1
11
331.7500000000
21
76.0000000000
100
AcDbText
0
TEXT
5
29B
100
AcDbEntity
8
0
100
AcDbText
62
7
6
BYLAYER
10
361.8500000000
20
76.0000000000
7
STANDARD
40
3.0000000000
1
DG
41
0.8000000000
72
1
11
364.2500000000
21
76.0000000000
100
AcDbText
0
TEXT
5
29C
100
AcDbEntity
8
0
100
AcDbText
62
7
6
BYLAYER
10
391.6500000000
20
76.0000000000
7
STANDARD
40
3.0000000000
1
REL
41
0.8000000000
72
1
11
395.2500000000
21
76.0000000000
100
AcDbText
0
TEXT
5
29D
100
AcDbEntity
8
0
100
AcDbText
62
7
6
BYLAYER
10
210.5000000000
20
67.0000000000
7
STANDARD
40
3.0000000000
1
ISSUE
41
0.8000000000
72
1
11
216.5000000000
21
67.0000000000
100
AcDbText
0
TEXT
5
29E
100
AcDbEntity
8
0
100
AcDbText
62
7
6
BYLAYER
10
227.9500000000
20
67.0000000000
7
STANDARD
40
3.0000000000
1
DATE APPD
41
0.8000000000
72
1
11
238.7500000000
21
67.0000000000
100
AcDbText
0
TEXT
5
29F
100
AcDbEntity
8
0
100
AcDbText
62
7
6
BYLAYER
10
258.6500000000
20
67.0000000000
7
STANDARD
40
3.0000000000
1
MOD. No.
41
0.8000000000
72
1
11
268.2500000000
21
67.0000000000
100
AcDbText
0
TEXT
5
2A0
100
AcDbEntity
8
0
100
AcDbText
62
7
6
BYLAYER
10
290.8500000000
20
67.0000000000
7
STANDARD
40
3.0000000000
1
DRN. BY
41
0.8000000000
72
1
11
299.2500000000
21
67.0000000000
100
AcDbText
0
TEXT
5
2A1
100
AcDbEntity
8
0
100
AcDbText
62
7
6
BYLAYER
10
322.1500000000
20
67.0000000000
7
STANDARD
40
3.0000000000
1
CHKD BY.
41
0.8000000000
72
1
11
331.7500000000
21
67.0000000000
100
AcDbText
0
TEXT
5
2A2
100
AcDbEntity
8
0
100
AcDbText
62
7
6
BYLAYER
10
354.6500000000
20
67.0000000000
7
STANDARD
40
3.0000000000
1
APPD BY.
41
0.8000000000
72
1
11
364.2500000000
21
67.0000000000
100
AcDbText
0
TEXT
5
2A3
100
AcDbEntity
8
0
100
AcDbText
62
7
6
BYLAYER
10
388.0500000000
20
67.0000000000
7
STANDARD
40
3.0000000000
1
STATUS
41
0.8000000000
72
1
11
395.2500000000
21
67.0000000000
100
AcDbText
0
TEXT
5
2A4
100
AcDbEntity
8
0
100
AcDbText
62
7
6
BYLAYER
10
210.4000000000
20
57.5000000000
7
STANDARD
40
4.0000000000
1
USED ON
41
0.8000000000
72
0
100
AcDbText
0
TEXT
5
2A5
100
AcDbEntity
8
0
100
AcDbText
62
7
6
BYLAYER
10
254.9000000000
20
57.5000000000
7
STANDARD
40
4.0000000000
1
 
41
0.8000000000
72
0
100
AcDbText
0
INSERT
5
2A6
100
AcDbEntity
8
0
100
AcDbBlockReference
62
7
6
BYLAYER
2
COPYRIGHT_BL4
10
0.0000000000
20
0.0000000000
0
TEXT
5
2A7
100
AcDbEntity
8
0
100
AcDbText
62
7
6
BYLAYER
10
371.0554457271
20
57.3835313102
7
TEXTSTYLE_1
40
5.0000000000
1
 CLRC
41
0.7800000000
72
1
11
380.8054457271
21
57.3835313102
100
AcDbText
0
TEXT
5
2A8
100
AcDbEntity
8
0
100
AcDbText
62
7
6
BYLAYER
10
390.5554457271
20
57.3835313102
7
TEXTSTYLE_1
40
5.0000000000
1
 
41
0.8000000000
72
1
11
392.5554457271
21
57.3835313102
100
AcDbText
0
TEXT
5
2A9
100
AcDbEntity
8
0
100
AcDbText
62
7
6
BYLAYER
10
394.5554457271
20
57.3835313102
7
TEXTSTYLE_1
40
5.0000000000
1
2002
41
0.7333333333
72
1
11
401.8887790604
21
57.3835313102
100
AcDbText
0
TEXT
5
2AA
100
AcDbEntity
8
0
100
AcDbText
62
7
6
BYLAYER
10
367.1926306113
20
57.5014920980
7
TEXTSTYLE_1
40
3.5000000000
1
C
41
0.8000000000
72
0
100
AcDbText
0
TEXT
5
2AB
100
AcDbEntity
8
0
100
AcDbText
62
7
6
BYLAYER
10
210.4000000000
20
48.5000000000
7
TEXTSTYLE_1
40
3.0000000000
1
CENTRAL LABORATORY OF THE RESEARCH COUNCILS
41
0.7620155039
72
0
100
AcDbText
0
TEXT
5
2AC
100
AcDbEntity
8
0
100
AcDbText
62
7
6
BYLAYER
10
308.7000000000
20
48.5000000000
7
STANDARD
40
4.0000000000
1
 
41
0.8000000000
72
0
100
AcDbText
0
TEXT
5
2AD
100
AcDbEntity
8
0
100
AcDbText
62
7
6
BYLAYER
10
311.9000000000
20
48.5000000000
7
STANDARD
40
2.0000000000
1
RUTHERFORD APPLETON LABORATORY, CHILTON, OXON OX110QX
41
0.8000000000
72
0
100
AcDbText
0
TEXT
5
2AE
100
AcDbEntity
8
0
100
AcDbText
62
7
6
BYLAYER
10
210.4000000000
20
41.5000000000
7
STANDARD
40
3.0000000000
1
TITLE
41
0.8000000000
72
0
100
AcDbText
0
TEXT
5
2AF
100
AcDbEntity
8
0
100
AcDbText
62
7
6
BYLAYER
10
271.0000000000
20
36.5000000000
7
TEXTSTYLE_1
40
6.0000000000
1
POWER TAPE W3
41
0.9871794872
72
1
11
309.5000000000
21
36.5000000000
100
AcDbText
0
TEXT
5
2B0
100
AcDbEntity
8
0
100
AcDbText
62
7
6
BYLAYER
10
256.0000000000
20
27.5000000000
7
TEXTSTYLE_1
40
6.0000000000
1
WHEELS 1,2,3,4,5,6,7,8,9
41
0.7430555556
72
1
11
309.5000000000
21
27.5000000000
100
AcDbText
0
TEXT
5
2B1
100
AcDbEntity
8
0
100
AcDbText
62
7
6
BYLAYER
10
210.4000000000
20
24.2500000000
7
STANDARD
40
4.0000000000
1
ATLAS_ID
41
0.8000000000
72
0
100
AcDbText
0
TEXT
5
2B2
100
AcDbEntity
8
0
100
AcDbText
62
7
6
BYLAYER
10
389.4000000000
20
24.2500000000
7
STANDARD
40
4.0000000000
1
------
41
0.8000000000
72
2
11
408.6000000000
21
24.2500000000
100
AcDbText
0
TEXT
5
2B3
100
AcDbEntity
8
0
100
AcDbText
62
7
6
BYLAYER
10
211.1333333333
20
12.0000000000
7
TEXTSTYLE_1
40
7.0000000000
1
A3
41
0.7666666667
72
1
11
216.5000000000
21
12.0000000000
100
AcDbText
0
TEXT
5
2B4
100
AcDbEntity
8
0
100
AcDbText
62
7
6
BYLAYER
10
225.4000000000
20
12.0000000000
7
TEXTSTYLE_1
40
5.0000000000
1
 
41
1.0000000000
72
0
100
AcDbText
0
TEXT
5
2B5
100
AcDbEntity
8
0
100
AcDbText
62
7
6
BYLAYER
10
230.4000000000
20
12.0000000000
7
TEXTSTYLE_1
40
7.0000000000
1
TD-1002-948
41
0.8068181818
72
0
100
AcDbText
0
TEXT
5
2B6
100
AcDbEntity
8
0
100
AcDbText
62
7
6
BYLAYER
10
345.4000000000
20
16.7500000000
7
STANDARD
40
2.5000000000
1
SHEET
41
0.8000000000
72
0
100
AcDbText
0
TEXT
5
2B7
100
AcDbEntity
8
0
100
AcDbText
62
7
6
BYLAYER
10
366.7666666667
20
12.0000000000
7
STANDARD
40
3.0000000000
1
 
41
0.8000000000
72
1
11
367.9666666667
21
12.0000000000
100
AcDbText
0
TEXT
5
2B8
100
AcDbEntity
8
0
100
AcDbText
62
7
6
BYLAYER
10
369.1666666667
20
12.0000000000
7
TEXTSTYLE_1
40
7.0000000000
1
1
41
0.3333333333
72
1
11
370.3333333333
21
12.0000000000
100
AcDbText
0
TEXT
5
2B9
100
AcDbEntity
8
0
100
AcDbText
62
7
6
BYLAYER
10
371.5000000000
20
12.0000000000
7
STANDARD
40
4.0000000000
1
 OF 
41
0.8000000000
72
1
11
377.9000000000
21
12.0000000000
100
AcDbText
0
TEXT
5
2BA
100
AcDbEntity
8
0
100
AcDbText
62
7
6
BYLAYER
10
384.3000000000
20
12.0000000000
7
TEXTSTYLE_1
40
7.0000000000
1
1
41
0.3333333333
72
1
11
385.4666666667
21
12.0000000000
100
AcDbText
0
TEXT
5
2BB
100
AcDbEntity
8
0
100
AcDbText
62
7
6
BYLAYER
10
386.6333333333
20
12.0000000000
7
STANDARD
40
4.0000000000
1
     
41
0.8000000000
72
1
11
394.6333333333
21
12.0000000000
100
AcDbText
0
TEXT
5
2BC
100
AcDbEntity
8
0
100
AcDbText
62
7
6
BYLAYER
10
402.6333333333
20
12.0000000000
7
TEXTSTYLE_1
40
7.0000000000
1
D
41
0.8000000000
72
1
11
405.4333333333
21
12.0000000000
100
AcDbText
0
LINE
5
2BD
100
AcDbEntity
8
0
100
AcDbLine
62
7
6
BYLAYER
10
20.0371621622
20
45.9172297297
11
209.0371621622
21
45.9172297297
0
LINE
5
2BE
100
AcDbEntity
8
0
100
AcDbLine
62
7
6
BYLAYER
10
20.0371621622
20
45.9172297297
11
20.0371621622
21
9.9172297297
0
LINE
5
2BF
100
AcDbEntity
8
0
100
AcDbLine
62
7
6
BYLAYER
10
20.0371621622
20
27.9172297297
11
209.0371621622
21
27.9172297297
0
LINE
5
2C0
100
AcDbEntity
8
0
100
AcDbLine
62
7
6
BYLAYER
10
20.0371621622
20
9.9172297297
11
209.0371621622
21
9.9172297297
0
LINE
5
2C1
100
AcDbEntity
8
0
100
AcDbLine
62
7
6
BYLAYER
10
83.0371621622
20
45.9172297297
11
83.0371621622
21
9.9172297297
0
LINE
5
2C2
100
AcDbEntity
8
0
100
AcDbLine
62
7
6
BYLAYER
10
146.0371621622
20
45.9172297297
11
146.0371621622
21
9.9172297297
0
LINE
5
2C3
100
AcDbEntity
8
0
100
AcDbLine
62
7
6
BYLAYER
10
209.0371621622
20
45.9172297297
11
209.0371621622
21
9.9172297297
0
TEXT
5
2C4
100
AcDbEntity
8
0
100
AcDbText
62
7
6
BYLAYER
10
21.4371621622
20
41.6672297297
7
STANDARD
40
2.5000000000
1
TOLERANCES UNLESS STATED
41
0.8000000000
72
0
100
AcDbText
0
TEXT
5
2C5
100
AcDbEntity
8
0
100
AcDbText
62
7
6
BYLAYER
10
84.4371621622
20
41.6672297297
7
STANDARD
40
2.5000000000
1
FINISH
41
0.8000000000
72
0
100
AcDbText
0
TEXT
5
2C6
100
AcDbEntity
8
0
100
AcDbText
62
7
6
BYLAYER
10
147.4371621622
20
41.6672297297
7
STANDARD
40
2.5000000000
1
ORIGINAL SCALE
41
0.8000000000
72
0
100
AcDbText
0
TEXT
5
2C7
100
AcDbEntity
8
0
100
AcDbText
62
7
6
BYLAYER
10
44.9871621622
20
34.1672297297
7
STANDARD
40
3.0000000000
1
%%p
41
1.1666666667
72
1
11
46.7371621622
21
34.1672297297
100
AcDbText
0
TEXT
5
2C8
100
AcDbEntity
8
0
100
AcDbText
62
7
6
BYLAYER
10
48.4871621622
20
34.1672297297
7
STANDARD
40
3.0000000000
1
 
41
0.8000000000
72
1
11
49.6871621622
21
34.1672297297
100
AcDbText
0
TEXT
5
2C9
100
AcDbEntity
8
0
100
AcDbText
62
7
6
BYLAYER
10
50.8871621622
20
34.1672297297
7
STANDARD
40
3.0000000000
1
 mm
41
0.8000000000
72
1
11
54.4871621622
21
34.1672297297
100
AcDbText
0
TEXT
5
2CA
100
AcDbEntity
8
0
100
AcDbText
62
7
6
BYLAYER
10
46.3871621622
20
29.6672297297
7
STANDARD
40
3.0000000000
1
%%p
41
1.1666666667
72
1
11
48.1371621622
21
29.6672297297
100
AcDbText
0
TEXT
5
2CB
100
AcDbEntity
8
0
100
AcDbText
62
7
6
BYLAYER
10
49.8871621622
20
29.6672297297
7
STANDARD
40
3.0000000000
1
 
41
0.8000000000
72
1
11
51.0871621622
21
29.6672297297
100
AcDbText
0
TEXT
5
2CC
100
AcDbEntity
8
0
100
AcDbText
62
7
6
BYLAYER
10
52.2871621622
20
29.6672297297
7
STANDARD
40
3.0000000000
1
 %%d
41
0.7333333333
72
1
11
54.4871621622
21
29.6672297297
100
AcDbText
0
TEXT
5
2CD
100
AcDbEntity
8
0
100
AcDbText
62
7
6
BYLAYER
10
102.5371621622
20
34.1672297297
7
STANDARD
40
3.0000000000
1
SEE NOTE 3
41
0.8000000000
72
1
11
114.5371621622
21
34.1672297297
100
AcDbText
0
TEXT
5
2CE
100
AcDbEntity
8
0
100
AcDbText
62
7
6
BYLAYER
10
95.3371621622
20
29.6672297297
7
STANDARD
40
3.0000000000
1
REMOVE ALL BURRS
41
0.8000000000
72
1
11
114.5371621622
21
29.6672297297
100
AcDbText
0
TEXT
5
2CF
100
AcDbEntity
8
0
100
AcDbText
62
7
6
BYLAYER
10
173.9371621622
20
34.1672297297
7
STANDARD
40
3.0000000000
1
1:1
41
0.8000000000
72
1
11
177.5371621622
21
34.1672297297
100
AcDbText
0
TEXT
5
2D0
100
AcDbEntity
8
0
100
AcDbText
62
7
6
BYLAYER
10
163.1371621622
20
29.6672297297
7
STANDARD
40
3.0000000000
1
DO NOT SCALE
41
0.8000000000
72
1
11
177.5371621622
21
29.6672297297
100
AcDbText
0
TEXT
5
2D1
100
AcDbEntity
8
0
100
AcDbText
62
7
6
BYLAYER
10
21.4371621622
20
23.6672297297
7
STANDARD
40
2.5000000000
1
MATERIAL 
41
0.8000000000
72
0
100
AcDbText
0
TEXT
5
2D2
100
AcDbEntity
8
0
100
AcDbText
62
7
6
BYLAYER
10
39.4371621622
20
23.6672297297
7
STANDARD
40
2.5000000000
1
& SPEC.
41
0.8000000000
72
0
100
AcDbText
0
INSERT
5
2D3
100
AcDbEntity
8
0
100
AcDbBlockReference
62
7
6
BYLAYER
2
MICRO_U_BL5
10
0.0000000000
20
0.0000000000
0
TEXT
5
2D4
100
AcDbEntity
8
0
100
AcDbText
62
7
6
BYLAYER
10
84.4371621622
20
24.0083581219
7
STANDARD
40
2.5000000000
1
SURFACE TEXTURE 
41
0.8000000000
72
0
100
AcDbText
0
TEXT
5
2D5
100
AcDbEntity
8
0
100
AcDbText
62
7
6
BYLAYER
10
116.4894190556
20
24.0082838118
7
STANDARD
40
1.8178175258
1
um
41
0.8000000000
72
0
100
AcDbText
0
TEXT
5
2D6
100
AcDbEntity
8
0
100
AcDbText
62
7
6
BYLAYER
10
39.5371621622
20
16.1672297297
7
STANDARD
40
3.0000000000
1
SEE NOTE 3
41
0.8000000000
72
1
11
51.5371621622
21
16.1672297297
100
AcDbText
0
TEXT
5
2D7
100
AcDbEntity
8
0
100
AcDbText
62
7
6
BYLAYER
10
41.9371621622
20
11.6672297297
7
STANDARD
40
3.0000000000
1
--------
41
0.8000000000
72
1
11
51.5371621622
21
11.6672297297
100
AcDbText
0
INSERT
5
2D8
100
AcDbEntity
8
0
100
AcDbBlockReference
62
7
6
BYLAYER
2
SURFACE_FINISH_BL6
10
0.0000000000
20
0.0000000000
0
TEXT
5
2D9
100
AcDbEntity
8
0
100
AcDbText
62
7
6
BYLAYER
10
102.5371621622
20
18.5810150021
7
STANDARD
40
3.0000000000
1
SEE NOTE 3
41
0.8000000000
72
1
11
114.5371621622
21
18.5810150021
100
AcDbText
0
TEXT
5
2DA
100
AcDbEntity
8
0
100
AcDbText
62
7
6
BYLAYER
10
99.8402817594
20
11.6672297297
7
STANDARD
40
3.0000000000
1
 UNLESS STATED
41
0.8000000000
72
1
11
116.6402817594
21
11.6672297297
100
AcDbText
0
TEXT
5
2DB
100
AcDbEntity
8
0
100
AcDbText
62
7
6
BYLAYER
10
95.6340425649
20
12.5409220665
7
STANDARD
40
3.5000000000
1
-
41
0.8000000000
72
0
100
AcDbText
0
LINE
5
2DC
100
AcDbEntity
8
0
100
AcDbLine
62
7
6
BYLAYER
10
10.0000000000
20
10.0000000000
11
10.0000000000
21
116.2000000000
0
LINE
5
2DD
100
AcDbEntity
8
0
100
AcDbLine
62
7
6
BYLAYER
10
10.0000000000
20
10.0000000000
11
20.0000000000
21
10.0000000000
0
LINE
5
2DE
100
AcDbEntity
8
0
100
AcDbLine
62
7
6
BYLAYER
10
20.0000000000
20
10.0000000000
11
20.0000000000
21
116.2000000000
0
LINE
5
2DF
100
AcDbEntity
8
0
100
AcDbLine
62
7
6
BYLAYER
10
10.0000000000
20
25.0000000000
11
20.0000000000
21
25.0000000000
0
LINE
5
2E0
100
AcDbEntity
8
0
100
AcDbLine
62
7
6
BYLAYER
10
10.0000000000
20
78.2000000000
11
20.0000000000
21
78.2000000000
0
LINE
5
2E1
100
AcDbEntity
8
0
100
AcDbLine
62
7
6
BYLAYER
10
10.0000000000
20
106.2000000000
11
20.0000000000
21
106.2000000000
0
LINE
5
2E2
100
AcDbEntity
8
0
100
AcDbLine
62
7
6
BYLAYER
10
10.0000000000
20
116.2000000000
11
20.0000000000
21
116.2000000000
0
TEXT
5
2E3
100
AcDbEntity
8
0
100
AcDbText
62
7
6
BYLAYER
10
17.5000000000
20
12.5000000000
7
STANDARD
40
5.0000000000
1
A3
50
90.0000000000
41
1.0000000000
72
1
11
17.5000000000
21
17.5000000000
100
AcDbText
0
TEXT
5
2E4
100
AcDbEntity
8
0
100
AcDbText
62
7
6
BYLAYER
10
17.5000000000
20
26.4000000000
7
TEXTSTYLE_1
40
5.0000000000
1
 
50
90.0000000000
41
1.0000000000
72
0
100
AcDbText
0
TEXT
5
2E5
100
AcDbEntity
8
0
100
AcDbText
62
7
6
BYLAYER
10
17.5000000000
20
31.4000000000
7
TEXTSTYLE_1
40
5.0000000000
1
TD-1002-948
50
90.0000000000
41
0.8068181818
72
0
100
AcDbText
0
TEXT
5
2E6
100
AcDbEntity
8
0
100
AcDbText
62
7
6
BYLAYER
10
16.5000000000
20
79.6000000000
7
TEXTSTYLE_1
40
3.0000000000
1
Sheet 
50
90.0000000000
41
0.6666666667
72
0
100
AcDbText
0
TEXT
5
2E7
100
AcDbEntity
8
0
100
AcDbText
62
7
6
BYLAYER
10
16.5000000000
20
91.6000000000
7
TEXTSTYLE_1
40
3.0000000000
1
1
50
90.0000000000
41
0.3333333333
72
0
100
AcDbText
0
TEXT
5
2E8
100
AcDbEntity
8
0
100
AcDbText
62
7
6
BYLAYER
10
16.5000000000
20
92.6000000000
7
TEXTSTYLE_1
40
3.0000000000
1
 OF 
50
90.0000000000
41
0.7833333333
72
0
100
AcDbText
0
TEXT
5
2E9
100
AcDbEntity
8
0
100
AcDbText
62
7
6
BYLAYER
10
16.5000000000
20
102.0000000000
7
TEXTSTYLE_1
40
3.0000000000
1
1
50
90.0000000000
41
0.3333333333
72
0
100
AcDbText
0
TEXT
5
2EA
100
AcDbEntity
8
0
100
AcDbText
62
7
6
BYLAYER
10
17.5000000000
20
109.2000000000
7
TEXTSTYLE_1
40
5.0000000000
1
D
50
90.0000000000
41
0.8000000000
72
1
11
17.5000000000
21
111.2000000000
100
AcDbText
0
LINE
5
2EB
100
AcDbEntity
8
0
100
AcDbLine
62
7
6
BYLAYER
10
10.0000000000
20
287.0000000000
11
116.2000000000
21
287.0000000000
0
LINE
5
2EC
100
AcDbEntity
8
0
100
AcDbLine
62
7
6
BYLAYER
10
10.0000000000
20
287.0000000000
11
10.0000000000
21
277.0000000000
0
LINE
5
2ED
100
AcDbEntity
8
0
100
AcDbLine
62
7
6
BYLAYER
10
10.0000000000
20
277.0000000000
11
116.2000000000
21
277.0000000000
0
LINE
5
2EE
100
AcDbEntity
8
0
100
AcDbLine
62
7
6
BYLAYER
10
25.0000000000
20
287.0000000000
11
25.0000000000
21
277.0000000000
0
LINE
5
2EF
100
AcDbEntity
8
0
100
AcDbLine
62
7
6
BYLAYER
10
78.2000000000
20
287.0000000000
11
78.2000000000
21
277.0000000000
0
LINE
5
2F0
100
AcDbEntity
8
0
100
AcDbLine
62
7
6
BYLAYER
10
106.2000000000
20
287.0000000000
11
106.2000000000
21
277.0000000000
0
LINE
5
2F1
100
AcDbEntity
8
0
100
AcDbLine
62
7
6
BYLAYER
10
116.2000000000
20
287.0000000000
11
116.2000000000
21
277.0000000000
0
TEXT
5
2F2
100
AcDbEntity
8
0
100
AcDbText
62
7
6
BYLAYER
10
12.5000000000
20
279.5000000000
7
STANDARD
40
5.0000000000
1
A3
41
1.0000000000
72
1
11
17.5000000000
21
279.5000000000
100
AcDbText
0
TEXT
5
2F3
100
AcDbEntity
8
0
100
AcDbText
62
7
6
BYLAYER
10
26.4000000000
20
279.5000000000
7
TEXTSTYLE_1
40
5.0000000000
1
 
41
1.0000000000
72
0
100
AcDbText
0
TEXT
5
2F4
100
AcDbEntity
8
0
100
AcDbText
62
7
6
BYLAYER
10
31.4000000000
20
279.5000000000
7
TEXTSTYLE_1
40
5.0000000000
1
TD-1002-948
41
0.8068181818
72
0
100
AcDbText
0
TEXT
5
2F5
100
AcDbEntity
8
0
100
AcDbText
62
7
6
BYLAYER
10
79.6000000000
20
280.5000000000
7
TEXTSTYLE_1
40
3.0000000000
1
Sheet 
41
0.6666666667
72
0
100
AcDbText
0
TEXT
5
2F6
100
AcDbEntity
8
0
100
AcDbText
62
7
6
BYLAYER
10
91.6000000000
20
280.5000000000
7
TEXTSTYLE_1
40
3.0000000000
1
1
41
0.3333333333
72
0
100
AcDbText
0
TEXT
5
2F7
100
AcDbEntity
8
0
100
AcDbText
62
7
6
BYLAYER
10
92.6000000000
20
280.5000000000
7
TEXTSTYLE_1
40
3.0000000000
1
 OF 
41
0.7833333333
72
0
100
AcDbText
0
TEXT
5
2F8
100
AcDbEntity
8
0
100
AcDbText
62
7
6
BYLAYER
10
102.0000000000
20
280.5000000000
7
TEXTSTYLE_1
40
3.0000000000
1
1
41
0.3333333333
72
0
100
AcDbText
0
TEXT
5
2F9
100
AcDbEntity
8
0
100
AcDbText
62
7
6
BYLAYER
10
109.2000000000
20
279.5000000000
7
TEXTSTYLE_1
40
5.0000000000
1
D
41
0.8000000000
72
1
11
111.2000000000
21
279.5000000000
100
AcDbText
0
LINE
5
2FA
100
AcDbEntity
8
0
100
AcDbLine
62
7
6
BYLAYER
10
331.0000000000
20
287.0000000000
11
410.0000000000
21
287.0000000000
0
LINE
5
2FB
100
AcDbEntity
8
0
100
AcDbLine
62
7
6
BYLAYER
10
331.0000000000
20
287.0000000000
11
331.0000000000
21
277.0000000000
0
LINE
5
2FC
100
AcDbEntity
8
0
100
AcDbLine
62
7
6
BYLAYER
10
331.0000000000
20
277.0000000000
11
410.0000000000
21
277.0000000000
0
LINE
5
2FD
100
AcDbEntity
8
0
100
AcDbLine
62
7
6
BYLAYER
10
410.0000000000
20
287.0000000000
11
410.0000000000
21
277.0000000000
0
TEXT
5
2FE
100
AcDbEntity
8
0
100
AcDbText
62
7
6
BYLAYER
10
336.5000000000
20
280.7500000000
7
STANDARD
40
2.5000000000
1
THIS DRAWING CONFORMS TO B.S. 8888
41
0.8000000000
72
1
11
370.5000000000
21
280.7500000000
100
AcDbText
0
LINE
5
2FF
100
AcDbEntity
8
0
100
AcDbLine
62
7
6
BYLAYER
10
236.4999835399
20
286.9999994947
11
330.9999835399
21
286.9999994947
0
LINE
5
300
100
AcDbEntity
8
0
100
AcDbLine
62
7
6
BYLAYER
10
236.4999835399
20
286.9999994947
11
236.4999835399
21
273.4999994947
0
LINE
5
301
100
AcDbEntity
8
0
100
AcDbLine
62
7
6
BYLAYER
10
236.4999835399
20
273.4999994947
11
330.9999835399
21
273.4999994947
0
LINE
5
302
100
AcDbEntity
8
0
100
AcDbLine
62
7
6
BYLAYER
10
330.9999835399
20
286.9999994947
11
330.9999835399
21
273.4999994947
0
INSERT
5
303
100
AcDbEntity
8
0
100
AcDbBlockReference
62
7
6
BYLAYER
2
PROJECTION_BL7
10
0.0000000000
20
0.0000000000
0
TEXT
5
304
100
AcDbEntity
8
0
100
AcDbText
62
7
6
BYLAYER
10
254.3534835399
20
278.9781218886
7
STANDARD
40
3.5000000000
1
PROJECTION 
41
0.8000000000
72
1
11
269.7534835399
21
278.9781218886
100
AcDbText
0
TEXT
5
305
100
AcDbEntity
8
0
100
AcDbText
62
7
6
BYLAYER
10
290.7970347322
20
278.8891837883
7
STANDARD
40
3.5000000000
1
l
41
0.8000000000
72
0
100
AcDbText
0
LINE
5
306
100
AcDbEntity
8
0
100
AcDbLine
62
7
6
BYLAYER
10
159.0509538372
20
70.9185125895
11
209.0509538372
21
70.9185125895
0
LINE
5
307
100
AcDbEntity
8
0
100
AcDbLine
62
7
6
BYLAYER
10
159.0509538372
20
70.9185125895
11
159.0509538372
21
45.9185125895
0
LINE
5
308
100
AcDbEntity
8
0
100
AcDbLine
62
7
6
BYLAYER
10
159.0509538372
20
45.9185125895
11
209.0509538372
21
45.9185125895
0
LINE
5
309
100
AcDbEntity
8
0
100
AcDbLine
62
7
6
BYLAYER
10
209.0509538372
20
70.9185125895
11
209.0509538372
21
45.9185125895
0
TEXT
5
30A
100
AcDbEntity
8
0
100
AcDbText
62
7
6
BYLAYER
10
174.2185663925
20
258.7751909518
7
STANDARD
40
3.5000000000
1
NOTES -
41
0.8000000000
72
0
100
AcDbText
0
TEXT
5
30B
100
AcDbEntity
8
0
100
AcDbText
62
7
6
BYLAYER
10
174.2185663925
20
253.5251909518
7
STANDARD
40
3.5000000000
1
 
41
0.8000000000
72
0
100
AcDbText
0
TEXT
5
30C
100
AcDbEntity
8
0
100
AcDbText
62
7
6
BYLAYER
10
174.2185663925
20
248.2751909518
7
STANDARD
40
3.5000000000
1
1 - ALL OUTER MODULE TAPE ENDS SET FOR HIGH MODULES
41
0.8000000000
72
0
100
AcDbText
0
TEXT
5
30D
100
AcDbEntity
8
0
100
AcDbText
62
7
6
BYLAYER
10
174.2185663925
20
243.0251909518
7
STANDARD
40
3.5000000000
1
2 - TAPE DESIGN SET TO ZERO MODULE ROTATION
41
0.8000000000
72
0
100
AcDbText
0
TEXT
5
30E
100
AcDbEntity
8
0
100
AcDbText
62
7
6
BYLAYER
10
174.2185663925
20
237.7751909518
7
STANDARD
40
3.5000000000
1
3 - FOR TAPE SPECIFICATIONS REFER TO DOCUMENT ATL-IS-ER-0034
41
0.8000000000
72
0
100
AcDbText
0
TEXT
5
30F
100
AcDbEntity
8
0
100
AcDbText
62
7
6
BYLAYER
10
174.2185663925
20
232.5251909518
7
STANDARD
40
3.5000000000
1
4 - ALL TWISTED PAIR WIRES TO LIE ONE WIRE DEEP 4mm EITHER SIDE
41
0.8000000000
72
0
100
AcDbText
0
TEXT
5
310
100
AcDbEntity
8
0
100
AcDbText
62
7
6
BYLAYER
10
174.2185663925
20
227.2751909518
7
STANDARD
40
3.5000000000
1
    OF PIPE CENTER LINES 
41
0.8000000000
72
0
100
AcDbText
0
TEXT
5
311
100
AcDbEntity
8
0
100
AcDbText
62
7
6
BYLAYER
10
174.2185663925
20
222.0251909518
7
STANDARD
40
3.5000000000
1
5 - ANY CUTS  BETWEEN TAPE LEGS MUST NOT BE SHORTENED
41
0.8000000000
72
0
100
AcDbText
0
TEXT
5
312
100
AcDbEntity
8
0
100
AcDbText
62
7
6
BYLAYER
10
174.2185663925
20
216.7751909518
7
STANDARD
40
3.5000000000
1
6 - TAPE ENDS TO INCLUDE TEXT AS SHOWN ON 3D-VIEW
41
0.8000000000
72
0
100
AcDbText
0
TEXT
5
313
100
AcDbEntity
8
0
100
AcDbText
62
7
6
BYLAYER
10
174.2185663925
20
211.5251909518
7
STANDARD
40
3.5000000000
1
7 - TEXT 'TD-1002-948 (W3)' TO BE LOCATED VISIBLY ON TAPE
41
0.8000000000
72
0
100
AcDbText
0
TEXT
5
314
100
AcDbEntity
8
0
100
AcDbText
62
7
6
BYLAYER
10
174.2185663925
20
206.2751909518
7
STANDARD
40
3.5000000000
1
8 - FOR CONNECTOR POSITIONS REFER TO DRAWING TD-1010-345
41
0.8000000000
72
0
100
AcDbText
0
TEXT
5
315
100
AcDbEntity
8
0
100
AcDbText
62
7
6
BYLAYER
10
113.9673005887
20
194.1543652169
7
STANDARD
40
4.0000000000
1
3D-VIEW
41
0.8000000000
72
0
100
AcDbText
0
CIRCLE
5
316
100
AcDbEntity
8
0
100
AcDbCircle
62
7
6
BYLAYER
10
127.2502676633
20
251.9898455589
40
0.8000000000
0
TEXT
5
317
100
AcDbEntity
8
0
100
AcDbText
62
7
6
BYLAYER
10
108.3658519846
20
257.4230518785
7
TEXTSTYLE_2
40
4.0000000000
1
03
41
0.7276264591
72
0
100
AcDbText
0
CIRCLE
5
318
100
AcDbEntity
8
0
100
AcDbCircle
62
7
6
BYLAYER
10
81.4247966438
20
168.7274097482
40
0.8000000000
0
TEXT
5
319
100
AcDbEntity
8
0
100
AcDbText
62
7
6
BYLAYER
10
95.7350483910
20
162.8652242358
7
TEXTSTYLE_2
40
4.0000000000
1
M2
41
1.0233463035
72
0
100
AcDbText
0
SOLID
5
31A
100
AcDbEntity
8
0
100
AcDbTrace
62
7
6
BYLAYER
10
268.9926232399
20
168.8400852951
11
264.5407293615
21
171.2526857378
12
265.5157382424
22
172.5212903579
13
265.5157382424
23
172.5212903579
0
POLYLINE
5
31B
100
AcDbEntity
8
0
100
AcDb2dPolyline
62
7
6
BYLAYER
66
1
70
0
0
VERTEX
5
31C
100
AcDbEntity
8
0
100
AcDbVertex
62
7
6
BYLAYER
100
AcDb2dVertex
10
248.7333361816
20
178.6478942871
0
VERTEX
5
31D
100
AcDbEntity
8
0
100
AcDbVertex
62
7
6
BYLAYER
100
AcDb2dVertex
10
247.7333496094
20
178.9812231445
0
VERTEX
5
31E
100
AcDbEntity
8
0
100
AcDbVertex
62
7
6
BYLAYER
100
AcDb2dVertex
10
246.7333374023
20
178.6478942871
0
VERTEX
5
31F
100
AcDbEntity
8
0
100
AcDbVertex
62
7
6
BYLAYER
100
AcDb2dVertex
10
246.0666796875
20
177.9812237549
0
VERTEX
5
320
100
AcDbEntity
8
0
100
AcDbVertex
62
7
6
BYLAYER
100
AcDb2dVertex
10
245.7333508301
20
176.9812243652
0
VERTEX
5
321
100
AcDbEntity
8
0
100
AcDbVertex
62
7
6
BYLAYER
100
AcDb2dVertex
10
246.0666796875
20
175.9812249756
0
VERTEX
5
322
100
AcDbEntity
8
0
100
AcDbVertex
62
7
6
BYLAYER
100
AcDb2dVertex
10
246.7333374023
20
175.3145672607
0
VERTEX
5
323
100
AcDbEntity
8
0
100
AcDbVertex
62
7
6
BYLAYER
100
AcDb2dVertex
10
247.7333496094
20
174.9812255859
0
VERTEX
5
324
100
AcDbEntity
8
0
100
AcDbVertex
62
7
6
BYLAYER
100
AcDb2dVertex
10
248.7333361816
20
175.3145672607
0
SEQEND
5
325
100
AcDbEntity
8
0
0
POLYLINE
5
326
100
AcDbEntity
8
0
100
AcDb2dPolyline
62
7
6
BYLAYER
66
1
70
0
0
VERTEX
5
327
100
AcDbEntity
8
0
100
AcDbVertex
62
7
6
BYLAYER
100
AcDb2dVertex
10
247.4000207520
20
180.1478997803
0
VERTEX
5
328
100
AcDbEntity
8
0
100
AcDbVertex
62
7
6
BYLAYER
100
AcDb2dVertex
10
247.4000207520
20
173.9812261963
0
VERTEX
5
329
100
AcDbEntity
8
0
100
AcDbVertex
62
7
6
BYLAYER
100
AcDb2dVertex
10
250.0666772461
20
173.9812261963
0
SEQEND
5
32A
100
AcDbEntity
8
0
0
TEXT
5
32B
100
AcDbEntity
8
0
100
AcDbText
62
7
6
BYLAYER
10
229.7333424765
20
174.9812292356
7
STANDARD
40
4.0000000000
1
PIPE 
41
0.8000000000
72
0
100
AcDbText
0
TEXT
5
32C
100
AcDbEntity
8
0
100
AcDbText
62
7
6
BYLAYER
10
232.7509677704
20
112.6808892645
7
STANDARD
40
4.0000000000
1
DEVELOPED VIEW
41
0.8000000000
72
0
100
AcDbText
0
LINE
5
32D
100
AcDbEntity
8
0
100
AcDbLine
62
7
6
BYLAYER
10
0.0000000000
20
297.0000000000
11
0.0000000000
21
0.0000000000
0
LINE
5
32E
100
AcDbEntity
8
0
100
AcDbLine
62
7
6
BYLAYER
10
10.0000000000
20
10.0000000000
11
10.0000000000
21
287.0000000000
0
LINE
5
32F
100
AcDbEntity
8
0
100
AcDbLine
62
7
6
BYLAYER
10
10.0010000000
20
106.2230000000
11
10.0010000000
21
276.9990000000
0
LINE
5
330
100
AcDbEntity
8
0
100
AcDbLine
62
7
6
BYLAYER
10
0.0000000000
20
0.0000000000
11
420.0000000000
21
0.0000000000
0
LINE
5
331
100
AcDbEntity
8
0
100
AcDbLine
62
7
6
BYLAYER
10
160.0381492713
20
3.8460928114
11
260.0381492713
21
3.8460928114
0
LINE
5
332
100
AcDbEntity
8
0
100
AcDbLine
62
7
6
BYLAYER
10
160.0381492713
20
3.8460928114
11
160.0381492713
21
8.8460928114
0
LINE
5
333
100
AcDbEntity
8
DEFAULT_1
100
AcDbLine
62
7
6
BYLAYER
10
287.7161160912
20
136.5379660538
11
326.9472954061
21
135.2627920806
0
LINE
5
334
100
AcDbEntity
8
0
100
AcDbLine
62
7
6
BYLAYER
10
260.0381492713
20
3.8460928114
11
260.0381492713
21
8.8460928114
0
LINE
5
335
100
AcDbEntity
8
DEFAULT_1
100
AcDbLine
62
7
6
BYLAYER
10
269.4206942964
20
172.5761393217
11
267.9192505471
21
159.4720649418
0
LINE
5
336
100
AcDbEntity
8
0
100
AcDbLine
62
7
6
BYLAYER
10
106.2230000000
20
286.9990000000
11
237.9920000000
21
286.9990000000
0
LINE
5
337
100
AcDbEntity
8
0
100
AcDbLine
62
7
6
BYLAYER
10
10.0000000000
20
287.0000000000
11
410.0000000000
21
287.0000000000
0
LINE
5
338
100
AcDbEntity
8
0
100
AcDbLine
62
7
6
BYLAYER
10
0.0000000000
20
297.0000000000
11
420.0000000000
21
297.0000000000
0
LINE
5
339
100
AcDbEntity
8
0
100
AcDbLine
62
7
6
BYLAYER
10
401.4430414976
20
21.0017763982
11
401.4430414976
21
10.0350776605
0
LINE
5
33A
100
AcDbEntity
8
0
100
AcDbLine
62
7
6
BYLAYER
10
410.0000000000
20
287.0000000000
11
410.0000000000
21
10.0000000000
0
LINE
5
33B
100
AcDbEntity
8
0
100
AcDbLine
62
7
6
BYLAYER
10
420.0000000000
20
297.0000000000
11
420.0000000000
21
0.0000000000
0
LINE
5
33C
100
AcDbEntity
8
0
100
AcDbLine
62
7
6
BYLAYER
10
37.9647380121
20
139.6852627334
11
56.8125810506
21
128.2431559755
0
LINE
5
33D
100
AcDbEntity
8
0
100
AcDbLine
62
7
6
BYLAYER
10
40.2857592202
20
167.2679963487
11
45.4384069573
21
164.1399383861
0
LINE
5
33E
100
AcDbEntity
8
0
100
AcDbLine
62
7
6
BYLAYER
10
45.4384069573
20
164.1399383861
11
50.8622466807
21
160.8472457939
0
LINE
5
33F
100
AcDbEntity
8
0
100
AcDbLine
62
7
6
BYLAYER
10
50.8622466807
20
160.8472457939
11
59.1336022587
21
155.8258895908
0
LINE
5
340
100
AcDbEntity
8
0
100
AcDbLine
62
7
6
BYLAYER
10
40.4686325179
20
167.3419983406
11
45.5204808729
21
164.2751334434
0
LINE
5
341
100
AcDbEntity
8
0
100
AcDbLine
62
7
6
BYLAYER
10
51.0451199783
20
160.9212477858
11
59.3164755564
21
155.8998915827
0
LINE
5
342
100
AcDbEntity
8
0
100
AcDbLine
62
7
6
BYLAYER
10
88.7350483910
20
164.8652242358
11
95.7350483910
21
164.8652242358
0
LINE
5
343
100
AcDbEntity
8
0
100
AcDbLine
62
7
6
BYLAYER
10
80.1091170542
20
164.7774581761
11
71.9712417782
21
165.7112605274
0
LINE
5
344
100
AcDbEntity
8
0
100
AcDbLine
62
7
6
BYLAYER
10
80.1272500323
20
164.9929482825
11
71.9893747564
21
165.9267506337
0
LINE
5
345
100
AcDbEntity
8
0
100
AcDbLine
62
7
6
BYLAYER
10
69.7123201125
20
165.5253678545
11
67.1759747641
21
166.9819303923
0
LINE
5
346
100
AcDbEntity
8
0
100
AcDbLine
62
7
6
BYLAYER
10
49.6595387508
20
170.2192724507
11
55.0833784741
21
166.9265798585
0
LINE
5
347
100
AcDbEntity
8
0
100
AcDbLine
62
7
6
BYLAYER
10
62.2055667790
20
172.9639948232
11
63.0191512623
21
172.4700857592
0
LINE
5
348
100
AcDbEntity
8
0
100
AcDbLine
62
7
6
BYLAYER
10
63.0191512623
20
172.4700857592
11
65.3242831447
21
171.0706914075
0
LINE
5
349
100
AcDbEntity
8
0
100
AcDbLine
62
7
6
BYLAYER
10
59.9052262615
20
174.3653194364
11
62.2031753767
21
172.9630271120
0
LINE
5
34A
100
AcDbEntity
8
0
100
AcDbLine
62
7
6
BYLAYER
10
69.3775906123
20
167.2241940218
11
71.5174209101
21
165.7627694789
0
LINE
5
34B
100
AcDbEntity
8
0
100
AcDbLine
62
7
6
BYLAYER
10
66.6516516063
20
169.0742594876
11
69.2832127342
21
167.2377351976
0
LINE
5
34C
100
AcDbEntity
8
0
100
AcDbLine
62
7
6
BYLAYER
10
82.1321447279
20
168.3537003854
11
88.7350483910
21
164.8652242358
0
LINE
5
34D
100
AcDbEntity
8
0
100
AcDbLine
62
7
6
BYLAYER
10
69.0372966770
20
176.5872568316
11
70.7524371431
21
175.5529641471
0
LINE
5
34E
100
AcDbEntity
8
0
100
AcDbLine
62
7
6
BYLAYER
10
66.4362579522
20
177.3914514306
11
68.7413898347
21
175.9920570789
0
LINE
5
34F
100
AcDbEntity
8
0
100
AcDbLine
62
7
6
BYLAYER
10
66.4688973130
20
177.7793336220
11
68.7740291954
21
176.3799392703
0
LINE
5
350
100
AcDbEntity
8
0
100
AcDbLine
62
7
6
BYLAYER
10
70.2880165547
20
183.2796834900
11
72.5931484371
21
181.8802891383
0
LINE
5
351
100
AcDbEntity
8
0
100
AcDbLine
62
7
6
BYLAYER
10
81.1320434878
20
175.0696191252
11
90.5724712721
21
168.6221579065
0
LINE
5
352
100
AcDbEntity
8
0
100
AcDbLine
62
7
6
BYLAYER
10
68.7033241760
20
175.0001854023
11
71.0388125001
21
173.3702855718
0
LINE
5
353
100
AcDbEntity
8
0
100
AcDbLine
62
7
6
BYLAYER
10
134.1179394984
20
226.5655469923
11
106.3343000651
21
218.7234201186
0
LINE
5
354
100
AcDbEntity
8
0
100
AcDbLine
62
7
6
BYLAYER
10
134.1360724765
20
226.7810370987
11
106.3524330432
21
218.9389102250
0
LINE
5
355
100
AcDbEntity
8
0
100
AcDbLine
62
7
6
BYLAYER
10
132.2212721488
20
228.3130862560
11
104.4376327155
21
220.4709593823
0
LINE
5
356
100
AcDbEntity
8
0
100
AcDbLine
62
7
6
BYLAYER
10
40.2857592202
20
167.2679963487
11
37.9647380121
21
139.6852627334
0
LINE
5
357
100
AcDbEntity
8
0
100
AcDbLine
62
7
6
BYLAYER
10
139.5885044797
20
238.2338801585
11
138.6364271182
21
237.9830968188
0
LINE
5
358
100
AcDbEntity
8
0
100
AcDbLine
62
7
6
BYLAYER
10
139.6066374579
20
238.4493702649
11
138.6545600964
21
238.1985869251
0
LINE
5
359
100
AcDbEntity
8
0
100
AcDbLine
62
7
6
BYLAYER
10
137.7649602474
20
240.0013637906
11
136.8128828859
21
239.7505804509
0
LINE
5
35A
100
AcDbEntity
8
0
100
AcDbLine
62
7
6
BYLAYER
10
143.6834512487
20
243.1053633694
11
143.4740871841
21
243.0502155196
0
LINE
5
35B
100
AcDbEntity
8
0
100
AcDbLine
62
7
6
BYLAYER
10
144.2753116567
20
250.1389604413
11
144.0659475922
21
250.0838125915
0
LINE
5
35C
100
AcDbEntity
8
0
100
AcDbLine
62
7
6
BYLAYER
10
127.6137449001
20
245.8572714310
11
138.9194043849
21
248.8352553198
0
LINE
5
35D
100
AcDbEntity
8
0
100
AcDbLine
62
7
6
BYLAYER
10
127.6318778783
20
246.0727615374
11
138.9375373631
21
249.0507454262
0
LINE
5
35E
100
AcDbEntity
8
0
100
AcDbLine
62
7
6
BYLAYER
10
55.0652454959
20
166.7110897521
11
55.0833784741
21
166.9265798585
0
LINE
5
35F
100
AcDbEntity
8
0
100
AcDbLine
62
7
6
BYLAYER
10
59.1336022587
20
155.8258895908
11
56.8125810506
21
128.2431559755
0
LINE
5
360
100
AcDbEntity
8
0
100
AcDbLine
62
7
6
BYLAYER
10
59.3164755564
20
155.8998915827
11
56.9954543483
21
128.3171579674
0
LINE
5
361
100
AcDbEntity
8
0
100
AcDbLine
62
7
6
BYLAYER
10
140.6349660288
20
252.7622038025
11
140.8150191243
21
252.8096309533
0
LINE
5
362
100
AcDbEntity
8
0
100
AcDbLine
62
7
6
BYLAYER
10
140.6530990070
20
252.9776939089
11
140.8331521025
21
253.0251210597
0
LINE
5
363
100
AcDbEntity
8
0
100
AcDbLine
62
7
6
BYLAYER
10
138.8114217965
20
254.5296874346
11
138.9914748920
21
254.5771145855
0
LINE
5
364
100
AcDbEntity
8
0
100
AcDbLine
62
7
6
BYLAYER
10
130.8124908461
20
255.8977756870
11
119.5068313613
21
252.9197917983
0
LINE
5
365
100
AcDbEntity
8
0
100
AcDbLine
62
7
6
BYLAYER
10
121.1868636577
20
259.4230518785
11
114.1868636577
21
259.4230518785
0
LINE
5
366
100
AcDbEntity
8
0
100
AcDbLine
62
7
6
BYLAYER
10
138.8114217965
20
254.5296874346
11
130.8124908461
21
255.8977756870
0
LINE
5
367
100
AcDbEntity
8
0
100
AcDbLine
62
7
6
BYLAYER
10
65.3061501665
20
170.8552013011
11
65.3242831447
21
171.0706914075
0
LINE
5
368
100
AcDbEntity
8
0
100
AcDbLine
62
7
6
BYLAYER
10
66.4688973130
20
177.7793336220
11
66.4362579522
21
177.3914514306
0
LINE
5
369
100
AcDbEntity
8
0
100
AcDbLine
62
7
6
BYLAYER
10
68.7740291954
20
176.3799392703
11
68.7413898347
21
175.9920570789
0
LINE
5
36A
100
AcDbEntity
8
0
100
AcDbLine
62
7
6
BYLAYER
10
68.9569024931
20
176.4539412623
11
68.9242631323
21
176.0660590708
0
LINE
5
36B
100
AcDbEntity
8
0
100
AcDbLine
62
7
6
BYLAYER
10
72.5750154589
20
181.6647990320
11
72.5931484371
21
181.8802891383
0
LINE
5
36C
100
AcDbEntity
8
0
100
AcDbLine
62
7
6
BYLAYER
10
71.4992879319
20
165.5472793726
11
71.5174209101
21
165.7627694789
0
LINE
5
36D
100
AcDbEntity
8
0
100
AcDbLine
62
7
6
BYLAYER
10
71.9712417782
20
165.7112605274
11
71.9893747564
21
165.9267506337
0
LINE
5
36E
100
AcDbEntity
8
0
100
AcDbLine
62
7
6
BYLAYER
10
76.9738032956
20
183.4445237261
11
76.9919362738
21
183.6600138325
0
LINE
5
36F
100
AcDbEntity
8
0
100
AcDbLine
62
7
6
BYLAYER
10
80.1091170542
20
164.7774581761
11
80.1272500323
21
164.9929482825
0
LINE
5
370
100
AcDbEntity
8
0
100
AcDbLine
62
7
6
BYLAYER
10
127.6137449001
20
245.8572714310
11
119.4886983831
21
252.7043016919
0
LINE
5
371
100
AcDbEntity
8
0
100
AcDbLine
62
7
6
BYLAYER
10
119.5068313613
20
252.9197917983
11
127.6318778783
21
246.0727615374
0
LINE
5
372
100
AcDbEntity
8
0
100
AcDbLine
62
7
6
BYLAYER
10
137.7649602474
20
240.0013637906
11
139.6066374579
21
238.4493702649
0
LINE
5
373
100
AcDbEntity
8
0
100
AcDbLine
62
7
6
BYLAYER
10
141.6324099736
20
244.6022090454
11
143.4740871841
21
243.0502155196
0
LINE
5
374
100
AcDbEntity
8
0
100
AcDbLine
62
7
6
BYLAYER
10
90.5543382940
20
168.4066678001
11
90.5724712721
21
168.6221579065
0
LINE
5
375
100
AcDbEntity
8
0
100
AcDbLine
62
7
6
BYLAYER
10
94.3631120333
20
190.2195880114
11
94.3812450114
21
190.4350781178
0
LINE
5
376
100
AcDbEntity
8
0
100
AcDbLine
62
7
6
BYLAYER
10
96.4966897129
20
192.0532431895
11
96.5148226911
21
192.2687332958
0
LINE
5
377
100
AcDbEntity
8
0
100
AcDbLine
62
7
6
BYLAYER
10
104.9442058333
20
217.7072571040
11
104.9623388115
21
217.9227472103
0
LINE
5
378
100
AcDbEntity
8
0
100
AcDbLine
62
7
6
BYLAYER
10
69.8495444586
20
167.3881751766
11
70.6868222480
21
171.4404095012
0
LINE
5
379
100
AcDbEntity
8
0
100
AcDbLine
62
7
6
BYLAYER
10
66.6516516063
20
169.0742594876
11
67.8042300136
21
173.1003736853
0
LINE
5
37A
100
AcDbEntity
8
0
100
AcDbLine
62
7
6
BYLAYER
10
69.2832127342
20
167.2377351976
11
71.0388125001
21
173.3702855718
0
LINE
5
37B
100
AcDbEntity
8
0
100
AcDbLine
62
7
6
BYLAYER
10
69.4332545921
20
167.3526032067
11
71.1888543580
21
173.4851535809
0
LINE
5
37C
100
AcDbEntity
8
0
100
AcDbLine
62
7
6
BYLAYER
10
142.2242703817
20
251.6358061173
11
144.0659475922
21
250.0838125915
0
LINE
5
37D
100
AcDbEntity
8
0
100
AcDbLine
62
7
6
BYLAYER
10
138.9914748920
20
254.5771145855
11
140.8331521025
21
253.0251210597
0
LINE
5
37E
100
AcDbEntity
8
0
100
AcDbLine
62
7
6
BYLAYER
10
143.4065798508
20
252.5873798045
11
141.5649026403
21
254.1393733303
0
LINE
5
37F
100
AcDbEntity
8
0
100
AcDbLine
62
7
6
BYLAYER
10
126.7445926938
20
252.6097591216
11
121.1868636577
21
259.4230518785
0
LINE
5
380
100
AcDbEntity
8
0
100
AcDbLine
62
7
6
BYLAYER
10
133.3064401744
20
236.6210717392
11
133.6530608736
21
229.6349465058
0
LINE
5
381
100
AcDbEntity
8
0
100
AcDbLine
62
7
6
BYLAYER
10
106.3343000651
20
218.7234201186
11
106.3524330432
21
218.9389102250
0
LINE
5
382
100
AcDbEntity
8
0
100
AcDbLine
62
7
6
BYLAYER
10
119.5068313613
20
252.9197917983
11
119.4886983831
21
252.7043016919
0
LINE
5
383
100
AcDbEntity
8
0
100
AcDbLine
62
7
6
BYLAYER
10
101.6153201844
20
218.4078405343
11
93.1678040640
21
192.7538266198
0
LINE
5
384
100
AcDbEntity
8
0
100
AcDbLine
62
7
6
BYLAYER
10
104.9623388115
20
217.9227472103
11
96.5148226911
21
192.2687332958
0
LINE
5
385
100
AcDbEntity
8
0
100
AcDbLine
62
7
6
BYLAYER
10
136.6964167640
20
236.4509392030
11
137.0430374632
21
229.4648139696
0
LINE
5
386
100
AcDbEntity
8
0
100
AcDbLine
62
7
6
BYLAYER
10
133.3121622939
20
236.8848958337
11
133.3064401744
21
236.6210717392
0
LINE
5
387
100
AcDbEntity
8
0
100
AcDbLine
62
7
6
BYLAYER
10
133.6530608736
20
229.6349465058
11
133.6497883450
21
229.5206165318
0
LINE
5
388
100
AcDbEntity
8
0
100
AcDbLine
62
7
6
BYLAYER
10
137.0430374632
20
229.4648139696
11
137.0363932385
21
229.2326894770
0
LINE
5
389
100
AcDbEntity
8
0
100
AcDbLine
62
7
6
BYLAYER
10
136.7008428822
20
236.6001276561
11
136.6964167640
21
236.4509392030
0
LINE
5
38A
100
AcDbEntity
8
0
100
AcDbLine
62
7
6
BYLAYER
10
127.6318778783
20
246.0727615374
11
127.6137449001
21
245.8572714310
0
LINE
5
38B
100
AcDbEntity
8
0
100
AcDbLine
62
7
6
BYLAYER
10
133.2927243555
20
236.6659362507
11
133.3108573337
21
236.8814263571
0
LINE
5
38C
100
AcDbEntity
8
0
100
AcDbLine
62
7
6
BYLAYER
10
133.2883071962
20
236.4055816328
11
133.3064401744
21
236.6210717392
0
LINE
5
38D
100
AcDbEntity
8
0
100
AcDbLine
62
7
6
BYLAYER
10
133.6434849126
20
229.5211469506
11
133.6530608736
21
229.6349465058
0
LINE
5
38E
100
AcDbEntity
8
0
100
AcDbLine
62
7
6
BYLAYER
10
134.1179394984
20
226.5655469923
11
134.1360724765
21
226.7810370987
0
LINE
5
38F
100
AcDbEntity
8
0
100
AcDbLine
62
7
6
BYLAYER
10
138.9375373631
20
249.0507454262
11
138.9194043849
21
248.8352553198
0
LINE
5
390
100
AcDbEntity
8
0
100
AcDbLine
62
7
6
BYLAYER
10
138.6364271182
20
237.9830968188
11
138.6545600964
21
238.1985869251
0
LINE
5
391
100
AcDbEntity
8
0
100
AcDbLine
62
7
6
BYLAYER
10
140.8331521025
20
253.0251210597
11
140.8150191243
21
252.8096309533
0
LINE
5
392
100
AcDbEntity
8
0
100
AcDbLine
62
7
6
BYLAYER
10
139.5885044797
20
238.2338801585
11
139.6066374579
21
238.4493702649
0
LINE
5
393
100
AcDbEntity
8
0
100
AcDbLine
62
7
6
BYLAYER
10
142.2242703817
20
251.6358061173
11
141.6324099736
21
244.6022090454
0
LINE
5
394
100
AcDbEntity
8
0
100
AcDbLine
62
7
6
BYLAYER
10
144.0659475922
20
250.0838125915
11
143.4740871841
21
243.0502155196
0
LINE
5
395
100
AcDbEntity
8
0
100
AcDbLine
62
7
6
BYLAYER
10
144.2753116567
20
250.1389604413
11
143.6834512487
21
243.1053633694
0
LINE
5
396
100
AcDbEntity
8
0
100
AcDbLine
62
7
6
BYLAYER
10
138.9375373631
20
249.0507454262
11
140.6530990070
21
252.9776939089
0
LINE
5
397
100
AcDbEntity
8
0
100
AcDbLine
62
7
6
BYLAYER
10
138.9194043849
20
248.8352553198
11
139.0013637590
21
249.0228616591
0
LINE
5
398
100
AcDbEntity
8
0
100
AcDbLine
62
7
6
BYLAYER
10
71.0388125001
20
173.3702855718
11
71.1888543580
21
173.4851535809
0
LINE
5
399
100
AcDbEntity
8
0
100
AcDbLine
62
7
6
BYLAYER
10
69.2832127342
20
167.2377351976
11
69.4332545921
21
167.3526032067
0
LINE
5
39A
100
AcDbEntity
8
0
100
AcDbLine
62
7
6
BYLAYER
10
74.6471807899
20
185.0436744100
11
70.2880165547
21
183.2796834900
0
LINE
5
39B
100
AcDbEntity
8
0
100
AcDbLine
62
7
6
BYLAYER
10
76.9523126724
20
183.6442800583
11
72.5931484371
21
181.8802891383
0
LINE
5
39C
100
AcDbEntity
8
0
100
AcDbLine
62
7
6
BYLAYER
10
76.9341796942
20
183.4287899520
11
72.5750154589
21
181.6647990320
0
LINE
5
39D
100
AcDbEntity
8
0
100
AcDbLine
62
7
6
BYLAYER
10
40.4686325179
20
167.3419983406
11
40.2857592202
21
167.2679963487
0
LINE
5
39E
100
AcDbEntity
8
0
100
AcDbLine
62
7
6
BYLAYER
10
59.9052262615
20
174.3653194364
11
49.6595387508
21
170.2192724507
0
LINE
5
39F
100
AcDbEntity
8
0
100
AcDbLine
62
7
6
BYLAYER
10
92.1169374457
20
191.8506830247
11
74.7276287080
21
185.0756187394
0
LINE
5
3A0
100
AcDbEntity
8
0
100
AcDbLine
62
7
6
BYLAYER
10
94.3812450115
20
190.4350781178
11
76.9919362738
21
183.6600138325
0
LINE
5
3A1
100
AcDbEntity
8
0
100
AcDbLine
62
7
6
BYLAYER
10
94.3631120333
20
190.2195880114
11
76.9738032956
21
183.4445237261
0
LINE
5
3A2
100
AcDbEntity
8
0
100
AcDbLine
62
7
6
BYLAYER
10
68.9569024931
20
176.4539412623
11
68.7740291954
21
176.3799392703
0
LINE
5
3A3
100
AcDbEntity
8
0
100
AcDbLine
62
7
6
BYLAYER
10
68.9242631323
20
176.0660590708
11
68.7413898347
21
175.9920570789
0
LINE
5
3A4
100
AcDbEntity
8
0
100
AcDbLine
62
7
6
BYLAYER
10
65.3242831447
20
171.0706914075
11
55.0833784741
21
166.9265798585
0
LINE
5
3A5
100
AcDbEntity
8
0
100
AcDbLine
62
7
6
BYLAYER
10
65.3061501665
20
170.8552013011
11
55.0652454959
21
166.7110897521
0
LINE
5
3A6
100
AcDbEntity
8
0
100
AcDbLine
62
7
6
BYLAYER
10
51.0451199783
20
160.9212477858
11
50.8622466807
21
160.8472457939
0
LINE
5
3A7
100
AcDbEntity
8
0
100
AcDbLine
62
7
6
BYLAYER
10
59.3164755564
20
155.8998915827
11
59.1336022587
21
155.8258895908
0
LINE
5
3A8
100
AcDbEntity
8
0
100
AcDbLine
62
7
6
BYLAYER
10
70.6868222480
20
171.4404095012
11
81.1320434878
21
175.0696191252
0
LINE
5
3A9
100
AcDbEntity
8
0
100
AcDbLine
62
7
6
BYLAYER
10
69.8495444586
20
167.3881751766
11
69.4670685619
21
167.2552832854
0
LINE
5
3AA
100
AcDbEntity
8
0
100
AcDbLine
62
7
6
BYLAYER
10
71.9893747564
20
165.9267506337
11
71.5174209101
21
165.7627694789
0
LINE
5
3AB
100
AcDbEntity
8
0
100
AcDbLine
62
7
6
BYLAYER
10
71.9712417782
20
165.7112605274
11
71.4992879319
21
165.5472793726
0
LINE
5
3AC
100
AcDbEntity
8
0
100
AcDbLine
62
7
6
BYLAYER
10
90.5724712721
20
168.6221579065
11
80.1272500323
21
164.9929482825
0
LINE
5
3AD
100
AcDbEntity
8
0
100
AcDbLine
62
7
6
BYLAYER
10
90.5543382940
20
168.4066678001
11
80.1091170542
21
164.7774581761
0
LINE
5
3AE
100
AcDbEntity
8
0
100
AcDbLine
62
7
6
BYLAYER
10
56.9954543483
20
128.3171579674
11
56.8125810506
21
128.2431559755
0
LINE
5
3AF
100
AcDbEntity
8
0
100
AcDbLine
62
7
6
BYLAYER
10
154.4019407781
20
154.5415130378
11
154.4019407781
21
126.7415130378
0
LINE
5
3B0
100
AcDbEntity
8
0
100
AcDbLine
62
7
6
BYLAYER
10
244.4476093330
20
141.5316039351
11
239.2187351956
21
147.8416185342
0
LINE
5
3B1
100
AcDbEntity
8
0
100
AcDbLine
62
7
6
BYLAYER
10
223.4332338456
20
147.8569588958
11
224.4683622134
21
144.6233557873
0
LINE
5
3B2
100
AcDbEntity
8
0
100
AcDbLine
62
7
6
BYLAYER
10
186.4019407781
20
154.5415130378
11
186.4019407781
21
146.9415130378
0
LINE
5
3B3
100
AcDbEntity
8
0
100
AcDbLine
62
7
6
BYLAYER
10
186.4019407781
20
146.9415130378
11
186.4019407781
21
138.9415130378
0
LINE
5
3B4
100
AcDbEntity
8
0
100
AcDbLine
62
7
6
BYLAYER
10
186.4019407781
20
138.9415130378
11
186.4019407781
21
126.7415130378
0
LINE
5
3B5
100
AcDbEntity
8
0
100
AcDbLine
62
7
6
BYLAYER
10
194.3809224121
20
146.9415130378
11
194.3809224121
21
138.9415130378
0
LINE
5
3B6
100
AcDbEntity
8
0
100
AcDbLine
62
7
6
BYLAYER
10
208.3809224121
20
143.5415256116
11
208.3809224121
21
142.3415130378
0
LINE
5
3B7
100
AcDbEntity
8
0
100
AcDbLine
62
7
6
BYLAYER
10
208.3809224121
20
142.3415130378
11
208.3809224121
21
138.9415130378
0
LINE
5
3B8
100
AcDbEntity
8
0
100
AcDbLine
62
7
6
BYLAYER
10
208.3874608736
20
146.9415130378
11
208.3776532055
21
143.5415256116
0
LINE
5
3B9
100
AcDbEntity
8
0
100
AcDbLine
62
7
6
BYLAYER
10
231.7181658509
20
150.5008180051
11
232.7532942187
21
147.2672148966
0
LINE
5
3BA
100
AcDbEntity
8
0
100
AcDbLine
62
7
6
BYLAYER
10
215.1818068009
20
142.3415130378
11
215.1818068009
21
138.9415130378
0
LINE
5
3BB
100
AcDbEntity
8
0
100
AcDbLine
62
7
6
BYLAYER
10
215.6318068009
20
142.3415130378
11
215.6318068009
21
138.9415130378
0
LINE
5
3BC
100
AcDbEntity
8
0
100
AcDbLine
62
7
6
BYLAYER
10
222.8253902715
20
142.3415130378
11
222.8253902715
21
138.9415130378
0
LINE
5
3BD
100
AcDbEntity
8
0
100
AcDbLine
62
7
6
BYLAYER
10
217.1507035576
20
146.8912728455
11
217.1376469447
21
143.4965535040
0
LINE
5
3BE
100
AcDbEntity
8
0
100
AcDbLine
62
7
6
BYLAYER
10
223.4332872873
20
147.8708537347
11
223.4332338456
21
147.8569588958
0
LINE
5
3BF
100
AcDbEntity
8
0
100
AcDbLine
62
7
6
BYLAYER
10
231.7182192926
20
150.5147128440
11
231.7181658509
21
150.5008180051
0
LINE
5
3C0
100
AcDbEntity
8
0
100
AcDbLine
62
7
6
BYLAYER
10
238.9312426037
20
151.2924906667
11
238.9311891620
21
151.2785958278
0
LINE
5
3C1
100
AcDbEntity
8
0
100
AcDbLine
62
7
6
BYLAYER
10
239.5385195833
20
151.2352104954
11
239.5384661416
21
151.2213156565
0
LINE
5
3C2
100
AcDbEntity
8
0
100
AcDbLine
62
7
6
BYLAYER
10
268.9926232399
20
168.8400852951
11
258.4000091432
21
176.9812292356
0
LINE
5
3C3
100
AcDbEntity
8
0
100
AcDbLine
62
7
6
BYLAYER
10
245.8582404776
20
156.4559272549
11
245.8581870359
21
156.4420324160
0
LINE
5
3C4
100
AcDbEntity
8
0
100
AcDbLine
62
7
6
BYLAYER
10
259.2984157299
20
155.1882099417
11
259.2983622882
21
155.1743151028
0
LINE
5
3C5
100
AcDbEntity
8
0
100
AcDbLine
62
7
6
BYLAYER
10
238.9311891620
20
151.2785958278
11
238.6114582160
21
147.8988987055
0
LINE
5
3C6
100
AcDbEntity
8
0
100
AcDbLine
62
7
6
BYLAYER
10
186.4019407781
20
126.7415130378
11
154.4019407781
21
126.7415130378
0
LINE
5
3C7
100
AcDbEntity
8
0
100
AcDbLine
62
7
6
BYLAYER
10
228.7846586425
20
138.9415130378
11
186.4019407781
21
138.9415130378
0
LINE
5
3C8
100
AcDbEntity
8
0
100
AcDbLine
62
7
6
BYLAYER
10
252.2571031599
20
138.5594973185
11
228.8384208250
21
138.9410750735
0
LINE
5
3C9
100
AcDbEntity
8
0
100
AcDbLine
62
7
6
BYLAYER
10
252.3124944994
20
141.9590460826
11
228.8938121646
21
142.3406238376
0
LINE
5
3CA
100
AcDbEntity
8
0
100
AcDbLine
62
7
6
BYLAYER
10
257.8877845853
20
140.2638866219
11
256.9681177031
21
140.3506323382
0
LINE
5
3CB
100
AcDbEntity
8
0
100
AcDbLine
62
7
6
BYLAYER
10
256.5243575043
20
140.3924891203
11
244.4476093330
21
141.5316039351
0
LINE
5
3CC
100
AcDbEntity
8
0
100
AcDbLine
62
7
6
BYLAYER
10
239.2187351956
20
147.8416185342
11
238.6114582160
21
147.8988987055
0
LINE
5
3CD
100
AcDbEntity
8
0
100
AcDbLine
62
7
6
BYLAYER
10
239.5385195833
20
151.2352104954
11
238.9312426037
21
151.2924906667
0
LINE
5
3CE
100
AcDbEntity
8
0
100
AcDbLine
62
7
6
BYLAYER
10
245.8582404776
20
156.4559272549
11
259.2984157299
21
155.1882099417
0
LINE
5
3CF
100
AcDbEntity
8
0
100
AcDbLine
62
7
6
BYLAYER
10
259.2983622882
20
155.1743151028
11
257.8877845853
21
140.2638866219
0
LINE
5
3D0
100
AcDbEntity
8
0
100
AcDbLine
62
7
6
BYLAYER
10
228.7846586425
20
142.3415130378
11
208.3809224121
21
142.3415130378
0
LINE
5
3D1
100
AcDbEntity
8
0
100
AcDbLine
62
7
6
BYLAYER
10
208.3874608736
20
146.9415130378
11
186.4019407781
21
146.9415130378
0
LINE
5
3D2
100
AcDbEntity
8
0
100
AcDbLine
62
7
6
BYLAYER
10
186.4019407781
20
154.5415130378
11
154.4019407781
21
154.5415130378
0
LINE
5
3D3
100
AcDbEntity
8
0
100
AcDbLine
62
7
6
BYLAYER
10
217.1507569992
20
146.9051676844
11
208.3874608252
21
146.9415004639
0
LINE
5
3D4
100
AcDbEntity
8
0
100
AcDbLine
62
7
6
BYLAYER
10
333.9781749425
20
168.0936740007
11
300.5913573551
21
173.0516519328
0
LINE
5
3D5
100
AcDbEntity
8
0
100
AcDbLine
62
7
6
BYLAYER
10
334.4776017680
20
171.4567935118
11
301.0907841806
21
176.4147714440
0
LINE
5
3D6
100
AcDbEntity
8
0
100
AcDbLine
62
7
6
BYLAYER
10
393.8899422377
20
169.0454895302
11
380.5922146995
21
171.3736738698
0
LINE
5
3D7
100
AcDbEntity
8
0
100
AcDbLine
62
7
6
BYLAYER
10
258.4000091432
20
176.9812292356
11
251.4000091432
21
176.9812292356
0
LINE
5
3D8
100
AcDbEntity
8
0
100
AcDbLine
62
7
6
BYLAYER
10
375.8793739178
20
178.0870286024
11
353.1120519538
21
182.0731624962
0
LINE
5
3D9
100
AcDbEntity
8
0
100
AcDbLine
62
7
6
BYLAYER
10
376.4657314552
20
181.4360859084
11
353.6984094911
21
185.4222198021
0
LINE
5
3DA
100
AcDbEntity
8
0
100
AcDbLine
62
7
6
BYLAYER
10
383.1790861879
20
186.1489266900
11
396.4768137261
21
183.8207423505
0
LINE
5
3DB
100
AcDbEntity
8
0
100
AcDbLine
62
7
6
BYLAYER
10
380.5922146995
20
171.3736738698
11
375.8793739178
21
178.0870286024
0
LINE
5
3DC
100
AcDbEntity
8
0
100
AcDbLine
62
7
6
BYLAYER
10
354.8182437976
20
185.2261576789
11
354.2318862602
21
181.8771003730
0
LINE
5
3DD
100
AcDbEntity
8
0
100
AcDbLine
62
7
6
BYLAYER
10
361.5172295474
20
184.0532900841
11
360.9308720100
21
180.7042327782
0
LINE
5
3DE
100
AcDbEntity
8
0
100
AcDbLine
62
7
6
BYLAYER
10
369.5549670816
20
182.6460319945
11
368.9686095443
21
179.2969746885
0
LINE
5
3DF
100
AcDbEntity
8
0
100
AcDbLine
62
7
6
BYLAYER
10
376.2539528314
20
181.4731643997
11
375.6675952941
21
178.1241070938
0
LINE
5
3E0
100
AcDbEntity
8
0
100
AcDbLine
62
7
6
BYLAYER
10
393.8899422377
20
169.0454895302
11
396.4768137261
21
183.8207423505
0
LINE
5
3E1
100
AcDbEntity
8
0
100
AcDbLine
62
7
6
BYLAYER
10
239.5385195833
20
151.2352104954
11
245.8582404776
21
156.4559272549
0
LINE
5
3E2
100
AcDbEntity
8
0
100
AcDbLine
62
7
6
BYLAYER
10
346.5935243104
20
182.9284404789
11
337.4381786335
21
172.5392046898
0
LINE
5
3E3
100
AcDbEntity
8
0
100
AcDbLine
62
7
6
BYLAYER
10
349.1443888009
20
180.6805324845
11
339.9890431240
21
170.2912966955
0
LINE
5
3E4
100
AcDbEntity
8
0
100
AcDbLine
62
7
6
BYLAYER
10
295.9879901659
20
175.0720377483
11
254.3948353358
21
142.6557503341
0
LINE
5
3E5
100
AcDbEntity
8
0
100
AcDbLine
62
7
6
BYLAYER
10
298.0780409001
20
172.3903054858
11
256.4848860700
21
139.9740180715
0
LINE
5
3E6
100
AcDbEntity
8
0
100
AcDbLine
62
7
6
BYLAYER
10
376.4657314552
20
181.4360859084
11
383.1790861879
21
186.1489266900
0
LINE
5
3E7
100
AcDbEntity
8
0
100
AcDbLine
62
7
6
BYLAYER
10
231.7182192926
20
150.5147128440
11
223.4332872873
21
147.8708537347
0
LINE
5
3E8
100
AcDbEntity
8
0
100
AcDbLine
62
7
6
BYLAYER
10
232.7532942187
20
147.2672148966
11
224.4683622134
21
144.6233557873
0
ARC
5
3E9
100
AcDbEntity
8
DEFAULT_1
100
AcDbCircle
62
7
6
BYLAYER
10
288.3853470116
20
157.1270925524
40
20.6000000000
100
AcDbArc
50
173.4636458939
51
268.1383080000
0
ARC
5
3EA
100
AcDbEntity
8
0
100
AcDbCircle
62
7
6
BYLAYER
10
252.3662566820
20
145.2586081184
40
6.7000000000
100
AcDbArc
50
269.0665204746
51
307.9316362261
0
ARC
5
3EB
100
AcDbEntity
8
0
100
AcDbCircle
62
7
6
BYLAYER
10
300.1066195540
20
169.7874477015
40
3.3000000000
100
AcDbArc
50
81.5532456757
51
127.9316362261
0
ARC
5
3EC
100
AcDbEntity
8
0
100
AcDbCircle
62
7
6
BYLAYER
10
334.9623395692
20
174.7209977432
40
6.7000000000
100
AcDbArc
50
261.5532456757
51
318.6124076424
0
ARC
5
3ED
100
AcDbEntity
8
0
100
AcDbCircle
62
7
6
BYLAYER
10
352.3704821271
20
177.8375900210
40
4.3000000000
100
AcDbArc
50
80.0692310000
51
138.6124076424
0
ARC
5
3EE
100
AcDbEntity
8
0
100
AcDbCircle
62
7
6
BYLAYER
10
352.3704821271
20
177.8375900210
40
7.7000000000
100
AcDbArc
50
80.0692310000
51
138.6124076424
0
ARC
5
3EF
100
AcDbEntity
8
0
100
AcDbCircle
62
7
6
BYLAYER
10
334.9623395692
20
174.7209977432
40
3.3000000000
100
AcDbArc
50
261.5532456757
51
318.6124076424
0
ARC
5
3F0
100
AcDbEntity
8
0
100
AcDbCircle
62
7
6
BYLAYER
10
300.1066195540
20
169.7874477015
40
6.7000000000
100
AcDbArc
50
81.5532456757
51
127.9316362261
0
ARC
5
3F1
100
AcDbEntity
8
0
100
AcDbCircle
62
7
6
BYLAYER
10
252.3662566820
20
145.2586081184
40
3.3000000000
100
AcDbArc
50
269.0665204746
51
307.9316362261
0
ARC
5
3F2
100
AcDbEntity
8
0
100
AcDbCircle
62
7
6
BYLAYER
10
228.7846586425
20
135.6415130378
40
6.7000000000
100
AcDbArc
50
89.0665204745
51
90.0000000000
0
SPLINE
5
3F3
100
AcDbEntity
8
0
100
AcDbSpline
62
7
6
BYLAYER
70
0
71
3
72
8
73
4
74
2
42
0.0000001000
43
0.0000001000
44
0.0000000001
40
0.0000000000
40
0.0000000000
40
0.0000000000
40
0.0000000000
40
1.0000000000
40
1.0000000000
40
1.0000000000
40
1.0000000000
10
69.8369793782
20
165.7424440005
30
0.0000000000
10
69.7996036850
20
165.7635924527
30
0.0000000000
10
69.7637088495
20
165.7871356377
30
0.0000000000
10
69.7296366029
20
165.8132590739
30
0.0000000000
11
69.8369793782
21
165.7424440005
31
0.0000000000
11
69.7296366029
21
165.8132590739
31
0.0000000000
0
SPLINE
5
3F4
100
AcDbEntity
8
0
100
AcDbSpline
62
7
6
BYLAYER
70
0
71
3
72
9
73
5
74
3
42
0.0000001000
43
0.0000001000
44
0.0000000001
40
0.0000000000
40
0.0000000000
40
0.0000000000
40
0.0000000000
40
0.4855473917
40
1.0000000000
40
1.0000000000
40
1.0000000000
40
1.0000000000
10
69.7296366029
20
165.8132590739
30
0.0000000000
10
69.6352605691
20
165.8856178568
30
0.0000000000
10
69.4696892891
20
166.0754141122
30
0.0000000000
10
69.3888878778
20
166.3111975283
30
0.0000000000
10
69.3648263674
20
166.4352070126
30
0.0000000000
11
69.7296366029
21
165.8132590739
31
0.0000000000
11
69.4944601908
21
166.0807697718
31
0.0000000000
11
69.3648263674
21
166.4352070126
31
0.0000000000
0
SPLINE
5
3F5
100
AcDbEntity
8
0
100
AcDbSpline
62
7
6
BYLAYER
70
0
71
3
72
9
73
5
74
3
42
0.0000001000
43
0.0000001000
44
0.0000000001
40
0.0000000000
40
0.0000000000
40
0.0000000000
40
0.0000000000
40
0.5366344291
40
1.0000000000
40
1.0000000000
40
1.0000000000
40
1.0000000000
10
69.3648263674
20
166.4352070126
30
0.0000000000
10
69.3374006739
20
166.5765550009
30
0.0000000000
10
69.3286787789
20
166.8464785109
30
0.0000000000
10
69.3727679760
20
167.1114105200
30
0.0000000000
10
69.4015640275
20
167.2320101897
30
0.0000000000
11
69.3648263674
21
166.4352070126
31
0.0000000000
11
69.3432480896
21
166.8648180633
31
0.0000000000
11
69.4015640275
21
167.2320101897
31
0.0000000000
0
SPLINE
5
3F6
100
AcDbEntity
8
0
100
AcDbSpline
62
7
6
BYLAYER
70
0
71
3
72
8
73
4
74
2
42
0.0000001000
43
0.0000001000
44
0.0000000001
40
0.0000000000
40
0.0000000000
40
0.0000000000
40
0.0000000000
40
1.0000000000
40
1.0000000000
40
1.0000000000
40
1.0000000000
10
69.4015640275
20
167.2320101897
30
0.0000000000
10
69.4112235065
20
167.2724646934
30
0.0000000000
10
69.4218244249
20
167.3126760674
30
0.0000000000
10
69.4332545921
20
167.3526032067
30
0.0000000000
11
69.4015640275
21
167.2320101897
31
0.0000000000
11
69.4332545921
21
167.3526032067
31
0.0000000000
0
SPLINE
5
3F7
100
AcDbEntity
8
0
100
AcDbSpline
62
7
6
BYLAYER
70
0
71
3
72
8
73
4
74
2
42
0.0000001000
43
0.0000001000
44
0.0000000001
40
0.0000000000
40
0.0000000000
40
0.0000000000
40
0.0000000000
40
1.0000000000
40
1.0000000000
40
1.0000000000
40
1.0000000000
10
142.1000210531
20
252.8806153810
30
0.0000000000
10
142.1167280904
20
252.8281816553
30
0.0000000000
10
142.1318229146
20
252.7752432808
30
0.0000000000
10
142.1453290412
20
252.7219527280
30
0.0000000000
11
142.1000210531
21
252.8806153810
31
0.0000000000
11
142.1453290412
21
252.7219527280
31
0.0000000000
0
SPLINE
5
3F8
100
AcDbEntity
8
0
100
AcDbSpline
62
7
6
BYLAYER
70
0
71
3
72
8
73
4
74
2
42
0.0000001000
43
0.0000001000
44
0.0000000001
40
0.0000000000
40
0.0000000000
40
0.0000000000
40
0.0000000000
40
1.0000000000
40
1.0000000000
40
1.0000000000
40
1.0000000000
10
142.1453290412
20
252.7219527280
30
0.0000000000
10
142.2351548090
20
252.3675309943
30
0.0000000000
10
142.2547087158
20
251.9975315757
30
0.0000000000
10
142.2242703817
20
251.6358061173
30
0.0000000000
11
142.1453290412
21
252.7219527280
31
0.0000000000
11
142.2242703817
21
251.6358061173
31
0.0000000000
0
SPLINE
5
3F9
100
AcDbEntity
8
0
100
AcDbSpline
62
7
6
BYLAYER
70
0
71
3
72
8
73
4
74
2
42
0.0000001000
43
0.0000001000
44
0.0000000001
40
0.0000000000
40
0.0000000000
40
0.0000000000
40
0.0000000000
40
1.0000000000
40
1.0000000000
40
1.0000000000
40
1.0000000000
10
133.6500362639
20
229.5205917582
30
0.0000000000
10
133.6483439919
20
229.5036565604
30
0.0000000000
10
133.6461170233
20
229.4867397982
30
0.0000000000
10
133.6433793661
20
229.4698695461
30
0.0000000000
11
133.6500362639
21
229.5205917582
31
0.0000000000
11
133.6433793661
21
229.4698695461
31
0.0000000000
0
SPLINE
5
3FA
100
AcDbEntity
8
0
100
AcDbSpline
62
7
6
BYLAYER
70
0
71
3
72
9
73
5
74
3
42
0.0000001000
43
0.0000001000
44
0.0000000001
40
0.0000000000
40
0.0000000000
40
0.0000000000
40
0.0000000000
40
0.3665976360
40
1.0000000000
40
1.0000000000
40
1.0000000000
40
1.0000000000
10
133.6433793661
20
229.4698695461
30
0.0000000000
10
133.6223082913
20
229.3400233655
30
0.0000000000
10
133.4823066008
20
228.9933464904
30
0.0000000000
10
133.1986467840
20
228.7624185815
30
0.0000000000
10
133.0050636432
20
228.6441349991
30
0.0000000000
11
133.6433793661
21
229.4698695461
31
0.0000000000
11
133.5003529484
21
229.1013974662
31
0.0000000000
11
133.0050636432
21
228.6441349991
31
0.0000000000
0
SPLINE
5
3FB
100
AcDbEntity
8
0
100
AcDbSpline
62
7
6
BYLAYER
70
0
71
3
72
8
73
4
74
2
42
0.0000001000
43
0.0000001000
44
0.0000000001
40
0.0000000000
40
0.0000000000
40
0.0000000000
40
0.0000000000
40
1.0000000000
40
1.0000000000
40
1.0000000000
40
1.0000000000
10
133.0050636432
20
228.6441349991
30
0.0000000000
10
132.7607238786
20
228.4948379963
30
0.0000000000
10
132.4942198409
20
228.3901276542
30
0.0000000000
10
132.2212721488
20
228.3130862560
30
0.0000000000
11
133.0050636432
21
228.6441349991
31
0.0000000000
11
132.2212721488
21
228.3130862560
31
0.0000000000
0
SPLINE
5
3FC
100
AcDbEntity
8
0
100
AcDbSpline
62
7
6
BYLAYER
70
0
71
3
72
11
73
7
74
5
42
0.0000001000
43
0.0000001000
44
0.0000000001
40
0.0000000000
40
0.0000000000
40
0.0000000000
40
0.0000000000
40
0.2246784724
40
0.4754092808
40
0.7391706056
40
1.0000000000
40
1.0000000000
40
1.0000000000
40
1.0000000000
10
49.6595387508
20
170.2192724507
30
0.0000000000
10
49.2285732440
20
170.0448768098
30
0.0000000000
10
48.3752070737
20
169.5280238173
30
0.0000000000
10
47.2725388892
20
168.4544316811
30
0.0000000000
10
46.3541517334
20
167.1266704819
30
0.0000000000
10
45.9107341264
20
166.1293405952
30
0.0000000000
10
45.7440379057
20
165.6143908118
30
0.0000000000
11
49.6595387508
21
170.2192724507
31
0.0000000000
11
48.4541713443
21
169.5175635483
31
0.0000000000
11
47.3295190708
21
168.4415756689
31
0.0000000000
11
46.3956707305
21
167.0966340031
31
0.0000000000
11
45.7440379057
21
165.6143908118
31
0.0000000000
0
SPLINE
5
3FD
100
AcDbEntity
8
0
100
AcDbSpline
62
7
6
BYLAYER
70
0
71
3
72
8
73
4
74
2
42
0.0000001000
43
0.0000001000
44
0.0000000001
40
0.0000000000
40
0.0000000000
40
0.0000000000
40
0.0000000000
40
1.0000000000
40
1.0000000000
40
1.0000000000
40
1.0000000000
10
45.7440379057
20
165.6143908118
30
0.0000000000
10
45.6062179517
20
165.1886441745
30
0.0000000000
10
45.5051550467
20
164.7498608871
30
0.0000000000
10
45.4548477098
20
164.3062773076
30
0.0000000000
11
45.7440379057
21
165.6143908118
31
0.0000000000
11
45.4548477098
21
164.3062773076
31
0.0000000000
0
SPLINE
5
3FE
100
AcDbEntity
8
0
100
AcDbSpline
62
7
6
BYLAYER
70
0
71
3
72
8
73
4
74
2
42
0.0000001000
43
0.0000001000
44
0.0000000001
40
0.0000000000
40
0.0000000000
40
0.0000000000
40
0.0000000000
40
1.0000000000
40
1.0000000000
40
1.0000000000
40
1.0000000000
10
45.4548477098
20
164.3062773076
30
0.0000000000
10
45.4485673575
20
164.2509004711
30
0.0000000000
10
45.4430780281
20
164.1954488223
30
0.0000000000
10
45.4384069573
20
164.1399383861
30
0.0000000000
11
45.4548477098
21
164.3062773076
31
0.0000000000
11
45.4384069573
21
164.1399383861
31
0.0000000000
0
SPLINE
5
3FF
100
AcDbEntity
8
0
100
AcDbSpline
62
7
6
BYLAYER
70
0
71
3
72
8
73
4
74
2
42
0.0000001000
43
0.0000001000
44
0.0000000001
40
0.0000000000
40
0.0000000000
40
0.0000000000
40
0.0000000000
40
1.0000000000
40
1.0000000000
40
1.0000000000
40
1.0000000000
10
140.8150191243
20
252.8096309533
30
0.0000000000
10
141.1664863782
20
252.9022097030
30
0.0000000000
10
141.5347032444
20
252.9470277040
30
0.0000000000
10
141.8997816924
20
252.9200423201
30
0.0000000000
11
140.8150191243
21
252.8096309533
31
0.0000000000
11
141.8997816924
21
252.9200423201
31
0.0000000000
0
SPLINE
5
400
100
AcDbEntity
8
0
100
AcDbSpline
62
7
6
BYLAYER
70
0
71
3
72
9
73
5
74
3
42
0.0000001000
43
0.0000001000
44
0.0000000001
40
0.0000000000
40
0.0000000000
40
0.0000000000
40
0.0000000000
40
0.6744294790
40
1.0000000000
40
1.0000000000
40
1.0000000000
40
1.0000000000
10
141.8997816924
20
252.9200423201
30
0.0000000000
10
142.2289548889
20
252.8957109328
30
0.0000000000
10
142.7132482879
20
252.7730803850
30
0.0000000000
10
143.1227641752
20
252.4982118940
30
0.0000000000
10
143.2448245193
20
252.3953647275
30
0.0000000000
11
141.8997816924
21
252.9200423201
31
0.0000000000
11
142.8481854442
21
252.6610534116
31
0.0000000000
11
143.2448245193
21
252.3953647275
31
0.0000000000
0
SPLINE
5
401
100
AcDbEntity
8
0
100
AcDbSpline
62
7
6
BYLAYER
70
0
71
3
72
12
73
8
74
6
42
0.0000001000
43
0.0000001000
44
0.0000000001
40
0.0000000000
40
0.0000000000
40
0.0000000000
40
0.0000000000
40
0.1808178482
40
0.3826022237
40
0.5948733624
40
0.8047849277
40
1.0000000000
40
1.0000000000
40
1.0000000000
40
1.0000000000
10
70.2880165547
20
183.2796834900
30
0.0000000000
10
69.8980953819
20
183.1218969578
30
0.0000000000
10
69.1260021802
20
182.6542680598
30
0.0000000000
10
68.1283500132
20
181.6829227937
30
0.0000000000
10
67.2974283009
20
180.4816150421
30
0.0000000000
10
66.7107340077
20
179.1620288468
30
0.0000000000
10
66.5069765906
20
178.2318631240
30
0.0000000000
10
66.4688973130
20
177.7793336220
30
0.0000000000
11
70.2880165547
21
183.2796834900
31
0.0000000000
11
69.1974460441
21
182.6448040069
31
0.0000000000
11
68.1799035109
21
181.6712911637
31
0.0000000000
11
67.3349931078
21
180.4544391803
31
0.0000000000
11
66.7454205520
21
179.1133620072
31
0.0000000000
11
66.4688973130
21
177.7793336220
31
0.0000000000
0
SPLINE
5
402
100
AcDbEntity
8
0
100
AcDbSpline
62
7
6
BYLAYER
70
0
71
3
72
9
73
5
74
3
42
0.0000001000
43
0.0000001000
44
0.0000000001
40
0.0000000000
40
0.0000000000
40
0.0000000000
40
0.0000000000
40
0.6677823043
40
1.0000000000
40
1.0000000000
40
1.0000000000
40
1.0000000000
10
74.7276287080
20
185.0756187394
30
0.0000000000
10
74.7096768040
20
185.0686244819
30
0.0000000000
10
74.6827915362
20
185.0581522741
30
0.0000000000
10
74.6561171741
20
185.0471555489
30
0.0000000000
10
74.6472905340
20
185.0434154162
30
0.0000000000
11
74.7276287080
21
185.0756187394
31
0.0000000000
11
74.6738638417
21
185.0544042721
31
0.0000000000
11
74.6472905340
21
185.0434154162
31
0.0000000000
0
SPLINE
5
403
100
AcDbEntity
8
0
100
AcDbSpline
62
7
6
BYLAYER
70
0
71
3
72
10
73
6
74
4
42
0.0000001000
43
0.0000001000
44
0.0000000001
40
0.0000000000
40
0.0000000000
40
0.0000000000
40
0.0000000000
40
0.2821707421
40
0.6120394153
40
1.0000000000
40
1.0000000000
40
1.0000000000
40
1.0000000000
10
93.1678040640
20
192.7538266198
30
0.0000000000
10
93.1259024951
20
192.6265769744
30
0.0000000000
10
92.9696174158
20
192.3711902471
30
0.0000000000
10
92.5974652515
20
192.0677496042
30
0.0000000000
10
92.2885694738
20
191.9175527342
30
0.0000000000
10
92.1169374457
20
191.8506830247
30
0.0000000000
11
93.1678040640
21
192.7538266198
31
0.0000000000
11
92.9666025026
21
192.4059015485
31
0.0000000000
11
92.6102669214
21
192.0996569763
31
0.0000000000
11
92.1169374457
21
191.8506830247
31
0.0000000000
0
SPLINE
5
404
100
AcDbEntity
8
0
100
AcDbSpline
62
7
6
BYLAYER
70
0
71
3
72
10
73
6
74
4
42
0.0000001000
43
0.0000001000
44
0.0000000001
40
0.0000000000
40
0.0000000000
40
0.0000000000
40
0.0000000000
40
0.3966387635
40
0.7271889750
40
1.0000000000
40
1.0000000000
40
1.0000000000
40
1.0000000000
10
104.4376327155
20
220.4709593823
30
0.0000000000
10
103.9779658733
20
220.3412151958
30
0.0000000000
10
103.1513415127
20
220.0311283006
30
0.0000000000
10
102.1433534228
20
219.3451242405
30
0.0000000000
10
101.7180685509
20
218.7198740347
30
0.0000000000
10
101.6153201844
20
218.4078405343
30
0.0000000000
11
104.4376327155
21
220.4709593823
31
0.0000000000
11
103.1040705082
21
219.9467873907
31
0.0000000000
11
102.1400469549
21
219.2420833082
31
0.0000000000
11
101.6153201844
21
218.4078405343
31
0.0000000000
0
SPLINE
5
405
100
AcDbEntity
8
0
100
AcDbSpline
62
7
6
BYLAYER
70
0
71
3
72
11
73
7
74
5
42
0.0000001000
43
0.0000001000
44
0.0000000001
40
0.0000000000
40
0.0000000000
40
0.0000000000
40
0.0000000000
40
0.3326983034
40
0.6143012656
40
0.8479629876
40
1.0000000000
40
1.0000000000
40
1.0000000000
40
1.0000000000
10
136.8128828859
20
239.7505804509
30
0.0000000000
10
136.3004602976
20
239.6156050243
30
0.0000000000
10
135.3699041175
20
239.2918742534
30
0.0000000000
10
134.2094986288
20
238.5739491940
30
0.0000000000
10
133.5070794069
20
237.7397792930
30
0.0000000000
10
133.3345847996
20
237.1278687720
30
0.0000000000
10
133.3122678152
20
236.8848861420
30
0.0000000000
11
136.8128828859
21
239.7505804509
31
0.0000000000
11
135.3188754511
21
239.2073500595
31
0.0000000000
11
134.1925006537
21
238.4712731835
31
0.0000000000
11
133.5068568223
21
237.5901189933
31
0.0000000000
11
133.3122678152
21
236.8848861420
31
0.0000000000
0
SPLINE
5
406
100
AcDbEntity
8
0
100
AcDbSpline
62
7
6
BYLAYER
70
0
71
3
72
12
73
8
74
6
42
0.0000001000
43
0.0000001000
44
0.0000000001
40
0.0000000000
40
0.0000000000
40
0.0000000000
40
0.0000000000
40
0.1905156601
40
0.3950241171
40
0.6046722989
40
0.8092916961
40
1.0000000000
40
1.0000000000
40
1.0000000000
40
1.0000000000
10
141.6324099736
20
244.6022090454
30
0.0000000000
10
141.5986362458
20
244.2008461736
30
0.0000000000
10
141.4000412699
20
243.3772762259
30
0.0000000000
10
140.8056807940
20
242.2340403253
30
0.0000000000
10
139.9569044599
20
241.2243680220
30
0.0000000000
10
138.9324168043
20
240.4418748148
30
0.0000000000
10
138.1548498467
20
240.1040632348
30
0.0000000000
10
137.7649602474
20
240.0013637906
30
0.0000000000
11
141.6324099736
21
244.6022090454
31
0.0000000000
11
141.3629530869
21
243.4242920865
31
0.0000000000
11
140.7714742906
21
242.2699074984
31
0.0000000000
11
139.9158716502
21
241.2520544876
31
0.0000000000
11
138.8798975136
21
240.4703675987
31
0.0000000000
11
137.7649602474
21
240.0013637906
31
0.0000000000
0
SPLINE
5
407
100
AcDbEntity
8
0
100
AcDbSpline
62
7
6
BYLAYER
70
0
71
3
72
9
73
5
74
3
42
0.0000001000
43
0.0000001000
44
0.0000000001
40
0.0000000000
40
0.0000000000
40
0.0000000000
40
0.0000000000
40
0.2488006775
40
1.0000000000
40
1.0000000000
40
1.0000000000
40
1.0000000000
10
66.3563656501
20
177.0197406628
30
0.0000000000
10
65.8190728619
20
176.8042492794
30
0.0000000000
10
63.6613689348
20
175.9335844476
30
0.0000000000
10
61.5113250460
20
175.0439008297
30
0.0000000000
10
59.9012721801
20
174.3636765458
30
0.0000000000
11
66.3563656501
21
177.0197406628
31
0.0000000000
11
64.7458706340
21
176.3698279827
31
0.0000000000
11
59.9012721801
21
174.3636765458
31
0.0000000000
0
SPLINE
5
408
100
AcDbEntity
8
0
100
AcDbSpline
62
7
6
BYLAYER
70
0
71
3
72
8
73
4
74
2
42
0.0000001000
43
0.0000001000
44
0.0000000001
40
0.0000000000
40
0.0000000000
40
0.0000000000
40
0.0000000000
40
1.0000000000
40
1.0000000000
40
1.0000000000
40
1.0000000000
10
66.4362579522
20
177.3914514306
30
0.0000000000
10
66.4021870196
20
176.9865566130
30
0.0000000000
10
66.3143391380
20
176.5855253794
30
0.0000000000
10
66.1888424226
20
176.1978470859
30
0.0000000000
11
66.4362579522
21
177.3914514306
31
0.0000000000
11
66.1888424226
21
176.1978470859
31
0.0000000000
0
SPLINE
5
409
100
AcDbEntity
8
0
100
AcDbSpline
62
7
6
BYLAYER
70
0
71
3
72
8
73
4
74
2
42
0.0000001000
43
0.0000001000
44
0.0000000001
40
0.0000000000
40
0.0000000000
40
0.0000000000
40
0.0000000000
40
1.0000000000
40
1.0000000000
40
1.0000000000
40
1.0000000000
10
66.1888424226
20
176.1978470859
30
0.0000000000
10
66.0538978630
20
175.7809829755
30
0.0000000000
10
65.8754224110
20
175.3795579993
30
0.0000000000
10
65.6613301358
20
174.9979359310
30
0.0000000000
11
66.1888424226
21
176.1978470859
31
0.0000000000
11
65.6613301358
21
174.9979359310
31
0.0000000000
0
SPLINE
5
40A
100
AcDbEntity
8
0
100
AcDbSpline
62
7
6
BYLAYER
70
0
71
3
72
9
73
5
74
3
42
0.0000001000
43
0.0000001000
44
0.0000000001
40
0.0000000000
40
0.0000000000
40
0.0000000000
40
0.0000000000
40
0.8186223085
40
1.0000000000
40
1.0000000000
40
1.0000000000
40
1.0000000000
10
65.6613301358
20
174.9979359310
30
0.0000000000
10
65.4448312928
20
174.6120241264
30
0.0000000000
10
65.1358720976
20
174.1653453712
30
0.0000000000
10
64.7767267935
20
173.7611529407
30
0.0000000000
10
64.7099086046
20
173.6894084713
30
0.0000000000
11
65.6613301358
21
174.9979359310
31
0.0000000000
11
64.9053576699
21
173.9091736301
31
0.0000000000
11
64.7099086046
21
173.6894084713
31
0.0000000000
0
SPLINE
5
40B
100
AcDbEntity
8
0
100
AcDbSpline
62
7
6
BYLAYER
70
0
71
3
72
8
73
4
74
2
42
0.0000001000
43
0.0000001000
44
0.0000000001
40
0.0000000000
40
0.0000000000
40
0.0000000000
40
0.0000000000
40
1.0000000000
40
1.0000000000
40
1.0000000000
40
1.0000000000
10
64.7099086046
20
173.6894084713
30
0.0000000000
10
64.4900510217
20
173.4533415274
30
0.0000000000
10
64.2520345445
20
173.2342401432
30
0.0000000000
10
63.9949248771
20
173.0381358230
30
0.0000000000
11
64.7099086046
21
173.6894084713
31
0.0000000000
11
63.9949248771
21
173.0381358230
31
0.0000000000
0
SPLINE
5
40C
100
AcDbEntity
8
0
100
AcDbSpline
62
7
6
BYLAYER
70
0
71
3
72
8
73
4
74
2
42
0.0000001000
43
0.0000001000
44
0.0000000001
40
0.0000000000
40
0.0000000000
40
0.0000000000
40
0.0000000000
40
1.0000000000
40
1.0000000000
40
1.0000000000
40
1.0000000000
10
63.9949248771
20
173.0381358230
30
0.0000000000
10
63.6945098106
20
172.8090013337
30
0.0000000000
10
63.3680281011
20
172.6112631828
30
0.0000000000
10
63.0191512623
20
172.4700857592
30
0.0000000000
11
63.9949248771
21
173.0381358230
31
0.0000000000
11
63.0191512623
21
172.4700857592
31
0.0000000000
0
SPLINE
5
40D
100
AcDbEntity
8
0
100
AcDbSpline
62
7
6
BYLAYER
70
0
71
3
72
9
73
5
74
3
42
0.0000001000
43
0.0000001000
44
0.0000000001
40
0.0000000000
40
0.0000000000
40
0.0000000000
40
0.0000000000
40
0.5385907922
40
1.0000000000
40
1.0000000000
40
1.0000000000
40
1.0000000000
10
71.1888543580
20
173.4851535809
30
0.0000000000
10
71.2488982499
20
173.6948951170
30
0.0000000000
10
71.3308716076
20
174.0943715608
30
0.0000000000
10
71.3266726548
20
174.5032326549
30
0.0000000000
10
71.2957077203
20
174.6883851691
30
0.0000000000
11
71.1888543580
21
173.4851535809
31
0.0000000000
11
71.3122015738
21
174.1279260854
31
0.0000000000
11
71.2957077203
21
174.6883851691
31
0.0000000000
0
SPLINE
5
40E
100
AcDbEntity
8
0
100
AcDbSpline
62
7
6
BYLAYER
70
0
71
3
72
10
73
6
74
4
42
0.0000001000
43
0.0000001000
44
0.0000000001
40
0.0000000000
40
0.0000000000
40
0.0000000000
40
0.0000000000
40
0.4578303742
40
0.8786481786
40
1.0000000000
40
1.0000000000
40
1.0000000000
40
1.0000000000
10
71.2957077203
20
174.6883851691
30
0.0000000000
10
71.2691778539
20
174.8470185251
30
0.0000000000
10
71.1773580808
20
175.1464786836
30
0.0000000000
10
70.9467808231
20
175.4241032786
30
0.0000000000
10
70.7889029871
20
175.5308649197
30
0.0000000000
10
70.7522633299
20
175.5526721124
30
0.0000000000
11
71.2957077203
21
174.6883851691
31
0.0000000000
11
71.1434137527
21
175.1440176948
31
0.0000000000
11
70.8579308905
21
175.4808805968
31
0.0000000000
11
70.7522633299
21
175.5526721124
31
0.0000000000
0
SPLINE
5
40F
100
AcDbEntity
8
0
100
AcDbSpline
62
7
6
BYLAYER
70
0
71
3
72
9
73
5
74
3
42
0.0000001000
43
0.0000001000
44
0.0000000001
40
0.0000000000
40
0.0000000000
40
0.0000000000
40
0.0000000000
40
0.3876852423
40
1.0000000000
40
1.0000000000
40
1.0000000000
40
1.0000000000
10
70.7522633299
20
175.5526721124
30
0.0000000000
10
70.6568676007
20
175.6094497463
30
0.0000000000
10
70.3880289153
20
175.7193779072
30
0.0000000000
10
70.1008515141
20
175.7472271300
30
0.0000000000
10
69.9258366446
20
175.7453662485
30
0.0000000000
11
70.7522633299
21
175.5526721124
31
0.0000000000
11
70.4456617127
21
175.6823483458
31
0.0000000000
11
69.9258366446
21
175.7453662485
31
0.0000000000
0
SPLINE
5
410
100
AcDbEntity
8
0
100
AcDbSpline
62
7
6
BYLAYER
70
0
71
3
72
9
73
5
74
3
42
0.0000001000
43
0.0000001000
44
0.0000000001
40
0.0000000000
40
0.0000000000
40
0.0000000000
40
0.0000000000
40
0.7777095952
40
1.0000000000
40
1.0000000000
40
1.0000000000
40
1.0000000000
10
69.9258366446
20
175.7453662485
30
0.0000000000
10
69.7196730509
20
175.7431741717
30
0.0000000000
10
69.4560945705
20
175.7066436153
30
0.0000000000
10
69.1990848282
20
175.6428020133
30
0.0000000000
10
69.1422963826
20
175.6273755016
30
0.0000000000
11
69.9258366446
21
175.7453662485
31
0.0000000000
11
69.3136710088
21
175.6698352431
31
0.0000000000
11
69.1422963826
21
175.6273755016
31
0.0000000000
0
SPLINE
5
411
100
AcDbEntity
8
0
100
AcDbSpline
62
7
6
BYLAYER
70
0
71
3
72
8
73
4
74
2
42
0.0000001000
43
0.0000001000
44
0.0000000001
40
0.0000000000
40
0.0000000000
40
0.0000000000
40
0.0000000000
40
1.0000000000
40
1.0000000000
40
1.0000000000
40
1.0000000000
10
69.1422963826
20
175.6273755016
30
0.0000000000
10
69.1040018038
20
175.6169728262
30
0.0000000000
10
69.0658629050
20
175.6060084970
30
0.0000000000
10
69.0278851385
20
175.5945175917
30
0.0000000000
11
69.1422963826
21
175.6273755016
31
0.0000000000
11
69.0278851385
21
175.5945175917
31
0.0000000000
0
SPLINE
5
412
100
AcDbEntity
8
0
100
AcDbSpline
62
7
6
BYLAYER
70
0
71
3
72
8
73
4
74
2
42
0.0000001000
43
0.0000001000
44
0.0000000001
40
0.0000000000
40
0.0000000000
40
0.0000000000
40
0.0000000000
40
1.0000000000
40
1.0000000000
40
1.0000000000
40
1.0000000000
10
69.0278851385
20
175.5945175917
30
0.0000000000
10
68.9503746135
20
175.5710652881
30
0.0000000000
10
68.8735352775
20
175.5454195546
30
0.0000000000
10
68.7974134812
20
175.5178786014
30
0.0000000000
11
69.0278851385
21
175.5945175917
31
0.0000000000
11
68.7974134812
21
175.5178786014
31
0.0000000000
0
SPLINE
5
413
100
AcDbEntity
8
0
100
AcDbSpline
62
7
6
BYLAYER
70
0
71
3
72
9
73
5
74
3
42
0.0000001000
43
0.0000001000
44
0.0000000001
40
0.0000000000
40
0.0000000000
40
0.0000000000
40
0.0000000000
40
0.3953950666
40
1.0000000000
40
1.0000000000
40
1.0000000000
40
1.0000000000
10
137.0368965890
20
229.2326391790
30
0.0000000000
10
137.0070160634
20
228.9336136111
30
0.0000000000
10
136.7237854886
20
228.1845030882
30
0.0000000000
10
136.1204391601
20
227.6933178808
30
0.0000000000
10
135.7274067228
20
227.4531663650
30
0.0000000000
11
137.0368965890
21
229.2326391790
31
0.0000000000
11
136.7329941000
21
228.3815477377
31
0.0000000000
11
135.7274067228
21
227.4531663650
31
0.0000000000
0
SPLINE
5
414
100
AcDbEntity
8
0
100
AcDbSpline
62
7
6
BYLAYER
70
0
71
3
72
8
73
4
74
2
42
0.0000001000
43
0.0000001000
44
0.0000000001
40
0.0000000000
40
0.0000000000
40
0.0000000000
40
0.0000000000
40
1.0000000000
40
1.0000000000
40
1.0000000000
40
1.0000000000
10
135.7274067228
20
227.4531663650
30
0.0000000000
10
135.2313229581
20
227.1500482079
30
0.0000000000
10
134.6902390029
20
226.9374544831
30
0.0000000000
10
134.1360724765
20
226.7810370987
30
0.0000000000
11
135.7274067228
21
227.4531663650
31
0.0000000000
11
134.1360724765
21
226.7810370987
31
0.0000000000
0
SPLINE
5
415
100
AcDbEntity
8
0
100
AcDbSpline
62
7
6
BYLAYER
70
0
71
3
72
8
73
4
74
2
42
0.0000001000
43
0.0000001000
44
0.0000000001
40
0.0000000000
40
0.0000000000
40
0.0000000000
40
0.0000000000
40
1.0000000000
40
1.0000000000
40
1.0000000000
40
1.0000000000
10
143.2448245193
20
252.3953647275
30
0.0000000000
10
143.3641557453
20
252.2948170964
30
0.0000000000
10
143.4727191682
20
252.1815020392
30
0.0000000000
10
143.5673940126
20
252.0580158668
30
0.0000000000
11
143.2448245193
21
252.3953647275
31
0.0000000000
11
143.5673940126
21
252.0580158668
31
0.0000000000
0
SPLINE
5
416
100
AcDbEntity
8
0
100
AcDbSpline
62
7
6
BYLAYER
70
0
71
3
72
9
73
5
74
3
42
0.0000001000
43
0.0000001000
44
0.0000000001
40
0.0000000000
40
0.0000000000
40
0.0000000000
40
0.0000000000
40
0.4742154845
40
1.0000000000
40
1.0000000000
40
1.0000000000
40
1.0000000000
10
143.5673940126
20
252.0580158668
30
0.0000000000
10
143.7678116627
20
251.7966073726
30
0.0000000000
10
144.0591959632
20
251.1492472837
30
0.0000000000
10
144.0963859263
20
250.4455380499
30
0.0000000000
10
144.0659475922
20
250.0838125915
30
0.0000000000
11
143.5673940126
21
252.0580158668
31
0.0000000000
11
143.9870062517
21
251.1699592022
31
0.0000000000
11
144.0659475922
21
250.0838125915
31
0.0000000000
0
SPLINE
5
417
100
AcDbEntity
8
0
100
AcDbSpline
62
7
6
BYLAYER
70
0
71
3
72
8
73
4
74
2
42
0.0000001000
43
0.0000001000
44
0.0000000001
40
0.0000000000
40
0.0000000000
40
0.0000000000
40
0.0000000000
40
1.0000000000
40
1.0000000000
40
1.0000000000
40
1.0000000000
10
96.5148226911
20
192.2687332958
30
0.0000000000
10
96.4297498088
20
192.0103779552
30
0.0000000000
10
96.2834610453
20
191.7713262893
30
0.0000000000
10
96.1063225514
20
191.5623399692
30
0.0000000000
11
96.5148226911
21
192.2687332958
31
0.0000000000
11
96.1063225514
21
191.5623399692
31
0.0000000000
0
SPLINE
5
418
100
AcDbEntity
8
0
100
AcDbSpline
62
7
6
BYLAYER
70
0
71
3
72
8
73
4
74
2
42
0.0000001000
43
0.0000001000
44
0.0000000001
40
0.0000000000
40
0.0000000000
40
0.0000000000
40
0.0000000000
40
1.0000000000
40
1.0000000000
40
1.0000000000
40
1.0000000000
10
96.1063225514
20
191.5623399692
30
0.0000000000
10
95.8992406990
20
191.3180267578
30
0.0000000000
10
95.6499979770
20
191.1148024344
30
0.0000000000
10
95.3828533409
20
190.9405706862
30
0.0000000000
11
96.1063225514
21
191.5623399692
31
0.0000000000
11
95.3828533409
21
190.9405706862
31
0.0000000000
0
SPLINE
5
419
100
AcDbEntity
8
0
100
AcDbSpline
62
7
6
BYLAYER
70
0
71
3
72
8
73
4
74
2
42
0.0000001000
43
0.0000001000
44
0.0000000001
40
0.0000000000
40
0.0000000000
40
0.0000000000
40
0.0000000000
40
1.0000000000
40
1.0000000000
40
1.0000000000
40
1.0000000000
10
95.3828533409
20
190.9405706862
30
0.0000000000
10
95.0686628838
20
190.7356556507
30
0.0000000000
10
94.7297100383
20
190.5708438916
30
0.0000000000
10
94.3812450114
20
190.4350781178
30
0.0000000000
11
95.3828533409
21
190.9405706862
31
0.0000000000
11
94.3812450114
21
190.4350781178
31
0.0000000000
0
SPLINE
5
41A
100
AcDbEntity
8
0
100
AcDbSpline
62
7
6
BYLAYER
70
0
71
3
72
8
73
4
74
2
42
0.0000001000
43
0.0000001000
44
0.0000000001
40
0.0000000000
40
0.0000000000
40
0.0000000000
40
0.0000000000
40
1.0000000000
40
1.0000000000
40
1.0000000000
40
1.0000000000
10
106.3524330432
20
218.9389102250
30
0.0000000000
10
106.1260299717
20
218.8750063719
30
0.0000000000
10
105.9039572545
20
218.7917014965
30
0.0000000000
10
105.6956038964
20
218.6807359605
30
0.0000000000
11
106.3524330432
21
218.9389102250
31
0.0000000000
11
105.6956038964
21
218.6807359605
31
0.0000000000
0
SPLINE
5
41B
100
AcDbEntity
8
0
100
AcDbSpline
62
7
6
BYLAYER
70
0
71
3
72
8
73
4
74
2
42
0.0000001000
43
0.0000001000
44
0.0000000001
40
0.0000000000
40
0.0000000000
40
0.0000000000
40
0.0000000000
40
1.0000000000
40
1.0000000000
40
1.0000000000
40
1.0000000000
10
105.6956038964
20
218.6807359605
30
0.0000000000
10
105.5219666906
20
218.5882596703
30
0.0000000000
10
105.3578578500
20
218.4765725064
30
0.0000000000
10
105.2207863253
20
218.3336429050
30
0.0000000000
11
105.6956038964
21
218.6807359605
31
0.0000000000
11
105.2207863253
21
218.3336429050
31
0.0000000000
0
SPLINE
5
41C
100
AcDbEntity
8
0
100
AcDbSpline
62
7
6
BYLAYER
70
0
71
3
72
8
73
4
74
2
42
0.0000001000
43
0.0000001000
44
0.0000000001
40
0.0000000000
40
0.0000000000
40
0.0000000000
40
0.0000000000
40
1.0000000000
40
1.0000000000
40
1.0000000000
40
1.0000000000
10
105.2207863253
20
218.3336429050
30
0.0000000000
10
105.1076579054
20
218.2156796736
30
0.0000000000
10
105.0129462159
20
218.0764353523
30
0.0000000000
10
104.9623388115
20
217.9227472103
30
0.0000000000
11
105.2207863253
21
218.3336429050
31
0.0000000000
11
104.9623388115
21
217.9227472103
31
0.0000000000
0
SPLINE
5
41D
100
AcDbEntity
8
0
100
AcDbSpline
62
7
6
BYLAYER
70
0
71
3
72
8
73
4
74
2
42
0.0000001000
43
0.0000001000
44
0.0000000001
40
0.0000000000
40
0.0000000000
40
0.0000000000
40
0.0000000000
40
1.0000000000
40
1.0000000000
40
1.0000000000
40
1.0000000000
10
72.5931484371
20
181.8802891383
30
0.0000000000
10
72.5550459098
20
181.8648704690
30
0.0000000000
10
72.5171823904
20
181.8488481657
30
0.0000000000
10
72.4795617078
20
181.8322484721
30
0.0000000000
11
72.5931484371
21
181.8802891383
31
0.0000000000
11
72.4795617078
21
181.8322484721
31
0.0000000000
0
SPLINE
5
41E
100
AcDbEntity
8
0
100
AcDbSpline
62
7
6
BYLAYER
70
0
71
3
72
12
73
8
74
6
42
0.0000001000
43
0.0000001000
44
0.0000000001
40
0.0000000000
40
0.0000000000
40
0.0000000000
40
0.0000000000
40
0.1687671978
40
0.3775007402
40
0.5970821950
40
0.8142228161
40
1.0000000000
40
1.0000000000
40
1.0000000000
40
1.0000000000
10
72.4795617078
20
181.8322484721
30
0.0000000000
10
72.1321921620
20
181.6789756544
30
0.0000000000
10
71.4015012490
20
181.2260222766
30
0.0000000000
10
70.4334818957
20
180.2835284420
30
0.0000000000
10
69.6025601833
20
179.0822206904
30
0.0000000000
10
69.0307117525
20
177.7960256415
30
0.0000000000
10
68.8280928521
20
176.9041126598
30
0.0000000000
10
68.7843170672
20
176.4884967901
30
0.0000000000
11
72.4795617078
21
181.8322484721
31
0.0000000000
11
71.5025779265
21
181.2454096552
31
0.0000000000
11
70.4850353933
21
180.2718968120
31
0.0000000000
11
69.6401249902
21
179.0550448286
31
0.0000000000
11
69.0505524344
21
177.7139676556
31
0.0000000000
11
68.7843170672
21
176.4884967901
31
0.0000000000
0
SPLINE
5
41F
100
AcDbEntity
8
0
100
AcDbSpline
62
7
6
BYLAYER
70
0
71
3
72
8
73
4
74
2
42
0.0000001000
43
0.0000001000
44
0.0000000001
40
0.0000000000
40
0.0000000000
40
0.0000000000
40
0.0000000000
40
1.0000000000
40
1.0000000000
40
1.0000000000
40
1.0000000000
10
68.7843170672
20
176.4884967901
30
0.0000000000
10
68.7805089974
20
176.4523422299
30
0.0000000000
10
68.7770766271
20
176.4161545780
30
0.0000000000
10
68.7740291954
20
176.3799392703
30
0.0000000000
11
68.7843170672
21
176.4884967901
31
0.0000000000
11
68.7740291954
21
176.3799392703
31
0.0000000000
0
SPLINE
5
420
100
AcDbEntity
8
0
100
AcDbSpline
62
7
6
BYLAYER
70
0
71
3
72
8
73
4
74
2
42
0.0000001000
43
0.0000001000
44
0.0000000001
40
0.0000000000
40
0.0000000000
40
0.0000000000
40
0.0000000000
40
1.0000000000
40
1.0000000000
40
1.0000000000
40
1.0000000000
10
55.0833784741
20
166.9265798585
30
0.0000000000
10
55.0452888556
20
166.9111664128
30
0.0000000000
10
55.0074153359
20
166.8952071922
30
0.0000000000
10
54.9697610460
20
166.8787236577
30
0.0000000000
11
55.0833784741
21
166.9265798585
31
0.0000000000
11
54.9697610460
21
166.8787236577
31
0.0000000000
0
SPLINE
5
421
100
AcDbEntity
8
0
100
AcDbSpline
62
7
6
BYLAYER
70
0
71
3
72
12
73
8
74
6
42
0.0000001000
43
0.0000001000
44
0.0000000001
40
0.0000000000
40
0.0000000000
40
0.0000000000
40
0.0000000000
40
0.1699546684
40
0.3780040708
40
0.5968658308
40
0.8132947571
40
1.0000000000
40
1.0000000000
40
1.0000000000
40
1.0000000000
10
54.9697610460
20
166.8787236577
30
0.0000000000
10
54.5813753604
20
166.7087040159
30
0.0000000000
10
53.7694240228
20
166.2064895682
30
0.0000000000
10
52.6963786125
20
165.1617390889
30
0.0000000000
10
51.7779914567
20
163.8339778897
30
0.0000000000
10
51.1443828014
20
162.4088724394
30
0.0000000000
10
50.9202898181
20
161.4190488434
30
0.0000000000
10
50.8724240333
20
160.9557907869
30
0.0000000000
11
54.9697610460
21
166.8787236577
31
0.0000000000
11
53.8780110676
21
166.2248709561
31
0.0000000000
11
52.7533587941
21
165.1488830767
31
0.0000000000
11
51.8195104539
21
163.8039414109
31
0.0000000000
11
51.1678776290
21
162.3216982196
31
0.0000000000
11
50.8724240333
21
160.9557907869
31
0.0000000000
0
SPLINE
5
422
100
AcDbEntity
8
0
100
AcDbSpline
62
7
6
BYLAYER
70
0
71
3
72
8
73
4
74
2
42
0.0000001000
43
0.0000001000
44
0.0000000001
40
0.0000000000
40
0.0000000000
40
0.0000000000
40
0.0000000000
40
1.0000000000
40
1.0000000000
40
1.0000000000
40
1.0000000000
10
50.8724240333
20
160.9557907869
30
0.0000000000
10
50.8686884812
20
160.9196370994
30
0.0000000000
10
50.8652935108
20
160.8834539526
30
0.0000000000
10
50.8622466807
20
160.8472457939
30
0.0000000000
11
50.8724240333
21
160.9557907869
31
0.0000000000
11
50.8622466807
21
160.8472457939
31
0.0000000000
0
SPLINE
5
423
100
AcDbEntity
8
0
100
AcDbSpline
62
7
6
BYLAYER
70
0
71
3
72
8
73
4
74
2
42
0.0000001000
43
0.0000001000
44
0.0000000001
40
0.0000000000
40
0.0000000000
40
0.0000000000
40
0.0000000000
40
1.0000000000
40
1.0000000000
40
1.0000000000
40
1.0000000000
10
138.6545600964
20
238.1985869251
30
0.0000000000
10
138.6234261136
20
238.1903860325
30
0.0000000000
10
138.5923501039
20
238.1819199636
30
0.0000000000
10
138.5613440441
20
238.1731752221
30
0.0000000000
11
138.6545600964
21
238.1985869251
31
0.0000000000
11
138.5613440441
21
238.1731752221
31
0.0000000000
0
SPLINE
5
424
100
AcDbEntity
8
0
100
AcDbSpline
62
7
6
BYLAYER
70
0
71
3
72
9
73
5
74
3
42
0.0000001000
43
0.0000001000
44
0.0000000001
40
0.0000000000
40
0.0000000000
40
0.0000000000
40
0.0000000000
40
0.5371203635
40
1.0000000000
40
1.0000000000
40
1.0000000000
40
1.0000000000
10
138.5613440441
20
238.1731752221
30
0.0000000000
10
138.2224766295
20
238.0776033247
30
0.0000000000
10
137.6071354525
20
237.8376983734
30
0.0000000000
10
137.0749486052
20
237.4213477096
30
0.0000000000
10
136.9067365402
20
237.1632371219
30
0.0000000000
11
138.5613440441
21
238.1731752221
31
0.0000000000
11
137.5854419576
21
237.7689833700
31
0.0000000000
11
136.9067365402
21
237.1632371219
31
0.0000000000
0
SPLINE
5
425
100
AcDbEntity
8
0
100
AcDbSpline
62
7
6
BYLAYER
70
0
71
3
72
8
73
4
74
2
42
0.0000001000
43
0.0000001000
44
0.0000000001
40
0.0000000000
40
0.0000000000
40
0.0000000000
40
0.0000000000
40
1.0000000000
40
1.0000000000
40
1.0000000000
40
1.0000000000
10
136.9067365402
20
237.1632371219
30
0.0000000000
10
136.7969514250
20
236.9947789283
30
0.0000000000
10
136.7204453194
20
236.7984668188
30
0.0000000000
10
136.7004387285
20
236.6001684317
30
0.0000000000
11
136.9067365402
21
237.1632371219
31
0.0000000000
11
136.7004387285
21
236.6001684317
31
0.0000000000
0
SPLINE
5
426
100
AcDbEntity
8
0
100
AcDbSpline
62
7
6
BYLAYER
70
0
71
3
72
9
73
5
74
3
42
0.0000001000
43
0.0000001000
44
0.0000000001
40
0.0000000000
40
0.0000000000
40
0.0000000000
40
0.0000000000
40
0.5322940402
40
1.0000000000
40
1.0000000000
40
1.0000000000
40
1.0000000000
10
71.5174209101
20
165.7627694789
30
0.0000000000
10
71.3409421972
20
165.7014516544
30
0.0000000000
10
70.9993827974
20
165.6089687632
30
0.0000000000
10
70.6514020089
20
165.5754755987
30
0.0000000000
10
70.4845440257
20
165.5809369554
30
0.0000000000
11
71.5174209101
21
165.7627694789
31
0.0000000000
11
70.9755027147
21
165.6197094398
31
0.0000000000
11
70.4845440257
21
165.5809369554
31
0.0000000000
0
SPLINE
5
427
100
AcDbEntity
8
0
100
AcDbSpline
62
7
6
BYLAYER
70
0
71
3
72
8
73
4
74
2
42
0.0000001000
43
0.0000001000
44
0.0000000001
40
0.0000000000
40
0.0000000000
40
0.0000000000
40
0.0000000000
40
1.0000000000
40
1.0000000000
40
1.0000000000
40
1.0000000000
10
70.4845440257
20
165.5809369554
30
0.0000000000
10
70.2605085851
20
165.5882697628
30
0.0000000000
10
70.0291666289
20
165.6336978460
30
0.0000000000
10
69.8369793782
20
165.7424440005
30
0.0000000000
11
70.4845440257
21
165.5809369554
31
0.0000000000
11
69.8369793782
21
165.7424440005
31
0.0000000000
0
SPLINE
5
428
100
AcDbEntity
8
0
100
AcDbSpline
62
7
6
BYLAYER
70
0
71
3
72
12
73
8
74
6
42
0.0000001000
43
0.0000001000
44
0.0000000001
40
0.0000000000
40
0.0000000000
40
0.0000000000
40
0.0000000000
40
0.1905156601
40
0.3950241171
40
0.6046722989
40
0.8092916961
40
1.0000000000
40
1.0000000000
40
1.0000000000
40
1.0000000000
10
143.4740871841
20
243.0502155196
30
0.0000000000
10
143.4403134563
20
242.6488526478
30
0.0000000000
10
143.2417184805
20
241.8252827002
30
0.0000000000
10
142.6473580045
20
240.6820467995
30
0.0000000000
10
141.7985816704
20
239.6723744962
30
0.0000000000
10
140.7740940148
20
238.8898812890
30
0.0000000000
10
139.9965270572
20
238.5520697090
30
0.0000000000
10
139.6066374579
20
238.4493702649
30
0.0000000000
11
143.4740871841
21
243.0502155196
31
0.0000000000
11
143.2046302974
21
241.8722985607
31
0.0000000000
11
142.6131515011
21
240.7179139726
31
0.0000000000
11
141.7575488607
21
239.7000609619
31
0.0000000000
11
140.7215747241
21
238.9183740729
31
0.0000000000
11
139.6066374579
21
238.4493702649
31
0.0000000000
0
SPLINE
5
429
100
AcDbEntity
8
0
100
AcDbSpline
62
7
6
BYLAYER
70
0
71
3
72
8
73
4
74
2
42
0.0000001000
43
0.0000001000
44
0.0000000001
40
0.0000000000
40
0.0000000000
40
0.0000000000
40
0.0000000000
40
1.0000000000
40
1.0000000000
40
1.0000000000
40
1.0000000000
10
64.9834989809
20
174.0189380882
30
0.0000000000
10
64.7713013863
20
173.9370646422
30
0.0000000000
10
64.5590064320
20
173.8554435919
30
0.0000000000
10
64.3466137531
20
173.7740783815
30
0.0000000000
11
64.9834989809
21
174.0189380882
31
0.0000000000
11
64.3466137531
21
173.7740783815
31
0.0000000000
0
SPLINE
5
42A
100
AcDbEntity
8
0
100
AcDbSpline
62
7
6
BYLAYER
70
0
71
3
72
8
73
4
74
2
42
0.0000001000
43
0.0000001000
44
0.0000000001
40
0.0000000000
40
0.0000000000
40
0.0000000000
40
0.0000000000
40
1.0000000000
40
1.0000000000
40
1.0000000000
40
1.0000000000
10
64.3466137531
20
173.7740783815
30
0.0000000000
10
63.8164957444
20
173.5709962247
30
0.0000000000
10
63.2857689428
20
173.3695078699
30
0.0000000000
10
62.7544276768
20
173.1696668706
30
0.0000000000
11
64.3466137531
21
173.7740783815
31
0.0000000000
11
62.7544276768
21
173.1696668706
31
0.0000000000
0
SPLINE
5
42B
100
AcDbEntity
8
0
100
AcDbSpline
62
7
6
BYLAYER
70
0
71
3
72
8
73
4
74
2
42
0.0000001000
43
0.0000001000
44
0.0000000001
40
0.0000000000
40
0.0000000000
40
0.0000000000
40
0.0000000000
40
1.0000000000
40
1.0000000000
40
1.0000000000
40
1.0000000000
10
62.7544276768
20
173.1696668706
30
0.0000000000
10
62.5712709104
20
173.1007803874
30
0.0000000000
10
62.3880411318
20
173.0320896471
30
0.0000000000
10
62.2047381086
20
172.9635968433
30
0.0000000000
11
62.7544276768
21
173.1696668706
31
0.0000000000
11
62.2047381086
21
172.9635968433
31
0.0000000000
0
SPLINE
5
42C
100
AcDbEntity
8
0
100
AcDbSpline
62
7
6
BYLAYER
70
0
71
3
72
9
73
5
74
3
42
0.0000001000
43
0.0000001000
44
0.0000000001
40
0.0000000000
40
0.0000000000
40
0.0000000000
40
0.0000000000
40
0.4818618529
40
1.0000000000
40
1.0000000000
40
1.0000000000
40
1.0000000000
10
68.7413898347
20
175.9920570789
30
0.0000000000
10
68.7073189020
20
175.5871622613
30
0.0000000000
10
68.5250096341
20
174.7549087199
30
0.0000000000
10
68.1805542934
20
173.9801636477
30
0.0000000000
10
67.9664620182
20
173.5985415794
30
0.0000000000
11
68.7413898347
21
175.9920570789
31
0.0000000000
11
68.4939743050
21
174.7984527342
31
0.0000000000
11
67.9664620182
21
173.5985415794
31
0.0000000000
0
SPLINE
5
42D
100
AcDbEntity
8
0
100
AcDbSpline
62
7
6
BYLAYER
70
0
71
3
72
10
73
6
74
4
42
0.0000001000
43
0.0000001000
44
0.0000000001
40
0.0000000000
40
0.0000000000
40
0.0000000000
40
0.0000000000
40
0.3568341636
40
0.6960397630
40
1.0000000000
40
1.0000000000
40
1.0000000000
40
1.0000000000
10
67.9664620182
20
173.5985415794
30
0.0000000000
10
67.7499631752
20
173.2126297747
30
0.0000000000
10
67.2566163660
20
172.4993720305
30
0.0000000000
10
66.3639802166
20
171.6302736345
30
0.0000000000
10
65.6731599835
20
171.2118688311
30
0.0000000000
10
65.3242831447
20
171.0706914075
30
0.0000000000
11
67.9664620182
21
173.5985415794
31
0.0000000000
11
67.2104895524
21
172.5097792785
31
0.0000000000
11
66.3000567595
21
171.6387414714
31
0.0000000000
11
65.3242831447
21
171.0706914075
31
0.0000000000
0
SPLINE
5
42E
100
AcDbEntity
8
0
100
AcDbSpline
62
7
6
BYLAYER
70
0
71
3
72
10
73
6
74
4
42
0.0000001000
43
0.0000001000
44
0.0000000001
40
0.0000000000
40
0.0000000000
40
0.0000000000
40
0.0000000000
40
0.1487745974
40
0.5620845269
40
1.0000000000
40
1.0000000000
40
1.0000000000
40
1.0000000000
10
67.1761953735
20
166.9823196967
30
0.0000000000
10
67.1276708941
20
167.0098173503
30
0.0000000000
10
66.9512671146
20
167.1253965669
30
0.0000000000
10
66.6991568459
20
167.4148295759
30
0.0000000000
10
66.5940379514
20
167.7212249707
30
0.0000000000
10
66.5627478305
20
167.8823538952
30
0.0000000000
11
67.1761953735
21
166.9823196967
31
0.0000000000
11
67.0367192414
21
167.0743013816
31
0.0000000000
11
66.7311715984
21
167.4218586154
31
0.0000000000
11
66.5627478305
21
167.8823538952
31
0.0000000000
0
SPLINE
5
42F
100
AcDbEntity
8
0
100
AcDbSpline
62
7
6
BYLAYER
70
0
71
3
72
9
73
5
74
3
42
0.0000001000
43
0.0000001000
44
0.0000000001
40
0.0000000000
40
0.0000000000
40
0.0000000000
40
0.0000000000
40
0.4644438977
40
1.0000000000
40
1.0000000000
40
1.0000000000
40
1.0000000000
10
66.5627478305
20
167.8823538952
30
0.0000000000
10
66.5270829600
20
168.0660106549
30
0.0000000000
10
66.5140413550
20
168.4711900163
30
0.0000000000
10
66.5925304569
20
168.8677412173
30
0.0000000000
10
66.6516516063
20
169.0742594875
30
0.0000000000
11
66.5627478305
21
167.8823538952
31
0.0000000000
11
66.5347126903
21
168.4405156542
31
0.0000000000
11
66.6516516063
21
169.0742594875
31
0.0000000000
0
SPLINE
5
430
100
AcDbEntity
8
0
100
AcDbSpline
62
7
6
BYLAYER
70
0
71
3
72
9
73
5
74
3
42
0.0000001000
43
0.0000001000
44
0.0000000001
40
0.0000000000
40
0.0000000000
40
0.0000000000
40
0.0000000000
40
0.3876852423
40
1.0000000000
40
1.0000000000
40
1.0000000000
40
1.0000000000
10
70.6231700218
20
175.3386002437
30
0.0000000000
10
70.5323515791
20
175.3926535681
30
0.0000000000
10
70.2764123356
20
175.4973071461
30
0.0000000000
10
70.0030143062
20
175.5238201050
30
0.0000000000
10
69.8363970158
20
175.5220485125
30
0.0000000000
11
70.6231700218
21
175.3386002437
31
0.0000000000
11
70.3312797910
21
175.4620543405
31
0.0000000000
11
69.8363970158
21
175.5220485125
31
0.0000000000
0
SPLINE
5
431
100
AcDbEntity
8
0
100
AcDbSpline
62
7
6
BYLAYER
70
0
71
3
72
9
73
5
74
3
42
0.0000001000
43
0.0000001000
44
0.0000000001
40
0.0000000000
40
0.0000000000
40
0.0000000000
40
0.0000000000
40
0.7585414653
40
1.0000000000
40
1.0000000000
40
1.0000000000
40
1.0000000000
10
69.8363970158
20
175.5220485125
30
0.0000000000
10
69.6401255822
20
175.5199616162
30
0.0000000000
10
69.3828531821
20
175.4843050493
30
0.0000000000
10
69.1321543804
20
175.4213172166
30
0.0000000000
10
69.0720276429
20
175.4046652107
30
0.0000000000
11
69.8363970158
21
175.5220485125
31
0.0000000000
11
69.2536043665
21
175.4501416426
31
0.0000000000
11
69.0720276429
21
175.4046652107
31
0.0000000000
0
SPLINE
5
432
100
AcDbEntity
8
0
100
AcDbSpline
62
7
6
BYLAYER
70
0
71
3
72
8
73
4
74
2
42
0.0000001000
43
0.0000001000
44
0.0000000001
40
0.0000000000
40
0.0000000000
40
0.0000000000
40
0.0000000000
40
1.0000000000
40
1.0000000000
40
1.0000000000
40
1.0000000000
10
69.0720276429
20
175.4046652107
30
0.0000000000
10
68.9646605352
20
175.3749300581
30
0.0000000000
10
68.8585900311
20
175.3405935092
30
0.0000000000
10
68.7539492578
20
175.3025120742
30
0.0000000000
11
69.0720276429
21
175.4046652107
31
0.0000000000
11
68.7539492578
21
175.3025120742
31
0.0000000000
0
SPLINE
5
433
100
AcDbEntity
8
0
100
AcDbSpline
62
7
6
BYLAYER
70
0
71
3
72
9
73
5
74
3
42
0.0000001000
43
0.0000001000
44
0.0000000001
40
0.0000000000
40
0.0000000000
40
0.0000000000
40
0.0000000000
40
0.3953950666
40
1.0000000000
40
1.0000000000
40
1.0000000000
40
1.0000000000
10
137.0187636109
20
229.0171490726
30
0.0000000000
10
136.9888830852
20
228.7181235047
30
0.0000000000
10
136.7056525104
20
227.9690129818
30
0.0000000000
10
136.1023061819
20
227.4778277744
30
0.0000000000
10
135.7092737446
20
227.2376762586
30
0.0000000000
11
137.0187636109
21
229.0171490726
31
0.0000000000
11
136.7148611218
21
228.1660576313
31
0.0000000000
11
135.7092737446
21
227.2376762586
31
0.0000000000
0
SPLINE
5
434
100
AcDbEntity
8
0
100
AcDbSpline
62
7
6
BYLAYER
70
0
71
3
72
8
73
4
74
2
42
0.0000001000
43
0.0000001000
44
0.0000000001
40
0.0000000000
40
0.0000000000
40
0.0000000000
40
0.0000000000
40
1.0000000000
40
1.0000000000
40
1.0000000000
40
1.0000000000
10
135.7092737446
20
227.2376762586
30
0.0000000000
10
135.2418752915
20
226.9520854616
30
0.0000000000
10
134.7345303262
20
226.7468528873
30
0.0000000000
10
134.2139336850
20
226.5932509332
30
0.0000000000
11
135.7092737446
21
227.2376762586
31
0.0000000000
11
134.2139336850
21
226.5932509332
31
0.0000000000
0
SPLINE
5
435
100
AcDbEntity
8
0
100
AcDbSpline
62
7
6
BYLAYER
70
0
71
3
72
8
73
4
74
2
42
0.0000001000
43
0.0000001000
44
0.0000000001
40
0.0000000000
40
0.0000000000
40
0.0000000000
40
0.0000000000
40
1.0000000000
40
1.0000000000
40
1.0000000000
40
1.0000000000
10
134.2139336850
20
226.5932509332
30
0.0000000000
10
134.1819834790
20
226.5838240301
30
0.0000000000
10
134.1499833599
20
226.5745915967
30
0.0000000000
10
134.1179394984
20
226.5655469923
30
0.0000000000
11
134.2139336850
21
226.5932509332
31
0.0000000000
11
134.1179394984
21
226.5655469923
31
0.0000000000
0
SPLINE
5
436
100
AcDbEntity
8
0
100
AcDbSpline
62
7
6
BYLAYER
70
0
71
3
72
9
73
5
74
3
42
0.0000001000
43
0.0000001000
44
0.0000000001
40
0.0000000000
40
0.0000000000
40
0.0000000000
40
0.0000000000
40
0.3208310822
40
1.0000000000
40
1.0000000000
40
1.0000000000
40
1.0000000000
10
143.4058872266
20
252.5864862324
30
0.0000000000
10
143.5322379364
20
252.4800240347
30
0.0000000000
10
143.8905246270
20
252.1060557524
30
0.0000000000
10
144.1059454402
20
251.6274615503
30
0.0000000000
10
144.1917267080
20
251.2889980291
30
0.0000000000
11
143.4058872266
21
252.5864862324
31
0.0000000000
11
143.7474313959
21
252.2292933211
31
0.0000000000
11
144.1917267080
21
251.2889980291
31
0.0000000000
0
SPLINE
5
437
100
AcDbEntity
8
0
100
AcDbSpline
62
7
6
BYLAYER
70
0
71
3
72
8
73
4
74
2
42
0.0000001000
43
0.0000001000
44
0.0000000001
40
0.0000000000
40
0.0000000000
40
0.0000000000
40
0.0000000000
40
1.0000000000
40
1.0000000000
40
1.0000000000
40
1.0000000000
10
144.1917267080
20
251.2889980291
30
0.0000000000
10
144.2868363445
20
250.9137279581
30
0.0000000000
10
144.3075404810
20
250.5219638679
30
0.0000000000
10
144.2753116567
20
250.1389604413
30
0.0000000000
11
144.1917267080
21
251.2889980291
31
0.0000000000
11
144.2753116567
21
250.1389604413
31
0.0000000000
0
SPLINE
5
438
100
AcDbEntity
8
0
100
AcDbSpline
62
7
6
BYLAYER
70
0
71
3
72
10
73
6
74
4
42
0.0000001000
43
0.0000001000
44
0.0000000001
40
0.0000000000
40
0.0000000000
40
0.0000000000
40
0.0000000000
40
0.4279157475
40
0.8137462319
40
1.0000000000
40
1.0000000000
40
1.0000000000
40
1.0000000000
10
138.9914748920
20
254.5771145855
30
0.0000000000
10
139.3636166902
20
254.6751391440
30
0.0000000000
10
140.1050259106
20
254.7653807441
30
0.0000000000
10
141.0013645946
20
254.5384139837
30
0.0000000000
10
141.4349696517
20
254.2473767580
30
0.0000000000
10
141.5642100161
20
254.1384797582
30
0.0000000000
11
138.9914748920
21
254.5771145855
31
0.0000000000
11
140.1400470229
21
254.6940207385
31
0.0000000000
11
141.1442392307
21
254.4197971884
31
0.0000000000
11
141.5642100161
21
254.1384797582
31
0.0000000000
0
SPLINE
5
439
100
AcDbEntity
8
0
100
AcDbSpline
62
7
6
BYLAYER
70
0
71
3
72
8
73
4
74
2
42
0.0000001000
43
0.0000001000
44
0.0000000001
40
0.0000000000
40
0.0000000000
40
0.0000000000
40
0.0000000000
40
1.0000000000
40
1.0000000000
40
1.0000000000
40
1.0000000000
10
72.5750154589
20
181.6647990320
30
0.0000000000
10
72.2056164531
20
181.5153170540
30
0.0000000000
10
71.8599299372
20
181.3059472472
30
0.0000000000
10
71.5418433962
20
181.0633342585
30
0.0000000000
11
72.5750154589
21
181.6647990320
31
0.0000000000
11
71.5418433962
21
181.0633342585
31
0.0000000000
0
SPLINE
5
43A
100
AcDbEntity
8
0
100
AcDbSpline
62
7
6
BYLAYER
70
0
71
3
72
10
73
6
74
4
42
0.0000001000
43
0.0000001000
44
0.0000000001
40
0.0000000000
40
0.0000000000
40
0.0000000000
40
0.0000000000
40
0.3233894577
40
0.6635855124
40
1.0000000000
40
1.0000000000
40
1.0000000000
40
1.0000000000
10
71.5418433962
20
181.0633342585
30
0.0000000000
10
71.1868734934
20
180.7925893575
30
0.0000000000
10
70.5290155775
20
180.1520783723
30
0.0000000000
10
69.7418265869
20
179.0139973444
30
0.0000000000
10
69.3617543523
20
178.1591431559
30
0.0000000000
10
69.2188718774
20
177.7177576272
30
0.0000000000
11
71.5418433962
21
181.0633342585
31
0.0000000000
11
70.5778557332
21
180.1410589333
31
0.0000000000
11
69.7774142987
21
178.9882517912
31
0.0000000000
11
69.2188718774
21
177.7177576272
31
0.0000000000
0
SPLINE
5
43B
100
AcDbEntity
8
0
100
AcDbSpline
62
7
6
BYLAYER
70
0
71
3
72
8
73
4
74
2
42
0.0000001000
43
0.0000001000
44
0.0000000001
40
0.0000000000
40
0.0000000000
40
0.0000000000
40
0.0000000000
40
1.0000000000
40
1.0000000000
40
1.0000000000
40
1.0000000000
10
69.2188718774
20
177.7177576272
30
0.0000000000
10
69.0859930023
20
177.3072747282
30
0.0000000000
10
68.9929775982
20
176.8826534221
30
0.0000000000
10
68.9569024931
20
176.4539412623
30
0.0000000000
11
69.2188718774
21
177.7177576272
31
0.0000000000
11
68.9569024931
21
176.4539412623
31
0.0000000000
0
SPLINE
5
43C
100
AcDbEntity
8
0
100
AcDbSpline
62
7
6
BYLAYER
70
0
71
3
72
8
73
4
74
2
42
0.0000001000
43
0.0000001000
44
0.0000000001
40
0.0000000000
40
0.0000000000
40
0.0000000000
40
0.0000000000
40
1.0000000000
40
1.0000000000
40
1.0000000000
40
1.0000000000
10
96.4966897129
20
192.0532431895
30
0.0000000000
10
96.4116168306
20
191.7948878488
30
0.0000000000
10
96.2653280671
20
191.5558361830
30
0.0000000000
10
96.0881895732
20
191.3468498628
30
0.0000000000
11
96.4966897129
21
192.0532431895
31
0.0000000000
11
96.0881895732
21
191.3468498628
31
0.0000000000
0
SPLINE
5
43D
100
AcDbEntity
8
0
100
AcDbSpline
62
7
6
BYLAYER
70
0
71
3
72
8
73
4
74
2
42
0.0000001000
43
0.0000001000
44
0.0000000001
40
0.0000000000
40
0.0000000000
40
0.0000000000
40
0.0000000000
40
1.0000000000
40
1.0000000000
40
1.0000000000
40
1.0000000000
10
96.0881895732
20
191.3468498628
30
0.0000000000
10
95.8811077208
20
191.1025366514
30
0.0000000000
10
95.6318649988
20
190.8993123280
30
0.0000000000
10
95.3647203627
20
190.7250805798
30
0.0000000000
11
96.0881895732
21
191.3468498628
31
0.0000000000
11
95.3647203627
21
190.7250805798
31
0.0000000000
0
SPLINE
5
43E
100
AcDbEntity
8
0
100
AcDbSpline
62
7
6
BYLAYER
70
0
71
3
72
8
73
4
74
2
42
0.0000001000
43
0.0000001000
44
0.0000000001
40
0.0000000000
40
0.0000000000
40
0.0000000000
40
0.0000000000
40
1.0000000000
40
1.0000000000
40
1.0000000000
40
1.0000000000
10
95.3647203627
20
190.7250805798
30
0.0000000000
10
95.0821422524
20
190.5407831189
30
0.0000000000
10
94.7795340206
20
190.3889249157
30
0.0000000000
10
94.4679902844
20
190.2614617246
30
0.0000000000
11
95.3647203627
21
190.7250805798
31
0.0000000000
11
94.4679902844
21
190.2614617246
31
0.0000000000
0
SPLINE
5
43F
100
AcDbEntity
8
0
100
AcDbSpline
62
7
6
BYLAYER
70
0
71
3
72
8
73
4
74
2
42
0.0000001000
43
0.0000001000
44
0.0000000001
40
0.0000000000
40
0.0000000000
40
0.0000000000
40
0.0000000000
40
1.0000000000
40
1.0000000000
40
1.0000000000
40
1.0000000000
10
94.4679902844
20
190.2614617246
30
0.0000000000
10
94.4331375188
20
190.2472022669
30
0.0000000000
10
94.3981729240
20
190.2332481167
30
0.0000000000
10
94.3631120333
20
190.2195880114
30
0.0000000000
11
94.4679902844
21
190.2614617246
31
0.0000000000
11
94.3631120333
21
190.2195880114
31
0.0000000000
0
SPLINE
5
440
100
AcDbEntity
8
0
100
AcDbSpline
62
7
6
BYLAYER
70
0
71
3
72
8
73
4
74
2
42
0.0000001000
43
0.0000001000
44
0.0000000001
40
0.0000000000
40
0.0000000000
40
0.0000000000
40
0.0000000000
40
1.0000000000
40
1.0000000000
40
1.0000000000
40
1.0000000000
10
106.3343000651
20
218.7234201186
30
0.0000000000
10
106.1078969935
20
218.6595162656
30
0.0000000000
10
105.8858242763
20
218.5762113901
30
0.0000000000
10
105.6774709182
20
218.4652458541
30
0.0000000000
11
106.3343000651
21
218.7234201186
31
0.0000000000
11
105.6774709182
21
218.4652458541
31
0.0000000000
0
SPLINE
5
441
100
AcDbEntity
8
0
100
AcDbSpline
62
7
6
BYLAYER
70
0
71
3
72
8
73
4
74
2
42
0.0000001000
43
0.0000001000
44
0.0000000001
40
0.0000000000
40
0.0000000000
40
0.0000000000
40
0.0000000000
40
1.0000000000
40
1.0000000000
40
1.0000000000
40
1.0000000000
10
105.6774709182
20
218.4652458541
30
0.0000000000
10
105.5038337124
20
218.3727695639
30
0.0000000000
10
105.3397248718
20
218.2610824001
30
0.0000000000
10
105.2026533471
20
218.1181527986
30
0.0000000000
11
105.6774709182
21
218.4652458541
31
0.0000000000
11
105.2026533471
21
218.1181527986
31
0.0000000000
0
SPLINE
5
442
100
AcDbEntity
8
0
100
AcDbSpline
62
7
6
BYLAYER
70
0
71
3
72
8
73
4
74
2
42
0.0000001000
43
0.0000001000
44
0.0000000001
40
0.0000000000
40
0.0000000000
40
0.0000000000
40
0.0000000000
40
1.0000000000
40
1.0000000000
40
1.0000000000
40
1.0000000000
10
105.2026533471
20
218.1181527986
30
0.0000000000
10
105.1344232659
20
218.0470067430
30
0.0000000000
10
105.0728923526
20
217.9681195958
30
0.0000000000
10
105.0236961437
20
217.8829913707
30
0.0000000000
11
105.2026533471
21
218.1181527986
31
0.0000000000
11
105.0236961437
21
217.8829913707
31
0.0000000000
0
SPLINE
5
443
100
AcDbEntity
8
0
100
AcDbSpline
62
7
6
BYLAYER
70
0
71
3
72
9
73
5
74
3
42
0.0000001000
43
0.0000001000
44
0.0000000001
40
0.0000000000
40
0.0000000000
40
0.0000000000
40
0.0000000000
40
0.5588034212
40
1.0000000000
40
1.0000000000
40
1.0000000000
40
1.0000000000
10
138.6364271182
20
237.9830968188
30
0.0000000000
10
138.2650276412
20
237.8852677925
30
0.0000000000
10
137.6151573419
20
237.6426702467
30
0.0000000000
10
137.0568156270
20
237.2058576033
30
0.0000000000
10
136.8886035620
20
236.9477470155
30
0.0000000000
11
138.6364271182
21
237.9830968188
31
0.0000000000
11
137.5673089794
21
237.5534932636
31
0.0000000000
11
136.8886035620
21
236.9477470155
31
0.0000000000
0
SPLINE
5
444
100
AcDbEntity
8
0
100
AcDbSpline
62
7
6
BYLAYER
70
0
71
3
72
8
73
4
74
2
42
0.0000001000
43
0.0000001000
44
0.0000000001
40
0.0000000000
40
0.0000000000
40
0.0000000000
40
0.0000000000
40
1.0000000000
40
1.0000000000
40
1.0000000000
40
1.0000000000
10
143.6834512487
20
243.1053633694
30
0.0000000000
10
143.6806633194
20
243.0722319569
30
0.0000000000
10
143.6774763484
20
243.0391273444
30
0.0000000000
10
143.6738993081
20
243.0060563947
30
0.0000000000
11
143.6834512487
21
243.1053633694
31
0.0000000000
11
143.6738993081
21
243.0060563947
31
0.0000000000
0
SPLINE
5
445
100
AcDbEntity
8
0
100
AcDbSpline
62
7
6
BYLAYER
70
0
71
3
72
12
73
8
74
6
42
0.0000001000
43
0.0000001000
44
0.0000000001
40
0.0000000000
40
0.0000000000
40
0.0000000000
40
0.0000000000
40
0.1810359277
40
0.3917998261
40
0.6078606615
40
0.8187388934
40
1.0000000000
40
1.0000000000
40
1.0000000000
40
1.0000000000
10
143.6738993081
20
243.0060563947
30
0.0000000000
10
143.6315941035
20
242.6149304406
30
0.0000000000
10
143.4219554424
20
241.7786419603
30
0.0000000000
10
142.8080909408
20
240.5978906070
30
0.0000000000
10
141.9093865870
20
239.5288258152
30
0.0000000000
10
140.8512204952
20
238.7206093624
30
0.0000000000
10
140.0629249232
20
238.3697094000
30
0.0000000000
10
139.6845029620
20
238.2603901055
30
0.0000000000
11
143.6738993081
21
243.0060563947
31
0.0000000000
11
143.3981439569
21
241.8581571776
31
0.0000000000
11
142.7718722902
21
240.6358676138
31
0.0000000000
11
141.8659400827
21
239.5581408965
31
0.0000000000
11
140.7690262910
21
238.7304724259
31
0.0000000000
11
139.6845029620
21
238.2603901055
31
0.0000000000
0
SPLINE
5
446
100
AcDbEntity
8
0
100
AcDbSpline
62
7
6
BYLAYER
70
0
71
3
72
8
73
4
74
2
42
0.0000001000
43
0.0000001000
44
0.0000000001
40
0.0000000000
40
0.0000000000
40
0.0000000000
40
0.0000000000
40
1.0000000000
40
1.0000000000
40
1.0000000000
40
1.0000000000
10
139.6845029620
20
238.2603901055
30
0.0000000000
10
139.6526015470
20
238.2511743608
30
0.0000000000
10
139.6206003327
20
238.2423344139
30
0.0000000000
10
139.5885044797
20
238.2338801585
30
0.0000000000
11
139.6845029620
21
238.2603901055
31
0.0000000000
11
139.5885044797
21
238.2338801585
31
0.0000000000
0
SPLINE
5
447
100
AcDbEntity
8
0
100
AcDbSpline
62
7
6
BYLAYER
70
0
71
3
72
11
73
7
74
5
42
0.0000001000
43
0.0000001000
44
0.0000000001
40
0.0000000000
40
0.0000000000
40
0.0000000000
40
0.0000000000
40
0.2246784724
40
0.4754092808
40
0.7391706056
40
1.0000000000
40
1.0000000000
40
1.0000000000
40
1.0000000000
10
55.0652454959
20
166.7110897521
30
0.0000000000
10
54.6548021561
20
166.5449986655
30
0.0000000000
10
53.8420724701
20
166.0527577203
30
0.0000000000
10
52.7919122944
20
165.0302890191
30
0.0000000000
10
51.9172578603
20
163.7657545438
30
0.0000000000
10
51.4949553775
20
162.8159165565
30
0.0000000000
10
51.3361970720
20
162.3254881913
30
0.0000000000
11
55.0652454959
21
166.7110897521
31
0.0000000000
11
53.9172765374
21
166.0427955594
31
0.0000000000
11
52.8461791340
21
165.0180451981
31
0.0000000000
11
51.9567997624
21
163.7371483735
31
0.0000000000
11
51.3361970720
21
162.3254881913
31
0.0000000000
0
SPLINE
5
448
100
AcDbEntity
8
0
100
AcDbSpline
62
7
6
BYLAYER
70
0
71
3
72
8
73
4
74
2
42
0.0000001000
43
0.0000001000
44
0.0000000001
40
0.0000000000
40
0.0000000000
40
0.0000000000
40
0.0000000000
40
1.0000000000
40
1.0000000000
40
1.0000000000
40
1.0000000000
10
51.3361970720
20
162.3254881913
30
0.0000000000
10
51.1885538775
20
161.8693960813
30
0.0000000000
10
51.0852034285
20
161.3975946300
30
0.0000000000
10
51.0451199783
20
160.9212477858
30
0.0000000000
11
51.3361970720
21
162.3254881913
31
0.0000000000
11
51.0451199783
21
160.9212477858
31
0.0000000000
0
SPLINE
5
449
100
AcDbEntity
8
0
100
AcDbSpline
62
7
6
BYLAYER
70
0
71
3
72
9
73
5
74
3
42
0.0000001000
43
0.0000001000
44
0.0000000001
40
0.0000000000
40
0.0000000000
40
0.0000000000
40
0.0000000000
40
0.5322940402
40
1.0000000000
40
1.0000000000
40
1.0000000000
40
1.0000000000
10
71.4992879319
20
165.5472793726
30
0.0000000000
10
71.3116397125
20
165.4820806843
30
0.0000000000
10
70.9484626916
20
165.3837444625
30
0.0000000000
10
70.5784578661
20
165.3481314835
30
0.0000000000
10
70.4010392816
20
165.3539384947
30
0.0000000000
11
71.4992879319
21
165.5472793726
31
0.0000000000
11
70.9230712156
21
165.3951649267
31
0.0000000000
11
70.4010392816
21
165.3539384947
31
0.0000000000
0
SPLINE
5
44A
100
AcDbEntity
8
0
100
AcDbSpline
62
7
6
BYLAYER
70
0
71
3
72
8
73
4
74
2
42
0.0000001000
43
0.0000001000
44
0.0000000001
40
0.0000000000
40
0.0000000000
40
0.0000000000
40
0.0000000000
40
1.0000000000
40
1.0000000000
40
1.0000000000
40
1.0000000000
10
70.4010392816
20
165.3539384947
30
0.0000000000
10
70.1851209999
20
165.3610056229
30
0.0000000000
10
69.9628200308
20
165.4013513000
30
0.0000000000
10
69.7709242278
20
165.4949468588
30
0.0000000000
11
70.4010392816
21
165.3539384947
31
0.0000000000
11
69.7709242278
21
165.4949468588
31
0.0000000000
0
SPLINE
5
44B
100
AcDbEntity
8
0
100
AcDbSpline
62
7
6
BYLAYER
70
0
71
3
72
8
73
4
74
2
42
0.0000001000
43
0.0000001000
44
0.0000000001
40
0.0000000000
40
0.0000000000
40
0.0000000000
40
0.0000000000
40
1.0000000000
40
1.0000000000
40
1.0000000000
40
1.0000000000
10
69.7709242278
20
165.4949468588
30
0.0000000000
10
69.7511083078
20
165.5046119066
30
0.0000000000
10
69.7316166116
20
165.5148447815
30
0.0000000000
10
69.7124896481
20
165.5256674751
30
0.0000000000
11
69.7709242278
21
165.4949468588
31
0.0000000000
11
69.7124896481
21
165.5256674751
31
0.0000000000
0
SPLINE
5
44C
100
AcDbEntity
8
0
100
AcDbSpline
62
7
6
BYLAYER
70
0
71
3
72
8
73
4
74
2
42
0.0000001000
43
0.0000001000
44
0.0000000001
40
0.0000000000
40
0.0000000000
40
0.0000000000
40
0.0000000000
40
1.0000000000
40
1.0000000000
40
1.0000000000
40
1.0000000000
10
64.6929756304
20
173.7044748171
30
0.0000000000
10
64.5688944459
20
173.6565119180
30
0.0000000000
10
64.4447831683
20
173.6086269830
30
0.0000000000
10
64.3206416432
20
173.5608208135
30
0.0000000000
11
64.6929756304
21
173.7044748171
31
0.0000000000
11
64.3206416432
21
173.5608208135
31
0.0000000000
0
SPLINE
5
44D
100
AcDbEntity
8
0
100
AcDbSpline
62
7
6
BYLAYER
70
0
71
3
72
8
73
4
74
2
42
0.0000001000
43
0.0000001000
44
0.0000000001
40
0.0000000000
40
0.0000000000
40
0.0000000000
40
0.0000000000
40
1.0000000000
40
1.0000000000
40
1.0000000000
40
1.0000000000
10
64.3206416432
20
173.5608208135
30
0.0000000000
10
63.8215421827
20
173.3686205538
30
0.0000000000
10
63.3219538105
20
173.1776934352
30
0.0000000000
10
62.8218664878
20
172.9880915417
30
0.0000000000
11
64.3206416432
21
173.5608208135
31
0.0000000000
11
62.8218664878
21
172.9880915417
31
0.0000000000
0
SPLINE
5
44E
100
AcDbEntity
8
0
100
AcDbSpline
62
7
6
BYLAYER
70
0
71
3
72
8
73
4
74
2
42
0.0000001000
43
0.0000001000
44
0.0000000001
40
0.0000000000
40
0.0000000000
40
0.0000000000
40
0.0000000000
40
1.0000000000
40
1.0000000000
40
1.0000000000
40
1.0000000000
10
62.8218664878
20
172.9880915417
30
0.0000000000
10
62.6869845947
20
172.9369527481
30
0.0000000000
10
62.5520664044
20
172.8859103609
30
0.0000000000
10
62.4171117199
20
172.8349654018
30
0.0000000000
11
62.8218664878
21
172.9880915417
31
0.0000000000
11
62.4171117199
21
172.8349654018
31
0.0000000000
0
SPLINE
5
44F
100
AcDbEntity
8
0
100
AcDbSpline
62
7
6
BYLAYER
70
0
71
3
72
8
73
4
74
2
42
0.0000001000
43
0.0000001000
44
0.0000000001
40
0.0000000000
40
0.0000000000
40
0.0000000000
40
0.0000000000
40
1.0000000000
40
1.0000000000
40
1.0000000000
40
1.0000000000
10
68.9242631323
20
176.0660590708
30
0.0000000000
10
68.9212153544
20
176.0298396483
30
0.0000000000
10
68.9177611601
20
175.9936494246
30
0.0000000000
10
68.9139108469
20
175.9574944586
30
0.0000000000
11
68.9242631323
21
176.0660590708
31
0.0000000000
11
68.9139108469
21
175.9574944586
31
0.0000000000
0
SPLINE
5
450
100
AcDbEntity
8
0
100
AcDbSpline
62
7
6
BYLAYER
70
0
71
3
72
9
73
5
74
3
42
0.0000001000
43
0.0000001000
44
0.0000000001
40
0.0000000000
40
0.0000000000
40
0.0000000000
40
0.0000000000
40
0.4598734445
40
1.0000000000
40
1.0000000000
40
1.0000000000
40
1.0000000000
10
68.9139108469
20
175.9574944586
30
0.0000000000
10
68.8721868261
20
175.5657002055
30
0.0000000000
10
68.6803071355
20
174.7227423386
30
0.0000000000
10
68.3304372651
20
173.9358189672
30
0.0000000000
10
68.1037513267
20
173.5317485419
30
0.0000000000
11
68.9139108469
21
175.9574944586
31
0.0000000000
11
68.6622937480
21
174.8022427059
31
0.0000000000
11
68.1037513267
21
173.5317485419
31
0.0000000000
0
SPLINE
5
451
100
AcDbEntity
8
0
100
AcDbSpline
62
7
6
BYLAYER
70
0
71
3
72
10
73
6
74
4
42
0.0000001000
43
0.0000001000
44
0.0000000001
40
0.0000000000
40
0.0000000000
40
0.0000000000
40
0.0000000000
40
0.3683863080
40
0.7185733450
40
1.0000000000
40
1.0000000000
40
1.0000000000
40
1.0000000000
10
68.1037513267
20
173.5317485419
30
0.0000000000
10
67.8745172576
20
173.1231360428
30
0.0000000000
10
67.3521500479
20
172.3679219608
30
0.0000000000
10
66.4366444555
20
171.4765571618
30
0.0000000000
10
65.7465825485
20
171.0482373673
30
0.0000000000
10
65.4197185164
20
170.9033492802
30
0.0000000000
11
68.1037513267
21
173.5317485419
31
0.0000000000
11
67.3033098923
21
172.3789413998
31
0.0000000000
11
66.3393222292
21
171.4566660746
31
0.0000000000
11
65.4197185164
21
170.9033492802
31
0.0000000000
0
SPLINE
5
452
100
AcDbEntity
8
0
100
AcDbSpline
62
7
6
BYLAYER
70
0
71
3
72
8
73
4
74
2
42
0.0000001000
43
0.0000001000
44
0.0000000001
40
0.0000000000
40
0.0000000000
40
0.0000000000
40
0.0000000000
40
1.0000000000
40
1.0000000000
40
1.0000000000
40
1.0000000000
10
65.4197185164
20
170.9033492802
30
0.0000000000
10
65.3821176296
20
170.8866820424
30
0.0000000000
10
65.3442600901
20
170.8706229635
30
0.0000000000
10
65.3061501665
20
170.8552013011
30
0.0000000000
11
65.4197185164
21
170.9033492802
31
0.0000000000
11
65.3061501665
21
170.8552013011
31
0.0000000000
0
SPLINE
5
453
100
AcDbEntity
8
0
100
AcDbSpline
62
7
6
BYLAYER
70
0
71
3
72
10
73
6
74
4
42
0.0000001000
43
0.0000001000
44
0.0000000001
40
0.0000000000
40
0.0000000000
40
0.0000000000
40
0.0000000000
40
0.1491501225
40
0.5622780612
40
1.0000000000
40
1.0000000000
40
1.0000000000
40
1.0000000000
10
69.7124896481
20
165.5256674751
30
0.0000000000
10
69.6727484116
20
165.5481544332
30
0.0000000000
10
69.5288647068
20
165.6425268026
30
0.0000000000
10
69.3219534180
20
165.8797115837
30
0.0000000000
10
69.2360380081
20
166.1304179577
30
0.0000000000
10
69.2104536216
20
166.2622761209
30
0.0000000000
11
69.7124896481
21
165.5256674751
31
0.0000000000
11
69.5983530459
21
165.6009645023
31
0.0000000000
11
69.3482920938
21
165.8854062081
31
0.0000000000
11
69.2104536216
21
166.2622761209
31
0.0000000000
0
SPLINE
5
454
100
AcDbEntity
8
0
100
AcDbSpline
62
7
6
BYLAYER
70
0
71
3
72
9
73
5
74
3
42
0.0000001000
43
0.0000001000
44
0.0000000001
40
0.0000000000
40
0.0000000000
40
0.0000000000
40
0.0000000000
40
0.4644442512
40
1.0000000000
40
1.0000000000
40
1.0000000000
40
1.0000000000
10
69.2104536216
20
166.2622761209
30
0.0000000000
10
69.1812921298
20
166.4125701586
30
0.0000000000
10
69.1705767415
20
166.7441879095
30
0.0000000000
10
69.2348278383
20
167.0687201308
30
0.0000000000
10
69.2832127342
20
167.2377351976
30
0.0000000000
11
69.2104536216
21
166.2622761209
31
0.0000000000
11
69.1875096341
21
166.7190776659
31
0.0000000000
11
69.2832127342
21
167.2377351976
31
0.0000000000
0
SPLINE
5
455
100
AcDbEntity
8
0
100
AcDbSpline
62
7
6
BYLAYER
70
0
71
3
72
8
73
4
74
2
42
0.0000001000
43
0.0000001000
44
0.0000000001
40
0.0000000000
40
0.0000000000
40
0.0000000000
40
0.0000000000
40
1.0000000000
40
1.0000000000
40
1.0000000000
40
1.0000000000
10
71.0388125001
20
173.3702855718
30
0.0000000000
10
71.0504233465
20
173.4108438481
30
0.0000000000
10
71.0614099230
20
173.4516147274
30
0.0000000000
10
71.0716996049
20
173.4925767439
30
0.0000000000
11
71.0388125001
21
173.3702855718
31
0.0000000000
11
71.0716996049
21
173.4925767439
31
0.0000000000
0
SPLINE
5
456
100
AcDbEntity
8
0
100
AcDbSpline
62
7
6
BYLAYER
70
0
71
3
72
9
73
5
74
3
42
0.0000001000
43
0.0000001000
44
0.0000000001
40
0.0000000000
40
0.0000000000
40
0.0000000000
40
0.0000000000
40
0.4819132021
40
1.0000000000
40
1.0000000000
40
1.0000000000
40
1.0000000000
10
71.0716996049
20
173.4925767439
30
0.0000000000
10
71.1120683875
20
173.6532801322
30
0.0000000000
10
71.1735781486
20
173.9928543578
30
0.0000000000
10
71.1700179870
20
174.3395150844
30
0.0000000000
10
71.1405388148
20
174.5157835940
30
0.0000000000
11
71.0716996049
21
173.4925767439
31
0.0000000000
11
71.1562412587
21
173.9822165084
31
0.0000000000
11
71.1405388148
21
174.5157835940
31
0.0000000000
0
SPLINE
5
457
100
AcDbEntity
8
0
100
AcDbSpline
62
7
6
BYLAYER
70
0
71
3
72
9
73
5
74
3
42
0.0000001000
43
0.0000001000
44
0.0000000001
40
0.0000000000
40
0.0000000000
40
0.0000000000
40
0.0000000000
40
0.5210622242
40
1.0000000000
40
1.0000000000
40
1.0000000000
40
1.0000000000
10
71.1405388148
20
174.5157835940
30
0.0000000000
10
71.1152819068
20
174.6668053901
30
0.0000000000
10
71.0278678383
20
174.9518968244
30
0.0000000000
10
70.8349925440
20
175.1841266896
30
0.0000000000
10
70.7237674321
20
175.2702534351
30
0.0000000000
11
71.1405388148
21
174.5157835940
31
0.0000000000
11
70.9955522300
21
174.9495539190
31
0.0000000000
11
70.7237674321
21
175.2702534351
31
0.0000000000
0
SPLINE
5
458
100
AcDbEntity
8
0
100
AcDbSpline
62
7
6
BYLAYER
70
0
71
3
72
8
73
4
74
2
42
0.0000001000
43
0.0000001000
44
0.0000000001
40
0.0000000000
40
0.0000000000
40
0.0000000000
40
0.0000000000
40
1.0000000000
40
1.0000000000
40
1.0000000000
40
1.0000000000
10
70.7237674321
20
175.2702534351
30
0.0000000000
10
70.6916932904
20
175.2950899256
30
0.0000000000
10
70.6580516317
20
175.3178394057
30
0.0000000000
10
70.6231700218
20
175.3386002437
30
0.0000000000
11
70.7237674321
21
175.2702534351
31
0.0000000000
11
70.6231700218
21
175.3386002437
31
0.0000000000
0
SPLINE
5
459
100
AcDbEntity
8
0
100
AcDbSpline
62
7
6
BYLAYER
70
0
71
3
72
10
73
6
74
4
42
0.0000001000
43
0.0000001000
44
0.0000000001
40
0.0000000000
40
0.0000000000
40
0.0000000000
40
0.0000000000
40
0.4279157475
40
0.8137462319
40
1.0000000000
40
1.0000000000
40
1.0000000000
40
1.0000000000
10
140.8331521025
20
253.0251210597
30
0.0000000000
10
141.2052939008
20
253.1231456182
30
0.0000000000
10
141.9467031211
20
253.2133872183
30
0.0000000000
10
142.8430418051
20
252.9864204579
30
0.0000000000
10
143.2766468623
20
252.6953832322
30
0.0000000000
10
143.4058872266
20
252.5864862324
30
0.0000000000
11
140.8331521025
21
253.0251210597
31
0.0000000000
11
141.9817242335
21
253.1420272127
31
0.0000000000
11
142.9859164412
21
252.8678036626
31
0.0000000000
11
143.4058872266
21
252.5864862324
31
0.0000000000
0
SPLINE
5
45A
100
AcDbEntity
8
0
100
AcDbSpline
62
7
6
BYLAYER
70
0
71
3
72
11
73
7
74
5
42
0.0000001000
43
0.0000001000
44
0.0000000001
40
0.0000000000
40
0.0000000000
40
0.0000000000
40
0.0000000000
40
0.2500089191
40
0.5000170179
40
0.7500165208
40
1.0000000000
40
1.0000000000
40
1.0000000000
40
1.0000000000
10
238.6114582160
20
147.8988987055
30
0.0000000000
10
238.1194855758
20
147.9453030285
30
0.0000000000
10
237.1301490238
20
147.9885618605
30
0.0000000000
10
235.6476975931
20
147.9038719091
30
0.0000000000
10
234.1813183759
20
147.6705955987
30
0.0000000000
10
233.2240132705
20
147.4174291472
30
0.0000000000
10
232.7532942187
20
147.2672148966
30
0.0000000000
11
238.6114582160
21
147.8988987055
31
0.0000000000
11
237.1304033343
21
147.9636319803
31
0.0000000000
11
235.6503510885
21
147.8791045440
31
0.0000000000
11
234.1863522191
21
147.6461759612
31
0.0000000000
11
232.7532942187
21
147.2672148966
31
0.0000000000
0
SPLINE
5
45B
100
AcDbEntity
8
0
100
AcDbSpline
62
7
6
BYLAYER
70
0
71
3
72
9
73
5
74
3
42
0.0000001000
43
0.0000001000
44
0.0000000001
40
0.0000000000
40
0.0000000000
40
0.0000000000
40
0.0000000000
40
0.2503635431
40
1.0000000000
40
1.0000000000
40
1.0000000000
40
1.0000000000
10
224.4683622134
20
144.6233557872
30
0.0000000000
10
223.8773418411
20
144.4347513914
30
0.0000000000
10
221.4880068049
20
143.7743468099
30
0.0000000000
10
218.9951828084
20
143.4894091352
30
0.0000000000
10
217.1376469447
20
143.4965535039
30
0.0000000000
11
224.4683622134
21
144.6233557872
31
0.0000000000
11
222.6744501854
21
144.1276039101
31
0.0000000000
11
217.1376469447
21
143.4965535039
31
0.0000000000
0
SPLINE
5
45C
100
AcDbEntity
8
0
100
AcDbSpline
62
7
6
BYLAYER
70
0
71
3
72
8
73
4
74
2
42
0.0000001000
43
0.0000001000
44
0.0000000001
40
0.0000000000
40
0.0000000000
40
0.0000000000
40
0.0000000000
40
1.0000000000
40
1.0000000000
40
1.0000000000
40
1.0000000000
10
217.1376469447
20
143.4965535040
30
0.0000000000
10
214.2183398054
20
143.5077816083
30
0.0000000000
10
211.2990329098
20
143.5210115520
30
0.0000000000
10
208.3797761092
20
143.5415048727
30
0.0000000000
11
217.1376469447
21
143.4965535040
31
0.0000000000
11
208.3797761092
21
143.5415048727
31
0.0000000000
0
SPLINE
5
45D
100
AcDbEntity
8
0
100
AcDbSpline
62
7
6
BYLAYER
70
0
71
3
72
8
73
4
74
2
42
0.0000001000
43
0.0000001000
44
0.0000000001
40
0.0000000000
40
0.0000000000
40
0.0000000000
40
0.0000000000
40
1.0000000000
40
1.0000000000
40
1.0000000000
40
1.0000000000
10
217.1507035576
20
146.8912728455
30
0.0000000000
10
214.2277989050
20
146.9025147865
30
0.0000000000
10
211.3049230468
20
146.9210140469
30
0.0000000000
10
208.3820687149
20
146.9415212028
30
0.0000000000
11
217.1507035576
21
146.8912728455
31
0.0000000000
11
208.3820687149
21
146.9415212028
31
0.0000000000
0
SPLINE
5
45E
100
AcDbEntity
8
0
100
AcDbSpline
62
7
6
BYLAYER
70
0
71
3
72
11
73
7
74
5
42
0.0000001000
43
0.0000001000
44
0.0000000001
40
0.0000000000
40
0.0000000000
40
0.0000000000
40
0.0000000000
40
0.2500089191
40
0.5000170179
40
0.7500165208
40
1.0000000000
40
1.0000000000
40
1.0000000000
40
1.0000000000
10
238.9312426037
20
151.2924906667
30
0.0000000000
10
238.3254879467
20
151.3496272480
30
0.0000000000
10
237.1073404837
20
151.4028908583
30
0.0000000000
10
235.2820319514
20
151.2986140586
30
0.0000000000
10
233.4765127680
20
151.0113862743
30
0.0000000000
10
232.2978048922
20
150.6996682143
30
0.0000000000
10
231.7182192926
20
150.5147128440
30
0.0000000000
11
238.9312426037
21
151.2924906667
31
0.0000000000
11
237.1076536103
21
151.3721952671
31
0.0000000000
11
235.2852991396
21
151.2681185685
31
0.0000000000
11
233.4827108240
21
150.9813189332
31
0.0000000000
11
231.7182192926
21
150.5147128440
31
0.0000000000
0
SPLINE
5
45F
100
AcDbEntity
8
0
100
AcDbSpline
62
7
6
BYLAYER
70
0
71
3
72
9
73
5
74
3
42
0.0000001000
43
0.0000001000
44
0.0000000001
40
0.0000000000
40
0.0000000000
40
0.0000000000
40
0.0000000000
40
0.2503635431
40
1.0000000000
40
1.0000000000
40
1.0000000000
40
1.0000000000
10
223.4332872873
20
147.8708537347
30
0.0000000000
10
222.9267741772
20
147.7092170068
30
0.0000000000
10
220.8790790774
20
147.1432406138
30
0.0000000000
10
218.7426924239
20
146.8990448558
30
0.0000000000
10
217.1507569992
20
146.9051676844
30
0.0000000000
11
223.4332872873
21
147.8708537347
31
0.0000000000
11
221.8958784210
21
147.4459871194
31
0.0000000000
11
217.1507569992
21
146.9051676844
31
0.0000000000
0
SPLINE
5
460
100
AcDbEntity
8
0
100
AcDbSpline
62
7
6
BYLAYER
70
0
71
3
72
11
73
7
74
5
42
0.0000001000
43
0.0000001000
44
0.0000000001
40
0.0000000000
40
0.0000000000
40
0.0000000000
40
0.0000000000
40
0.2501552896
40
0.5003097583
40
0.7504556261
40
1.0000000000
40
1.0000000000
40
1.0000000000
40
1.0000000000
10
238.9311891620
20
151.2785958278
30
0.0000000000
10
238.3254345051
20
151.3357324091
30
0.0000000000
10
237.1072870420
20
151.3889960194
30
0.0000000000
10
235.2819785097
20
151.2847192197
30
0.0000000000
10
233.4778679328
20
150.9977155210
30
0.0000000000
10
232.3005103127
20
150.6865028034
30
0.0000000000
10
231.7222357936
20
150.5021162619
30
0.0000000000
11
238.9311891620
21
151.2785958278
31
0.0000000000
11
237.1076001686
21
151.3583004282
31
0.0000000000
11
235.2852456979
21
151.2542237296
31
0.0000000000
11
233.4826573823
21
150.9674240944
31
0.0000000000
11
231.7222357936
21
150.5021162619
31
0.0000000000
0
ENDSEC
0
SECTION
2
OBJECTS
0
DICTIONARY
5
461
100
AcDbDictionary
3
ACAD_GROUP
350
462
3
ACAD_MLINESTYLE
350
463
0
DICTIONARY
5
462
102
{ACAD_REACTORS
330
461
102
}
100
AcDbDictionary
0
DICTIONARY
5
463
102
{ACAD_REACTORS
330
461
102
}
100
AcDbDictionary
3
STANDARD
350
464
0
MLINESTYLE
5
464
102
{ACAD_REACTORS
330
463
102
}
100
AcDbMlineStyle
2
STANDARD
70
0
3

62
256
51
90.0
52
90.0
71
2
49
0.5
62
256
6
BYLAYER
49
-0.5
62
256
6
BYLAYER
0
ENDSEC
0
EOF
