999
DXF file: td-1002-945.dxf
999
Pro/ENGINEER 2003060 by Parametric Technology Corporation
0
SECTION
2
HEADER
9
$ACADVER
1
AC1014
9
$HANDSEED
5
       42D
9
$EXTMAX
10
420.0000000000
20
297.0000000000
9
$EXTMIN
10
0.0000000000
20
0.0000000000
9
$LIMMIN
10
0.0000000000
20
0.0000000000
9
$LIMMAX
10
420.0000000000
20
297.0000000000
9
$VIEWCTR
10
210.0000000000
20
148.5000000000
9
$VIEWSIZE
40
297.0000000000
9
$CLAYER
8
0
9
$LTSCALE
40
23.1000000000
9
$CELTYPE
6
BYLAYER
9
$DIMSCALE
40
1
9
$DIMASZ
40
5.0000000000
9
$DIMEXO
40
2.6250000000
9
$DIMDLI
40
15.9600000000
9
$DIMEXE
40
7.5600000000
9
$DIMCEN
40
3.7800000000
9
$DIMLFAC
40
1.0000000000
9
$DIMTXT
40
4.0000000000
9
$DIMTOL
70
1
9
$DIMLIM
70
0
9
$DIMTFAC
40
1.0000000000
9
$DIMTP
40
0.0100000000
9
$DIMTM
40
0.0100000000
0
ENDSEC
0
SECTION
2
CLASSES
0
ENDSEC
0
SECTION
2
TABLES
0
TABLE
2
VPORT
5
8
100
AcDbSymbolTable
70
2
0
VPORT
5
1F4
100
AcDbSymbolTableRecord
100
AcDbViewportTableRecord
2
*ACTIVE
70
0
10
0.0
20
0.0
11
1.0
21
1.0
12
210.0000000000
22
148.5000000000
13
0.0
23
0.0
14
1.0
24
1.0
15
0.0
25
0.0
16
0.0
26
0.0
36
1.0
17
0.0
27
0.0
37
0.0
40
297.0000000000
41
1.4141414141
42
50.0
43
0.0
44
0.0
50
0.0
51
0.0
71
0
72
100
73
1
74
1
75
0
76
0
77
0
78
0
0
ENDTAB
0
TABLE
2
LTYPE
5
5
100
AcDbSymbolTable
70
6
0
LTYPE
5
14
100
AcDbSymbolTableRecord
100
AcDbLinetypeTableRecord
2
BYBLOCK
70
0
3

72
65
73
0
40
0.0
0
LTYPE
5
15
100
AcDbSymbolTableRecord
100
AcDbLinetypeTableRecord
2
BYLAYER
70
0
3

72
65
73
0
40
0.0
0
LTYPE
5
16
100
AcDbSymbolTableRecord
100
AcDbLinetypeTableRecord
2
CONTINUOUS
70
64
3
Solid line
72
65
73
0
40
0
0
LTYPE
5
1F5
100
AcDbSymbolTableRecord
100
AcDbLinetypeTableRecord
2
CENTER
70
64
3
____ _ ____ _ ____ _ ____ _ ____ _ ____ _ ____
72
65
73
4
40
0.6
49
0.375
74
0
49
-0.075
74
0
49
0.075
74
0
49
-0.075
74
0
0
LTYPE
5
1F6
100
AcDbSymbolTableRecord
100
AcDbLinetypeTableRecord
2
HIDDEN
70
64
3
- - - - - - - - - - - - - - - - - - - -
72
65
73
2
40
0.2
49
0.1
74
0
49
-0.1
74
0
0
LTYPE
5
1F7
100
AcDbSymbolTableRecord
100
AcDbLinetypeTableRecord
2
PHANTOM
70
64
3
_____ _ _ _____ _ _ _____ _ _ _____
72
65
73
6
40
0.8
49
0.45
74
0
49
-0.05
74
0
49
0.1
74
0
49
-0.05
74
0
49
0.1
74
0
49
-0.05
74
0
0
LTYPE
5
1F8
100
AcDbSymbolTableRecord
100
AcDbLinetypeTableRecord
2
DOT
70
64
3
. . . . . . . . . . . . . . . . . . . .
72
65
73
2
40
0.2
49
0.1
74
0
49
-0.1
74
0
0
LTYPE
5
1F9
100
AcDbSymbolTableRecord
100
AcDbLinetypeTableRecord
2
DASHED
70
64
3
- - - - - - - - - - - - - - - - - - - -
72
65
73
2
40
0.2
49
0.1
74
0
49
-0.1
74
0
0
ENDTAB
0
TABLE
2
LAYER
5
2
100
AcDbSymbolTable
70
36
0
LAYER
5
10
100
AcDbSymbolTableRecord
100
AcDbLayerTableRecord
2
0
70
0
62
7
6
CONTINUOUS
0
LAYER
5
1FA
100
AcDbSymbolTableRecord
100
AcDbLayerTableRecord
2
DEFAULT_1
70
0
62
7
6
CENTER
0
LAYER
5
1FB
100
AcDbSymbolTableRecord
100
AcDbLayerTableRecord
2
DEFAULT_2
70
0
62
7
6
HIDDEN
0
LAYER
5
1FC
100
AcDbSymbolTableRecord
100
AcDbLayerTableRecord
2
DEFAULT_3
70
0
62
7
6
PHANTOM
0
LAYER
5
1FD
100
AcDbSymbolTableRecord
100
AcDbLayerTableRecord
2
AXIS
70
0
62
7
6
CONTINUOUS
0
LAYER
5
1FE
100
AcDbSymbolTableRecord
100
AcDbLayerTableRecord
2
CSYS
70
0
62
7
6
CONTINUOUS
0
LAYER
5
1FF
100
AcDbSymbolTableRecord
100
AcDbLayerTableRecord
2
CURVES
70
0
62
7
6
CONTINUOUS
0
LAYER
5
200
100
AcDbSymbolTableRecord
100
AcDbLayerTableRecord
2
DTMS
70
0
62
7
6
CONTINUOUS
0
LAYER
5
201
100
AcDbSymbolTableRecord
100
AcDbLayerTableRecord
2
GEOM
70
0
62
7
6
CONTINUOUS
0
LAYER
5
202
100
AcDbSymbolTableRecord
100
AcDbLayerTableRecord
2
PLANES
70
0
62
7
6
CONTINUOUS
0
LAYER
5
203
100
AcDbSymbolTableRecord
100
AcDbLayerTableRecord
2
POINTS
70
0
62
7
6
CONTINUOUS
0
LAYER
5
204
100
AcDbSymbolTableRecord
100
AcDbLayerTableRecord
2
SKELETON
70
0
62
7
6
CONTINUOUS
0
ENDTAB
0
TABLE
2
STYLE
5
3
100
AcDbSymbolTable
70
1
0
STYLE
5
11
100
AcDbSymbolTableRecord
100
AcDbTextStyleTableRecord
2
STANDARD
70
0
40
0.0
41
0.8000000000
50
0.0
71
0
42
0.2
3
txt
4

0
STYLE
5
205
100
AcDbSymbolTableRecord
100
AcDbTextStyleTableRecord
2
TEXTSTYLE_1
70
0
40
0.0
41
0.8000000000
50
0.0
71
0
42
0.2
3
txt
4

0
STYLE
5
206
100
AcDbSymbolTableRecord
100
AcDbTextStyleTableRecord
2
TEXTSTYLE_2
70
0
40
0.0
41
0.8000000000
50
0.0
71
0
42
0.2
3
cgtime.ttf
4

0
ENDTAB
0
TABLE
2
VIEW
5
6
100
AcDbSymbolTable
70
0
0
ENDTAB
0
TABLE
2
UCS
5
7
100
AcDbSymbolTable
70
0
0
ENDTAB
0
TABLE
2
APPID
5
9
100
AcDbSymbolTable
70
1
0
APPID
5
207
100
AcDbSymbolTableRecord
100
AcDbRegAppTableRecord
2
ACAD
70
0
0
ENDTAB
0
TABLE
2
DIMSTYLE
5
A
100
AcDbSymbolTable
70
1
0
DIMSTYLE
105
208
100
AcDbSymbolTableRecord
100
AcDbDimStyleTableRecord
2
STANDARD
70
0
3

4

5

6

7

40
1.0
41
5.0000000000
42
0.0625
43
0.38
44
0.18
45
0.0
46
0.0
47
0.0100000000
48
0.0100000000
140
4.0000000000
141
0.09
142
0.0
143
25.4
144
1.0000000000
145
0.0
146
1.0000000000
147
0.09
71
1
72
0
73
0
74
0
75
0
76
0
77
1
78
8
170
0
171
2
172
0
173
0
174
0
175
0
176
0
177
0
178
0
270
2
271
2
272
2
273
2
274
2
340
11
275
0
280
0
281
0
282
0
283
1
284
8
285
0
286
0
287
3
288
0
0
DIMSTYLE
105
209
100
AcDbSymbolTableRecord
100
AcDbDimStyleTableRecord
2
DIMSTYLE_1
70
0
3

4

5

6

7

40
1.0
41
5.0000000000
42
0.0625
43
0.38
44
0.18
45
0.0
46
0.0
47
0.3000000000
48
0.3000000000
140
4.0000000000
141
0.09
142
0.0
143
25.4
144
1.0000000000
145
0.0
146
1.0000000000
147
0.09
71
0
72
0
73
0
74
0
75
0
76
0
77
1
78
8
170
0
171
2
172
0
173
0
174
0
175
0
176
0
177
0
178
0
270
2
271
2
272
2
273
2
274
2
340
11
275
0
280
0
281
0
282
0
283
1
284
8
285
0
286
0
287
3
288
0
0
DIMSTYLE
105
20A
100
AcDbSymbolTableRecord
100
AcDbDimStyleTableRecord
2
DIMSTYLE_2
70
0
3

4

5

6

7

40
1.0
41
5.0000000000
42
0.0625
43
0.38
44
0.18
45
0.0
46
0.0
47
0.2000000000
48
0.2000000000
140
4.0000000000
141
0.09
142
0.0
143
25.4
144
1.0000000000
145
0.0
146
1.0000000000
147
0.09
71
0
72
0
73
0
74
0
75
0
76
0
77
1
78
8
170
0
171
2
172
0
173
0
174
0
175
0
176
0
177
0
178
0
270
2
271
2
272
2
273
2
274
2
340
11
275
0
280
0
281
0
282
0
283
1
284
8
285
0
286
0
287
3
288
0
0
DIMSTYLE
105
20B
100
AcDbSymbolTableRecord
100
AcDbDimStyleTableRecord
2
DIMSTYLE_3
70
0
3

4

5

6

7

40
1.0
41
5.0000000000
42
0.0625
43
0.38
44
0.18
45
0.0
46
0.0
47
0.5000000000
48
0.5000000000
140
4.0000000000
141
0.09
142
0.0
143
25.4
144
1.0000000000
145
0.0
146
1.0000000000
147
0.09
71
0
72
0
73
0
74
0
75
0
76
0
77
1
78
8
170
0
171
2
172
0
173
0
174
0
175
0
176
0
177
0
178
0
270
2
271
1
272
1
273
2
274
2
340
11
275
0
280
0
281
0
282
0
283
1
284
8
285
0
286
0
287
3
288
0
0
ENDTAB
0
TABLE
2
BLOCK_RECORD
5
1
100
AcDbSymbolTable
70
0
0
BLOCK_RECORD
5
1B
100
AcDbSymbolTableRecord
100
AcDbBlockTableRecord
2
*MODEL_SPACE
0
BLOCK_RECORD
5
1C
100
AcDbSymbolTableRecord
100
AcDbBlockTableRecord
2
*PAPER_SPACE
0
BLOCK_RECORD
5
20C
100
AcDbSymbolTableRecord
100
AcDbBlockTableRecord
2
COPYRIGHT_BL0
0
BLOCK_RECORD
5
20D
100
AcDbSymbolTableRecord
100
AcDbBlockTableRecord
2
MICRO_U_BL1
0
BLOCK_RECORD
5
20E
100
AcDbSymbolTableRecord
100
AcDbBlockTableRecord
2
PROJECTION_BL2
0
BLOCK_RECORD
5
20F
100
AcDbSymbolTableRecord
100
AcDbBlockTableRecord
2
SURFACE_FINISH_BL3
0
BLOCK_RECORD
5
210
100
AcDbSymbolTableRecord
100
AcDbBlockTableRecord
2
*D0
0
BLOCK_RECORD
5
211
100
AcDbSymbolTableRecord
100
AcDbBlockTableRecord
2
*D1
0
BLOCK_RECORD
5
212
100
AcDbSymbolTableRecord
100
AcDbBlockTableRecord
2
*D2
0
BLOCK_RECORD
5
213
100
AcDbSymbolTableRecord
100
AcDbBlockTableRecord
2
*D3
0
BLOCK_RECORD
5
214
100
AcDbSymbolTableRecord
100
AcDbBlockTableRecord
2
*D4
0
BLOCK_RECORD
5
215
100
AcDbSymbolTableRecord
100
AcDbBlockTableRecord
2
*D5
0
BLOCK_RECORD
5
216
100
AcDbSymbolTableRecord
100
AcDbBlockTableRecord
2
COPYRIGHT_BL4
0
BLOCK_RECORD
5
217
100
AcDbSymbolTableRecord
100
AcDbBlockTableRecord
2
MICRO_U_BL5
0
BLOCK_RECORD
5
218
100
AcDbSymbolTableRecord
100
AcDbBlockTableRecord
2
SURFACE_FINISH_BL6
0
BLOCK_RECORD
5
219
100
AcDbSymbolTableRecord
100
AcDbBlockTableRecord
2
PROJECTION_BL7
0
ENDTAB
0
ENDSEC
0
SECTION
2
BLOCKS
0
BLOCK
5
1E
100
AcDbEntity
8
0
100
AcDbBlockBegin
2
*MODEL_SPACE
70
0
10
0.0
20
0.0
30
0.0
3
*MODEL_SPACE
1

0
ENDBLK
5
1F
100
AcDbEntity
8
0
100
AcDbBlockEnd
0
BLOCK
5
20
100
AcDbEntity
8
0
100
AcDbBlockBegin
2
*PAPER_SPACE
70
0
10
0.0
20
0.0
30
0.0
3
*PAPER_SPACE
1

0
ENDBLK
5
21
100
AcDbEntity
8
0
100
AcDbBlockEnd
0
BLOCK
5
21A
100
AcDbEntity
8
0
100
AcDbBlockBegin
62
7
6
BYLAYER
2
COPYRIGHT_BL0
70
64
10
0.0000000000
20
0.0000000000
3
COPYRIGHT_BL0
1

0
TEXT
5
21B
100
AcDbEntity
8
0
100
AcDbText
62
7
6
BYLAYER
10
409.9593803245
20
9.9568590072
7
TEXTSTYLE_1
40
0.1000000000
1
C
41
0.8000000000
72
0
100
AcDbText
0
CIRCLE
5
21C
100
AcDbEntity
8
0
100
AcDbCircle
62
7
6
BYLAYER
10
409.9943527832
20
10.0069663115
40
0.0753936874
0
ENDBLK
5
21D
100
AcDbEntity
8
0
100
AcDbBlockEnd
0
BLOCK
5
21E
100
AcDbEntity
8
0
100
AcDbBlockBegin
62
7
6
BYLAYER
2
MICRO_U_BL1
70
64
10
0.0000000000
20
0.0000000000
3
MICRO_U_BL1
1

0
TEXT
5
21F
100
AcDbEntity
8
0
100
AcDbText
62
7
6
BYLAYER
10
409.9173172813
20
9.9658183152
7
STANDARD
40
0.1000000000
1
um
41
0.8000000000
72
0
100
AcDbText
0
ARC
5
220
100
AcDbEntity
8
0
100
AcDbCircle
62
7
6
BYLAYER
10
409.8795565990
20
9.9804558390
40
0.0627552936
100
AcDbArc
50
303.7730668774
51
1.5957171757
0
ENDBLK
5
221
100
AcDbEntity
8
0
100
AcDbBlockEnd
0
BLOCK
5
222
100
AcDbEntity
8
0
100
AcDbBlockBegin
62
7
6
BYLAYER
2
PROJECTION_BL2
70
64
10
0.0000000000
20
0.0000000000
3
PROJECTION_BL2
1

0
LINE
5
223
100
AcDbEntity
8
0
100
AcDbLine
62
7
6
BYLAYER
10
409.6178469936
20
9.9332236616
11
409.6178469936
21
10.0582236616
0
LINE
5
224
100
AcDbEntity
8
0
100
AcDbLine
62
7
6
BYLAYER
10
409.6178469936
20
10.0582236616
11
409.7928469936
21
10.1207236616
0
LINE
5
225
100
AcDbEntity
8
0
100
AcDbLine
62
7
6
BYLAYER
10
409.7928469936
20
10.1207236616
11
409.7928469936
21
9.8707236616
0
LINE
5
226
100
AcDbEntity
8
0
100
AcDbLine
62
7
6
BYLAYER
10
409.7928469936
20
9.8707236616
11
409.6178469936
21
9.9332236616
0
ARC
5
227
100
AcDbEntity
8
0
100
AcDbCircle
62
7
6
BYLAYER
10
409.2678469936
20
9.9957236616
40
0.0625000000
100
AcDbArc
50
180.0000000000
51
360.0000000000
0
ARC
5
228
100
AcDbEntity
8
0
100
AcDbCircle
62
7
6
BYLAYER
10
409.2678469936
20
9.9957236616
40
0.0625000000
100
AcDbArc
50
0.0000000000
51
180.0000000000
0
ARC
5
229
100
AcDbEntity
8
0
100
AcDbCircle
62
7
6
BYLAYER
10
409.2678469936
20
9.9957236616
40
0.1250000000
100
AcDbArc
50
180.0000000000
51
360.0000000000
0
ARC
5
22A
100
AcDbEntity
8
0
100
AcDbCircle
62
7
6
BYLAYER
10
409.2678469936
20
9.9957236616
40
0.1250000000
100
AcDbArc
50
0.0000000000
51
180.0000000000
0
LINE
5
22B
100
AcDbEntity
8
0
100
AcDbLine
62
7
6
BYLAYER
10
409.0671219936
20
9.9957236616
11
409.4456219936
21
9.9957236616
0
LINE
5
22C
100
AcDbEntity
8
0
100
AcDbLine
62
7
6
BYLAYER
10
409.5241469936
20
9.9957236616
11
409.8669219936
21
9.9957236616
0
LINE
5
22D
100
AcDbEntity
8
0
100
AcDbLine
62
7
6
BYLAYER
10
409.2678469936
20
10.1398736616
11
409.2678469936
21
9.8515736616
0
TEXT
5
22E
100
AcDbEntity
8
0
100
AcDbText
62
7
6
BYLAYER
10
409.2283663134
20
9.9568432128
7
STANDARD
40
0.1000000000
1
l
41
0.8000000000
72
0
100
AcDbText
0
ENDBLK
5
22F
100
AcDbEntity
8
0
100
AcDbBlockEnd
0
BLOCK
5
230
100
AcDbEntity
8
0
100
AcDbBlockBegin
62
7
6
BYLAYER
2
SURFACE_FINISH_BL3
70
64
10
0.0000000000
20
0.0000000000
3
SURFACE_FINISH_BL3
1

0
LINE
5
231
100
AcDbEntity
8
0
100
AcDbLine
62
7
6
BYLAYER
10
409.9768652881
20
9.9666906703
11
410.0571314064
21
10.1057156653
0
LINE
5
232
100
AcDbEntity
8
0
100
AcDbLine
62
7
6
BYLAYER
10
409.9768652881
20
9.9666906703
11
409.9405459599
21
10.0295975921
0
LINE
5
233
100
AcDbEntity
8
0
100
AcDbLine
62
7
6
BYLAYER
10
409.9405459599
20
10.0295975921
11
410.0131846164
21
10.0295975921
0
TEXT
5
234
100
AcDbEntity
8
0
100
AcDbText
62
7
6
BYLAYER
10
409.9369531437
20
9.9795701528
7
STANDARD
40
0.1000000000
1
-
41
0.8000000000
72
0
100
AcDbText
0
ENDBLK
5
235
100
AcDbEntity
8
0
100
AcDbBlockEnd
0
BLOCK
5
236
100
AcDbEntity
8
0
100
AcDbBlockBegin
62
7
6
BYLAYER
2
*D0
70
65
10
0.0000000000
20
0.0000000000
3
*D0
1

0
TEXT
5
237
100
AcDbEntity
8
0
100
AcDbText
62
7
6
BYLAYER
10
142.9776572279
20
167.5061633598
7
STANDARD
40
4.0000000000
1
32
41
0.8000000000
72
0
100
AcDbText
0
LINE
5
238
100
AcDbEntity
8
0
100
AcDbLine
62
7
6
BYLAYER
10
163.4300849269
20
154.7560887377
11
163.4300849269
21
169.5061633598
0
LINE
5
239
100
AcDbEntity
8
0
100
AcDbLine
62
7
6
BYLAYER
10
131.4300849269
20
154.7560887377
11
131.4300849269
21
169.5061633598
0
LINE
5
23A
100
AcDbEntity
8
0
100
AcDbLine
62
7
6
BYLAYER
10
163.4300849269
20
166.5061633598
11
147.4300849269
21
166.5061633598
0
LINE
5
23B
100
AcDbEntity
8
0
100
AcDbLine
62
7
6
BYLAYER
10
131.4300849269
20
166.5061633598
11
147.4300849269
21
166.5061633598
0
SOLID
5
23C
100
AcDbEntity
8
0
100
AcDbTrace
62
7
6
BYLAYER
10
158.4300849269
20
165.7061633598
11
163.4300849269
21
166.5061633598
12
158.4300849269
22
167.3061633598
13
158.4300849269
23
167.3061633598
0
SOLID
5
23D
100
AcDbEntity
8
0
100
AcDbTrace
62
7
6
BYLAYER
10
136.4300849269
20
167.3061633598
11
131.4300849269
21
166.5061633598
12
136.4300849269
22
165.7061633598
13
136.4300849269
23
165.7061633598
0
ENDBLK
5
23E
100
AcDbEntity
8
0
100
AcDbBlockEnd
0
BLOCK
5
23F
100
AcDbEntity
8
0
100
AcDbBlockBegin
62
7
6
BYLAYER
2
*D1
70
65
10
0.0000000000
20
0.0000000000
3
*D1
1

0
TEXT
5
240
100
AcDbEntity
8
0
100
AcDbText
62
7
6
BYLAYER
10
119.6774622961
20
133.3565111118
7
STANDARD
40
4.0000000000
1
27.8
50
90.0000000000
41
0.8000000000
72
0
100
AcDbText
0
LINE
5
241
100
AcDbEntity
8
0
100
AcDbLine
62
7
6
BYLAYER
10
129.4300849269
20
152.7560887377
11
117.6774622961
21
152.7560887377
0
LINE
5
242
100
AcDbEntity
8
0
100
AcDbLine
62
7
6
BYLAYER
10
129.4300849269
20
124.9560887377
11
117.6774622961
21
124.9560887377
0
LINE
5
243
100
AcDbEntity
8
0
100
AcDbLine
62
7
6
BYLAYER
10
120.6774622961
20
152.7560887377
11
120.6774622961
21
138.8560887377
0
LINE
5
244
100
AcDbEntity
8
0
100
AcDbLine
62
7
6
BYLAYER
10
120.6774622961
20
124.9560887377
11
120.6774622961
21
138.8560887377
0
SOLID
5
245
100
AcDbEntity
8
0
100
AcDbTrace
62
7
6
BYLAYER
10
121.4774622961
20
147.7560887377
11
120.6774622961
21
152.7560887377
12
119.8774622961
22
147.7560887377
13
119.8774622961
23
147.7560887377
0
SOLID
5
246
100
AcDbEntity
8
0
100
AcDbTrace
62
7
6
BYLAYER
10
119.8774622961
20
129.9560887377
11
120.6774622961
21
124.9560887377
12
121.4774622961
22
129.9560887377
13
121.4774622961
23
129.9560887377
0
ENDBLK
5
247
100
AcDbEntity
8
0
100
AcDbBlockEnd
0
BLOCK
5
248
100
AcDbEntity
8
0
100
AcDbBlockBegin
62
7
6
BYLAYER
2
*D2
70
65
10
0.0000000000
20
0.0000000000
3
*D2
1

0
TEXT
5
249
100
AcDbEntity
8
0
100
AcDbText
62
7
6
BYLAYER
10
258.1951272848
20
152.3513811083
7
STANDARD
40
4.0000000000
1
39.3%%d
50
-75.9603645893
41
0.7733333333
72
0
100
AcDbText
0
LINE
5
24A
100
AcDbEntity
8
0
100
AcDbLine
62
7
6
BYLAYER
10
222.1093625570
20
134.8560887377
11
258.3016711302
21
134.8560887377
0
LINE
5
24B
100
AcDbEntity
8
0
100
AcDbLine
62
7
6
BYLAYER
10
225.6096699096
20
139.3651858044
11
249.6452853096
21
159.0693433991
0
ARC
5
24C
100
AcDbEntity
8
0
100
AcDbCircle
62
7
6
BYLAYER
10
220.1093625570
20
134.8560887377
40
35.1923085732
100
AcDbArc
50
0.0000000000
51
19.6722790011
0
ARC
5
24D
100
AcDbEntity
8
0
100
AcDbCircle
62
7
6
BYLAYER
10
220.1093625570
20
134.8560887377
40
35.1923085732
100
AcDbArc
50
19.6722790011
51
39.3445580021
0
SOLID
5
24E
100
AcDbEntity
8
0
100
AcDbTrace
62
7
6
BYLAYER
10
255.3016711302
20
134.8560887377
11
254.1487962727
21
139.7866951470
12
255.7447608239
22
139.9002607732
13
255.7447608239
23
139.9002607732
0
SOLID
5
24F
100
AcDbEntity
8
0
100
AcDbTrace
62
7
6
BYLAYER
10
247.3252430925
20
157.1673959470
11
250.8658220748
21
153.5474096941
12
249.5595884118
22
152.6234218059
13
249.5595884118
23
152.6234218059
0
ENDBLK
5
250
100
AcDbEntity
8
0
100
AcDbBlockEnd
0
BLOCK
5
251
100
AcDbEntity
8
0
100
AcDbBlockBegin
62
7
6
BYLAYER
2
*D3
70
65
10
0.0000000000
20
0.0000000000
3
*D3
1

0
TEXT
5
252
100
AcDbEntity
8
0
100
AcDbText
62
7
6
BYLAYER
10
258.1017658219
20
199.9494810727
7
STANDARD
40
4.0000000000
1
47.5%%d
50
-77.7835218696
41
0.7733333333
72
0
100
AcDbText
0
LINE
5
253
100
AcDbEntity
8
0
100
AcDbLine
62
7
6
BYLAYER
10
282.1307243653
20
197.9532966467
11
250.5204550090
21
202.5084060458
0
LINE
5
254
100
AcDbEntity
8
0
100
AcDbLine
62
7
6
BYLAYER
10
279.2593740729
20
193.6913171205
11
257.8653532275
21
176.1527123746
0
ARC
5
255
100
AcDbEntity
8
0
100
AcDbCircle
62
7
6
BYLAYER
10
284.1102768271
20
197.6680387793
40
30.9367836579
100
AcDbArc
50
171.8000000000
51
195.5722790011
0
ARC
5
256
100
AcDbEntity
8
0
100
AcDbCircle
62
7
6
BYLAYER
10
284.1102768271
20
197.6680387793
40
30.9367836579
100
AcDbArc
50
195.5722790011
51
219.3445580021
0
SOLID
5
257
100
AcDbEntity
8
0
100
AcDbTrace
62
7
6
BYLAYER
10
253.4897837017
20
202.0805192447
11
253.9768976360
21
197.0404081333
12
252.3800023658
22
197.1400349176
13
252.3800023658
23
197.1400349176
0
SOLID
5
258
100
AcDbEntity
8
0
100
AcDbTrace
62
7
6
BYLAYER
10
260.1853954446
20
178.0546598268
11
256.6803583644
21
181.7090701850
12
257.9955584552
22
182.6202500362
13
257.9955584552
23
182.6202500362
0
ENDBLK
5
259
100
AcDbEntity
8
0
100
AcDbBlockEnd
0
BLOCK
5
25A
100
AcDbEntity
8
0
100
AcDbBlockBegin
62
7
6
BYLAYER
2
*D4
70
65
10
0.0000000000
20
0.0000000000
3
*D4
1

0
TEXT
5
25B
100
AcDbEntity
8
0
100
AcDbText
62
7
6
BYLAYER
10
320.6269339850
20
176.7576306826
7
STANDARD
40
4.0000000000
1
60%%d
50
50.9640500779
41
0.7555555556
72
0
100
AcDbText
0
LINE
5
25C
100
AcDbEntity
8
0
100
AcDbLine
62
7
6
BYLAYER
10
315.0590730830
20
183.4242949539
11
321.2858441157
21
167.8438071505
0
LINE
5
25D
100
AcDbEntity
8
0
100
AcDbLine
62
7
6
BYLAYER
10
314.8603920770
20
188.5893643589
11
335.2974529419
21
185.6443388994
0
ARC
5
25E
100
AcDbEntity
8
0
100
AcDbCircle
62
7
6
BYLAYER
10
312.8808396152
20
188.8746222263
40
19.6481629147
100
AcDbArc
50
291.7842120979
51
321.7921060489
0
ARC
5
25F
100
AcDbEntity
8
0
100
AcDbCircle
62
7
6
BYLAYER
10
312.8808396152
20
188.8746222263
40
19.6481629147
100
AcDbArc
50
321.7921060489
51
351.8000000000
0
SOLID
5
260
100
AcDbEntity
8
0
100
AcDbTrace
62
7
6
BYLAYER
10
320.1725081866
20
170.6295715175
11
324.1536976035
21
173.7584899930
12
324.9312102927
22
172.3601073493
13
324.9312102927
23
172.3601073493
0
SOLID
5
261
100
AcDbEntity
8
0
100
AcDbTrace
62
7
6
BYLAYER
10
332.3281242491
20
186.0722257005
11
331.7636955751
21
181.0401863255
12
330.2218138942
22
181.4675045701
13
330.2218138942
23
181.4675045701
0
ENDBLK
5
262
100
AcDbEntity
8
0
100
AcDbBlockEnd
0
BLOCK
5
263
100
AcDbEntity
8
0
100
AcDbBlockBegin
62
7
6
BYLAYER
2
*D5
70
65
10
0.0000000000
20
0.0000000000
3
*D5
1

0
TEXT
5
264
100
AcDbEntity
8
0
100
AcDbText
62
7
6
BYLAYER
10
329.7338295310
20
147.7499167038
7
STANDARD
40
4.0000000000
1
65.2%%d
50
59.1112875745
41
0.7733333333
72
0
100
AcDbText
0
LINE
5
265
100
AcDbEntity
8
0
100
AcDbLine
62
7
6
BYLAYER
10
320.3825563544
20
160.9423383841
11
329.0621016718
21
139.2245733904
0
LINE
5
266
100
AcDbEntity
8
0
100
AcDbLine
62
7
6
BYLAYER
10
328.8150413955
20
162.3174534018
11
344.9933023361
21
161.4674087492
0
ARC
5
267
100
AcDbEntity
8
0
100
AcDbCircle
62
7
6
BYLAYER
10
319.6403324016
20
162.7995146288
40
22.3879418342
100
AcDbArc
50
291.7842120979
51
324.3882600489
0
ARC
5
268
100
AcDbEntity
8
0
100
AcDbCircle
62
7
6
BYLAYER
10
319.6403324016
20
162.7995146288
40
22.3879418342
100
AcDbArc
50
324.3882600489
51
356.9923080000
0
SOLID
5
269
100
AcDbEntity
8
0
100
AcDbTrace
62
7
6
BYLAYER
10
327.9487657426
20
142.0103377575
11
331.9781912777
21
145.0768879131
12
332.7338362294
22
143.6665685497
13
332.7338362294
23
143.6665685497
0
SOLID
5
26A
100
AcDbEntity
8
0
100
AcDbTrace
62
7
6
BYLAYER
10
341.9974348373
20
161.6248188168
11
341.9695542100
21
156.5613000135
12
340.3910650048
22
156.8227800871
13
340.3910650048
23
156.8227800871
0
ENDBLK
5
26B
100
AcDbEntity
8
0
100
AcDbBlockEnd
0
BLOCK
5
26C
100
AcDbEntity
8
0
100
AcDbBlockBegin
62
7
6
BYLAYER
2
COPYRIGHT_BL4
70
64
10
0.0000000000
20
0.0000000000
3
COPYRIGHT_BL4
1

0
CIRCLE
5
26D
100
AcDbEntity
8
0
100
AcDbCircle
62
7
6
BYLAYER
10
368.4166666667
20
59.2552477502
40
2.6387790604
0
ENDBLK
5
26E
100
AcDbEntity
8
0
100
AcDbBlockEnd
0
BLOCK
5
26F
100
AcDbEntity
8
0
100
AcDbBlockBegin
62
7
6
BYLAYER
2
MICRO_U_BL5
70
64
10
0.0000000000
20
0.0000000000
3
MICRO_U_BL5
1

0
ARC
5
270
100
AcDbEntity
8
0
100
AcDbCircle
62
7
6
BYLAYER
10
115.8029987548
20
24.2743672858
40
1.1407767248
100
AcDbArc
50
303.7730668774
51
1.5957171757
0
ENDBLK
5
271
100
AcDbEntity
8
0
100
AcDbBlockEnd
0
BLOCK
5
272
100
AcDbEntity
8
0
100
AcDbBlockBegin
62
7
6
BYLAYER
2
SURFACE_FINISH_BL6
70
64
10
0.0000000000
20
0.0000000000
3
SURFACE_FINISH_BL6
1

0
LINE
5
273
100
AcDbEntity
8
0
100
AcDbLine
62
7
6
BYLAYER
10
97.0309676193
20
12.0901401771
11
99.8402817594
21
16.9560150021
0
LINE
5
274
100
AcDbEntity
8
0
100
AcDbLine
62
7
6
BYLAYER
10
97.0309676193
20
12.0901401771
11
95.7597911309
21
14.2918824404
0
LINE
5
275
100
AcDbEntity
8
0
100
AcDbLine
62
7
6
BYLAYER
10
95.7597911309
20
14.2918824404
11
98.3021441078
21
14.2918824404
0
ENDBLK
5
276
100
AcDbEntity
8
0
100
AcDbBlockEnd
0
BLOCK
5
277
100
AcDbEntity
8
0
100
AcDbBlockBegin
62
7
6
BYLAYER
2
PROJECTION_BL7
70
64
10
0.0000000000
20
0.0000000000
3
PROJECTION_BL7
1

0
LINE
5
278
100
AcDbEntity
8
0
100
AcDbLine
62
7
6
BYLAYER
10
304.4288585399
20
278.0624994947
11
304.4288585399
21
282.4374994947
0
LINE
5
279
100
AcDbEntity
8
0
100
AcDbLine
62
7
6
BYLAYER
10
304.4288585399
20
282.4374994947
11
310.5538585399
21
284.6249994947
0
LINE
5
27A
100
AcDbEntity
8
0
100
AcDbLine
62
7
6
BYLAYER
10
310.5538585399
20
284.6249994947
11
310.5538585399
21
275.8749994947
0
LINE
5
27B
100
AcDbEntity
8
0
100
AcDbLine
62
7
6
BYLAYER
10
310.5538585399
20
275.8749994947
11
304.4288585399
21
278.0624994947
0
ARC
5
27C
100
AcDbEntity
8
0
100
AcDbCircle
62
7
6
BYLAYER
10
292.1788585399
20
280.2499994947
40
2.1875000000
100
AcDbArc
50
180.0000000000
51
360.0000000000
0
ARC
5
27D
100
AcDbEntity
8
0
100
AcDbCircle
62
7
6
BYLAYER
10
292.1788585399
20
280.2499994947
40
2.1875000000
100
AcDbArc
50
0.0000000000
51
180.0000000000
0
ARC
5
27E
100
AcDbEntity
8
0
100
AcDbCircle
62
7
6
BYLAYER
10
292.1788585399
20
280.2499994947
40
4.3750000000
100
AcDbArc
50
180.0000000000
51
360.0000000000
0
ARC
5
27F
100
AcDbEntity
8
0
100
AcDbCircle
62
7
6
BYLAYER
10
292.1788585399
20
280.2499994947
40
4.3750000000
100
AcDbArc
50
0.0000000000
51
180.0000000000
0
LINE
5
280
100
AcDbEntity
8
0
100
AcDbLine
62
7
6
BYLAYER
10
285.1534835399
20
280.2499994947
11
298.4009835399
21
280.2499994947
0
LINE
5
281
100
AcDbEntity
8
0
100
AcDbLine
62
7
6
BYLAYER
10
301.1493585399
20
280.2499994947
11
313.1464835399
21
280.2499994947
0
LINE
5
282
100
AcDbEntity
8
0
100
AcDbLine
62
7
6
BYLAYER
10
292.1788585399
20
285.2952494947
11
292.1788585399
21
275.2047494947
0
ENDBLK
5
283
100
AcDbEntity
8
0
100
AcDbBlockEnd
0
ENDSEC
0
SECTION
2
ENTITIES
0
INSERT
5
284
100
AcDbEntity
8
0
100
AcDbBlockReference
62
7
6
BYLAYER
2
COPYRIGHT_BL0
10
0.0000000000
20
0.0000000000
0
INSERT
5
285
100
AcDbEntity
8
0
100
AcDbBlockReference
62
7
6
BYLAYER
2
MICRO_U_BL1
10
0.0000000000
20
0.0000000000
0
INSERT
5
286
100
AcDbEntity
8
0
100
AcDbBlockReference
62
7
6
BYLAYER
2
PROJECTION_BL2
10
0.0000000000
20
0.0000000000
0
INSERT
5
287
100
AcDbEntity
8
0
100
AcDbBlockReference
62
7
6
BYLAYER
2
SURFACE_FINISH_BL3
10
0.0000000000
20
0.0000000000
0
DIMENSION
5
288
100
AcDbEntity
8
0
100
AcDbDimension
62
7
6
BYLAYER
2
*D0
10
131.4300849269
20
166.5061633598
11
146.1776572279
21
169.5061633598
70
160
3
DIMSTYLE_1
100
AcDbAlignedDimension
13
163.4300849269
23
154.7560887377
14
131.4300849269
24
154.7560887377
50
180.000000
100
AcDbRotatedDimension
0
DIMENSION
5
289
100
AcDbEntity
8
0
100
AcDbDimension
62
7
6
BYLAYER
2
*D1
10
120.6774622961
20
124.9560887377
11
117.6774622961
21
139.7565111118
70
160
3
DIMSTYLE_2
100
AcDbAlignedDimension
13
129.4300849269
23
152.7560887377
14
129.4300849269
24
124.9560887377
50
270.000000
100
AcDbRotatedDimension
0
DIMENSION
5
28A
100
AcDbEntity
8
0
100
AcDbDimension
62
7
6
BYLAYER
2
*D2
10
225.6096699096
20
139.3651858044
11
262.0114365440
21
145.3342429393
70
162
3
DIMSTYLE_3
100
AcDb2LineAngularDimension
13
222.1093625570
23
134.8560887377
14
258.3016711302
24
134.8560887377
15
249.6452853096
25
159.0693433991
16
253.2476202708
26
146.7032174365
0
DIMENSION
5
28B
100
AcDbEntity
8
0
100
AcDbDimension
62
7
6
BYLAYER
2
*D3
10
279.2593740729
20
193.6913171205
11
261.6928948608
21
192.8144802549
70
162
3
DIMSTYLE_3
100
AcDb2LineAngularDimension
13
282.1307243653
23
197.9532966467
14
250.5204550090
24
202.5084060458
15
257.8653532275
25
176.1527123746
16
254.3091031884
26
189.3629419794
0
DIMENSION
5
28C
100
AcDbEntity
8
0
100
AcDbDimension
62
7
6
BYLAYER
2
*D4
10
314.8603920770
20
188.5893643589
11
321.9285611653
21
181.5385173990
70
162
3
DIMSTYLE_3
100
AcDb2LineAngularDimension
13
315.0590730830
23
183.4242949539
14
321.2858441157
24
167.8438071505
15
335.2974529419
25
185.6443388994
16
328.3198096807
26
176.7219061004
0
DIMENSION
5
28D
100
AcDbEntity
8
0
100
AcDbDimension
62
7
6
BYLAYER
2
*D5
10
328.8150413955
20
162.3174534018
11
331.9875757489
21
155.4131452942
70
162
3
DIMSTYLE_3
100
AcDb2LineAngularDimension
13
320.3825563544
23
160.9423383841
14
329.0621016718
24
139.2245733904
15
344.9933023361
25
161.4674087492
16
337.8413141863
26
149.7632497632
0
LINE
5
28E
100
AcDbEntity
8
0
100
AcDbLine
62
7
6
BYLAYER
10
209.0000000000
20
82.0000000000
11
410.0000000000
21
82.0000000000
0
LINE
5
28F
100
AcDbEntity
8
0
100
AcDbLine
62
7
6
BYLAYER
10
209.0000000000
20
82.0000000000
11
209.0000000000
21
10.0000000000
0
LINE
5
290
100
AcDbEntity
8
0
100
AcDbLine
62
7
6
BYLAYER
10
209.0000000000
20
73.0000000000
11
410.0000000000
21
73.0000000000
0
LINE
5
291
100
AcDbEntity
8
0
100
AcDbLine
62
7
6
BYLAYER
10
209.0000000000
20
64.0000000000
11
410.0000000000
21
64.0000000000
0
LINE
5
292
100
AcDbEntity
8
0
100
AcDbLine
62
7
6
BYLAYER
10
209.0000000000
20
55.0000000000
11
410.0000000000
21
55.0000000000
0
LINE
5
293
100
AcDbEntity
8
0
100
AcDbLine
62
7
6
BYLAYER
10
209.0000000000
20
46.0000000000
11
410.0000000000
21
46.0000000000
0
LINE
5
294
100
AcDbEntity
8
0
100
AcDbLine
62
7
6
BYLAYER
10
209.0000000000
20
21.0000000000
11
410.0000000000
21
21.0000000000
0
LINE
5
295
100
AcDbEntity
8
0
100
AcDbLine
62
7
6
BYLAYER
10
209.0000000000
20
10.0000000000
11
410.0000000000
21
10.0000000000
0
LINE
5
296
100
AcDbEntity
8
0
100
AcDbLine
62
7
6
BYLAYER
10
224.0000000000
20
82.0000000000
11
224.0000000000
21
64.0000000000
0
LINE
5
297
100
AcDbEntity
8
0
100
AcDbLine
62
7
6
BYLAYER
10
224.0000000000
20
21.0000000000
11
224.0000000000
21
10.0000000000
0
LINE
5
298
100
AcDbEntity
8
0
100
AcDbLine
62
7
6
BYLAYER
10
253.5000000000
20
82.0000000000
11
253.5000000000
21
64.0000000000
0
LINE
5
299
100
AcDbEntity
8
0
100
AcDbLine
62
7
6
BYLAYER
10
283.0000000000
20
82.0000000000
11
283.0000000000
21
64.0000000000
0
LINE
5
29A
100
AcDbEntity
8
0
100
AcDbLine
62
7
6
BYLAYER
10
315.5000000000
20
82.0000000000
11
315.5000000000
21
64.0000000000
0
LINE
5
29B
100
AcDbEntity
8
0
100
AcDbLine
62
7
6
BYLAYER
10
344.0000000000
20
21.0000000000
11
344.0000000000
21
10.0000000000
0
LINE
5
29C
100
AcDbEntity
8
0
100
AcDbLine
62
7
6
BYLAYER
10
348.0000000000
20
82.0000000000
11
348.0000000000
21
64.0000000000
0
LINE
5
29D
100
AcDbEntity
8
0
100
AcDbLine
62
7
6
BYLAYER
10
365.0000000000
20
64.0000000000
11
365.0000000000
21
55.0000000000
0
LINE
5
29E
100
AcDbEntity
8
0
100
AcDbLine
62
7
6
BYLAYER
10
380.5000000000
20
82.0000000000
11
380.5000000000
21
64.0000000000
0
LINE
5
29F
100
AcDbEntity
8
0
100
AcDbLine
62
7
6
BYLAYER
10
410.0000000000
20
82.0000000000
11
410.0000000000
21
10.0000000000
0
TEXT
5
2A0
100
AcDbEntity
8
0
100
AcDbText
62
7
6
BYLAYER
10
215.3000000000
20
76.0000000000
7
STANDARD
40
3.0000000000
1
D
41
0.8000000000
72
1
11
216.5000000000
21
76.0000000000
100
AcDbText
0
TEXT
5
2A1
100
AcDbEntity
8
0
100
AcDbText
62
7
6
BYLAYER
10
227.9500000000
20
76.0000000000
7
STANDARD
40
3.0000000000
1
29/MAY/03
41
0.8000000000
72
1
11
238.7500000000
21
76.0000000000
100
AcDbText
0
TEXT
5
2A2
100
AcDbEntity
8
0
100
AcDbText
62
7
6
BYLAYER
10
259.8500000000
20
76.0000000000
7
STANDARD
40
3.0000000000
1
------
41
0.8000000000
72
1
11
267.0500000000
21
76.0000000000
100
AcDbText
0
TEXT
5
2A3
100
AcDbEntity
8
0
100
AcDbText
62
7
6
BYLAYER
10
274.2500000000
20
76.0000000000
7
STANDARD
40
3.0000000000
1
.
41
0.8000000000
72
1
11
275.4500000000
21
76.0000000000
100
AcDbText
0
TEXT
5
2A4
100
AcDbEntity
8
0
100
AcDbText
62
7
6
BYLAYER
10
289.6500000000
20
76.0000000000
7
STANDARD
40
3.0000000000
1
J NOVISS
41
0.8000000000
72
1
11
299.2500000000
21
76.0000000000
100
AcDbText
0
TEXT
5
2A5
100
AcDbEntity
8
0
100
AcDbText
62
7
6
BYLAYER
10
329.3500000000
20
76.0000000000
7
STANDARD
40
3.0000000000
1
IW
41
0.8000000000
72
1
11
331.7500000000
21
76.0000000000
100
AcDbText
0
TEXT
5
2A6
100
AcDbEntity
8
0
100
AcDbText
62
7
6
BYLAYER
10
361.8500000000
20
76.0000000000
7
STANDARD
40
3.0000000000
1
DG
41
0.8000000000
72
1
11
364.2500000000
21
76.0000000000
100
AcDbText
0
TEXT
5
2A7
100
AcDbEntity
8
0
100
AcDbText
62
7
6
BYLAYER
10
391.6500000000
20
76.0000000000
7
STANDARD
40
3.0000000000
1
REL
41
0.8000000000
72
1
11
395.2500000000
21
76.0000000000
100
AcDbText
0
TEXT
5
2A8
100
AcDbEntity
8
0
100
AcDbText
62
7
6
BYLAYER
10
210.5000000000
20
67.0000000000
7
STANDARD
40
3.0000000000
1
ISSUE
41
0.8000000000
72
1
11
216.5000000000
21
67.0000000000
100
AcDbText
0
TEXT
5
2A9
100
AcDbEntity
8
0
100
AcDbText
62
7
6
BYLAYER
10
227.9500000000
20
67.0000000000
7
STANDARD
40
3.0000000000
1
DATE APPD
41
0.8000000000
72
1
11
238.7500000000
21
67.0000000000
100
AcDbText
0
TEXT
5
2AA
100
AcDbEntity
8
0
100
AcDbText
62
7
6
BYLAYER
10
258.6500000000
20
67.0000000000
7
STANDARD
40
3.0000000000
1
MOD. No.
41
0.8000000000
72
1
11
268.2500000000
21
67.0000000000
100
AcDbText
0
TEXT
5
2AB
100
AcDbEntity
8
0
100
AcDbText
62
7
6
BYLAYER
10
290.8500000000
20
67.0000000000
7
STANDARD
40
3.0000000000
1
DRN. BY
41
0.8000000000
72
1
11
299.2500000000
21
67.0000000000
100
AcDbText
0
TEXT
5
2AC
100
AcDbEntity
8
0
100
AcDbText
62
7
6
BYLAYER
10
322.1500000000
20
67.0000000000
7
STANDARD
40
3.0000000000
1
CHKD BY.
41
0.8000000000
72
1
11
331.7500000000
21
67.0000000000
100
AcDbText
0
TEXT
5
2AD
100
AcDbEntity
8
0
100
AcDbText
62
7
6
BYLAYER
10
354.6500000000
20
67.0000000000
7
STANDARD
40
3.0000000000
1
APPD BY.
41
0.8000000000
72
1
11
364.2500000000
21
67.0000000000
100
AcDbText
0
TEXT
5
2AE
100
AcDbEntity
8
0
100
AcDbText
62
7
6
BYLAYER
10
388.0500000000
20
67.0000000000
7
STANDARD
40
3.0000000000
1
STATUS
41
0.8000000000
72
1
11
395.2500000000
21
67.0000000000
100
AcDbText
0
TEXT
5
2AF
100
AcDbEntity
8
0
100
AcDbText
62
7
6
BYLAYER
10
210.4000000000
20
57.5000000000
7
STANDARD
40
4.0000000000
1
USED ON
41
0.8000000000
72
0
100
AcDbText
0
TEXT
5
2B0
100
AcDbEntity
8
0
100
AcDbText
62
7
6
BYLAYER
10
254.9000000000
20
57.5000000000
7
STANDARD
40
4.0000000000
1
 
41
0.8000000000
72
0
100
AcDbText
0
INSERT
5
2B1
100
AcDbEntity
8
0
100
AcDbBlockReference
62
7
6
BYLAYER
2
COPYRIGHT_BL4
10
0.0000000000
20
0.0000000000
0
TEXT
5
2B2
100
AcDbEntity
8
0
100
AcDbText
62
7
6
BYLAYER
10
371.0554457271
20
57.3835313102
7
TEXTSTYLE_1
40
5.0000000000
1
 CLRC
41
0.7800000000
72
1
11
380.8054457271
21
57.3835313102
100
AcDbText
0
TEXT
5
2B3
100
AcDbEntity
8
0
100
AcDbText
62
7
6
BYLAYER
10
390.5554457271
20
57.3835313102
7
TEXTSTYLE_1
40
5.0000000000
1
 
41
0.8000000000
72
1
11
392.5554457271
21
57.3835313102
100
AcDbText
0
TEXT
5
2B4
100
AcDbEntity
8
0
100
AcDbText
62
7
6
BYLAYER
10
394.5554457271
20
57.3835313102
7
TEXTSTYLE_1
40
5.0000000000
1
2002
41
0.7333333333
72
1
11
401.8887790604
21
57.3835313102
100
AcDbText
0
TEXT
5
2B5
100
AcDbEntity
8
0
100
AcDbText
62
7
6
BYLAYER
10
367.1926306113
20
57.5014920980
7
TEXTSTYLE_1
40
3.5000000000
1
C
41
0.8000000000
72
0
100
AcDbText
0
TEXT
5
2B6
100
AcDbEntity
8
0
100
AcDbText
62
7
6
BYLAYER
10
210.4000000000
20
48.5000000000
7
TEXTSTYLE_1
40
3.0000000000
1
CENTRAL LABORATORY OF THE RESEARCH COUNCILS
41
0.7620155039
72
0
100
AcDbText
0
TEXT
5
2B7
100
AcDbEntity
8
0
100
AcDbText
62
7
6
BYLAYER
10
308.7000000000
20
48.5000000000
7
STANDARD
40
4.0000000000
1
 
41
0.8000000000
72
0
100
AcDbText
0
TEXT
5
2B8
100
AcDbEntity
8
0
100
AcDbText
62
7
6
BYLAYER
10
311.9000000000
20
48.5000000000
7
STANDARD
40
2.0000000000
1
RUTHERFORD APPLETON LABORATORY, CHILTON, OXON OX110QX
41
0.8000000000
72
0
100
AcDbText
0
TEXT
5
2B9
100
AcDbEntity
8
0
100
AcDbText
62
7
6
BYLAYER
10
210.4000000000
20
41.5000000000
7
STANDARD
40
3.0000000000
1
TITLE
41
0.8000000000
72
0
100
AcDbText
0
TEXT
5
2BA
100
AcDbEntity
8
0
100
AcDbText
62
7
6
BYLAYER
10
271.0000000000
20
36.5000000000
7
TEXTSTYLE_1
40
6.0000000000
1
POWER TAPE W2
41
0.9871794872
72
1
11
309.5000000000
21
36.5000000000
100
AcDbText
0
TEXT
5
2BB
100
AcDbEntity
8
0
100
AcDbText
62
7
6
BYLAYER
10
256.0000000000
20
27.5000000000
7
TEXTSTYLE_1
40
6.0000000000
1
WHEELS 1,2,3,4,5,6,7,8,9
41
0.7430555556
72
1
11
309.5000000000
21
27.5000000000
100
AcDbText
0
TEXT
5
2BC
100
AcDbEntity
8
0
100
AcDbText
62
7
6
BYLAYER
10
210.4000000000
20
24.2500000000
7
STANDARD
40
4.0000000000
1
ATLAS_ID
41
0.8000000000
72
0
100
AcDbText
0
TEXT
5
2BD
100
AcDbEntity
8
0
100
AcDbText
62
7
6
BYLAYER
10
389.4000000000
20
24.2500000000
7
STANDARD
40
4.0000000000
1
------
41
0.8000000000
72
2
11
408.6000000000
21
24.2500000000
100
AcDbText
0
TEXT
5
2BE
100
AcDbEntity
8
0
100
AcDbText
62
7
6
BYLAYER
10
211.1333333333
20
12.0000000000
7
TEXTSTYLE_1
40
7.0000000000
1
A3
41
0.7666666667
72
1
11
216.5000000000
21
12.0000000000
100
AcDbText
0
TEXT
5
2BF
100
AcDbEntity
8
0
100
AcDbText
62
7
6
BYLAYER
10
225.4000000000
20
12.0000000000
7
TEXTSTYLE_1
40
5.0000000000
1
 
41
1.0000000000
72
0
100
AcDbText
0
TEXT
5
2C0
100
AcDbEntity
8
0
100
AcDbText
62
7
6
BYLAYER
10
230.4000000000
20
12.0000000000
7
TEXTSTYLE_1
40
7.0000000000
1
TD-1002-945
41
0.8068181818
72
0
100
AcDbText
0
TEXT
5
2C1
100
AcDbEntity
8
0
100
AcDbText
62
7
6
BYLAYER
10
345.4000000000
20
16.7500000000
7
STANDARD
40
2.5000000000
1
SHEET
41
0.8000000000
72
0
100
AcDbText
0
TEXT
5
2C2
100
AcDbEntity
8
0
100
AcDbText
62
7
6
BYLAYER
10
366.7666666667
20
12.0000000000
7
STANDARD
40
3.0000000000
1
 
41
0.8000000000
72
1
11
367.9666666667
21
12.0000000000
100
AcDbText
0
TEXT
5
2C3
100
AcDbEntity
8
0
100
AcDbText
62
7
6
BYLAYER
10
369.1666666667
20
12.0000000000
7
TEXTSTYLE_1
40
7.0000000000
1
1
41
0.3333333333
72
1
11
370.3333333333
21
12.0000000000
100
AcDbText
0
TEXT
5
2C4
100
AcDbEntity
8
0
100
AcDbText
62
7
6
BYLAYER
10
371.5000000000
20
12.0000000000
7
STANDARD
40
4.0000000000
1
 OF 
41
0.8000000000
72
1
11
377.9000000000
21
12.0000000000
100
AcDbText
0
TEXT
5
2C5
100
AcDbEntity
8
0
100
AcDbText
62
7
6
BYLAYER
10
384.3000000000
20
12.0000000000
7
TEXTSTYLE_1
40
7.0000000000
1
1
41
0.3333333333
72
1
11
385.4666666667
21
12.0000000000
100
AcDbText
0
TEXT
5
2C6
100
AcDbEntity
8
0
100
AcDbText
62
7
6
BYLAYER
10
386.6333333333
20
12.0000000000
7
STANDARD
40
4.0000000000
1
     
41
0.8000000000
72
1
11
394.6333333333
21
12.0000000000
100
AcDbText
0
TEXT
5
2C7
100
AcDbEntity
8
0
100
AcDbText
62
7
6
BYLAYER
10
402.6333333333
20
12.0000000000
7
TEXTSTYLE_1
40
7.0000000000
1
D
41
0.8000000000
72
1
11
405.4333333333
21
12.0000000000
100
AcDbText
0
LINE
5
2C8
100
AcDbEntity
8
0
100
AcDbLine
62
7
6
BYLAYER
10
20.0371621622
20
45.9172297297
11
209.0371621622
21
45.9172297297
0
LINE
5
2C9
100
AcDbEntity
8
0
100
AcDbLine
62
7
6
BYLAYER
10
20.0371621622
20
45.9172297297
11
20.0371621622
21
9.9172297297
0
LINE
5
2CA
100
AcDbEntity
8
0
100
AcDbLine
62
7
6
BYLAYER
10
20.0371621622
20
27.9172297297
11
209.0371621622
21
27.9172297297
0
LINE
5
2CB
100
AcDbEntity
8
0
100
AcDbLine
62
7
6
BYLAYER
10
20.0371621622
20
9.9172297297
11
209.0371621622
21
9.9172297297
0
LINE
5
2CC
100
AcDbEntity
8
0
100
AcDbLine
62
7
6
BYLAYER
10
83.0371621622
20
45.9172297297
11
83.0371621622
21
9.9172297297
0
LINE
5
2CD
100
AcDbEntity
8
0
100
AcDbLine
62
7
6
BYLAYER
10
146.0371621622
20
45.9172297297
11
146.0371621622
21
9.9172297297
0
LINE
5
2CE
100
AcDbEntity
8
0
100
AcDbLine
62
7
6
BYLAYER
10
209.0371621622
20
45.9172297297
11
209.0371621622
21
9.9172297297
0
TEXT
5
2CF
100
AcDbEntity
8
0
100
AcDbText
62
7
6
BYLAYER
10
21.4371621622
20
41.6672297297
7
STANDARD
40
2.5000000000
1
TOLERANCES UNLESS STATED
41
0.8000000000
72
0
100
AcDbText
0
TEXT
5
2D0
100
AcDbEntity
8
0
100
AcDbText
62
7
6
BYLAYER
10
84.4371621622
20
41.6672297297
7
STANDARD
40
2.5000000000
1
FINISH
41
0.8000000000
72
0
100
AcDbText
0
TEXT
5
2D1
100
AcDbEntity
8
0
100
AcDbText
62
7
6
BYLAYER
10
147.4371621622
20
41.6672297297
7
STANDARD
40
2.5000000000
1
ORIGINAL SCALE
41
0.8000000000
72
0
100
AcDbText
0
TEXT
5
2D2
100
AcDbEntity
8
0
100
AcDbText
62
7
6
BYLAYER
10
44.9871621622
20
34.1672297297
7
STANDARD
40
3.0000000000
1
%%p
41
1.1666666667
72
1
11
46.7371621622
21
34.1672297297
100
AcDbText
0
TEXT
5
2D3
100
AcDbEntity
8
0
100
AcDbText
62
7
6
BYLAYER
10
48.4871621622
20
34.1672297297
7
STANDARD
40
3.0000000000
1
 
41
0.8000000000
72
1
11
49.6871621622
21
34.1672297297
100
AcDbText
0
TEXT
5
2D4
100
AcDbEntity
8
0
100
AcDbText
62
7
6
BYLAYER
10
50.8871621622
20
34.1672297297
7
STANDARD
40
3.0000000000
1
 mm
41
0.8000000000
72
1
11
54.4871621622
21
34.1672297297
100
AcDbText
0
TEXT
5
2D5
100
AcDbEntity
8
0
100
AcDbText
62
7
6
BYLAYER
10
46.3871621622
20
29.6672297297
7
STANDARD
40
3.0000000000
1
%%p
41
1.1666666667
72
1
11
48.1371621622
21
29.6672297297
100
AcDbText
0
TEXT
5
2D6
100
AcDbEntity
8
0
100
AcDbText
62
7
6
BYLAYER
10
49.8871621622
20
29.6672297297
7
STANDARD
40
3.0000000000
1
 
41
0.8000000000
72
1
11
51.0871621622
21
29.6672297297
100
AcDbText
0
TEXT
5
2D7
100
AcDbEntity
8
0
100
AcDbText
62
7
6
BYLAYER
10
52.2871621622
20
29.6672297297
7
STANDARD
40
3.0000000000
1
 %%d
41
0.7333333333
72
1
11
54.4871621622
21
29.6672297297
100
AcDbText
0
TEXT
5
2D8
100
AcDbEntity
8
0
100
AcDbText
62
7
6
BYLAYER
10
102.5371621622
20
34.1672297297
7
STANDARD
40
3.0000000000
1
SEE NOTE 3
41
0.8000000000
72
1
11
114.5371621622
21
34.1672297297
100
AcDbText
0
TEXT
5
2D9
100
AcDbEntity
8
0
100
AcDbText
62
7
6
BYLAYER
10
95.3371621622
20
29.6672297297
7
STANDARD
40
3.0000000000
1
REMOVE ALL BURRS
41
0.8000000000
72
1
11
114.5371621622
21
29.6672297297
100
AcDbText
0
TEXT
5
2DA
100
AcDbEntity
8
0
100
AcDbText
62
7
6
BYLAYER
10
173.9371621622
20
34.1672297297
7
STANDARD
40
3.0000000000
1
1:1
41
0.8000000000
72
1
11
177.5371621622
21
34.1672297297
100
AcDbText
0
TEXT
5
2DB
100
AcDbEntity
8
0
100
AcDbText
62
7
6
BYLAYER
10
163.1371621622
20
29.6672297297
7
STANDARD
40
3.0000000000
1
DO NOT SCALE
41
0.8000000000
72
1
11
177.5371621622
21
29.6672297297
100
AcDbText
0
TEXT
5
2DC
100
AcDbEntity
8
0
100
AcDbText
62
7
6
BYLAYER
10
21.4371621622
20
23.6672297297
7
STANDARD
40
2.5000000000
1
MATERIAL 
41
0.8000000000
72
0
100
AcDbText
0
TEXT
5
2DD
100
AcDbEntity
8
0
100
AcDbText
62
7
6
BYLAYER
10
39.4371621622
20
23.6672297297
7
STANDARD
40
2.5000000000
1
& SPEC.
41
0.8000000000
72
0
100
AcDbText
0
INSERT
5
2DE
100
AcDbEntity
8
0
100
AcDbBlockReference
62
7
6
BYLAYER
2
MICRO_U_BL5
10
0.0000000000
20
0.0000000000
0
TEXT
5
2DF
100
AcDbEntity
8
0
100
AcDbText
62
7
6
BYLAYER
10
84.4371621622
20
24.0083581219
7
STANDARD
40
2.5000000000
1
SURFACE TEXTURE 
41
0.8000000000
72
0
100
AcDbText
0
TEXT
5
2E0
100
AcDbEntity
8
0
100
AcDbText
62
7
6
BYLAYER
10
116.4894190556
20
24.0082838118
7
STANDARD
40
1.8178175258
1
um
41
0.8000000000
72
0
100
AcDbText
0
TEXT
5
2E1
100
AcDbEntity
8
0
100
AcDbText
62
7
6
BYLAYER
10
43.1371621622
20
16.1672297297
7
STANDARD
40
3.0000000000
1
-------
41
0.8000000000
72
1
11
51.5371621622
21
16.1672297297
100
AcDbText
0
TEXT
5
2E2
100
AcDbEntity
8
0
100
AcDbText
62
7
6
BYLAYER
10
39.5371621622
20
11.6672297297
7
STANDARD
40
3.0000000000
1
SEE NOTE 3
41
0.8000000000
72
1
11
51.5371621622
21
11.6672297297
100
AcDbText
0
INSERT
5
2E3
100
AcDbEntity
8
0
100
AcDbBlockReference
62
7
6
BYLAYER
2
SURFACE_FINISH_BL6
10
0.0000000000
20
0.0000000000
0
TEXT
5
2E4
100
AcDbEntity
8
0
100
AcDbText
62
7
6
BYLAYER
10
102.5371621622
20
18.5810150021
7
STANDARD
40
3.0000000000
1
SEE NOTE 3
41
0.8000000000
72
1
11
114.5371621622
21
18.5810150021
100
AcDbText
0
TEXT
5
2E5
100
AcDbEntity
8
0
100
AcDbText
62
7
6
BYLAYER
10
99.8402817594
20
11.6672297297
7
STANDARD
40
3.0000000000
1
 UNLESS STATED
41
0.8000000000
72
1
11
116.6402817594
21
11.6672297297
100
AcDbText
0
TEXT
5
2E6
100
AcDbEntity
8
0
100
AcDbText
62
7
6
BYLAYER
10
95.6340425649
20
12.5409220665
7
STANDARD
40
3.5000000000
1
-
41
0.8000000000
72
0
100
AcDbText
0
LINE
5
2E7
100
AcDbEntity
8
0
100
AcDbLine
62
7
6
BYLAYER
10
10.0000000000
20
10.0000000000
11
10.0000000000
21
116.2000000000
0
LINE
5
2E8
100
AcDbEntity
8
0
100
AcDbLine
62
7
6
BYLAYER
10
10.0000000000
20
10.0000000000
11
20.0000000000
21
10.0000000000
0
LINE
5
2E9
100
AcDbEntity
8
0
100
AcDbLine
62
7
6
BYLAYER
10
20.0000000000
20
10.0000000000
11
20.0000000000
21
116.2000000000
0
LINE
5
2EA
100
AcDbEntity
8
0
100
AcDbLine
62
7
6
BYLAYER
10
10.0000000000
20
25.0000000000
11
20.0000000000
21
25.0000000000
0
LINE
5
2EB
100
AcDbEntity
8
0
100
AcDbLine
62
7
6
BYLAYER
10
10.0000000000
20
78.2000000000
11
20.0000000000
21
78.2000000000
0
LINE
5
2EC
100
AcDbEntity
8
0
100
AcDbLine
62
7
6
BYLAYER
10
10.0000000000
20
106.2000000000
11
20.0000000000
21
106.2000000000
0
LINE
5
2ED
100
AcDbEntity
8
0
100
AcDbLine
62
7
6
BYLAYER
10
10.0000000000
20
116.2000000000
11
20.0000000000
21
116.2000000000
0
TEXT
5
2EE
100
AcDbEntity
8
0
100
AcDbText
62
7
6
BYLAYER
10
17.5000000000
20
12.5000000000
7
STANDARD
40
5.0000000000
1
A3
50
90.0000000000
41
1.0000000000
72
1
11
17.5000000000
21
17.5000000000
100
AcDbText
0
TEXT
5
2EF
100
AcDbEntity
8
0
100
AcDbText
62
7
6
BYLAYER
10
17.5000000000
20
26.4000000000
7
TEXTSTYLE_1
40
5.0000000000
1
 
50
90.0000000000
41
1.0000000000
72
0
100
AcDbText
0
TEXT
5
2F0
100
AcDbEntity
8
0
100
AcDbText
62
7
6
BYLAYER
10
17.5000000000
20
31.4000000000
7
TEXTSTYLE_1
40
5.0000000000
1
TD-1002-945
50
90.0000000000
41
0.8068181818
72
0
100
AcDbText
0
TEXT
5
2F1
100
AcDbEntity
8
0
100
AcDbText
62
7
6
BYLAYER
10
16.5000000000
20
79.6000000000
7
TEXTSTYLE_1
40
3.0000000000
1
Sheet 
50
90.0000000000
41
0.6666666667
72
0
100
AcDbText
0
TEXT
5
2F2
100
AcDbEntity
8
0
100
AcDbText
62
7
6
BYLAYER
10
16.5000000000
20
91.6000000000
7
TEXTSTYLE_1
40
3.0000000000
1
1
50
90.0000000000
41
0.3333333333
72
0
100
AcDbText
0
TEXT
5
2F3
100
AcDbEntity
8
0
100
AcDbText
62
7
6
BYLAYER
10
16.5000000000
20
92.6000000000
7
TEXTSTYLE_1
40
3.0000000000
1
 OF 
50
90.0000000000
41
0.7833333333
72
0
100
AcDbText
0
TEXT
5
2F4
100
AcDbEntity
8
0
100
AcDbText
62
7
6
BYLAYER
10
16.5000000000
20
102.0000000000
7
TEXTSTYLE_1
40
3.0000000000
1
1
50
90.0000000000
41
0.3333333333
72
0
100
AcDbText
0
TEXT
5
2F5
100
AcDbEntity
8
0
100
AcDbText
62
7
6
BYLAYER
10
17.5000000000
20
109.2000000000
7
TEXTSTYLE_1
40
5.0000000000
1
D
50
90.0000000000
41
0.8000000000
72
1
11
17.5000000000
21
111.2000000000
100
AcDbText
0
LINE
5
2F6
100
AcDbEntity
8
0
100
AcDbLine
62
7
6
BYLAYER
10
10.0000000000
20
287.0000000000
11
116.2000000000
21
287.0000000000
0
LINE
5
2F7
100
AcDbEntity
8
0
100
AcDbLine
62
7
6
BYLAYER
10
10.0000000000
20
287.0000000000
11
10.0000000000
21
277.0000000000
0
LINE
5
2F8
100
AcDbEntity
8
0
100
AcDbLine
62
7
6
BYLAYER
10
10.0000000000
20
277.0000000000
11
116.2000000000
21
277.0000000000
0
LINE
5
2F9
100
AcDbEntity
8
0
100
AcDbLine
62
7
6
BYLAYER
10
25.0000000000
20
287.0000000000
11
25.0000000000
21
277.0000000000
0
LINE
5
2FA
100
AcDbEntity
8
0
100
AcDbLine
62
7
6
BYLAYER
10
78.2000000000
20
287.0000000000
11
78.2000000000
21
277.0000000000
0
LINE
5
2FB
100
AcDbEntity
8
0
100
AcDbLine
62
7
6
BYLAYER
10
106.2000000000
20
287.0000000000
11
106.2000000000
21
277.0000000000
0
LINE
5
2FC
100
AcDbEntity
8
0
100
AcDbLine
62
7
6
BYLAYER
10
116.2000000000
20
287.0000000000
11
116.2000000000
21
277.0000000000
0
TEXT
5
2FD
100
AcDbEntity
8
0
100
AcDbText
62
7
6
BYLAYER
10
12.5000000000
20
279.5000000000
7
STANDARD
40
5.0000000000
1
A3
41
1.0000000000
72
1
11
17.5000000000
21
279.5000000000
100
AcDbText
0
TEXT
5
2FE
100
AcDbEntity
8
0
100
AcDbText
62
7
6
BYLAYER
10
26.4000000000
20
279.5000000000
7
TEXTSTYLE_1
40
5.0000000000
1
 
41
1.0000000000
72
0
100
AcDbText
0
TEXT
5
2FF
100
AcDbEntity
8
0
100
AcDbText
62
7
6
BYLAYER
10
31.4000000000
20
279.5000000000
7
TEXTSTYLE_1
40
5.0000000000
1
TD-1002-945
41
0.8068181818
72
0
100
AcDbText
0
TEXT
5
300
100
AcDbEntity
8
0
100
AcDbText
62
7
6
BYLAYER
10
79.6000000000
20
280.5000000000
7
TEXTSTYLE_1
40
3.0000000000
1
Sheet 
41
0.6666666667
72
0
100
AcDbText
0
TEXT
5
301
100
AcDbEntity
8
0
100
AcDbText
62
7
6
BYLAYER
10
91.6000000000
20
280.5000000000
7
TEXTSTYLE_1
40
3.0000000000
1
1
41
0.3333333333
72
0
100
AcDbText
0
TEXT
5
302
100
AcDbEntity
8
0
100
AcDbText
62
7
6
BYLAYER
10
92.6000000000
20
280.5000000000
7
TEXTSTYLE_1
40
3.0000000000
1
 OF 
41
0.7833333333
72
0
100
AcDbText
0
TEXT
5
303
100
AcDbEntity
8
0
100
AcDbText
62
7
6
BYLAYER
10
102.0000000000
20
280.5000000000
7
TEXTSTYLE_1
40
3.0000000000
1
1
41
0.3333333333
72
0
100
AcDbText
0
TEXT
5
304
100
AcDbEntity
8
0
100
AcDbText
62
7
6
BYLAYER
10
109.2000000000
20
279.5000000000
7
TEXTSTYLE_1
40
5.0000000000
1
D
41
0.8000000000
72
1
11
111.2000000000
21
279.5000000000
100
AcDbText
0
LINE
5
305
100
AcDbEntity
8
0
100
AcDbLine
62
7
6
BYLAYER
10
331.0000000000
20
287.0000000000
11
410.0000000000
21
287.0000000000
0
LINE
5
306
100
AcDbEntity
8
0
100
AcDbLine
62
7
6
BYLAYER
10
331.0000000000
20
287.0000000000
11
331.0000000000
21
277.0000000000
0
LINE
5
307
100
AcDbEntity
8
0
100
AcDbLine
62
7
6
BYLAYER
10
331.0000000000
20
277.0000000000
11
410.0000000000
21
277.0000000000
0
LINE
5
308
100
AcDbEntity
8
0
100
AcDbLine
62
7
6
BYLAYER
10
410.0000000000
20
287.0000000000
11
410.0000000000
21
277.0000000000
0
TEXT
5
309
100
AcDbEntity
8
0
100
AcDbText
62
7
6
BYLAYER
10
336.5000000000
20
280.7500000000
7
STANDARD
40
2.5000000000
1
THIS DRAWING CONFORMS TO B.S. 8888
41
0.8000000000
72
1
11
370.5000000000
21
280.7500000000
100
AcDbText
0
LINE
5
30A
100
AcDbEntity
8
0
100
AcDbLine
62
7
6
BYLAYER
10
236.4999835399
20
286.9999994947
11
330.9999835399
21
286.9999994947
0
LINE
5
30B
100
AcDbEntity
8
0
100
AcDbLine
62
7
6
BYLAYER
10
236.4999835399
20
286.9999994947
11
236.4999835399
21
273.4999994947
0
LINE
5
30C
100
AcDbEntity
8
0
100
AcDbLine
62
7
6
BYLAYER
10
236.4999835399
20
273.4999994947
11
330.9999835399
21
273.4999994947
0
LINE
5
30D
100
AcDbEntity
8
0
100
AcDbLine
62
7
6
BYLAYER
10
330.9999835399
20
286.9999994947
11
330.9999835399
21
273.4999994947
0
INSERT
5
30E
100
AcDbEntity
8
0
100
AcDbBlockReference
62
7
6
BYLAYER
2
PROJECTION_BL7
10
0.0000000000
20
0.0000000000
0
TEXT
5
30F
100
AcDbEntity
8
0
100
AcDbText
62
7
6
BYLAYER
10
254.3534835399
20
278.9781218886
7
STANDARD
40
3.5000000000
1
PROJECTION 
41
0.8000000000
72
1
11
269.7534835399
21
278.9781218886
100
AcDbText
0
TEXT
5
310
100
AcDbEntity
8
0
100
AcDbText
62
7
6
BYLAYER
10
290.7970347322
20
278.8891837883
7
STANDARD
40
3.5000000000
1
l
41
0.8000000000
72
0
100
AcDbText
0
LINE
5
311
100
AcDbEntity
8
0
100
AcDbLine
62
7
6
BYLAYER
10
159.0509538372
20
70.9185125895
11
209.0509538372
21
70.9185125895
0
LINE
5
312
100
AcDbEntity
8
0
100
AcDbLine
62
7
6
BYLAYER
10
159.0509538372
20
70.9185125895
11
159.0509538372
21
45.9185125895
0
LINE
5
313
100
AcDbEntity
8
0
100
AcDbLine
62
7
6
BYLAYER
10
159.0509538372
20
45.9185125895
11
209.0509538372
21
45.9185125895
0
LINE
5
314
100
AcDbEntity
8
0
100
AcDbLine
62
7
6
BYLAYER
10
209.0509538372
20
70.9185125895
11
209.0509538372
21
45.9185125895
0
TEXT
5
315
100
AcDbEntity
8
0
100
AcDbText
62
7
6
BYLAYER
10
239.9217322932
20
110.4106884179
7
STANDARD
40
4.0000000000
1
DEVELOPED VIEW
41
0.8000000000
72
0
100
AcDbText
0
TEXT
5
316
100
AcDbEntity
8
0
100
AcDbText
62
7
6
BYLAYER
10
101.4959404722
20
195.6422894954
7
STANDARD
40
4.0000000000
1
3D_VIEW
41
0.8000000000
72
0
100
AcDbText
0
TEXT
5
317
100
AcDbEntity
8
0
100
AcDbText
62
7
6
BYLAYER
10
192.4794359577
20
268.1523942421
7
STANDARD
40
3.5000000000
1
NOTES -
41
0.8000000000
72
0
100
AcDbText
0
TEXT
5
318
100
AcDbEntity
8
0
100
AcDbText
62
7
6
BYLAYER
10
192.4794359577
20
262.9023942421
7
STANDARD
40
3.5000000000
1
 
41
0.8000000000
72
0
100
AcDbText
0
TEXT
5
319
100
AcDbEntity
8
0
100
AcDbText
62
7
6
BYLAYER
10
192.4794359577
20
257.6523942421
7
STANDARD
40
3.5000000000
1
1 - ALL OUTER MODULE TAPE ENDS SET FOR HIGH MODULES
41
0.8000000000
72
0
100
AcDbText
0
TEXT
5
31A
100
AcDbEntity
8
0
100
AcDbText
62
7
6
BYLAYER
10
192.4794359577
20
252.4023942421
7
STANDARD
40
3.5000000000
1
2 - TAPE DESIGN SET TO ZERO MODULE ROTATION
41
0.8000000000
72
0
100
AcDbText
0
TEXT
5
31B
100
AcDbEntity
8
0
100
AcDbText
62
7
6
BYLAYER
10
192.4794359577
20
247.1523942421
7
STANDARD
40
3.5000000000
1
3 - FOR TAPE SPECIFICATIONS REFER TO DOCUMENT ATL-IS-ER-0034
41
0.8000000000
72
0
100
AcDbText
0
TEXT
5
31C
100
AcDbEntity
8
0
100
AcDbText
62
7
6
BYLAYER
10
192.4794359577
20
241.9023942421
7
STANDARD
40
3.5000000000
1
4 - ALL TWISTED PAIR WIRES TO LIE ONE WIRE DEEP 4mm EITHER SIDE
41
0.8000000000
72
0
100
AcDbText
0
TEXT
5
31D
100
AcDbEntity
8
0
100
AcDbText
62
7
6
BYLAYER
10
192.4794359577
20
236.6523942421
7
STANDARD
40
3.5000000000
1
    OF PIPE CENTER LINES 
41
0.8000000000
72
0
100
AcDbText
0
TEXT
5
31E
100
AcDbEntity
8
0
100
AcDbText
62
7
6
BYLAYER
10
192.4794359577
20
231.4023942421
7
STANDARD
40
3.5000000000
1
5 - ANY CUTS  BETWEEN TAPE LEGS MUST NOT BE SHORTENED
41
0.8000000000
72
0
100
AcDbText
0
TEXT
5
31F
100
AcDbEntity
8
0
100
AcDbText
62
7
6
BYLAYER
10
192.4794359577
20
226.1523942421
7
STANDARD
40
3.5000000000
1
6 - TAPE ENDS TO INCLUDE TEXT AS SHOWN ON 3D-VIEW
41
0.8000000000
72
0
100
AcDbText
0
TEXT
5
320
100
AcDbEntity
8
0
100
AcDbText
62
7
6
BYLAYER
10
192.4794359577
20
220.9023942421
7
STANDARD
40
3.5000000000
1
7 - TEXT 'TD-1002-945 (W2)' TO BE LOCATED VISIBLY ON TAPE
41
0.8000000000
72
0
100
AcDbText
0
TEXT
5
321
100
AcDbEntity
8
0
100
AcDbText
62
7
6
BYLAYER
10
192.4794359577
20
215.6523942421
7
STANDARD
40
3.5000000000
1
8 - FOR CONNECTOR POSITIONS REFER TO DRAWING TD-1010-345
41
0.8000000000
72
0
100
AcDbText
0
CIRCLE
5
322
100
AcDbEntity
8
0
100
AcDbCircle
62
7
6
BYLAYER
10
141.1250037945
20
241.8539576047
40
0.8000000000
0
TEXT
5
323
100
AcDbEntity
8
0
100
AcDbText
62
7
6
BYLAYER
10
153.8601550700
20
245.3912562670
7
TEXTSTYLE_2
40
4.0000000000
1
I2
41
0.6070038911
72
0
100
AcDbText
0
CIRCLE
5
324
100
AcDbEntity
8
0
100
AcDbCircle
62
7
6
BYLAYER
10
127.8308199088
20
231.6515053512
40
0.8000000000
0
TEXT
5
325
100
AcDbEntity
8
0
100
AcDbText
62
7
6
BYLAYER
10
109.3718207152
20
234.2546031933
7
TEXTSTYLE_2
40
4.0000000000
1
O2
41
0.8891050584
72
0
100
AcDbText
0
SOLID
5
326
100
AcDbEntity
8
0
100
AcDbTrace
62
7
6
BYLAYER
10
244.9509345123
20
186.4866406417
11
240.2096235206
21
188.2642711095
12
241.0009621249
22
189.6548764502
13
241.0009621249
23
189.6548764502
0
POLYLINE
5
327
100
AcDbEntity
8
0
100
AcDb2dPolyline
62
7
6
BYLAYER
66
1
70
0
0
VERTEX
5
328
100
AcDbEntity
8
0
100
AcDbVertex
62
7
6
BYLAYER
100
AcDb2dVertex
10
228.3687963867
20
192.0886376953
0
VERTEX
5
329
100
AcDbEntity
8
0
100
AcDbVertex
62
7
6
BYLAYER
100
AcDb2dVertex
10
227.3688098145
20
192.4219665527
0
VERTEX
5
32A
100
AcDbEntity
8
0
100
AcDbVertex
62
7
6
BYLAYER
100
AcDb2dVertex
10
226.3687976074
20
192.0886376953
0
VERTEX
5
32B
100
AcDbEntity
8
0
100
AcDbVertex
62
7
6
BYLAYER
100
AcDb2dVertex
10
225.7021398926
20
191.4219543457
0
VERTEX
5
32C
100
AcDbEntity
8
0
100
AcDbVertex
62
7
6
BYLAYER
100
AcDb2dVertex
10
225.3688110352
20
190.4219677734
0
VERTEX
5
32D
100
AcDbEntity
8
0
100
AcDbVertex
62
7
6
BYLAYER
100
AcDb2dVertex
10
225.7021398926
20
189.4219555664
0
VERTEX
5
32E
100
AcDbEntity
8
0
100
AcDbVertex
62
7
6
BYLAYER
100
AcDb2dVertex
10
226.3687976074
20
188.7552978516
0
VERTEX
5
32F
100
AcDbEntity
8
0
100
AcDbVertex
62
7
6
BYLAYER
100
AcDb2dVertex
10
227.3688098145
20
188.4219689941
0
VERTEX
5
330
100
AcDbEntity
8
0
100
AcDbVertex
62
7
6
BYLAYER
100
AcDb2dVertex
10
228.3687963867
20
188.7552978516
0
SEQEND
5
331
100
AcDbEntity
8
0
0
POLYLINE
5
332
100
AcDbEntity
8
0
100
AcDb2dPolyline
62
7
6
BYLAYER
66
1
70
0
0
VERTEX
5
333
100
AcDbEntity
8
0
100
AcDbVertex
62
7
6
BYLAYER
100
AcDb2dVertex
10
227.0354553223
20
193.5886303711
0
VERTEX
5
334
100
AcDbEntity
8
0
100
AcDbVertex
62
7
6
BYLAYER
100
AcDb2dVertex
10
227.0354553223
20
187.4219567871
0
VERTEX
5
335
100
AcDbEntity
8
0
100
AcDbVertex
62
7
6
BYLAYER
100
AcDb2dVertex
10
229.7021374512
20
187.4219567871
0
SEQEND
5
336
100
AcDbEntity
8
0
0
TEXT
5
337
100
AcDbEntity
8
0
100
AcDbText
62
7
6
BYLAYER
10
209.3688006387
20
188.4219600361
7
STANDARD
40
4.0000000000
1
PIPE 
41
0.8000000000
72
0
100
AcDbText
0
LINE
5
338
100
AcDbEntity
8
0
100
AcDbLine
62
7
6
BYLAYER
10
0.0000000000
20
297.0000000000
11
0.0000000000
21
0.0000000000
0
LINE
5
339
100
AcDbEntity
8
0
100
AcDbLine
62
7
6
BYLAYER
10
10.0000000000
20
10.0000000000
11
10.0000000000
21
287.0000000000
0
LINE
5
33A
100
AcDbEntity
8
0
100
AcDbLine
62
7
6
BYLAYER
10
10.0010000000
20
106.2230000000
11
10.0010000000
21
276.9990000000
0
LINE
5
33B
100
AcDbEntity
8
0
100
AcDbLine
62
7
6
BYLAYER
10
0.0000000000
20
0.0000000000
11
420.0000000000
21
0.0000000000
0
LINE
5
33C
100
AcDbEntity
8
0
100
AcDbLine
62
7
6
BYLAYER
10
160.0381492713
20
3.8460928114
11
260.0381492713
21
3.8460928114
0
LINE
5
33D
100
AcDbEntity
8
0
100
AcDbLine
62
7
6
BYLAYER
10
160.0381492713
20
3.8460928114
11
160.0381492713
21
8.8460928114
0
LINE
5
33E
100
AcDbEntity
8
DEFAULT_1
100
AcDbLine
62
7
6
BYLAYER
10
246.4523782617
20
199.5907150217
11
244.9509345123
21
186.4866406417
0
LINE
5
33F
100
AcDbEntity
8
DEFAULT_1
100
AcDbLine
62
7
6
BYLAYER
10
264.7478000564
20
163.5525417537
11
303.9789793713
21
162.2773677805
0
LINE
5
340
100
AcDbEntity
8
0
100
AcDbLine
62
7
6
BYLAYER
10
260.0381492713
20
3.8460928114
11
260.0381492713
21
8.8460928114
0
LINE
5
341
100
AcDbEntity
8
0
100
AcDbLine
62
7
6
BYLAYER
10
106.2230000000
20
286.9990000000
11
237.9920000000
21
286.9990000000
0
LINE
5
342
100
AcDbEntity
8
0
100
AcDbLine
62
7
6
BYLAYER
10
10.0000000000
20
287.0000000000
11
410.0000000000
21
287.0000000000
0
LINE
5
343
100
AcDbEntity
8
0
100
AcDbLine
62
7
6
BYLAYER
10
0.0000000000
20
297.0000000000
11
420.0000000000
21
297.0000000000
0
LINE
5
344
100
AcDbEntity
8
0
100
AcDbLine
62
7
6
BYLAYER
10
401.4430414976
20
21.0017763982
11
401.4430414976
21
10.0350776605
0
LINE
5
345
100
AcDbEntity
8
0
100
AcDbLine
62
7
6
BYLAYER
10
410.0000000000
20
287.0000000000
11
410.0000000000
21
10.0000000000
0
LINE
5
346
100
AcDbEntity
8
0
100
AcDbLine
62
7
6
BYLAYER
10
420.0000000000
20
297.0000000000
11
420.0000000000
21
0.0000000000
0
LINE
5
347
100
AcDbEntity
8
0
100
AcDbLine
62
7
6
BYLAYER
10
36.7247638523
20
128.4494107615
11
54.5603455908
21
122.4899407373
0
LINE
5
348
100
AcDbEntity
8
0
100
AcDbLine
62
7
6
BYLAYER
10
33.6564508844
20
158.2161949665
11
40.0079709999
21
156.0939376557
0
LINE
5
349
100
AcDbEntity
8
0
100
AcDbLine
62
7
6
BYLAYER
10
40.0079709999
20
156.0939376557
11
45.1405125074
21
154.3789822530
0
LINE
5
34A
100
AcDbEntity
8
0
100
AcDbLine
62
7
6
BYLAYER
10
45.1405125074
20
154.3789822530
11
51.4920326229
21
152.2567249422
0
LINE
5
34B
100
AcDbEntity
8
0
100
AcDbLine
62
7
6
BYLAYER
10
33.8086608722
20
158.2757773037
11
40.0411668482
21
156.1932866351
0
LINE
5
34C
100
AcDbEntity
8
0
100
AcDbLine
62
7
6
BYLAYER
10
45.2927224953
20
154.4385645902
11
51.6442426108
21
152.3163072794
0
LINE
5
34D
100
AcDbEntity
8
0
100
AcDbLine
62
7
6
BYLAYER
10
43.4668298269
20
162.4801808559
11
48.5993713344
21
160.7652254532
0
LINE
5
34E
100
AcDbEntity
8
0
100
AcDbLine
62
7
6
BYLAYER
10
54.1215289767
20
166.6509444592
11
59.2540704842
21
164.9359890565
0
LINE
5
34F
100
AcDbEntity
8
0
100
AcDbLine
62
7
6
BYLAYER
10
56.9817391605
20
171.9318763363
11
62.1142806680
21
170.2169209336
0
LINE
5
350
100
AcDbEntity
8
0
100
AcDbLine
62
7
6
BYLAYER
10
56.9385910094
20
172.3504717392
11
62.0711325169
21
170.6355163365
0
LINE
5
351
100
AcDbEntity
8
0
100
AcDbLine
62
7
6
BYLAYER
10
60.0648672569
20
178.1226530932
11
65.1974087644
21
176.4076976905
0
LINE
5
352
100
AcDbEntity
8
0
100
AcDbLine
62
7
6
BYLAYER
10
33.6564508844
20
158.2161949665
11
36.7247638523
21
128.4494107615
0
LINE
5
353
100
AcDbEntity
8
0
100
AcDbLine
62
7
6
BYLAYER
10
48.6185482904
20
160.5791830519
11
48.5993713344
21
160.7652254532
0
LINE
5
354
100
AcDbEntity
8
0
100
AcDbLine
62
7
6
BYLAYER
10
51.4920326229
20
152.2567249422
11
54.5603455908
21
122.4899407373
0
LINE
5
355
100
AcDbEntity
8
0
100
AcDbLine
62
7
6
BYLAYER
10
51.6442426108
20
152.3163072794
11
54.7125555787
21
122.5495230745
0
LINE
5
356
100
AcDbEntity
8
0
100
AcDbLine
62
7
6
BYLAYER
10
56.9385910094
20
172.3504717392
11
56.9817391605
21
171.9318763363
0
LINE
5
357
100
AcDbEntity
8
0
100
AcDbLine
62
7
6
BYLAYER
10
59.2732474403
20
164.7499466552
11
59.2540704842
21
164.9359890565
0
LINE
5
358
100
AcDbEntity
8
0
100
AcDbLine
62
7
6
BYLAYER
10
62.0711325169
20
170.6355163365
11
62.1142806680
21
170.2169209336
0
LINE
5
359
100
AcDbEntity
8
0
100
AcDbLine
62
7
6
BYLAYER
10
62.2233425048
20
170.6950986737
11
62.2664906559
21
170.2765032708
0
LINE
5
35A
100
AcDbEntity
8
0
100
AcDbLine
62
7
6
BYLAYER
10
65.2165857204
20
176.2216552893
11
65.1974087644
21
176.4076976905
0
LINE
5
35B
100
AcDbEntity
8
0
100
AcDbLine
62
7
6
BYLAYER
10
134.6865617696
20
218.2759800903
11
118.3816255522
21
219.9191661931
0
LINE
5
35C
100
AcDbEntity
8
0
100
AcDbLine
62
7
6
BYLAYER
10
134.6673848136
20
218.4620224916
11
118.3624485962
21
220.1052085944
0
LINE
5
35D
100
AcDbEntity
8
0
100
AcDbLine
62
7
6
BYLAYER
10
136.2606536500
20
219.6730763598
11
119.9557174326
21
221.3162624627
0
LINE
5
35E
100
AcDbEntity
8
0
100
AcDbLine
62
7
6
BYLAYER
10
108.3382310719
20
219.5905149004
11
108.9699839206
21
219.2849125949
0
LINE
5
35F
100
AcDbEntity
8
0
100
AcDbLine
62
7
6
BYLAYER
10
76.7388447679
20
180.7320237179
11
76.7196678118
21
180.9180661192
0
LINE
5
360
100
AcDbEntity
8
0
100
AcDbLine
62
7
6
BYLAYER
10
81.5590794728
20
184.1276756502
11
81.5399025167
21
184.3137180515
0
LINE
5
361
100
AcDbEntity
8
0
100
AcDbLine
62
7
6
BYLAYER
10
131.2605911648
20
235.9180117202
11
139.3482056178
21
236.2459888423
0
LINE
5
362
100
AcDbEntity
8
0
100
AcDbLine
62
7
6
BYLAYER
10
135.2803835011
20
239.2058978215
11
143.2335520861
21
239.2617056255
0
LINE
5
363
100
AcDbEntity
8
0
100
AcDbLine
62
7
6
BYLAYER
10
135.2612065451
20
239.3919402227
11
143.2143751301
21
239.4477480267
0
LINE
5
364
100
AcDbEntity
8
0
100
AcDbLine
62
7
6
BYLAYER
10
123.4846611821
20
236.2546031933
11
116.4846611821
21
236.2546031933
0
LINE
5
365
100
AcDbEntity
8
0
100
AcDbLine
62
7
6
BYLAYER
10
146.8601550700
20
247.3912562670
11
153.8601550700
21
247.3912562670
0
LINE
5
366
100
AcDbEntity
8
0
100
AcDbLine
62
7
6
BYLAYER
10
142.0926527510
20
220.9211522957
11
144.1352082633
21
220.1401533773
0
LINE
5
367
100
AcDbEntity
8
0
100
AcDbLine
62
7
6
BYLAYER
10
129.5765694791
20
228.4219657126
11
120.5652951603
21
231.8675491761
0
LINE
5
368
100
AcDbEntity
8
0
100
AcDbLine
62
7
6
BYLAYER
10
120.5461182043
20
232.0535915774
11
129.5573925231
21
228.6080081139
0
LINE
5
369
100
AcDbEntity
8
0
100
AcDbLine
62
7
6
BYLAYER
10
145.0931062500
20
226.1519533021
11
147.1356617623
21
225.3709543837
0
LINE
5
36A
100
AcDbEntity
8
0
100
AcDbLine
62
7
6
BYLAYER
10
123.4437697821
20
225.7422005615
11
125.2337361865
21
224.8763273625
0
LINE
5
36B
100
AcDbEntity
8
0
100
AcDbLine
62
7
6
BYLAYER
10
96.0917226631
20
213.4063037938
11
96.0725457070
21
213.5923461951
0
LINE
5
36C
100
AcDbEntity
8
0
100
AcDbLine
62
7
6
BYLAYER
10
96.8604394262
20
213.8784912713
11
96.8412624701
21
214.0645336726
0
LINE
5
36D
100
AcDbEntity
8
0
100
AcDbLine
62
7
6
BYLAYER
10
144.3154806822
20
233.6959726740
11
146.3580361945
21
232.9149737556
0
LINE
5
36E
100
AcDbEntity
8
0
100
AcDbLine
62
7
6
BYLAYER
10
140.4712411170
20
236.6510373240
11
142.5137966293
21
235.8700384056
0
LINE
5
36F
100
AcDbEntity
8
0
100
AcDbLine
62
7
6
BYLAYER
10
144.5524358966
20
235.8873026612
11
142.5098803843
21
236.6683015796
0
LINE
5
370
100
AcDbEntity
8
0
100
AcDbLine
62
7
6
BYLAYER
10
129.9105124377
20
239.1438284453
11
131.7004788422
21
238.2779552463
0
LINE
5
371
100
AcDbEntity
8
0
100
AcDbLine
62
7
6
BYLAYER
10
101.4865994681
20
215.3258001404
11
101.4674225120
21
215.5118425417
0
LINE
5
372
100
AcDbEntity
8
0
100
AcDbLine
62
7
6
BYLAYER
10
110.7791272811
20
218.2329969946
11
110.7599503250
21
218.4190393959
0
LINE
5
373
100
AcDbEntity
8
0
100
AcDbLine
62
7
6
BYLAYER
10
115.0978972302
20
219.5841378965
11
115.0787202741
21
219.7701802977
0
LINE
5
374
100
AcDbEntity
8
0
100
AcDbLine
62
7
6
BYLAYER
10
88.2433693996
20
213.4076361811
11
73.7107262093
21
184.1290080375
0
LINE
5
375
100
AcDbEntity
8
0
100
AcDbLine
62
7
6
BYLAYER
10
150.8173524316
20
241.8263636347
11
142.9204418237
21
245.6463924537
0
LINE
5
376
100
AcDbEntity
8
0
100
AcDbLine
62
7
6
BYLAYER
10
127.2816020032
20
232.2331922878
11
123.4846611821
21
236.2546031933
0
LINE
5
377
100
AcDbEntity
8
0
100
AcDbLine
62
7
6
BYLAYER
10
118.3816255522
20
219.9191661931
11
118.3624485962
21
220.1052085944
0
LINE
5
378
100
AcDbEntity
8
0
100
AcDbLine
62
7
6
BYLAYER
10
120.5652951603
20
231.8675491761
11
120.5461182043
21
232.0535915774
0
LINE
5
379
100
AcDbEntity
8
0
100
AcDbLine
62
7
6
BYLAYER
10
125.2529131426
20
224.6902849612
11
125.2337361865
21
224.8763273625
0
LINE
5
37A
100
AcDbEntity
8
0
100
AcDbLine
62
7
6
BYLAYER
10
129.5765694791
20
228.4219657126
11
129.5573925231
21
228.6080081139
0
LINE
5
37B
100
AcDbEntity
8
0
100
AcDbLine
62
7
6
BYLAYER
10
96.0725457070
20
213.5923461951
11
81.5399025167
21
184.3137180515
0
LINE
5
37C
100
AcDbEntity
8
0
100
AcDbLine
62
7
6
BYLAYER
10
96.0917226631
20
213.4063037938
11
81.5590794728
21
184.1276756502
0
LINE
5
37D
100
AcDbEntity
8
0
100
AcDbLine
62
7
6
BYLAYER
10
142.9204418237
20
245.6463924537
11
135.3174645221
21
243.2677768457
0
LINE
5
37E
100
AcDbEntity
8
0
100
AcDbLine
62
7
6
BYLAYER
10
133.4712401406
20
240.2578134217
11
129.9105124377
21
239.1438284453
0
LINE
5
37F
100
AcDbEntity
8
0
100
AcDbLine
62
7
6
BYLAYER
10
135.2612065451
20
239.3919402227
11
131.7004788422
21
238.2779552463
0
LINE
5
380
100
AcDbEntity
8
0
100
AcDbLine
62
7
6
BYLAYER
10
135.2803835011
20
239.2058978215
11
131.7196557982
21
238.0919128451
0
LINE
5
381
100
AcDbEntity
8
0
100
AcDbLine
62
7
6
BYLAYER
10
131.7196557982
20
238.0919128451
11
131.7004788422
21
238.2779552463
0
LINE
5
382
100
AcDbEntity
8
0
100
AcDbLine
62
7
6
BYLAYER
10
134.6865617696
20
218.2759800903
11
134.6673848136
21
218.4620224916
0
LINE
5
383
100
AcDbEntity
8
0
100
AcDbLine
62
7
6
BYLAYER
10
135.2612065451
20
239.3919402227
11
135.2803835011
21
239.2058978215
0
LINE
5
384
100
AcDbEntity
8
0
100
AcDbLine
62
7
6
BYLAYER
10
140.2910424397
20
232.2863858554
11
140.2718654836
21
232.4724282567
0
LINE
5
385
100
AcDbEntity
8
0
100
AcDbLine
62
7
6
BYLAYER
10
141.8512744568
20
219.1234413150
11
141.8320975007
21
219.3094837163
0
LINE
5
386
100
AcDbEntity
8
0
100
AcDbLine
62
7
6
BYLAYER
10
141.4099380861
20
235.2789475227
11
141.3907611301
21
235.4649899239
0
LINE
5
387
100
AcDbEntity
8
0
100
AcDbLine
62
7
6
BYLAYER
10
142.5137966293
20
235.8700384056
11
142.5329735853
21
235.6839960043
0
LINE
5
388
100
AcDbEntity
8
0
100
AcDbLine
62
7
6
BYLAYER
10
144.1543852193
20
219.9541109760
11
144.1352082633
21
220.1401533773
0
LINE
5
389
100
AcDbEntity
8
0
100
AcDbLine
62
7
6
BYLAYER
10
143.2143751301
20
239.4477480267
11
143.2335520861
21
239.2617056255
0
LINE
5
38A
100
AcDbEntity
8
0
100
AcDbLine
62
7
6
BYLAYER
10
144.3154806822
20
233.6959726740
11
145.0931062500
21
226.1519533021
0
LINE
5
38B
100
AcDbEntity
8
0
100
AcDbLine
62
7
6
BYLAYER
10
146.3580361945
20
232.9149737556
11
147.1356617623
21
225.3709543837
0
LINE
5
38C
100
AcDbEntity
8
0
100
AcDbLine
62
7
6
BYLAYER
10
146.5167691273
20
232.9722244244
11
147.2943946951
21
225.4282050524
0
LINE
5
38D
100
AcDbEntity
8
0
100
AcDbLine
62
7
6
BYLAYER
10
135.3174645221
20
243.2677768457
11
133.4712401406
21
240.2578134217
0
LINE
5
38E
100
AcDbEntity
8
0
100
AcDbLine
62
7
6
BYLAYER
10
141.7005294146
20
242.4096286051
11
146.8601550700
21
247.3912562670
0
LINE
5
38F
100
AcDbEntity
8
0
100
AcDbLine
62
7
6
BYLAYER
10
120.5461182043
20
232.0535915774
11
131.2605911648
21
235.9180117202
0
LINE
5
390
100
AcDbEntity
8
0
100
AcDbLine
62
7
6
BYLAYER
10
139.3482056178
20
236.2459888423
11
140.4712411170
21
236.6510373240
0
LINE
5
391
100
AcDbEntity
8
0
100
AcDbLine
62
7
6
BYLAYER
10
141.3907611301
20
235.4649899239
11
142.5137966293
21
235.8700384056
0
LINE
5
392
100
AcDbEntity
8
0
100
AcDbLine
62
7
6
BYLAYER
10
141.4099380861
20
235.2789475227
11
142.5329735853
21
235.6839960043
0
LINE
5
393
100
AcDbEntity
8
0
100
AcDbLine
62
7
6
BYLAYER
10
140.2718654836
20
232.4724282567
11
129.5573925231
21
228.6080081139
0
LINE
5
394
100
AcDbEntity
8
0
100
AcDbLine
62
7
6
BYLAYER
10
140.2910424397
20
232.2863858554
11
129.5765694791
21
228.4219657126
0
LINE
5
395
100
AcDbEntity
8
0
100
AcDbLine
62
7
6
BYLAYER
10
146.5167691273
20
232.9722244244
11
146.3580361945
21
232.9149737556
0
LINE
5
396
100
AcDbEntity
8
0
100
AcDbLine
62
7
6
BYLAYER
10
143.2143751301
20
239.4477480267
11
150.8173524316
21
241.8263636347
0
LINE
5
397
100
AcDbEntity
8
0
100
AcDbLine
62
7
6
BYLAYER
10
143.2335520861
20
239.2617056255
11
150.8365293877
21
241.6403212334
0
LINE
5
398
100
AcDbEntity
8
0
100
AcDbLine
62
7
6
BYLAYER
10
123.4437697821
20
225.7422005615
11
92.6295768125
21
216.1018823760
0
LINE
5
399
100
AcDbEntity
8
0
100
AcDbLine
62
7
6
BYLAYER
10
125.2337361865
20
224.8763273625
11
108.3382310719
21
219.5905149004
0
LINE
5
39A
100
AcDbEntity
8
0
100
AcDbLine
62
7
6
BYLAYER
10
125.2529131426
20
224.6902849612
11
108.5793110509
21
219.4738955649
0
LINE
5
39B
100
AcDbEntity
8
0
100
AcDbLine
62
7
6
BYLAYER
10
113.2887538696
20
220.6360534967
11
108.9699839206
21
219.2849125949
0
LINE
5
39C
100
AcDbEntity
8
0
100
AcDbLine
62
7
6
BYLAYER
10
115.0787202741
20
219.7701802977
11
96.8412624701
21
214.0645336726
0
LINE
5
39D
100
AcDbEntity
8
0
100
AcDbLine
62
7
6
BYLAYER
10
115.0978972302
20
219.5841378965
11
96.8604394262
21
213.8784912713
0
LINE
5
39E
100
AcDbEntity
8
0
100
AcDbLine
62
7
6
BYLAYER
10
150.8173524316
20
241.8263636347
11
150.8365293877
21
241.6403212334
0
LINE
5
39F
100
AcDbEntity
8
0
100
AcDbLine
62
7
6
BYLAYER
10
141.3907611301
20
235.4649899239
11
140.2718654836
21
232.4724282567
0
LINE
5
3A0
100
AcDbEntity
8
0
100
AcDbLine
62
7
6
BYLAYER
10
141.4099380861
20
235.2789475227
11
140.2910424397
21
232.2863858554
0
LINE
5
3A1
100
AcDbEntity
8
0
100
AcDbLine
62
7
6
BYLAYER
10
71.5871263043
20
182.6330215219
11
60.0648672569
21
178.1226530932
0
LINE
5
3A2
100
AcDbEntity
8
0
100
AcDbLine
62
7
6
BYLAYER
10
147.2943946951
20
225.4282050524
11
147.1356617623
21
225.3709543837
0
LINE
5
3A3
100
AcDbEntity
8
0
100
AcDbLine
62
7
6
BYLAYER
10
142.0926527510
20
220.9211522957
11
139.7895419885
21
220.0904826347
0
LINE
5
3A4
100
AcDbEntity
8
0
100
AcDbLine
62
7
6
BYLAYER
10
144.1352082633
20
220.1401533773
11
141.8320975007
21
219.3094837163
0
LINE
5
3A5
100
AcDbEntity
8
0
100
AcDbLine
62
7
6
BYLAYER
10
144.1543852193
20
219.9541109760
11
141.8512744568
21
219.1234413150
0
LINE
5
3A6
100
AcDbEntity
8
0
100
AcDbLine
62
7
6
BYLAYER
10
76.7196678118
20
180.9180661192
11
65.1974087644
21
176.4076976905
0
LINE
5
3A7
100
AcDbEntity
8
0
100
AcDbLine
62
7
6
BYLAYER
10
76.7388447679
20
180.7320237179
11
65.2165857204
21
176.2216552893
0
LINE
5
3A8
100
AcDbEntity
8
0
100
AcDbLine
62
7
6
BYLAYER
10
62.2233425048
20
170.6950986737
11
62.0711325169
21
170.6355163365
0
LINE
5
3A9
100
AcDbEntity
8
0
100
AcDbLine
62
7
6
BYLAYER
10
62.2664906559
20
170.2765032708
11
62.1142806680
21
170.2169209336
0
LINE
5
3AA
100
AcDbEntity
8
0
100
AcDbLine
62
7
6
BYLAYER
10
54.1215289767
20
166.6509444592
11
43.4668298269
21
162.4801808559
0
LINE
5
3AB
100
AcDbEntity
8
0
100
AcDbLine
62
7
6
BYLAYER
10
33.8086608722
20
158.2757773037
11
33.6564508844
21
158.2161949665
0
LINE
5
3AC
100
AcDbEntity
8
0
100
AcDbLine
62
7
6
BYLAYER
10
59.2540704842
20
164.9359890565
11
48.5993713344
21
160.7652254532
0
LINE
5
3AD
100
AcDbEntity
8
0
100
AcDbLine
62
7
6
BYLAYER
10
59.2732474403
20
164.7499466552
11
48.6185482904
21
160.5791830519
0
LINE
5
3AE
100
AcDbEntity
8
0
100
AcDbLine
62
7
6
BYLAYER
10
45.2927224953
20
154.4385645902
11
45.1405125074
21
154.3789822530
0
LINE
5
3AF
100
AcDbEntity
8
0
100
AcDbLine
62
7
6
BYLAYER
10
51.6442426108
20
152.3163072794
11
51.4920326229
21
152.2567249422
0
LINE
5
3B0
100
AcDbEntity
8
0
100
AcDbLine
62
7
6
BYLAYER
10
54.7125555787
20
122.5495230745
11
54.5603455908
21
122.4899407373
0
LINE
5
3B1
100
AcDbEntity
8
0
100
AcDbLine
62
7
6
BYLAYER
10
131.4300849269
20
152.7560887377
11
131.4300849269
21
124.9560887377
0
LINE
5
3B2
100
AcDbEntity
8
0
100
AcDbLine
62
7
6
BYLAYER
10
163.4300849269
20
152.7560887377
11
163.4300849269
21
142.8560887377
0
LINE
5
3B3
100
AcDbEntity
8
0
100
AcDbLine
62
7
6
BYLAYER
10
163.4300849269
20
142.8560887377
11
163.4300849269
21
134.8560887377
0
LINE
5
3B4
100
AcDbEntity
8
0
100
AcDbLine
62
7
6
BYLAYER
10
163.4300849269
20
134.8560887377
11
163.4300849269
21
124.9560887377
0
LINE
5
3B5
100
AcDbEntity
8
0
100
AcDbLine
62
7
6
BYLAYER
10
171.3840665609
20
142.8560887377
11
171.3840665609
21
134.8560887377
0
LINE
5
3B6
100
AcDbEntity
8
0
100
AcDbLine
62
7
6
BYLAYER
10
185.3840665609
20
142.8560887377
11
185.3840665609
21
134.8560887377
0
LINE
5
3B7
100
AcDbEntity
8
0
100
AcDbLine
62
7
6
BYLAYER
10
192.2384907661
20
142.8560887377
11
192.2384907661
21
134.8560887377
0
LINE
5
3B8
100
AcDbEntity
8
0
100
AcDbLine
62
7
6
BYLAYER
10
192.6884907661
20
142.8560887377
11
192.6884907661
21
134.8560887377
0
LINE
5
3B9
100
AcDbEntity
8
0
100
AcDbLine
62
7
6
BYLAYER
10
199.8570742367
20
142.8560887377
11
199.8570742367
21
134.8560887377
0
LINE
5
3BA
100
AcDbEntity
8
0
100
AcDbLine
62
7
6
BYLAYER
10
163.4300849269
20
124.9560887377
11
131.4300849269
21
124.9560887377
0
LINE
5
3BB
100
AcDbEntity
8
0
100
AcDbLine
62
7
6
BYLAYER
10
214.9970255761
20
134.8560887377
11
163.4300849269
21
134.8560887377
0
LINE
5
3BC
100
AcDbEntity
8
0
100
AcDbLine
62
7
6
BYLAYER
10
244.9509345123
20
186.4866406417
11
238.0354673054
21
190.4219600361
0
LINE
5
3BD
100
AcDbEntity
8
0
100
AcDbLine
62
7
6
BYLAYER
10
214.9970255761
20
142.8560887377
11
163.4300849269
21
142.8560887377
0
LINE
5
3BE
100
AcDbEntity
8
0
100
AcDbLine
62
7
6
BYLAYER
10
163.4300849269
20
152.7560887377
11
131.4300849269
21
152.7560887377
0
LINE
5
3BF
100
AcDbEntity
8
0
100
AcDbLine
62
7
6
BYLAYER
10
355.5073245387
20
155.1069762694
11
368.9887282836
21
154.3986309655
0
LINE
5
3C0
100
AcDbEntity
8
0
100
AcDbLine
62
7
6
BYLAYER
10
350.0196401715
20
161.2033128977
11
323.9199248749
21
162.5746545706
0
LINE
5
3C1
100
AcDbEntity
8
0
100
AcDbLine
62
7
6
BYLAYER
10
350.1980382481
20
164.5986293964
11
324.0983229514
21
165.9699710692
0
LINE
5
3C2
100
AcDbEntity
8
0
100
AcDbLine
62
7
6
BYLAYER
10
238.0354673054
20
190.4219600361
11
231.0354673054
21
190.4219600361
0
LINE
5
3C3
100
AcDbEntity
8
0
100
AcDbLine
62
7
6
BYLAYER
10
369.7757786212
20
169.3779684597
11
356.2943748764
21
170.0863137636
0
LINE
5
3C4
100
AcDbEntity
8
0
100
AcDbLine
62
7
6
BYLAYER
10
349.7434021875
20
178.9151306913
11
358.6513882657
21
177.6314702879
0
LINE
5
3C5
100
AcDbEntity
8
0
100
AcDbLine
62
7
6
BYLAYER
10
308.5659841917
20
186.0612825189
11
287.1981681671
21
189.1404318459
0
LINE
5
3C6
100
AcDbEntity
8
0
100
AcDbLine
62
7
6
BYLAYER
10
309.0509225663
20
189.4265217040
11
303.9908597704
21
190.1556878918
0
LINE
5
3C7
100
AcDbEntity
8
0
100
AcDbLine
62
7
6
BYLAYER
10
344.8299478638
20
185.4830806460
11
304.1620144909
21
191.3434193689
0
LINE
5
3C8
100
AcDbEntity
8
0
100
AcDbLine
62
7
6
BYLAYER
10
345.3148862384
20
188.8483198311
11
288.3391996367
21
197.0586416931
0
LINE
5
3C9
100
AcDbEntity
8
0
100
AcDbLine
62
7
6
BYLAYER
10
360.7908222713
20
192.4781137515
11
351.8828361931
21
193.7617741549
0
LINE
5
3CA
100
AcDbEntity
8
0
100
AcDbLine
62
7
6
BYLAYER
10
350.0196401715
20
161.2033128977
11
355.5073245387
21
155.1069762694
0
LINE
5
3CB
100
AcDbEntity
8
0
100
AcDbLine
62
7
6
BYLAYER
10
344.8299478638
20
185.4830806460
11
349.7434021875
21
178.9151306913
0
LINE
5
3CC
100
AcDbEntity
8
0
100
AcDbLine
62
7
6
BYLAYER
10
318.0499336059
20
166.7789750763
11
311.1596495142
21
184.0196904790
0
LINE
5
3CD
100
AcDbEntity
8
0
100
AcDbLine
62
7
6
BYLAYER
10
321.2071332219
20
168.0407557959
11
314.3168491303
21
185.2814711986
0
LINE
5
3CE
100
AcDbEntity
8
0
100
AcDbLine
62
7
6
BYLAYER
10
326.9961944728
20
165.8177099455
11
326.8177963962
21
162.4223934468
0
LINE
5
3CF
100
AcDbEntity
8
0
100
AcDbLine
62
7
6
BYLAYER
10
304.1620144909
20
191.3434193689
11
303.9908597704
21
190.1556878918
0
LINE
5
3D0
100
AcDbEntity
8
0
100
AcDbLine
62
7
6
BYLAYER
10
333.8411767060
20
165.4580581532
11
333.6627786295
21
162.0627416545
0
LINE
5
3D1
100
AcDbEntity
8
0
100
AcDbLine
62
7
6
BYLAYER
10
341.9400051779
20
165.0325262706
11
341.7616071013
21
161.6372097719
0
LINE
5
3D2
100
AcDbEntity
8
0
100
AcDbLine
62
7
6
BYLAYER
10
348.7849874111
20
164.6728744783
11
348.6065893346
21
161.2775579796
0
LINE
5
3D3
100
AcDbEntity
8
0
100
AcDbLine
62
7
6
BYLAYER
10
324.4424774836
20
191.8560798799
11
323.9575391091
21
188.4908406948
0
LINE
5
3D4
100
AcDbEntity
8
0
100
AcDbLine
62
7
6
BYLAYER
10
331.2268236385
20
190.8784406643
11
330.7418852639
21
187.5132014792
0
LINE
5
3D5
100
AcDbEntity
8
0
100
AcDbLine
62
7
6
BYLAYER
10
334.0476858966
20
190.4719482033
11
333.5627475220
21
187.1067090182
0
LINE
5
3D6
100
AcDbEntity
8
0
100
AcDbLine
62
7
6
BYLAYER
10
341.1429794251
20
189.4495007867
11
340.6580410505
21
186.0842616016
0
LINE
5
3D7
100
AcDbEntity
8
0
100
AcDbLine
62
7
6
BYLAYER
10
368.9887282836
20
154.3986309655
11
369.7757786212
21
169.3779684597
0
LINE
5
3D8
100
AcDbEntity
8
0
100
AcDbLine
62
7
6
BYLAYER
10
358.6513882657
20
177.6314702879
11
360.7908222713
21
192.4781137515
0
LINE
5
3D9
100
AcDbEntity
8
0
100
AcDbLine
62
7
6
BYLAYER
10
280.8060688843
20
194.9592820886
11
218.9911152257
21
144.2840000818
0
LINE
5
3DA
100
AcDbEntity
8
0
100
AcDbLine
62
7
6
BYLAYER
10
285.8779287569
20
188.7725028430
11
224.0629750982
21
138.0972208363
0
LINE
5
3DB
100
AcDbEntity
8
0
100
AcDbLine
62
7
6
BYLAYER
10
356.2943748764
20
170.0863137636
11
350.1980382481
21
164.5986293964
0
LINE
5
3DC
100
AcDbEntity
8
0
100
AcDbLine
62
7
6
BYLAYER
10
351.8828361931
20
193.7617741549
11
345.3148862384
21
188.8483198311
0
ARC
5
3DD
100
AcDbEntity
8
DEFAULT_1
100
AcDbCircle
62
7
6
BYLAYER
10
265.4170309768
20
184.1416682523
40
20.6000000000
100
AcDbArc
50
173.4636458940
51
268.1383080000
0
ARC
5
3DE
100
AcDbEntity
8
0
100
AcDbCircle
62
7
6
BYLAYER
10
286.9556989798
20
187.4578122533
40
9.7000000000
100
AcDbArc
50
81.8000000000
51
129.3445580021
0
ARC
5
3DF
100
AcDbEntity
8
0
100
AcDbCircle
62
7
6
BYLAYER
10
214.9970255761
20
149.1560887377
40
6.3000000000
100
AcDbArc
50
270.0000000000
51
309.3445580021
0
ARC
5
3E0
100
AcDbEntity
8
0
100
AcDbCircle
62
7
6
BYLAYER
10
324.2714740257
20
169.2654253180
40
3.3000000000
100
AcDbArc
50
201.7842120979
51
266.9923080000
0
ARC
5
3E1
100
AcDbEntity
8
0
100
AcDbCircle
62
7
6
BYLAYER
10
308.0953087104
20
182.7950209569
40
6.7000000000
100
AcDbArc
50
21.7842120979
51
81.8000000000
0
ARC
5
3E2
100
AcDbEntity
8
0
100
AcDbCircle
62
7
6
BYLAYER
10
324.2714740257
20
169.2654253180
40
6.7000000000
100
AcDbArc
50
201.7842120979
51
266.9923080000
0
ARC
5
3E3
100
AcDbEntity
8
0
100
AcDbCircle
62
7
6
BYLAYER
10
308.0953087104
20
182.7950209569
40
3.3000000000
100
AcDbArc
50
21.7842120979
51
81.8000000000
0
ARC
5
3E4
100
AcDbEntity
8
0
100
AcDbCircle
62
7
6
BYLAYER
10
286.9556989798
20
187.4578122533
40
1.7000000000
100
AcDbArc
50
81.8000000000
51
129.3445580021
0
ARC
5
3E5
100
AcDbEntity
8
0
100
AcDbCircle
62
7
6
BYLAYER
10
214.9970255761
20
149.1560887377
40
14.3000000000
100
AcDbArc
50
270.0000000000
51
309.3445580021
0
SPLINE
5
3E6
100
AcDbEntity
8
0
100
AcDbSpline
62
7
6
BYLAYER
70
0
71
3
72
8
73
4
74
2
42
0.0000001000
43
0.0000001000
44
0.0000000001
40
0.0000000000
40
0.0000000000
40
0.0000000000
40
0.0000000000
40
1.0000000000
40
1.0000000000
40
1.0000000000
40
1.0000000000
10
143.3989900716
20
235.8356097654
30
0.0000000000
10
143.5965673504
20
235.6276837567
30
0.0000000000
10
143.7632937112
20
235.3892099686
30
0.0000000000
10
143.8969534059
20
235.1348187268
30
0.0000000000
11
143.3989900716
21
235.8356097654
31
0.0000000000
11
143.8969534059
21
235.1348187268
31
0.0000000000
0
SPLINE
5
3E7
100
AcDbEntity
8
0
100
AcDbSpline
62
7
6
BYLAYER
70
0
71
3
72
8
73
4
74
2
42
0.0000001000
43
0.0000001000
44
0.0000000001
40
0.0000000000
40
0.0000000000
40
0.0000000000
40
0.0000000000
40
1.0000000000
40
1.0000000000
40
1.0000000000
40
1.0000000000
10
143.8969534059
20
235.1348187268
30
0.0000000000
10
144.1315370258
20
234.6883414357
30
0.0000000000
10
144.2642650603
20
234.1928334510
30
0.0000000000
10
144.3154806822
20
233.6959726740
30
0.0000000000
11
143.8969534059
21
235.1348187268
31
0.0000000000
11
144.3154806822
21
233.6959726740
31
0.0000000000
0
SPLINE
5
3E8
100
AcDbEntity
8
0
100
AcDbSpline
62
7
6
BYLAYER
70
0
71
3
72
11
73
7
74
5
42
0.0000001000
43
0.0000001000
44
0.0000000001
40
0.0000000000
40
0.0000000000
40
0.0000000000
40
0.0000000000
40
0.2272565196
40
0.4741905631
40
0.7364968110
40
1.0000000000
40
1.0000000000
40
1.0000000000
40
1.0000000000
10
43.4668298269
20
162.4801808559
30
0.0000000000
10
43.0331451523
20
162.3104157381
30
0.0000000000
10
42.1897626907
20
161.7899593335
30
0.0000000000
10
41.1671622501
20
160.6590096919
30
0.0000000000
10
40.4111571330
20
159.2503233782
30
0.0000000000
10
40.1268208248
20
158.2020037289
30
0.0000000000
10
40.0478072795
20
157.6659998630
30
0.0000000000
11
43.4668298269
21
162.4801808559
31
0.0000000000
11
42.2672483656
21
161.7638515688
31
0.0000000000
11
41.2376145641
21
160.6482031345
31
0.0000000000
11
40.4695874649
21
159.2301609174
31
0.0000000000
11
40.0478072795
21
157.6659998630
31
0.0000000000
0
SPLINE
5
3E9
100
AcDbEntity
8
0
100
AcDbSpline
62
7
6
BYLAYER
70
0
71
3
72
8
73
4
74
2
42
0.0000001000
43
0.0000001000
44
0.0000000001
40
0.0000000000
40
0.0000000000
40
0.0000000000
40
0.0000000000
40
1.0000000000
40
1.0000000000
40
1.0000000000
40
1.0000000000
10
40.0478072795
20
157.6659998630
30
0.0000000000
10
39.9764188959
20
157.1817227750
30
0.0000000000
10
39.9568480604
20
156.6887513497
30
0.0000000000
10
39.9978194608
20
156.2023623517
30
0.0000000000
11
40.0478072795
21
157.6659998630
31
0.0000000000
11
39.9978194608
21
156.2023623517
31
0.0000000000
0
SPLINE
5
3EA
100
AcDbEntity
8
0
100
AcDbSpline
62
7
6
BYLAYER
70
0
71
3
72
8
73
4
74
2
42
0.0000001000
43
0.0000001000
44
0.0000000001
40
0.0000000000
40
0.0000000000
40
0.0000000000
40
0.0000000000
40
1.0000000000
40
1.0000000000
40
1.0000000000
40
1.0000000000
10
39.9978194608
20
156.2023623517
30
0.0000000000
10
40.0008671216
20
156.1661822690
30
0.0000000000
10
40.0042497710
20
156.1300386078
30
0.0000000000
10
40.0079709999
20
156.0939376557
30
0.0000000000
11
39.9978194608
21
156.2023623517
31
0.0000000000
11
40.0079709999
21
156.0939376557
31
0.0000000000
0
SPLINE
5
3EB
100
AcDbEntity
8
0
100
AcDbSpline
62
7
6
BYLAYER
70
0
71
3
72
11
73
7
74
5
42
0.0000001000
43
0.0000001000
44
0.0000000001
40
0.0000000000
40
0.0000000000
40
0.0000000000
40
0.0000000000
40
0.2627088547
40
0.5416462836
40
0.8255704145
40
1.0000000000
40
1.0000000000
40
1.0000000000
40
1.0000000000
10
129.9105124377
20
239.1438284453
30
0.0000000000
10
129.3718289910
20
238.9752996173
30
0.0000000000
10
128.3290663432
20
238.3888994290
30
0.0000000000
10
127.1484557405
20
237.0259736841
30
0.0000000000
10
126.5175440020
20
235.5461046081
30
0.0000000000
10
126.3788557014
20
234.5572046661
30
0.0000000000
10
126.3676020973
20
234.1809533211
30
0.0000000000
11
129.9105124377
21
239.1438284453
31
0.0000000000
11
128.4233965546
21
238.3340613522
31
0.0000000000
11
127.2349795808
21
236.9849563868
31
0.0000000000
11
126.5211306365
21
235.2998905146
31
0.0000000000
11
126.3676020973
21
234.1809533211
31
0.0000000000
0
SPLINE
5
3EC
100
AcDbEntity
8
0
100
AcDbSpline
62
7
6
BYLAYER
70
0
71
3
72
11
73
7
74
5
42
0.0000001000
43
0.0000001000
44
0.0000000001
40
0.0000000000
40
0.0000000000
40
0.0000000000
40
0.0000000000
40
0.2562131501
40
0.5189562417
40
0.7711098473
40
1.0000000000
40
1.0000000000
40
1.0000000000
40
1.0000000000
10
56.9817391605
20
171.9318763363
30
0.0000000000
10
57.0375588306
20
171.3903500679
30
0.0000000000
10
56.9646723446
20
170.2696262005
30
0.0000000000
10
56.3950757404
20
168.7113111655
30
0.0000000000
10
55.4436350271
20
167.4212317989
30
0.0000000000
10
54.5744077634
20
166.8282230790
30
0.0000000000
10
54.1215289767
20
166.6509444592
30
0.0000000000
11
56.9817391605
21
171.9318763363
31
0.0000000000
11
56.8899174749
21
170.3012728921
31
0.0000000000
11
56.3147851319
21
168.7283095560
31
0.0000000000
11
55.3441185160
21
167.4471962778
31
0.0000000000
11
54.1215289767
21
166.6509444592
31
0.0000000000
0
SPLINE
5
3ED
100
AcDbEntity
8
0
100
AcDbSpline
62
7
6
BYLAYER
70
0
71
3
72
11
73
7
74
5
42
0.0000001000
43
0.0000001000
44
0.0000000001
40
0.0000000000
40
0.0000000000
40
0.0000000000
40
0.0000000000
40
0.2288901527
40
0.4810437583
40
0.7437868499
40
1.0000000000
40
1.0000000000
40
1.0000000000
40
1.0000000000
10
60.0648672569
20
178.1226530932
30
0.0000000000
10
59.5698602110
20
177.9288834390
30
0.0000000000
10
58.6197745972
20
177.2807111172
30
0.0000000000
10
57.5798277710
20
175.8706243676
30
0.0000000000
10
56.9572454362
20
174.1673497945
30
0.0000000000
10
56.8775788120
20
172.9423725441
30
0.0000000000
10
56.9385910094
20
172.3504717392
30
0.0000000000
11
60.0648672569
21
178.1226530932
31
0.0000000000
11
58.7285484581
21
177.2523313379
31
0.0000000000
11
57.6675872733
21
175.8520447315
31
0.0000000000
11
57.0389542472
21
174.1327592247
31
0.0000000000
11
56.9385910094
21
172.3504717392
31
0.0000000000
0
SPLINE
5
3EE
100
AcDbEntity
8
0
100
AcDbSpline
62
7
6
BYLAYER
70
0
71
3
72
10
73
6
74
4
42
0.0000001000
43
0.0000001000
44
0.0000000001
40
0.0000000000
40
0.0000000000
40
0.0000000000
40
0.0000000000
40
0.3307765144
40
0.6707559524
40
1.0000000000
40
1.0000000000
40
1.0000000000
40
1.0000000000
10
145.0931062500
20
226.1519533021
30
0.0000000000
10
145.1488171472
20
225.6114822779
30
0.0000000000
10
145.0682344534
20
224.4903217950
30
0.0000000000
10
144.4652502521
20
222.9382094740
30
0.0000000000
10
143.7761501869
20
222.0603865794
30
0.0000000000
10
143.3689851112
20
221.6981933990
30
0.0000000000
11
145.0931062500
21
226.1519533021
31
0.0000000000
11
144.9905784896
21
224.5251768128
31
0.0000000000
11
144.3850759053
21
222.9630695139
31
0.0000000000
11
143.3689851112
21
221.6981933990
31
0.0000000000
0
SPLINE
5
3EF
100
AcDbEntity
8
0
100
AcDbSpline
62
7
6
BYLAYER
70
0
71
3
72
8
73
4
74
2
42
0.0000001000
43
0.0000001000
44
0.0000000001
40
0.0000000000
40
0.0000000000
40
0.0000000000
40
0.0000000000
40
1.0000000000
40
1.0000000000
40
1.0000000000
40
1.0000000000
10
143.3689851112
20
221.6981933990
30
0.0000000000
10
143.3306301191
20
221.6640747640
30
0.0000000000
10
143.2916704566
20
221.6305744229
30
0.0000000000
10
143.2521297182
20
221.5977420045
30
0.0000000000
11
143.3689851112
21
221.6981933990
31
0.0000000000
11
143.2521297182
21
221.5977420045
31
0.0000000000
0
SPLINE
5
3F0
100
AcDbEntity
8
0
100
AcDbSpline
62
7
6
BYLAYER
70
0
71
3
72
8
73
4
74
2
42
0.0000001000
43
0.0000001000
44
0.0000000001
40
0.0000000000
40
0.0000000000
40
0.0000000000
40
0.0000000000
40
1.0000000000
40
1.0000000000
40
1.0000000000
40
1.0000000000
10
143.2521297182
20
221.5977420045
30
0.0000000000
10
142.9050827948
20
221.3095736430
30
0.0000000000
10
142.5132728209
20
221.0728585604
30
0.0000000000
10
142.0926527510
20
220.9211522957
30
0.0000000000
11
143.2521297182
21
221.5977420045
31
0.0000000000
11
142.0926527510
21
220.9211522957
31
0.0000000000
0
SPLINE
5
3F1
100
AcDbEntity
8
0
100
AcDbSpline
62
7
6
BYLAYER
70
0
71
3
72
8
73
4
74
2
42
0.0000001000
43
0.0000001000
44
0.0000000001
40
0.0000000000
40
0.0000000000
40
0.0000000000
40
0.0000000000
40
1.0000000000
40
1.0000000000
40
1.0000000000
40
1.0000000000
10
142.5329735853
20
235.6839960043
30
0.0000000000
10
142.9561480866
20
235.8366235831
30
0.0000000000
10
143.4211374090
20
235.9051756422
30
0.0000000000
10
143.8722560175
20
235.8503362999
30
0.0000000000
11
142.5329735853
21
235.6839960043
31
0.0000000000
11
143.8722560175
21
235.8503362999
31
0.0000000000
0
SPLINE
5
3F2
100
AcDbEntity
8
0
100
AcDbSpline
62
7
6
BYLAYER
70
0
71
3
72
8
73
4
74
2
42
0.0000001000
43
0.0000001000
44
0.0000000001
40
0.0000000000
40
0.0000000000
40
0.0000000000
40
0.0000000000
40
1.0000000000
40
1.0000000000
40
1.0000000000
40
1.0000000000
10
143.8722560175
20
235.8503362999
30
0.0000000000
10
144.0799307275
20
235.8250907340
30
0.0000000000
10
144.2846658624
20
235.7736952317
30
0.0000000000
10
144.4803035142
20
235.6988036753
30
0.0000000000
11
143.8722560175
21
235.8503362999
31
0.0000000000
11
144.4803035142
21
235.6988036753
31
0.0000000000
0
SPLINE
5
3F3
100
AcDbEntity
8
0
100
AcDbSpline
62
7
6
BYLAYER
70
0
71
3
72
10
73
6
74
4
42
0.0000001000
43
0.0000001000
44
0.0000000001
40
0.0000000000
40
0.0000000000
40
0.0000000000
40
0.0000000000
40
0.4180626387
40
0.7537493778
40
1.0000000000
40
1.0000000000
40
1.0000000000
40
1.0000000000
10
92.6295768125
20
216.1018823760
30
0.0000000000
10
91.9320839309
20
215.8836695117
30
0.0000000000
10
90.6921670337
20
215.4174123850
30
0.0000000000
10
89.1733027302
20
214.5462384375
30
0.0000000000
10
88.4347610654
20
213.7932291762
30
0.0000000000
10
88.2433693996
20
213.4076361811
30
0.0000000000
11
92.6295768125
21
216.1018823760
31
0.0000000000
11
90.5859063518
21
215.3078863965
31
0.0000000000
11
89.0858237863
21
214.3864544250
31
0.0000000000
11
88.2433693996
21
213.4076361811
31
0.0000000000
0
SPLINE
5
3F4
100
AcDbEntity
8
0
100
AcDbSpline
62
7
6
BYLAYER
70
0
71
3
72
10
73
6
74
4
42
0.0000001000
43
0.0000001000
44
0.0000000001
40
0.0000000000
40
0.0000000000
40
0.0000000000
40
0.0000000000
40
0.2554395824
40
0.5890794545
40
1.0000000000
40
1.0000000000
40
1.0000000000
40
1.0000000000
10
73.7107262093
20
184.1290080375
30
0.0000000000
10
73.6107417134
20
183.9275712557
30
0.0000000000
10
73.2584414922
20
183.5274868080
30
0.0000000000
10
72.5231875461
20
183.0378959717
30
0.0000000000
10
71.9240050627
20
182.7648921307
30
0.0000000000
10
71.5871263043
20
182.6330215219
30
0.0000000000
11
73.7107262093
21
184.1290080375
31
0.0000000000
11
73.2900121837
21
183.6015966260
31
0.0000000000
11
72.5696189576
21
183.0941099994
31
0.0000000000
11
71.5871263043
21
182.6330215219
31
0.0000000000
0
SPLINE
5
3F5
100
AcDbEntity
8
0
100
AcDbSpline
62
7
6
BYLAYER
70
0
71
3
72
10
73
6
74
4
42
0.0000001000
43
0.0000001000
44
0.0000000001
40
0.0000000000
40
0.0000000000
40
0.0000000000
40
0.0000000000
40
0.3214398886
40
0.6691086793
40
1.0000000000
40
1.0000000000
40
1.0000000000
40
1.0000000000
10
139.7895419885
20
220.0904826347
30
0.0000000000
10
139.4290626373
20
219.9604674981
30
0.0000000000
10
138.6520818663
20
219.7626594462
30
0.0000000000
10
137.4657157860
20
219.6233384887
30
0.0000000000
10
136.6531424402
20
219.6335219502
30
0.0000000000
10
136.2606536500
20
219.6730763598
30
0.0000000000
11
139.7895419885
21
220.0904826347
31
0.0000000000
11
138.6786559056
21
219.7945505537
31
0.0000000000
11
137.4438288788
21
219.6484919370
31
0.0000000000
11
136.2606536500
21
219.6730763598
31
0.0000000000
0
SPLINE
5
3F6
100
AcDbEntity
8
0
100
AcDbSpline
62
7
6
BYLAYER
70
0
71
3
72
10
73
6
74
4
42
0.0000001000
43
0.0000001000
44
0.0000000001
40
0.0000000000
40
0.0000000000
40
0.0000000000
40
0.0000000000
40
0.3269808486
40
0.6724170070
40
1.0000000000
40
1.0000000000
40
1.0000000000
40
1.0000000000
10
119.9557174326
20
221.3162624627
30
0.0000000000
10
119.2250403806
20
221.3898989591
30
0.0000000000
10
117.7092341913
20
221.4191790186
30
0.0000000000
10
115.4708931733
20
221.1906946635
30
0.0000000000
10
113.9909233029
20
220.8557294351
30
0.0000000000
10
113.2887538696
20
220.6360534967
30
0.0000000000
11
119.9557174326
21
221.3162624627
31
0.0000000000
11
117.7533693322
21
221.3751219258
31
0.0000000000
11
115.4379066549
21
221.1388826756
31
0.0000000000
11
113.2887538696
21
220.6360534967
31
0.0000000000
0
SPLINE
5
3F7
100
AcDbEntity
8
0
100
AcDbSpline
62
7
6
BYLAYER
70
0
71
3
72
11
73
7
74
5
42
0.0000001000
43
0.0000001000
44
0.0000000001
40
0.0000000000
40
0.0000000000
40
0.0000000000
40
0.0000000000
40
0.0599780836
40
0.3832635369
40
0.7008709655
40
1.0000000000
40
1.0000000000
40
1.0000000000
40
1.0000000000
10
126.6095615485
20
229.5648942902
30
0.0000000000
10
126.5910831564
20
229.4622641832
30
0.0000000000
10
126.4526550190
20
228.8101523356
30
0.0000000000
10
125.9707578242
20
227.6798123643
30
0.0000000000
10
124.8906247196
20
226.4328802999
30
0.0000000000
10
123.9366078291
20
225.8963865105
30
0.0000000000
10
123.4437697821
20
225.7422005615
30
0.0000000000
11
126.6095615485
21
229.5648942902
31
0.0000000000
11
126.5446935577
21
229.2589948385
31
0.0000000000
11
125.8915977150
21
227.7173388278
31
0.0000000000
11
124.8043226113
21
226.4830513063
31
0.0000000000
11
123.4437697821
21
225.7422005615
31
0.0000000000
0
SPLINE
5
3F8
100
AcDbEntity
8
0
100
AcDbSpline
62
7
6
BYLAYER
70
0
71
3
72
8
73
4
74
2
42
0.0000001000
43
0.0000001000
44
0.0000000001
40
0.0000000000
40
0.0000000000
40
0.0000000000
40
0.0000000000
40
1.0000000000
40
1.0000000000
40
1.0000000000
40
1.0000000000
10
144.4803035142
20
235.6988036753
30
0.0000000000
10
144.6886374134
20
235.6190519003
30
0.0000000000
10
144.8866547206
20
235.5126554804
30
0.0000000000
10
145.0669191562
20
235.3828192394
30
0.0000000000
11
144.4803035142
21
235.6988036753
31
0.0000000000
11
145.0669191562
21
235.3828192394
31
0.0000000000
0
SPLINE
5
3F9
100
AcDbEntity
8
0
100
AcDbSpline
62
7
6
BYLAYER
70
0
71
3
72
8
73
4
74
2
42
0.0000001000
43
0.0000001000
44
0.0000000001
40
0.0000000000
40
0.0000000000
40
0.0000000000
40
0.0000000000
40
1.0000000000
40
1.0000000000
40
1.0000000000
40
1.0000000000
10
145.0669191562
20
235.3828192394
30
0.0000000000
10
145.2860676422
20
235.2249765926
30
0.0000000000
10
145.4789784467
20
235.0324912935
30
0.0000000000
10
145.6437991721
20
234.8175945073
30
0.0000000000
11
145.0669191562
21
235.3828192394
31
0.0000000000
11
145.6437991721
21
234.8175945073
31
0.0000000000
0
SPLINE
5
3FA
100
AcDbEntity
8
0
100
AcDbSpline
62
7
6
BYLAYER
70
0
71
3
72
9
73
5
74
3
42
0.0000001000
43
0.0000001000
44
0.0000000001
40
0.0000000000
40
0.0000000000
40
0.0000000000
40
0.0000000000
40
0.2666496259
40
1.0000000000
40
1.0000000000
40
1.0000000000
40
1.0000000000
10
145.6437991721
20
234.8175945073
30
0.0000000000
10
145.7554513553
20
234.6720200032
30
0.0000000000
10
146.1258320040
20
234.0875115380
30
0.0000000000
10
146.3068205726
20
233.4118345326
30
0.0000000000
10
146.3580361945
20
232.9149737556
30
0.0000000000
11
145.6437991721
21
234.8175945073
31
0.0000000000
11
145.9395089181
21
234.3538198084
31
0.0000000000
11
146.3580361945
21
232.9149737556
31
0.0000000000
0
SPLINE
5
3FB
100
AcDbEntity
8
0
100
AcDbSpline
62
7
6
BYLAYER
70
0
71
3
72
11
73
7
74
5
42
0.0000001000
43
0.0000001000
44
0.0000000001
40
0.0000000000
40
0.0000000000
40
0.0000000000
40
0.0000000000
40
0.2562131501
40
0.5189562417
40
0.7711098473
40
1.0000000000
40
1.0000000000
40
1.0000000000
40
1.0000000000
10
62.1142806680
20
170.2169209336
30
0.0000000000
10
62.1701003381
20
169.6753946652
30
0.0000000000
10
62.0972138521
20
168.5546707979
30
0.0000000000
10
61.5276172479
20
166.9963557629
30
0.0000000000
10
60.5761765346
20
165.7062763962
30
0.0000000000
10
59.7069492709
20
165.1132676763
30
0.0000000000
10
59.2540704842
20
164.9359890565
30
0.0000000000
11
62.1142806680
21
170.2169209336
31
0.0000000000
11
62.0224589824
21
168.5863174894
31
0.0000000000
11
61.4473266393
21
167.0133541534
31
0.0000000000
11
60.4766600235
21
165.7322408751
31
0.0000000000
11
59.2540704842
21
164.9359890565
31
0.0000000000
0
SPLINE
5
3FC
100
AcDbEntity
8
0
100
AcDbSpline
62
7
6
BYLAYER
70
0
71
3
72
8
73
4
74
2
42
0.0000001000
43
0.0000001000
44
0.0000000001
40
0.0000000000
40
0.0000000000
40
0.0000000000
40
0.0000000000
40
1.0000000000
40
1.0000000000
40
1.0000000000
40
1.0000000000
10
81.5399025167
20
184.3137180515
30
0.0000000000
10
81.5203859307
20
184.2743983724
30
0.0000000000
10
81.4999833518
20
184.2355478644
30
0.0000000000
10
81.4787490342
20
184.1971564927
30
0.0000000000
11
81.5399025167
21
184.3137180515
31
0.0000000000
11
81.4787490342
21
184.1971564927
31
0.0000000000
0
SPLINE
5
3FD
100
AcDbEntity
8
0
100
AcDbSpline
62
7
6
BYLAYER
70
0
71
3
72
8
73
4
74
2
42
0.0000001000
43
0.0000001000
44
0.0000000001
40
0.0000000000
40
0.0000000000
40
0.0000000000
40
0.0000000000
40
1.0000000000
40
1.0000000000
40
1.0000000000
40
1.0000000000
10
81.4787490342
20
184.1971564927
30
0.0000000000
10
81.2530597476
20
183.7891131813
30
0.0000000000
10
80.9334127948
20
183.4329363699
30
0.0000000000
10
80.5849484588
20
183.1165778636
30
0.0000000000
11
81.4787490342
21
184.1971564927
31
0.0000000000
11
80.5849484588
21
183.1165778636
31
0.0000000000
0
SPLINE
5
3FE
100
AcDbEntity
8
0
100
AcDbSpline
62
7
6
BYLAYER
70
0
71
3
72
9
73
5
74
3
42
0.0000001000
43
0.0000001000
44
0.0000000001
40
0.0000000000
40
0.0000000000
40
0.0000000000
40
0.0000000000
40
0.4481031549
40
1.0000000000
40
1.0000000000
40
1.0000000000
40
1.0000000000
10
80.5849484588
20
183.1165778636
30
0.0000000000
10
80.0869823904
20
182.6644919963
30
0.0000000000
10
78.8443782495
20
181.8370668546
30
0.0000000000
10
77.4843291205
20
181.2173914695
30
0.0000000000
10
76.7196678118
20
180.9180661192
30
0.0000000000
11
80.5849484588
21
183.1165778636
31
0.0000000000
11
78.9497701836
21
181.9646637744
31
0.0000000000
11
76.7196678118
21
180.9180661192
31
0.0000000000
0
SPLINE
5
3FF
100
AcDbEntity
8
0
100
AcDbSpline
62
7
6
BYLAYER
70
0
71
3
72
9
73
5
74
3
42
0.0000001000
43
0.0000001000
44
0.0000000001
40
0.0000000000
40
0.0000000000
40
0.0000000000
40
0.0000000000
40
0.5546440912
40
1.0000000000
40
1.0000000000
40
1.0000000000
40
1.0000000000
10
96.8412624701
20
214.0645336726
30
0.0000000000
10
96.7190214496
20
214.0262901809
30
0.0000000000
10
96.5017164264
20
213.9445750143
30
0.0000000000
10
96.3010738346
20
213.8294925818
30
0.0000000000
10
96.2201923521
20
213.7638916605
30
0.0000000000
11
96.8412624701
21
214.0645336726
31
0.0000000000
11
96.4830934203
21
213.9253797380
31
0.0000000000
11
96.2201923521
21
213.7638916605
31
0.0000000000
0
SPLINE
5
400
100
AcDbEntity
8
0
100
AcDbSpline
62
7
6
BYLAYER
70
0
71
3
72
8
73
4
74
2
42
0.0000001000
43
0.0000001000
44
0.0000000001
40
0.0000000000
40
0.0000000000
40
0.0000000000
40
0.0000000000
40
1.0000000000
40
1.0000000000
40
1.0000000000
40
1.0000000000
10
96.2201923521
20
213.7638916605
30
0.0000000000
10
96.1608599059
20
213.7157686166
30
0.0000000000
10
96.1060885763
20
213.6599243489
30
0.0000000000
10
96.0725457070
20
213.5923461951
30
0.0000000000
11
96.2201923521
21
213.7638916605
31
0.0000000000
11
96.0725457070
21
213.5923461951
31
0.0000000000
0
SPLINE
5
401
100
AcDbEntity
8
0
100
AcDbSpline
62
7
6
BYLAYER
70
0
71
3
72
11
73
7
74
5
42
0.0000001000
43
0.0000001000
44
0.0000000001
40
0.0000000000
40
0.0000000000
40
0.0000000000
40
0.0000000000
40
0.2538127965
40
0.5146872182
40
0.7673241160
40
1.0000000000
40
1.0000000000
40
1.0000000000
40
1.0000000000
10
147.1356617623
20
225.3709543837
30
0.0000000000
10
147.1913726594
20
224.8304833595
30
0.0000000000
10
147.1107899657
20
223.7093228766
30
0.0000000000
10
146.5078057643
20
222.1572105556
30
0.0000000000
10
145.5064692191
20
220.8816394318
30
0.0000000000
10
144.6037516168
20
220.3091442721
30
0.0000000000
10
144.1352082633
20
220.1401533773
30
0.0000000000
11
147.1356617623
21
225.3709543837
31
0.0000000000
11
147.0331340019
21
223.7441778944
31
0.0000000000
11
146.4276314176
21
222.1820705955
31
0.0000000000
11
145.4115406235
21
220.9171944806
31
0.0000000000
11
144.1352082633
21
220.1401533773
31
0.0000000000
0
SPLINE
5
402
100
AcDbEntity
8
0
100
AcDbSpline
62
7
6
BYLAYER
70
0
71
3
72
11
73
7
74
5
42
0.0000001000
43
0.0000001000
44
0.0000000001
40
0.0000000000
40
0.0000000000
40
0.0000000000
40
0.0000000000
40
0.0910150991
40
0.4036265293
40
0.7107474081
40
1.0000000000
40
1.0000000000
40
1.0000000000
40
1.0000000000
10
128.4279677773
20
228.8748151157
30
0.0000000000
10
128.4047216616
20
228.7128532614
30
0.0000000000
10
128.2660982620
20
227.9993465021
30
0.0000000000
10
127.7607242287
20
226.8139391653
30
0.0000000000
10
126.6805911241
20
225.5670071009
30
0.0000000000
10
125.7265742336
20
225.0305133116
30
0.0000000000
10
125.2337361865
20
224.8763273625
30
0.0000000000
11
128.4279677773
21
228.8748151157
31
0.0000000000
11
128.3346599621
21
228.3931216395
31
0.0000000000
11
127.6815641195
21
226.8514656288
31
0.0000000000
11
126.5942890158
21
225.6171781073
31
0.0000000000
11
125.2337361865
21
224.8763273625
31
0.0000000000
0
SPLINE
5
403
100
AcDbEntity
8
0
100
AcDbSpline
62
7
6
BYLAYER
70
0
71
3
72
9
73
5
74
3
42
0.0000001000
43
0.0000001000
44
0.0000000001
40
0.0000000000
40
0.0000000000
40
0.0000000000
40
0.0000000000
40
0.7836817289
40
1.0000000000
40
1.0000000000
40
1.0000000000
40
1.0000000000
10
131.7004788422
20
238.2779552463
30
0.0000000000
10
131.1617953955
20
238.1094264183
30
0.0000000000
10
130.5164314664
20
237.7465043955
30
0.0000000000
10
129.9737894759
20
237.2656849257
30
0.0000000000
10
129.8613581309
20
237.1567269484
30
0.0000000000
11
131.7004788422
21
238.2779552463
31
0.0000000000
11
130.2133629591
21
237.4681881532
31
0.0000000000
11
129.8613581309
21
237.1567269484
31
0.0000000000
0
SPLINE
5
404
100
AcDbEntity
8
0
100
AcDbSpline
62
7
6
BYLAYER
70
0
71
3
72
9
73
5
74
3
42
0.0000001000
43
0.0000001000
44
0.0000000001
40
0.0000000000
40
0.0000000000
40
0.0000000000
40
0.0000000000
40
0.5068385196
40
1.0000000000
40
1.0000000000
40
1.0000000000
40
1.0000000000
10
129.8613581309
20
237.1567269484
30
0.0000000000
10
129.5413094970
20
236.8465656517
30
0.0000000000
10
128.9890206279
20
236.1555062871
30
0.0000000000
10
128.6059864277
20
235.3594527682
30
0.0000000000
10
128.4635723550
20
234.9500384213
30
0.0000000000
11
129.8613581309
21
237.1567269484
31
0.0000000000
11
129.0249459853
21
236.1190831878
31
0.0000000000
11
128.4635723550
21
234.9500384213
31
0.0000000000
0
SPLINE
5
405
100
AcDbEntity
8
0
100
AcDbSpline
62
7
6
BYLAYER
70
0
71
3
72
8
73
4
74
2
42
0.0000001000
43
0.0000001000
44
0.0000000001
40
0.0000000000
40
0.0000000000
40
0.0000000000
40
0.0000000000
40
1.0000000000
40
1.0000000000
40
1.0000000000
40
1.0000000000
10
118.3624485962
20
220.1052085944
30
0.0000000000
10
118.0025628840
20
220.1414773165
30
0.0000000000
10
117.6395128845
20
220.1484901693
30
0.0000000000
10
117.2777099795
20
220.1341990762
30
0.0000000000
11
118.3624485962
21
220.1052085944
31
0.0000000000
11
117.2777099795
21
220.1341990762
31
0.0000000000
0
SPLINE
5
406
100
AcDbEntity
8
0
100
AcDbSpline
62
7
6
BYLAYER
70
0
71
3
72
8
73
4
74
2
42
0.0000001000
43
0.0000001000
44
0.0000000001
40
0.0000000000
40
0.0000000000
40
0.0000000000
40
0.0000000000
40
1.0000000000
40
1.0000000000
40
1.0000000000
40
1.0000000000
10
117.2777099795
20
220.1341990762
30
0.0000000000
10
116.8954863535
20
220.1191013716
30
0.0000000000
10
116.5146545707
20
220.0802269983
30
0.0000000000
10
116.1372582131
20
220.0178424306
30
0.0000000000
11
117.2777099795
21
220.1341990762
31
0.0000000000
11
116.1372582131
21
220.0178424306
31
0.0000000000
0
SPLINE
5
407
100
AcDbEntity
8
0
100
AcDbSpline
62
7
6
BYLAYER
70
0
71
3
72
8
73
4
74
2
42
0.0000001000
43
0.0000001000
44
0.0000000001
40
0.0000000000
40
0.0000000000
40
0.0000000000
40
0.0000000000
40
1.0000000000
40
1.0000000000
40
1.0000000000
40
1.0000000000
10
116.1372582131
20
220.0178424306
30
0.0000000000
10
115.7793668189
20
219.9586820824
30
0.0000000000
10
115.4245649203
20
219.8783788943
30
0.0000000000
10
115.0787202741
20
219.7701802977
30
0.0000000000
11
116.1372582131
21
220.0178424306
31
0.0000000000
11
115.0787202741
21
219.7701802977
31
0.0000000000
0
SPLINE
5
408
100
AcDbEntity
8
0
100
AcDbSpline
62
7
6
BYLAYER
70
0
71
3
72
8
73
4
74
2
42
0.0000001000
43
0.0000001000
44
0.0000000001
40
0.0000000000
40
0.0000000000
40
0.0000000000
40
0.0000000000
40
1.0000000000
40
1.0000000000
40
1.0000000000
40
1.0000000000
10
141.8320975007
20
219.3094837163
30
0.0000000000
10
141.2922346764
20
219.1147698204
30
0.0000000000
10
140.7379348390
20
218.9595195883
30
0.0000000000
10
140.1776319896
20
218.8330047494
30
0.0000000000
11
141.8320975007
21
219.3094837163
31
0.0000000000
11
140.1776319896
21
218.8330047494
31
0.0000000000
0
SPLINE
5
409
100
AcDbEntity
8
0
100
AcDbSpline
62
7
6
BYLAYER
70
0
71
3
72
9
73
5
74
3
42
0.0000001000
43
0.0000001000
44
0.0000000001
40
0.0000000000
40
0.0000000000
40
0.0000000000
40
0.0000000000
40
0.4973521236
40
1.0000000000
40
1.0000000000
40
1.0000000000
40
1.0000000000
10
140.1776319896
20
218.8330047494
30
0.0000000000
10
139.5685245699
20
218.6954699730
30
0.0000000000
10
138.3295598214
20
218.4872162429
30
0.0000000000
10
137.0761611234
20
218.4013433490
30
0.0000000000
10
136.4452152370
20
218.3915245937
30
0.0000000000
11
140.1776319896
21
218.8330047494
31
0.0000000000
11
138.3325507031
21
218.5185911209
31
0.0000000000
11
136.4452152370
21
218.3915245937
31
0.0000000000
0
SPLINE
5
40A
100
AcDbEntity
8
0
100
AcDbSpline
62
7
6
BYLAYER
70
0
71
3
72
8
73
4
74
2
42
0.0000001000
43
0.0000001000
44
0.0000000001
40
0.0000000000
40
0.0000000000
40
0.0000000000
40
0.0000000000
40
1.0000000000
40
1.0000000000
40
1.0000000000
40
1.0000000000
10
136.4452152370
20
218.3915245937
30
0.0000000000
10
135.8517538442
20
218.3822891708
30
0.0000000000
10
135.2574717129
20
218.4025544520
30
0.0000000000
10
134.6673848136
20
218.4620224916
30
0.0000000000
11
136.4452152370
21
218.3915245937
31
0.0000000000
11
134.6673848136
21
218.4620224916
31
0.0000000000
0
SPLINE
5
40B
100
AcDbEntity
8
0
100
AcDbSpline
62
7
6
BYLAYER
70
0
71
3
72
11
73
7
74
5
42
0.0000001000
43
0.0000001000
44
0.0000000001
40
0.0000000000
40
0.0000000000
40
0.0000000000
40
0.0000000000
40
0.2288901527
40
0.4810437583
40
0.7437868499
40
1.0000000000
40
1.0000000000
40
1.0000000000
40
1.0000000000
10
65.1974087644
20
176.4076976905
30
0.0000000000
10
64.7024017184
20
176.2139280363
30
0.0000000000
10
63.7523161047
20
175.5657557145
30
0.0000000000
10
62.7123692785
20
174.1556689650
30
0.0000000000
10
62.0897869437
20
172.4523943918
30
0.0000000000
10
62.0101203195
20
171.2274171415
30
0.0000000000
10
62.0711325169
20
170.6355163365
30
0.0000000000
11
65.1974087644
21
176.4076976905
31
0.0000000000
11
63.8610899656
21
175.5373759353
31
0.0000000000
11
62.8001287808
21
174.1370893288
31
0.0000000000
11
62.1714957547
21
172.4178038220
31
0.0000000000
11
62.0711325169
21
170.6355163365
31
0.0000000000
0
SPLINE
5
40C
100
AcDbEntity
8
0
100
AcDbSpline
62
7
6
BYLAYER
70
0
71
3
72
12
73
8
74
6
42
0.0000001000
43
0.0000001000
44
0.0000000001
40
0.0000000000
40
0.0000000000
40
0.0000000000
40
0.0000000000
40
0.1809679713
40
0.3776054669
40
0.5864840928
40
0.7963158619
40
1.0000000000
40
1.0000000000
40
1.0000000000
40
1.0000000000
10
48.5993713344
20
160.7652254532
30
0.0000000000
10
48.1656866597
20
160.5954603354
30
0.0000000000
10
47.3223041981
20
160.0750039308
30
0.0000000000
10
46.2997037576
20
158.9440542893
30
0.0000000000
10
45.5436986404
20
157.5353679755
30
0.0000000000
10
45.1210452602
20
155.9770870575
30
0.0000000000
10
45.0867647255
20
154.9004084059
30
0.0000000000
10
45.1405125074
20
154.3789822530
30
0.0000000000
11
48.5993713344
21
160.7652254532
31
0.0000000000
11
47.3997898730
21
160.0488961661
31
0.0000000000
11
46.3701560716
21
158.9332477318
31
0.0000000000
11
45.6021289724
21
157.5152055147
31
0.0000000000
11
45.1803487870
21
155.9510444604
31
0.0000000000
11
45.1405125074
21
154.3789822530
31
0.0000000000
0
SPLINE
5
40D
100
AcDbEntity
8
0
100
AcDbSpline
62
7
6
BYLAYER
70
0
71
3
72
8
73
4
74
2
42
0.0000001000
43
0.0000001000
44
0.0000000001
40
0.0000000000
40
0.0000000000
40
0.0000000000
40
0.0000000000
40
1.0000000000
40
1.0000000000
40
1.0000000000
40
1.0000000000
10
144.5517000432
20
235.8855348054
30
0.0000000000
10
144.7697238913
20
235.8020736456
30
0.0000000000
10
144.9769513057
20
235.6907285550
30
0.0000000000
10
145.1656001337
20
235.5548534191
30
0.0000000000
11
144.5517000432
21
235.8855348054
31
0.0000000000
11
145.1656001337
21
235.5548534191
31
0.0000000000
0
SPLINE
5
40E
100
AcDbEntity
8
0
100
AcDbSpline
62
7
6
BYLAYER
70
0
71
3
72
8
73
4
74
2
42
0.0000001000
43
0.0000001000
44
0.0000000001
40
0.0000000000
40
0.0000000000
40
0.0000000000
40
0.0000000000
40
1.0000000000
40
1.0000000000
40
1.0000000000
40
1.0000000000
10
145.1656001337
20
235.5548534191
30
0.0000000000
10
145.5503011142
20
235.2777708706
30
0.0000000000
10
145.8577427477
20
234.8986797393
30
0.0000000000
10
146.0787754659
20
234.4779935494
30
0.0000000000
11
145.1656001337
21
235.5548534191
31
0.0000000000
11
146.0787754659
21
234.4779935494
31
0.0000000000
0
SPLINE
5
40F
100
AcDbEntity
8
0
100
AcDbSpline
62
7
6
BYLAYER
70
0
71
3
72
8
73
4
74
2
42
0.0000001000
43
0.0000001000
44
0.0000000001
40
0.0000000000
40
0.0000000000
40
0.0000000000
40
0.0000000000
40
1.0000000000
40
1.0000000000
40
1.0000000000
40
1.0000000000
10
146.0787754659
20
234.4779935494
30
0.0000000000
10
146.1185736186
20
234.4022466946
30
0.0000000000
10
146.1555703963
20
234.3251513290
30
0.0000000000
10
146.1898565029
20
234.2469200337
30
0.0000000000
11
146.0787754659
21
234.4779935494
31
0.0000000000
11
146.1898565029
21
234.2469200337
31
0.0000000000
0
SPLINE
5
410
100
AcDbEntity
8
0
100
AcDbSpline
62
7
6
BYLAYER
70
0
71
3
72
8
73
4
74
2
42
0.0000001000
43
0.0000001000
44
0.0000000001
40
0.0000000000
40
0.0000000000
40
0.0000000000
40
0.0000000000
40
1.0000000000
40
1.0000000000
40
1.0000000000
40
1.0000000000
10
146.1898565029
20
234.2469200337
30
0.0000000000
10
146.3670638841
20
233.8425824070
30
0.0000000000
10
146.4718603410
20
233.4079003681
30
0.0000000000
10
146.5167691273
20
232.9722244244
30
0.0000000000
11
146.1898565029
21
234.2469200337
31
0.0000000000
11
146.5167691273
21
232.9722244244
31
0.0000000000
0
SPLINE
5
411
100
AcDbEntity
8
0
100
AcDbSpline
62
7
6
BYLAYER
70
0
71
3
72
11
73
7
74
5
42
0.0000001000
43
0.0000001000
44
0.0000000001
40
0.0000000000
40
0.0000000000
40
0.0000000000
40
0.0000000000
40
0.2272565196
40
0.4741905631
40
0.7364968110
40
1.0000000000
40
1.0000000000
40
1.0000000000
40
1.0000000000
10
48.6185482904
20
160.5791830519
30
0.0000000000
10
48.2015437956
20
160.4159473618
30
0.0000000000
10
47.3905991210
20
159.9155085111
30
0.0000000000
10
46.4073294666
20
158.8280569327
30
0.0000000000
10
45.6804014693
20
157.4735508618
30
0.0000000000
10
45.4070011730
20
156.4655511991
30
0.0000000000
10
45.3310266103
20
155.9501628665
30
0.0000000000
11
48.6185482904
21
160.5791830519
31
0.0000000000
11
47.4651045776
21
159.8904048913
31
0.0000000000
11
46.4750720762
21
158.8176660121
31
0.0000000000
11
45.7365844808
21
157.4541638803
31
0.0000000000
11
45.3310266103
21
155.9501628665
31
0.0000000000
0
SPLINE
5
412
100
AcDbEntity
8
0
100
AcDbSpline
62
7
6
BYLAYER
70
0
71
3
72
8
73
4
74
2
42
0.0000001000
43
0.0000001000
44
0.0000000001
40
0.0000000000
40
0.0000000000
40
0.0000000000
40
0.0000000000
40
1.0000000000
40
1.0000000000
40
1.0000000000
40
1.0000000000
10
45.3310266103
20
155.9501628665
30
0.0000000000
10
45.2572779430
20
155.4498743317
30
0.0000000000
10
45.2410419357
20
154.9399358911
30
0.0000000000
10
45.2927224953
20
154.4385645902
30
0.0000000000
11
45.3310266103
21
155.9501628665
31
0.0000000000
11
45.2927224953
21
154.4385645902
31
0.0000000000
0
SPLINE
5
413
100
AcDbEntity
8
0
100
AcDbSpline
62
7
6
BYLAYER
70
0
71
3
72
9
73
5
74
3
42
0.0000001000
43
0.0000001000
44
0.0000000001
40
0.0000000000
40
0.0000000000
40
0.0000000000
40
0.0000000000
40
0.7988556846
40
1.0000000000
40
1.0000000000
40
1.0000000000
40
1.0000000000
10
131.7196557982
20
238.0919128451
30
0.0000000000
10
131.2038950514
20
237.9305554565
30
0.0000000000
10
130.5977302205
20
237.5896771447
30
0.0000000000
10
130.0862153955
20
237.1401658163
30
0.0000000000
10
129.9872621404
20
237.0457674202
30
0.0000000000
11
131.7196557982
21
238.0919128451
31
0.0000000000
11
130.2958214421
21
237.3166039261
31
0.0000000000
11
129.9872621404
21
237.0457674202
31
0.0000000000
0
SPLINE
5
414
100
AcDbEntity
8
0
100
AcDbSpline
62
7
6
BYLAYER
70
0
71
3
72
9
73
5
74
3
42
0.0000001000
43
0.0000001000
44
0.0000000001
40
0.0000000000
40
0.0000000000
40
0.0000000000
40
0.0000000000
40
0.5415841901
40
1.0000000000
40
1.0000000000
40
1.0000000000
40
1.0000000000
10
129.9872621404
20
237.0457674202
30
0.0000000000
10
129.6689400416
20
236.7420978183
30
0.0000000000
10
129.1563684532
20
236.1053097705
30
0.0000000000
10
128.7946140235
20
235.3749649534
30
0.0000000000
10
128.6641462981
20
235.0265123657
30
0.0000000000
11
129.9872621404
21
237.0457674202
31
0.0000000000
11
129.1579754033
21
236.0249076827
31
0.0000000000
11
128.6641462981
21
235.0265123657
31
0.0000000000
0
SPLINE
5
415
100
AcDbEntity
8
0
100
AcDbSpline
62
7
6
BYLAYER
70
0
71
3
72
11
73
7
74
5
42
0.0000001000
43
0.0000001000
44
0.0000000001
40
0.0000000000
40
0.0000000000
40
0.0000000000
40
0.0000000000
40
0.2562131501
40
0.5189562417
40
0.7711098473
40
1.0000000000
40
1.0000000000
40
1.0000000000
40
1.0000000000
10
62.2664906559
20
170.2765032708
30
0.0000000000
10
62.3249065896
20
169.7097897341
30
0.0000000000
10
62.2486300346
20
168.5369391752
30
0.0000000000
10
61.6525405650
20
166.9061443712
30
0.0000000000
10
60.6568467953
20
165.5560613131
30
0.0000000000
10
59.7471903566
20
164.9354707923
30
0.0000000000
10
59.2732474403
20
164.7499466552
30
0.0000000000
11
62.2664906559
21
170.2765032708
31
0.0000000000
11
62.1703981942
21
168.5700578059
31
0.0000000000
11
61.5685155096
21
166.9239333845
31
0.0000000000
11
60.5527016093
21
165.5832334422
31
0.0000000000
11
59.2732474403
21
164.7499466552
31
0.0000000000
0
SPLINE
5
416
100
AcDbEntity
8
0
100
AcDbSpline
62
7
6
BYLAYER
70
0
71
3
72
8
73
4
74
2
42
0.0000001000
43
0.0000001000
44
0.0000000001
40
0.0000000000
40
0.0000000000
40
0.0000000000
40
0.0000000000
40
1.0000000000
40
1.0000000000
40
1.0000000000
40
1.0000000000
10
140.4712411170
20
236.6510373240
30
0.0000000000
10
140.9140981532
20
236.8107638600
30
0.0000000000
10
141.4007148860
20
236.8825043870
30
0.0000000000
10
141.8728157554
20
236.8251143775
30
0.0000000000
11
140.4712411170
21
236.6510373240
31
0.0000000000
11
141.8728157554
21
236.8251143775
31
0.0000000000
0
SPLINE
5
417
100
AcDbEntity
8
0
100
AcDbSpline
62
7
6
BYLAYER
70
0
71
3
72
8
73
4
74
2
42
0.0000001000
43
0.0000001000
44
0.0000000001
40
0.0000000000
40
0.0000000000
40
0.0000000000
40
0.0000000000
40
1.0000000000
40
1.0000000000
40
1.0000000000
40
1.0000000000
10
141.8728157554
20
236.8251143775
30
0.0000000000
10
142.0901497542
20
236.7986945993
30
0.0000000000
10
142.3044074535
20
236.7449086085
30
0.0000000000
10
142.5091445309
20
236.6665337238
30
0.0000000000
11
141.8728157554
21
236.8251143775
31
0.0000000000
11
142.5091445309
21
236.6665337238
31
0.0000000000
0
SPLINE
5
418
100
AcDbEntity
8
0
100
AcDbSpline
62
7
6
BYLAYER
70
0
71
3
72
8
73
4
74
2
42
0.0000001000
43
0.0000001000
44
0.0000000001
40
0.0000000000
40
0.0000000000
40
0.0000000000
40
0.0000000000
40
1.0000000000
40
1.0000000000
40
1.0000000000
40
1.0000000000
10
81.5590794728
20
184.1276756502
30
0.0000000000
10
81.3321305377
20
183.6704461296
30
0.0000000000
10
80.9853755446
20
183.2766590369
30
0.0000000000
10
80.6041254148
20
182.9305354623
30
0.0000000000
11
81.5590794728
21
184.1276756502
31
0.0000000000
11
80.6041254148
21
182.9305354623
31
0.0000000000
0
SPLINE
5
419
100
AcDbEntity
8
0
100
AcDbSpline
62
7
6
BYLAYER
70
0
71
3
72
9
73
5
74
3
42
0.0000001000
43
0.0000001000
44
0.0000000001
40
0.0000000000
40
0.0000000000
40
0.0000000000
40
0.0000000000
40
0.4481031549
40
1.0000000000
40
1.0000000000
40
1.0000000000
40
1.0000000000
10
80.6041254148
20
182.9305354623
30
0.0000000000
10
80.1061593464
20
182.4784495950
30
0.0000000000
10
78.8635552056
20
181.6510244533
30
0.0000000000
10
77.5035060765
20
181.0313490682
30
0.0000000000
10
76.7388447679
20
180.7320237179
30
0.0000000000
11
80.6041254148
21
182.9305354623
31
0.0000000000
11
78.9689471396
21
181.7786213732
31
0.0000000000
11
76.7388447679
21
180.7320237179
31
0.0000000000
0
SPLINE
5
41A
100
AcDbEntity
8
0
100
AcDbSpline
62
7
6
BYLAYER
70
0
71
3
72
9
73
5
74
3
42
0.0000001000
43
0.0000001000
44
0.0000000001
40
0.0000000000
40
0.0000000000
40
0.0000000000
40
0.0000000000
40
0.5546440912
40
1.0000000000
40
1.0000000000
40
1.0000000000
40
1.0000000000
10
96.8604394262
20
213.8784912713
30
0.0000000000
10
96.7381984057
20
213.8402477796
30
0.0000000000
10
96.5208933825
20
213.7585326131
30
0.0000000000
10
96.3202507907
20
213.6434501805
30
0.0000000000
10
96.2393693082
20
213.5778492592
30
0.0000000000
11
96.8604394262
21
213.8784912713
31
0.0000000000
11
96.5022703764
21
213.7393373367
31
0.0000000000
11
96.2393693082
21
213.5778492592
31
0.0000000000
0
SPLINE
5
41B
100
AcDbEntity
8
0
100
AcDbSpline
62
7
6
BYLAYER
70
0
71
3
72
8
73
4
74
2
42
0.0000001000
43
0.0000001000
44
0.0000000001
40
0.0000000000
40
0.0000000000
40
0.0000000000
40
0.0000000000
40
1.0000000000
40
1.0000000000
40
1.0000000000
40
1.0000000000
10
96.2393693082
20
213.5778492592
30
0.0000000000
10
96.2140257247
20
213.5572937208
30
0.0000000000
10
96.1895143316
20
213.5353294201
30
0.0000000000
10
96.1671340827
20
213.5116436342
30
0.0000000000
11
96.2393693082
21
213.5778492592
31
0.0000000000
11
96.1671340827
21
213.5116436342
31
0.0000000000
0
SPLINE
5
41C
100
AcDbEntity
8
0
100
AcDbSpline
62
7
6
BYLAYER
70
0
71
3
72
8
73
4
74
2
42
0.0000001000
43
0.0000001000
44
0.0000000001
40
0.0000000000
40
0.0000000000
40
0.0000000000
40
0.0000000000
40
1.0000000000
40
1.0000000000
40
1.0000000000
40
1.0000000000
10
96.1671340827
20
213.5116436342
30
0.0000000000
10
96.1371194162
20
213.4798780820
30
0.0000000000
10
96.1109378489
20
213.4450162477
30
0.0000000000
10
96.0917226631
20
213.4063037938
30
0.0000000000
11
96.1671340827
21
213.5116436342
31
0.0000000000
11
96.0917226631
21
213.4063037938
31
0.0000000000
0
SPLINE
5
41D
100
AcDbEntity
8
0
100
AcDbSpline
62
7
6
BYLAYER
70
0
71
3
72
11
73
7
74
5
42
0.0000001000
43
0.0000001000
44
0.0000000001
40
0.0000000000
40
0.0000000000
40
0.0000000000
40
0.0000000000
40
0.2538127965
40
0.5146872182
40
0.7673241160
40
1.0000000000
40
1.0000000000
40
1.0000000000
40
1.0000000000
10
147.2943946951
20
225.4282050524
30
0.0000000000
10
147.3526967967
20
224.8625958412
30
0.0000000000
10
147.2683660707
20
223.6892883590
30
0.0000000000
10
146.6373360925
20
222.0649847672
30
0.0000000000
10
145.5894257545
20
220.7300847539
30
0.0000000000
10
144.6447212870
20
220.1309619124
30
0.0000000000
10
144.1543852193
20
219.9541109760
30
0.0000000000
11
147.2943946951
21
225.4282050524
31
0.0000000000
11
147.1870982016
21
223.7257645404
31
0.0000000000
11
146.5534327064
21
222.0910010881
31
0.0000000000
11
145.4900818754
21
220.7672935260
31
0.0000000000
11
144.1543852193
21
219.9541109760
31
0.0000000000
0
SPLINE
5
41E
100
AcDbEntity
8
0
100
AcDbSpline
62
7
6
BYLAYER
70
0
71
3
72
8
73
4
74
2
42
0.0000001000
43
0.0000001000
44
0.0000000001
40
0.0000000000
40
0.0000000000
40
0.0000000000
40
0.0000000000
40
1.0000000000
40
1.0000000000
40
1.0000000000
40
1.0000000000
10
118.3816255522
20
219.9191661931
30
0.0000000000
10
118.0217398400
20
219.9554349152
30
0.0000000000
10
117.6586898405
20
219.9624477680
30
0.0000000000
10
117.2968869356
20
219.9481566750
30
0.0000000000
11
118.3816255522
21
219.9191661931
31
0.0000000000
11
117.2968869356
21
219.9481566750
31
0.0000000000
0
SPLINE
5
41F
100
AcDbEntity
8
0
100
AcDbSpline
62
7
6
BYLAYER
70
0
71
3
72
8
73
4
74
2
42
0.0000001000
43
0.0000001000
44
0.0000000001
40
0.0000000000
40
0.0000000000
40
0.0000000000
40
0.0000000000
40
1.0000000000
40
1.0000000000
40
1.0000000000
40
1.0000000000
10
117.2968869356
20
219.9481566750
30
0.0000000000
10
116.9146633095
20
219.9330589703
30
0.0000000000
10
116.5338315268
20
219.8941845970
30
0.0000000000
10
116.1564351692
20
219.8318000293
30
0.0000000000
11
117.2968869356
21
219.9481566750
31
0.0000000000
11
116.1564351692
21
219.8318000293
31
0.0000000000
0
SPLINE
5
420
100
AcDbEntity
8
0
100
AcDbSpline
62
7
6
BYLAYER
70
0
71
3
72
8
73
4
74
2
42
0.0000001000
43
0.0000001000
44
0.0000000001
40
0.0000000000
40
0.0000000000
40
0.0000000000
40
0.0000000000
40
1.0000000000
40
1.0000000000
40
1.0000000000
40
1.0000000000
10
116.1564351692
20
219.8318000293
30
0.0000000000
10
115.7985437749
20
219.7726396812
30
0.0000000000
10
115.4437418764
20
219.6923364930
30
0.0000000000
10
115.0978972302
20
219.5841378965
30
0.0000000000
11
116.1564351692
21
219.8318000293
31
0.0000000000
11
115.0978972302
21
219.5841378965
31
0.0000000000
0
SPLINE
5
421
100
AcDbEntity
8
0
100
AcDbSpline
62
7
6
BYLAYER
70
0
71
3
72
8
73
4
74
2
42
0.0000001000
43
0.0000001000
44
0.0000000001
40
0.0000000000
40
0.0000000000
40
0.0000000000
40
0.0000000000
40
1.0000000000
40
1.0000000000
40
1.0000000000
40
1.0000000000
10
141.8512744568
20
219.1234413150
30
0.0000000000
10
141.3114116324
20
218.9287274191
30
0.0000000000
10
140.7571117950
20
218.7734771871
30
0.0000000000
10
140.1968089457
20
218.6469623481
30
0.0000000000
11
141.8512744568
21
219.1234413150
31
0.0000000000
11
140.1968089457
21
218.6469623481
31
0.0000000000
0
SPLINE
5
422
100
AcDbEntity
8
0
100
AcDbSpline
62
7
6
BYLAYER
70
0
71
3
72
9
73
5
74
3
42
0.0000001000
43
0.0000001000
44
0.0000000001
40
0.0000000000
40
0.0000000000
40
0.0000000000
40
0.0000000000
40
0.4973521236
40
1.0000000000
40
1.0000000000
40
1.0000000000
40
1.0000000000
10
140.1968089457
20
218.6469623481
30
0.0000000000
10
139.5877015260
20
218.5094275717
30
0.0000000000
10
138.3487367775
20
218.3011738416
30
0.0000000000
10
137.0953380795
20
218.2153009477
30
0.0000000000
10
136.4643921930
20
218.2054821925
30
0.0000000000
11
140.1968089457
21
218.6469623481
31
0.0000000000
11
138.3517276592
21
218.3325487196
31
0.0000000000
11
136.4643921930
21
218.2054821925
31
0.0000000000
0
SPLINE
5
423
100
AcDbEntity
8
0
100
AcDbSpline
62
7
6
BYLAYER
70
0
71
3
72
8
73
4
74
2
42
0.0000001000
43
0.0000001000
44
0.0000000001
40
0.0000000000
40
0.0000000000
40
0.0000000000
40
0.0000000000
40
1.0000000000
40
1.0000000000
40
1.0000000000
40
1.0000000000
10
136.4643921930
20
218.2054821925
30
0.0000000000
10
135.8709308002
20
218.1962467695
30
0.0000000000
10
135.2766486689
20
218.2165120507
30
0.0000000000
10
134.6865617696
20
218.2759800903
30
0.0000000000
11
136.4643921930
21
218.2054821925
31
0.0000000000
11
134.6865617696
21
218.2759800903
31
0.0000000000
0
SPLINE
5
424
100
AcDbEntity
8
0
100
AcDbSpline
62
7
6
BYLAYER
70
0
71
3
72
10
73
6
74
4
42
0.0000001000
43
0.0000001000
44
0.0000000001
40
0.0000000000
40
0.0000000000
40
0.0000000000
40
0.0000000000
40
0.3077362186
40
0.6467494798
40
1.0000000000
40
1.0000000000
40
1.0000000000
40
1.0000000000
10
65.2165857204
20
176.2216552893
30
0.0000000000
10
64.7426428041
20
176.0361311522
30
0.0000000000
10
63.8329863654
20
175.4155406314
30
0.0000000000
10
62.8372925956
20
174.0654575733
30
0.0000000000
10
62.4392630539
20
172.9765195167
30
0.0000000000
10
62.3194349665
20
172.4015441385
30
0.0000000000
11
65.2165857204
21
176.2216552893
31
0.0000000000
11
63.9371315514
21
175.3883685023
31
0.0000000000
11
62.9213176511
21
174.0476685600
31
0.0000000000
11
62.3194349665
21
172.4015441385
31
0.0000000000
0
SPLINE
5
425
100
AcDbEntity
8
0
100
AcDbSpline
62
7
6
BYLAYER
70
0
71
3
72
8
73
4
74
2
42
0.0000001000
43
0.0000001000
44
0.0000000001
40
0.0000000000
40
0.0000000000
40
0.0000000000
40
0.0000000000
40
1.0000000000
40
1.0000000000
40
1.0000000000
40
1.0000000000
10
62.3194349665
20
172.4015441385
30
0.0000000000
10
62.2025849609
20
171.8408585963
30
0.0000000000
10
62.1649265710
20
171.2618122104
30
0.0000000000
10
62.2233425048
20
170.6950986737
30
0.0000000000
11
62.3194349665
21
172.4015441385
31
0.0000000000
11
62.2233425048
21
170.6950986737
31
0.0000000000
0
SPLINE
5
426
100
AcDbEntity
8
0
100
AcDbSpline
62
7
6
BYLAYER
70
0
71
3
72
11
73
7
74
5
42
0.0000001000
43
0.0000001000
44
0.0000000001
40
0.0000000000
40
0.0000000000
40
0.0000000000
40
0.0000000000
40
0.0808553023
40
0.3969608154
40
0.7075144088
40
1.0000000000
40
1.0000000000
40
1.0000000000
40
1.0000000000
10
128.5864800283
20
228.8130462190
30
0.0000000000
10
128.5633241655
20
228.6643883744
30
0.0000000000
10
128.4180901834
20
227.9392679047
30
0.0000000000
10
127.8974355123
20
226.7180182432
30
0.0000000000
10
126.7670636587
20
225.4130893386
30
0.0000000000
10
125.7686738895
20
224.8516423498
30
0.0000000000
10
125.2529131426
20
224.6902849612
30
0.0000000000
11
128.5864800283
21
228.8130462190
31
0.0000000000
11
128.4980659310
21
228.3706510651
31
0.0000000000
11
127.8145935375
21
226.7572901236
31
0.0000000000
11
126.6767474988
21
225.4655938802
31
0.0000000000
11
125.2529131426
21
224.6902849612
31
0.0000000000
0
SPLINE
5
427
100
AcDbEntity
8
0
100
AcDbSpline
62
7
6
BYLAYER
70
0
71
3
72
8
73
4
74
2
42
0.0000001000
43
0.0000001000
44
0.0000000001
40
0.0000000000
40
0.0000000000
40
0.0000000000
40
0.0000000000
40
1.0000000000
40
1.0000000000
40
1.0000000000
40
1.0000000000
10
142.5137966293
20
235.8700384056
30
0.0000000000
10
142.5424812835
20
235.8803841833
30
0.0000000000
10
142.5713495266
20
235.8903608255
30
0.0000000000
10
142.6003855226
20
235.8999571516
30
0.0000000000
11
142.5137966293
21
235.8700384056
31
0.0000000000
11
142.6003855226
21
235.8999571516
31
0.0000000000
0
SPLINE
5
428
100
AcDbEntity
8
0
100
AcDbSpline
62
7
6
BYLAYER
70
0
71
3
72
9
73
5
74
3
42
0.0000001000
43
0.0000001000
44
0.0000000001
40
0.0000000000
40
0.0000000000
40
0.0000000000
40
0.0000000000
40
0.6701343141
40
1.0000000000
40
1.0000000000
40
1.0000000000
40
1.0000000000
10
142.6003855226
20
235.8999571516
30
0.0000000000
10
143.0196308642
20
236.0385167172
30
0.0000000000
10
143.6974328434
20
236.1269639061
30
0.0000000000
10
144.3469629657
20
235.9639096901
30
0.0000000000
10
144.5517000432
20
235.8855348054
30
0.0000000000
11
142.6003855226
21
235.8999571516
31
0.0000000000
11
143.9153712676
21
236.0441154591
31
0.0000000000
11
144.5517000432
21
235.8855348054
31
0.0000000000
0
ENDSEC
0
SECTION
2
OBJECTS
0
DICTIONARY
5
429
100
AcDbDictionary
3
ACAD_GROUP
350
42A
3
ACAD_MLINESTYLE
350
42B
0
DICTIONARY
5
42A
102
{ACAD_REACTORS
330
429
102
}
100
AcDbDictionary
0
DICTIONARY
5
42B
102
{ACAD_REACTORS
330
429
102
}
100
AcDbDictionary
3
STANDARD
350
42C
0
MLINESTYLE
5
42C
102
{ACAD_REACTORS
330
42B
102
}
100
AcDbMlineStyle
2
STANDARD
70
0
3

62
256
51
90.0
52
90.0
71
2
49
0.5
62
256
6
BYLAYER
49
-0.5
62
256
6
BYLAYER
0
ENDSEC
0
EOF
