999
DXF file: td-1002-974.dxf
999
Pro/ENGINEER 2003060 by Parametric Technology Corporation
0
SECTION
2
HEADER
9
$ACADVER
1
AC1014
9
$HANDSEED
5
       512
9
$EXTMAX
10
420.0000000000
20
297.0000000000
9
$EXTMIN
10
0.0000000000
20
0.0000000000
9
$LIMMIN
10
0.0000000000
20
0.0000000000
9
$LIMMAX
10
420.0000000000
20
297.0000000000
9
$VIEWCTR
10
210.0000000000
20
148.5000000000
9
$VIEWSIZE
40
297.0000000000
9
$CLAYER
8
0
9
$LTSCALE
40
23.1000000000
9
$CELTYPE
6
BYLAYER
9
$DIMSCALE
40
1
9
$DIMASZ
40
5.0000000000
9
$DIMEXO
40
2.6250000000
9
$DIMDLI
40
15.9600000000
9
$DIMEXE
40
7.5600000000
9
$DIMCEN
40
3.7800000000
9
$DIMLFAC
40
1.0000000000
9
$DIMTXT
40
4.0000000000
9
$DIMTOL
70
1
9
$DIMLIM
70
0
9
$DIMTFAC
40
1.0000000000
9
$DIMTP
40
0.0100000000
9
$DIMTM
40
0.0100000000
0
ENDSEC
0
SECTION
2
CLASSES
0
ENDSEC
0
SECTION
2
TABLES
0
TABLE
2
VPORT
5
8
100
AcDbSymbolTable
70
2
0
VPORT
5
1F4
100
AcDbSymbolTableRecord
100
AcDbViewportTableRecord
2
*ACTIVE
70
0
10
0.0
20
0.0
11
1.0
21
1.0
12
210.0000000000
22
148.5000000000
13
0.0
23
0.0
14
1.0
24
1.0
15
0.0
25
0.0
16
0.0
26
0.0
36
1.0
17
0.0
27
0.0
37
0.0
40
297.0000000000
41
1.4141414141
42
50.0
43
0.0
44
0.0
50
0.0
51
0.0
71
0
72
100
73
1
74
1
75
0
76
0
77
0
78
0
0
ENDTAB
0
TABLE
2
LTYPE
5
5
100
AcDbSymbolTable
70
6
0
LTYPE
5
14
100
AcDbSymbolTableRecord
100
AcDbLinetypeTableRecord
2
BYBLOCK
70
0
3

72
65
73
0
40
0.0
0
LTYPE
5
15
100
AcDbSymbolTableRecord
100
AcDbLinetypeTableRecord
2
BYLAYER
70
0
3

72
65
73
0
40
0.0
0
LTYPE
5
16
100
AcDbSymbolTableRecord
100
AcDbLinetypeTableRecord
2
CONTINUOUS
70
64
3
Solid line
72
65
73
0
40
0
0
LTYPE
5
1F5
100
AcDbSymbolTableRecord
100
AcDbLinetypeTableRecord
2
CENTER
70
64
3
____ _ ____ _ ____ _ ____ _ ____ _ ____ _ ____
72
65
73
4
40
0.6
49
0.375
74
0
49
-0.075
74
0
49
0.075
74
0
49
-0.075
74
0
0
LTYPE
5
1F6
100
AcDbSymbolTableRecord
100
AcDbLinetypeTableRecord
2
HIDDEN
70
64
3
- - - - - - - - - - - - - - - - - - - -
72
65
73
2
40
0.2
49
0.1
74
0
49
-0.1
74
0
0
LTYPE
5
1F7
100
AcDbSymbolTableRecord
100
AcDbLinetypeTableRecord
2
PHANTOM
70
64
3
_____ _ _ _____ _ _ _____ _ _ _____
72
65
73
6
40
0.8
49
0.45
74
0
49
-0.05
74
0
49
0.1
74
0
49
-0.05
74
0
49
0.1
74
0
49
-0.05
74
0
0
LTYPE
5
1F8
100
AcDbSymbolTableRecord
100
AcDbLinetypeTableRecord
2
DOT
70
64
3
. . . . . . . . . . . . . . . . . . . .
72
65
73
2
40
0.2
49
0.1
74
0
49
-0.1
74
0
0
LTYPE
5
1F9
100
AcDbSymbolTableRecord
100
AcDbLinetypeTableRecord
2
DASHED
70
64
3
- - - - - - - - - - - - - - - - - - - -
72
65
73
2
40
0.2
49
0.1
74
0
49
-0.1
74
0
0
ENDTAB
0
TABLE
2
LAYER
5
2
100
AcDbSymbolTable
70
36
0
LAYER
5
10
100
AcDbSymbolTableRecord
100
AcDbLayerTableRecord
2
0
70
0
62
7
6
CONTINUOUS
0
LAYER
5
1FA
100
AcDbSymbolTableRecord
100
AcDbLayerTableRecord
2
DEFAULT_1
70
0
62
7
6
CENTER
0
LAYER
5
1FB
100
AcDbSymbolTableRecord
100
AcDbLayerTableRecord
2
DEFAULT_2
70
0
62
7
6
HIDDEN
0
LAYER
5
1FC
100
AcDbSymbolTableRecord
100
AcDbLayerTableRecord
2
DEFAULT_3
70
0
62
7
6
PHANTOM
0
LAYER
5
1FD
100
AcDbSymbolTableRecord
100
AcDbLayerTableRecord
2
AXIS
70
0
62
7
6
CONTINUOUS
0
LAYER
5
1FE
100
AcDbSymbolTableRecord
100
AcDbLayerTableRecord
2
CSYS
70
0
62
7
6
CONTINUOUS
0
LAYER
5
1FF
100
AcDbSymbolTableRecord
100
AcDbLayerTableRecord
2
CURVES
70
0
62
7
6
CONTINUOUS
0
LAYER
5
200
100
AcDbSymbolTableRecord
100
AcDbLayerTableRecord
2
DTMS
70
0
62
7
6
CONTINUOUS
0
LAYER
5
201
100
AcDbSymbolTableRecord
100
AcDbLayerTableRecord
2
GEOM
70
0
62
7
6
CONTINUOUS
0
LAYER
5
202
100
AcDbSymbolTableRecord
100
AcDbLayerTableRecord
2
PLANES
70
0
62
7
6
CONTINUOUS
0
LAYER
5
203
100
AcDbSymbolTableRecord
100
AcDbLayerTableRecord
2
POINTS
70
0
62
7
6
CONTINUOUS
0
LAYER
5
204
100
AcDbSymbolTableRecord
100
AcDbLayerTableRecord
2
SKELETON
70
0
62
7
6
CONTINUOUS
0
ENDTAB
0
TABLE
2
STYLE
5
3
100
AcDbSymbolTable
70
1
0
STYLE
5
11
100
AcDbSymbolTableRecord
100
AcDbTextStyleTableRecord
2
STANDARD
70
0
40
0.0
41
0.8000000000
50
0.0
71
0
42
0.2
3
txt
4

0
STYLE
5
205
100
AcDbSymbolTableRecord
100
AcDbTextStyleTableRecord
2
TEXTSTYLE_1
70
0
40
0.0
41
0.8000000000
50
0.0
71
0
42
0.2
3
txt
4

0
STYLE
5
206
100
AcDbSymbolTableRecord
100
AcDbTextStyleTableRecord
2
TEXTSTYLE_2
70
0
40
0.0
41
0.8000000000
50
0.0
71
0
42
0.2
3
cgtime.ttf
4

0
ENDTAB
0
TABLE
2
VIEW
5
6
100
AcDbSymbolTable
70
0
0
ENDTAB
0
TABLE
2
UCS
5
7
100
AcDbSymbolTable
70
0
0
ENDTAB
0
TABLE
2
APPID
5
9
100
AcDbSymbolTable
70
1
0
APPID
5
207
100
AcDbSymbolTableRecord
100
AcDbRegAppTableRecord
2
ACAD
70
0
0
ENDTAB
0
TABLE
2
DIMSTYLE
5
A
100
AcDbSymbolTable
70
1
0
DIMSTYLE
105
208
100
AcDbSymbolTableRecord
100
AcDbDimStyleTableRecord
2
STANDARD
70
0
3

4

5

6

7

40
1.0
41
5.0000000000
42
0.0625
43
0.38
44
0.18
45
0.0
46
0.0
47
0.0100000000
48
0.0100000000
140
4.0000000000
141
0.09
142
0.0
143
25.4
144
1.0000000000
145
0.0
146
1.0000000000
147
0.09
71
1
72
0
73
0
74
0
75
0
76
0
77
1
78
8
170
0
171
2
172
0
173
0
174
0
175
0
176
0
177
0
178
0
270
2
271
2
272
2
273
2
274
2
340
11
275
0
280
0
281
0
282
0
283
1
284
8
285
0
286
0
287
3
288
0
0
DIMSTYLE
105
209
100
AcDbSymbolTableRecord
100
AcDbDimStyleTableRecord
2
DIMSTYLE_1
70
0
3

4

5

6

7

40
1.0
41
5.0000000000
42
0.0625
43
0.38
44
0.18
45
0.0
46
0.0
47
0.3000000000
48
0.3000000000
140
4.0000000000
141
0.09
142
0.0
143
25.4
144
1.0000000000
145
0.0
146
1.0000000000
147
0.09
71
0
72
0
73
0
74
0
75
0
76
0
77
1
78
8
170
0
171
2
172
0
173
0
174
0
175
0
176
0
177
0
178
0
270
2
271
2
272
2
273
2
274
2
340
11
275
0
280
0
281
0
282
0
283
1
284
8
285
0
286
0
287
3
288
0
0
DIMSTYLE
105
20A
100
AcDbSymbolTableRecord
100
AcDbDimStyleTableRecord
2
DIMSTYLE_2
70
0
3

4

5

6

7

40
1.0
41
5.0000000000
42
0.0625
43
0.38
44
0.18
45
0.0
46
0.0
47
0.2000000000
48
0.2000000000
140
4.0000000000
141
0.09
142
0.0
143
25.4
144
1.0000000000
145
0.0
146
1.0000000000
147
0.09
71
0
72
0
73
0
74
0
75
0
76
0
77
1
78
8
170
0
171
2
172
0
173
0
174
0
175
0
176
0
177
0
178
0
270
2
271
2
272
2
273
2
274
2
340
11
275
0
280
0
281
0
282
0
283
1
284
8
285
0
286
0
287
3
288
0
0
DIMSTYLE
105
20B
100
AcDbSymbolTableRecord
100
AcDbDimStyleTableRecord
2
DIMSTYLE_3
70
0
3

4

5

6

7

40
1.0
41
5.0000000000
42
0.0625
43
0.38
44
0.18
45
0.0
46
0.0
47
0.5000000000
48
0.5000000000
140
4.0000000000
141
0.09
142
0.0
143
25.4
144
1.0000000000
145
0.0
146
1.0000000000
147
0.09
71
0
72
0
73
0
74
0
75
0
76
0
77
1
78
8
170
0
171
2
172
0
173
0
174
0
175
0
176
0
177
0
178
0
270
2
271
1
272
1
273
2
274
2
340
11
275
0
280
0
281
0
282
0
283
1
284
8
285
0
286
0
287
3
288
0
0
ENDTAB
0
TABLE
2
BLOCK_RECORD
5
1
100
AcDbSymbolTable
70
0
0
BLOCK_RECORD
5
1B
100
AcDbSymbolTableRecord
100
AcDbBlockTableRecord
2
*MODEL_SPACE
0
BLOCK_RECORD
5
1C
100
AcDbSymbolTableRecord
100
AcDbBlockTableRecord
2
*PAPER_SPACE
0
BLOCK_RECORD
5
20C
100
AcDbSymbolTableRecord
100
AcDbBlockTableRecord
2
COPYRIGHT_BL0
0
BLOCK_RECORD
5
20D
100
AcDbSymbolTableRecord
100
AcDbBlockTableRecord
2
MICRO_U_BL1
0
BLOCK_RECORD
5
20E
100
AcDbSymbolTableRecord
100
AcDbBlockTableRecord
2
PROJECTION_BL2
0
BLOCK_RECORD
5
20F
100
AcDbSymbolTableRecord
100
AcDbBlockTableRecord
2
SURFACE_FINISH_BL3
0
BLOCK_RECORD
5
210
100
AcDbSymbolTableRecord
100
AcDbBlockTableRecord
2
*D0
0
BLOCK_RECORD
5
211
100
AcDbSymbolTableRecord
100
AcDbBlockTableRecord
2
*D1
0
BLOCK_RECORD
5
212
100
AcDbSymbolTableRecord
100
AcDbBlockTableRecord
2
*D2
0
BLOCK_RECORD
5
213
100
AcDbSymbolTableRecord
100
AcDbBlockTableRecord
2
*D3
0
BLOCK_RECORD
5
214
100
AcDbSymbolTableRecord
100
AcDbBlockTableRecord
2
*D4
0
BLOCK_RECORD
5
215
100
AcDbSymbolTableRecord
100
AcDbBlockTableRecord
2
*D5
0
BLOCK_RECORD
5
216
100
AcDbSymbolTableRecord
100
AcDbBlockTableRecord
2
*D6
0
BLOCK_RECORD
5
217
100
AcDbSymbolTableRecord
100
AcDbBlockTableRecord
2
*D7
0
BLOCK_RECORD
5
218
100
AcDbSymbolTableRecord
100
AcDbBlockTableRecord
2
*D8
0
BLOCK_RECORD
5
219
100
AcDbSymbolTableRecord
100
AcDbBlockTableRecord
2
*D9
0
BLOCK_RECORD
5
21A
100
AcDbSymbolTableRecord
100
AcDbBlockTableRecord
2
COPYRIGHT_BL4
0
BLOCK_RECORD
5
21B
100
AcDbSymbolTableRecord
100
AcDbBlockTableRecord
2
MICRO_U_BL5
0
BLOCK_RECORD
5
21C
100
AcDbSymbolTableRecord
100
AcDbBlockTableRecord
2
SURFACE_FINISH_BL6
0
BLOCK_RECORD
5
21D
100
AcDbSymbolTableRecord
100
AcDbBlockTableRecord
2
PROJECTION_BL7
0
ENDTAB
0
ENDSEC
0
SECTION
2
BLOCKS
0
BLOCK
5
1E
100
AcDbEntity
8
0
100
AcDbBlockBegin
2
*MODEL_SPACE
70
0
10
0.0
20
0.0
30
0.0
3
*MODEL_SPACE
1

0
ENDBLK
5
1F
100
AcDbEntity
8
0
100
AcDbBlockEnd
0
BLOCK
5
20
100
AcDbEntity
8
0
100
AcDbBlockBegin
2
*PAPER_SPACE
70
0
10
0.0
20
0.0
30
0.0
3
*PAPER_SPACE
1

0
ENDBLK
5
21
100
AcDbEntity
8
0
100
AcDbBlockEnd
0
BLOCK
5
21E
100
AcDbEntity
8
0
100
AcDbBlockBegin
62
7
6
BYLAYER
2
COPYRIGHT_BL0
70
64
10
0.0000000000
20
0.0000000000
3
COPYRIGHT_BL0
1

0
TEXT
5
21F
100
AcDbEntity
8
0
100
AcDbText
62
7
6
BYLAYER
10
409.9593803245
20
9.9568590072
7
TEXTSTYLE_1
40
0.1000000000
1
C
41
0.8000000000
72
0
100
AcDbText
0
CIRCLE
5
220
100
AcDbEntity
8
0
100
AcDbCircle
62
7
6
BYLAYER
10
409.9943527832
20
10.0069663115
40
0.0753936874
0
ENDBLK
5
221
100
AcDbEntity
8
0
100
AcDbBlockEnd
0
BLOCK
5
222
100
AcDbEntity
8
0
100
AcDbBlockBegin
62
7
6
BYLAYER
2
MICRO_U_BL1
70
64
10
0.0000000000
20
0.0000000000
3
MICRO_U_BL1
1

0
TEXT
5
223
100
AcDbEntity
8
0
100
AcDbText
62
7
6
BYLAYER
10
409.9173172813
20
9.9658183152
7
STANDARD
40
0.1000000000
1
um
41
0.8000000000
72
0
100
AcDbText
0
ARC
5
224
100
AcDbEntity
8
0
100
AcDbCircle
62
7
6
BYLAYER
10
409.8795565990
20
9.9804558390
40
0.0627552936
100
AcDbArc
50
303.7730668774
51
1.5957171757
0
ENDBLK
5
225
100
AcDbEntity
8
0
100
AcDbBlockEnd
0
BLOCK
5
226
100
AcDbEntity
8
0
100
AcDbBlockBegin
62
7
6
BYLAYER
2
PROJECTION_BL2
70
64
10
0.0000000000
20
0.0000000000
3
PROJECTION_BL2
1

0
LINE
5
227
100
AcDbEntity
8
0
100
AcDbLine
62
7
6
BYLAYER
10
409.6178469936
20
9.9332236616
11
409.6178469936
21
10.0582236616
0
LINE
5
228
100
AcDbEntity
8
0
100
AcDbLine
62
7
6
BYLAYER
10
409.6178469936
20
10.0582236616
11
409.7928469936
21
10.1207236616
0
LINE
5
229
100
AcDbEntity
8
0
100
AcDbLine
62
7
6
BYLAYER
10
409.7928469936
20
10.1207236616
11
409.7928469936
21
9.8707236616
0
LINE
5
22A
100
AcDbEntity
8
0
100
AcDbLine
62
7
6
BYLAYER
10
409.7928469936
20
9.8707236616
11
409.6178469936
21
9.9332236616
0
ARC
5
22B
100
AcDbEntity
8
0
100
AcDbCircle
62
7
6
BYLAYER
10
409.2678469936
20
9.9957236616
40
0.0625000000
100
AcDbArc
50
180.0000000000
51
360.0000000000
0
ARC
5
22C
100
AcDbEntity
8
0
100
AcDbCircle
62
7
6
BYLAYER
10
409.2678469936
20
9.9957236616
40
0.0625000000
100
AcDbArc
50
0.0000000000
51
180.0000000000
0
ARC
5
22D
100
AcDbEntity
8
0
100
AcDbCircle
62
7
6
BYLAYER
10
409.2678469936
20
9.9957236616
40
0.1250000000
100
AcDbArc
50
180.0000000000
51
360.0000000000
0
ARC
5
22E
100
AcDbEntity
8
0
100
AcDbCircle
62
7
6
BYLAYER
10
409.2678469936
20
9.9957236616
40
0.1250000000
100
AcDbArc
50
0.0000000000
51
180.0000000000
0
LINE
5
22F
100
AcDbEntity
8
0
100
AcDbLine
62
7
6
BYLAYER
10
409.0671219936
20
9.9957236616
11
409.4456219936
21
9.9957236616
0
LINE
5
230
100
AcDbEntity
8
0
100
AcDbLine
62
7
6
BYLAYER
10
409.5241469936
20
9.9957236616
11
409.8669219936
21
9.9957236616
0
LINE
5
231
100
AcDbEntity
8
0
100
AcDbLine
62
7
6
BYLAYER
10
409.2678469936
20
10.1398736616
11
409.2678469936
21
9.8515736616
0
TEXT
5
232
100
AcDbEntity
8
0
100
AcDbText
62
7
6
BYLAYER
10
409.2283663134
20
9.9568432128
7
STANDARD
40
0.1000000000
1
l
41
0.8000000000
72
0
100
AcDbText
0
ENDBLK
5
233
100
AcDbEntity
8
0
100
AcDbBlockEnd
0
BLOCK
5
234
100
AcDbEntity
8
0
100
AcDbBlockBegin
62
7
6
BYLAYER
2
SURFACE_FINISH_BL3
70
64
10
0.0000000000
20
0.0000000000
3
SURFACE_FINISH_BL3
1

0
LINE
5
235
100
AcDbEntity
8
0
100
AcDbLine
62
7
6
BYLAYER
10
409.9768652881
20
9.9666906703
11
410.0571314064
21
10.1057156653
0
LINE
5
236
100
AcDbEntity
8
0
100
AcDbLine
62
7
6
BYLAYER
10
409.9768652881
20
9.9666906703
11
409.9405459599
21
10.0295975921
0
LINE
5
237
100
AcDbEntity
8
0
100
AcDbLine
62
7
6
BYLAYER
10
409.9405459599
20
10.0295975921
11
410.0131846164
21
10.0295975921
0
TEXT
5
238
100
AcDbEntity
8
0
100
AcDbText
62
7
6
BYLAYER
10
409.9369531437
20
9.9795701528
7
STANDARD
40
0.1000000000
1
-
41
0.8000000000
72
0
100
AcDbText
0
ENDBLK
5
239
100
AcDbEntity
8
0
100
AcDbBlockEnd
0
BLOCK
5
23A
100
AcDbEntity
8
0
100
AcDbBlockBegin
62
7
6
BYLAYER
2
*D0
70
65
10
0.0000000000
20
0.0000000000
3
*D0
1

0
TEXT
5
23B
100
AcDbEntity
8
0
100
AcDbText
62
7
6
BYLAYER
10
146.2401874979
20
163.8092071588
7
STANDARD
40
4.0000000000
1
40
41
0.8000000000
72
0
100
AcDbText
0
LINE
5
23C
100
AcDbEntity
8
0
100
AcDbLine
62
7
6
BYLAYER
10
167.6288265116
20
142.1109751925
11
167.6288265116
21
165.8092071588
0
LINE
5
23D
100
AcDbEntity
8
0
100
AcDbLine
62
7
6
BYLAYER
10
127.6288265116
20
142.1109751925
11
127.6288265116
21
165.8092071588
0
LINE
5
23E
100
AcDbEntity
8
0
100
AcDbLine
62
7
6
BYLAYER
10
167.6288265116
20
162.8092071588
11
147.6288265116
21
162.8092071588
0
LINE
5
23F
100
AcDbEntity
8
0
100
AcDbLine
62
7
6
BYLAYER
10
127.6288265116
20
162.8092071588
11
147.6288265116
21
162.8092071588
0
SOLID
5
240
100
AcDbEntity
8
0
100
AcDbTrace
62
7
6
BYLAYER
10
162.6288265116
20
162.0092071588
11
167.6288265116
21
162.8092071588
12
162.6288265116
22
163.6092071588
13
162.6288265116
23
163.6092071588
0
SOLID
5
241
100
AcDbEntity
8
0
100
AcDbTrace
62
7
6
BYLAYER
10
132.6288265116
20
163.6092071588
11
127.6288265116
21
162.8092071588
12
132.6288265116
22
162.0092071588
13
132.6288265116
23
162.0092071588
0
ENDBLK
5
242
100
AcDbEntity
8
0
100
AcDbBlockEnd
0
BLOCK
5
243
100
AcDbEntity
8
0
100
AcDbBlockBegin
62
7
6
BYLAYER
2
*D1
70
65
10
0.0000000000
20
0.0000000000
3
*D1
1

0
TEXT
5
244
100
AcDbEntity
8
0
100
AcDbText
62
7
6
BYLAYER
10
113.0375536350
20
120.8407221980
7
STANDARD
40
4.0000000000
1
27.8
50
90.0000000000
41
0.8000000000
72
0
100
AcDbText
0
LINE
5
245
100
AcDbEntity
8
0
100
AcDbLine
62
7
6
BYLAYER
10
125.6288265116
20
140.1109751925
11
111.0375536350
21
140.1109751925
0
LINE
5
246
100
AcDbEntity
8
0
100
AcDbLine
62
7
6
BYLAYER
10
125.6288265116
20
112.3109751925
11
111.0375536350
21
112.3109751925
0
LINE
5
247
100
AcDbEntity
8
0
100
AcDbLine
62
7
6
BYLAYER
10
114.0375536350
20
140.1109751925
11
114.0375536350
21
126.2109751925
0
LINE
5
248
100
AcDbEntity
8
0
100
AcDbLine
62
7
6
BYLAYER
10
114.0375536350
20
112.3109751925
11
114.0375536350
21
126.2109751925
0
SOLID
5
249
100
AcDbEntity
8
0
100
AcDbTrace
62
7
6
BYLAYER
10
114.8375536350
20
135.1109751925
11
114.0375536350
21
140.1109751925
12
113.2375536350
22
135.1109751925
13
113.2375536350
23
135.1109751925
0
SOLID
5
24A
100
AcDbEntity
8
0
100
AcDbTrace
62
7
6
BYLAYER
10
113.2375536350
20
117.3109751925
11
114.0375536350
21
112.3109751925
12
114.8375536350
22
117.3109751925
13
114.8375536350
23
117.3109751925
0
ENDBLK
5
24B
100
AcDbEntity
8
0
100
AcDbBlockEnd
0
BLOCK
5
24C
100
AcDbEntity
8
0
100
AcDbBlockBegin
62
7
6
BYLAYER
2
*D2
70
65
10
0.0000000000
20
0.0000000000
3
*D2
1

0
TEXT
5
24D
100
AcDbEntity
8
0
100
AcDbText
62
7
6
BYLAYER
10
234.0391975972
20
102.3248016025
7
STANDARD
40
4.0000000000
1
12.2%%d
50
68.3266150219
41
0.7733333333
72
0
100
AcDbText
0
LINE
5
24E
100
AcDbEntity
8
0
100
AcDbLine
62
7
6
BYLAYER
10
212.7269319815
20
119.9109751925
11
247.8859586911
21
119.9109751925
0
LINE
5
24F
100
AcDbEntity
8
0
100
AcDbLine
62
7
6
BYLAYER
10
214.1782177007
20
120.6587347164
11
247.0433501266
21
127.7793320167
0
ARC
5
250
100
AcDbEntity
8
0
100
AcDbCircle
62
7
6
BYLAYER
10
210.7269319815
20
119.9109751925
40
34.1590267096
100
AcDbArc
50
338.3266150219
51
360.0000000000
0
ARC
5
251
100
AcDbEntity
8
0
100
AcDbCircle
62
7
6
BYLAYER
10
210.7269319815
20
119.9109751925
40
34.1590267096
100
AcDbArc
50
12.2248206234
51
28.9980677069
0
SOLID
5
252
100
AcDbEntity
8
0
100
AcDbTrace
62
7
6
BYLAYER
10
244.8859586911
20
119.9109751925
11
245.3182082144
21
114.8658626715
12
243.7224913829
22
114.9828575171
13
243.7224913829
23
114.9828575171
0
SOLID
5
253
100
AcDbEntity
8
0
100
AcDbTrace
62
7
6
BYLAYER
10
244.1113773576
20
127.1440874325
11
241.9307725146
21
131.7140942726
12
243.4655318329
22
132.1663263314
13
243.4655318329
23
132.1663263314
0
ENDBLK
5
254
100
AcDbEntity
8
0
100
AcDbBlockEnd
0
BLOCK
5
255
100
AcDbEntity
8
0
100
AcDbBlockBegin
62
7
6
BYLAYER
2
*D3
70
65
10
0.0000000000
20
0.0000000000
3
*D3
1

0
TEXT
5
256
100
AcDbEntity
8
0
100
AcDbText
62
7
6
BYLAYER
10
258.4427174671
20
159.6660992231
7
STANDARD
40
4.0000000000
1
21%%d
50
51.8592187720
41
0.7555555556
72
0
100
AcDbText
0
LINE
5
257
100
AcDbEntity
8
0
100
AcDbLine
62
7
6
BYLAYER
10
283.4098748667
20
144.5770705576
11
258.0114868767
21
148.4914927689
0
LINE
5
258
100
AcDbEntity
8
0
100
AcDbLine
62
7
6
BYLAYER
10
281.6760327143
20
143.4685036684
11
258.3163505266
21
138.4073681231
0
ARC
5
259
100
AcDbEntity
8
0
100
AcDbCircle
62
7
6
BYLAYER
10
285.3865365742
20
144.2724256921
40
24.6982648002
100
AcDbArc
50
141.8592187720
51
192.2248206234
0
SOLID
5
25A
100
AcDbEntity
8
0
100
AcDbTrace
62
7
6
BYLAYER
10
260.9764794379
20
148.0345254707
11
261.5170457134
21
142.9998667829
12
259.9191832198
22
143.0825435738
13
259.9191832198
23
143.0825435738
0
SOLID
5
25B
100
AcDbEntity
8
0
100
AcDbTrace
62
7
6
BYLAYER
10
261.2483232956
20
139.0426127074
11
259.8938143899
21
143.9216808176
12
261.4837643229
22
144.1007316781
13
261.4837643229
23
144.1007316781
0
ENDBLK
5
25C
100
AcDbEntity
8
0
100
AcDbBlockEnd
0
BLOCK
5
25D
100
AcDbEntity
8
0
100
AcDbBlockBegin
62
7
6
BYLAYER
2
*D4
70
65
10
0.0000000000
20
0.0000000000
3
*D4
1

0
TEXT
5
25E
100
AcDbEntity
8
0
100
AcDbText
62
7
6
BYLAYER
10
344.4971461060
20
171.7732025618
7
STANDARD
40
4.0000000000
1
60%%d
50
-54.1949302027
41
0.7555555556
72
0
100
AcDbText
0
LINE
5
25F
100
AcDbEntity
8
0
100
AcDbLine
62
7
6
BYLAYER
10
301.7945796262
20
133.6491480780
11
354.5327646605
21
125.5210919604
0
LINE
5
260
100
AcDbEntity
8
0
100
AcDbLine
62
7
6
BYLAYER
10
322.8573846158
20
162.6673761096
11
334.4644394178
21
177.1329945093
0
ARC
5
261
100
AcDbEntity
8
0
100
AcDbCircle
62
7
6
BYLAYER
10
299.8179179186
20
133.9537929435
40
52.3608607218
100
AcDbArc
50
351.2384610000
51
21.2476413156
0
ARC
5
262
100
AcDbEntity
8
0
100
AcDbCircle
62
7
6
BYLAYER
10
299.8179179186
20
133.9537929435
40
52.3608607218
100
AcDbArc
50
21.2476413156
51
51.2568216312
0
SOLID
5
263
100
AcDbEntity
8
0
100
AcDbTrace
62
7
6
BYLAYER
10
351.5677720992
20
125.9780592586
11
351.2970841723
21
131.0344144722
12
352.8882433866
22
130.8664491345
13
352.8882433866
23
130.8664491345
0
SOLID
5
264
100
AcDbEntity
8
0
100
AcDbTrace
62
7
6
BYLAYER
10
332.5869475736
20
174.7931175094
11
336.8628261554
21
172.0807638538
12
335.8030775661
22
170.8820424819
13
335.8030775661
23
170.8820424819
0
ENDBLK
5
265
100
AcDbEntity
8
0
100
AcDbBlockEnd
0
BLOCK
5
266
100
AcDbEntity
8
0
100
AcDbBlockBegin
62
7
6
BYLAYER
2
*D5
70
65
10
0.0000000000
20
0.0000000000
3
*D5
1

0
TEXT
5
267
100
AcDbEntity
8
0
100
AcDbText
62
7
6
BYLAYER
10
340.3653800005
20
152.9853009561
7
STANDARD
40
4.0000000000
1
60.1%%d
50
-69.9932479077
41
0.7733333333
72
0
100
AcDbText
0
LINE
5
268
100
AcDbEntity
8
0
100
AcDbLine
62
7
6
BYLAYER
10
309.4398505187
20
132.4708521088
11
341.8877584988
21
127.4699515888
0
LINE
5
269
100
AcDbEntity
8
0
100
AcDbLine
62
7
6
BYLAYER
10
325.3034973602
20
155.0723425098
11
329.2240595526
21
159.9722672714
0
ARC
5
26A
100
AcDbEntity
8
0
100
AcDbCircle
62
7
6
BYLAYER
10
307.4631888112
20
132.7754969743
40
31.8310179297
100
AcDbArc
50
351.2384610000
51
21.2871077157
0
ARC
5
26B
100
AcDbEntity
8
0
100
AcDbCircle
62
7
6
BYLAYER
10
307.4631888112
20
132.7754969743
40
31.8310179297
100
AcDbArc
50
21.2871077157
51
51.3357544314
0
SOLID
5
26C
100
AcDbEntity
8
0
100
AcDbTrace
62
7
6
BYLAYER
10
338.9227659375
20
127.9269188870
11
338.4965247527
21
132.9725425801
12
340.0921011280
22
132.8536475392
13
340.0921011280
23
132.8536475392
0
SOLID
5
26D
100
AcDbEntity
8
0
100
AcDbTrace
62
7
6
BYLAYER
10
327.3497929906
20
157.6298059900
11
331.5440451795
21
154.7928624629
12
330.4494979479
22
153.6258293195
13
330.4494979479
23
153.6258293195
0
ENDBLK
5
26E
100
AcDbEntity
8
0
100
AcDbBlockEnd
0
BLOCK
5
26F
100
AcDbEntity
8
0
100
AcDbBlockBegin
62
7
6
BYLAYER
2
*D6
70
65
10
0.0000000000
20
0.0000000000
3
*D6
1

0
TEXT
5
270
100
AcDbEntity
8
0
100
AcDbText
62
7
6
BYLAYER
10
366.2023901565
20
189.0992707167
7
STANDARD
40
4.0000000000
1
60%%d
50
-66.0142921935
41
0.7555555556
72
0
100
AcDbText
0
LINE
5
271
100
AcDbEntity
8
0
100
AcDbLine
62
7
6
BYLAYER
10
359.3567308472
20
158.4707885233
11
368.8771570985
21
157.0034919376
0
LINE
5
272
100
AcDbEntity
8
0
100
AcDbLine
62
7
6
BYLAYER
10
322.8472421200
20
165.8504886359
11
351.5352086908
21
201.6036735871
0
ARC
5
273
100
AcDbEntity
8
0
100
AcDbCircle
62
7
6
BYLAYER
10
321.5955808905
20
164.2905706359
40
44.8398261354
100
AcDbArc
50
351.2384610000
51
21.2476413156
0
ARC
5
274
100
AcDbEntity
8
0
100
AcDbCircle
62
7
6
BYLAYER
10
321.5955808905
20
164.2905706359
40
44.8398261354
100
AcDbArc
50
21.2476413156
51
51.2568216312
0
SOLID
5
275
100
AcDbEntity
8
0
100
AcDbTrace
62
7
6
BYLAYER
10
365.9121645372
20
157.4604592358
11
365.6009923018
21
162.5144845464
12
367.1934456149
22
162.3592671316
13
367.1934456149
23
162.3592671316
0
SOLID
5
276
100
AcDbEntity
8
0
100
AcDbTrace
62
7
6
BYLAYER
10
349.6577168466
20
199.2637965872
11
353.9117368750
21
196.5172872393
12
352.8424225060
22
195.3270911292
13
352.8424225060
23
195.3270911292
0
ENDBLK
5
277
100
AcDbEntity
8
0
100
AcDbBlockEnd
0
BLOCK
5
278
100
AcDbEntity
8
0
100
AcDbBlockBegin
62
7
6
BYLAYER
2
*D7
70
65
10
0.0000000000
20
0.0000000000
3
*D7
1

0
TEXT
5
279
100
AcDbEntity
8
0
100
AcDbText
62
7
6
BYLAYER
10
355.5649110279
20
183.3540562918
7
STANDARD
40
4.0000000000
1
61.1%%d
50
-63.7897302361
41
0.7733333333
72
0
100
AcDbText
0
LINE
5
27A
100
AcDbEntity
8
0
100
AcDbLine
62
7
6
BYLAYER
10
351.8213016612
20
156.6295368025
11
359.1330471864
21
155.3665790510
0
LINE
5
27B
100
AcDbEntity
8
0
100
AcDbLine
62
7
6
BYLAYER
10
328.6171891211
20
162.4150518808
11
347.5071449395
21
186.0237482156
0
ARC
5
27C
100
AcDbEntity
8
0
100
AcDbCircle
62
7
6
BYLAYER
10
327.3676780798
20
160.8534110266
40
29.2357565384
100
AcDbArc
50
350.2000000000
51
20.7678772157
0
ARC
5
27D
100
AcDbEntity
8
0
100
AcDbCircle
62
7
6
BYLAYER
10
327.3676780798
20
160.8534110266
40
29.2357565384
100
AcDbArc
50
20.7678772157
51
51.3357544314
0
SOLID
5
27E
100
AcDbEntity
8
0
100
AcDbTrace
62
7
6
BYLAYER
10
356.1768234909
20
155.8772075485
11
355.8068793778
21
160.9272710484
12
357.4010305659
22
160.7905889745
13
357.4010305659
23
160.7905889745
0
SOLID
5
27F
100
AcDbEntity
8
0
100
AcDbTrace
62
7
6
BYLAYER
10
345.6328783776
20
183.6812869342
11
349.8072496700
21
180.8151703432
12
348.7045925724
22
179.6557966653
13
348.7045925724
23
179.6557966653
0
ENDBLK
5
280
100
AcDbEntity
8
0
100
AcDbBlockEnd
0
BLOCK
5
281
100
AcDbEntity
8
0
100
AcDbBlockBegin
62
7
6
BYLAYER
2
*D8
70
65
10
0.0000000000
20
0.0000000000
3
*D8
1

0
TEXT
5
282
100
AcDbEntity
8
0
100
AcDbText
62
7
6
BYLAYER
10
179.7664239121
20
148.5529686015
7
STANDARD
40
4.0000000000
1
108.6%%d
50
22.1833598986
41
0.7777777778
72
0
100
AcDbText
0
LINE
5
283
100
AcDbEntity
8
0
100
AcDbLine
62
7
6
BYLAYER
10
197.7833017139
20
136.6516668469
11
202.1801581599
21
149.6905480909
0
LINE
5
284
100
AcDbEntity
8
0
100
AcDbLine
62
7
6
BYLAYER
10
187.6078081456
20
132.5109751925
11
178.2569772208
21
132.5109751925
0
ARC
5
285
100
AcDbEntity
8
0
100
AcDbCircle
62
7
6
BYLAYER
10
196.3870142218
20
132.5109751925
40
15.1300370010
100
AcDbArc
50
71.3653188562
51
125.6826594281
0
ARC
5
286
100
AcDbEntity
8
0
100
AcDbCircle
62
7
6
BYLAYER
10
196.3870142218
20
132.5109751925
40
15.1300370010
100
AcDbArc
50
125.6826594281
51
180.0000000000
0
SOLID
5
287
100
AcDbEntity
8
0
100
AcDbTrace
62
7
6
BYLAYER
10
201.2215593543
20
146.8478225801
11
196.1579683879
21
146.8546434931
12
196.4128811703
22
148.4342065572
13
196.4128811703
23
148.4342065572
0
SOLID
5
288
100
AcDbEntity
8
0
100
AcDbTrace
62
7
6
BYLAYER
10
181.2569772208
20
132.5109751925
11
181.2902902081
21
137.5744611701
12
182.8684979771
22
137.3112877711
13
182.8684979771
23
137.3112877711
0
ENDBLK
5
289
100
AcDbEntity
8
0
100
AcDbBlockEnd
0
BLOCK
5
28A
100
AcDbEntity
8
0
100
AcDbBlockBegin
62
7
6
BYLAYER
2
*D9
70
65
10
0.0000000000
20
0.0000000000
3
*D9
1

0
TEXT
5
28B
100
AcDbEntity
8
0
100
AcDbText
62
7
6
BYLAYER
10
221.7899736182
20
170.8074194259
7
STANDARD
40
4.0000000000
1
76.7%%d
50
-56.1068336271
41
0.7733333333
72
0
100
AcDbText
0
LINE
5
28C
100
AcDbEntity
8
0
100
AcDbLine
62
7
6
BYLAYER
10
212.2533443399
20
150.4717692079
11
227.0828065747
21
149.0960815900
0
LINE
5
28D
100
AcDbEntity
8
0
100
AcDbLine
62
7
6
BYLAYER
10
206.8594890114
20
152.9265767269
11
212.9152642208
21
170.8849828670
0
ARC
5
28E
100
AcDbEntity
8
0
100
AcDbCircle
62
7
6
BYLAYER
10
206.2204231410
20
151.0314263864
40
17.9519593837
100
AcDbArc
50
354.7000000000
51
33.0326594281
0
ARC
5
28F
100
AcDbEntity
8
0
100
AcDbCircle
62
7
6
BYLAYER
10
206.2204231410
20
151.0314263864
40
17.9519593837
100
AcDbArc
50
33.0326594281
51
71.3653188562
0
SOLID
5
290
100
AcDbEntity
8
0
100
AcDbTrace
62
7
6
BYLAYER
10
224.0956324801
20
149.3731933523
11
223.0628014588
21
154.3303356825
12
224.6610527205
22
154.4051214074
13
224.6610527205
23
154.4051214074
0
SOLID
5
291
100
AcDbEntity
8
0
100
AcDbTrace
62
7
6
BYLAYER
10
211.9566654153
20
168.0422573562
11
216.7852788222
21
166.5176286910
12
216.0685216271
22
165.0871535520
13
216.0685216271
23
165.0871535520
0
ENDBLK
5
292
100
AcDbEntity
8
0
100
AcDbBlockEnd
0
BLOCK
5
293
100
AcDbEntity
8
0
100
AcDbBlockBegin
62
7
6
BYLAYER
2
COPYRIGHT_BL4
70
64
10
0.0000000000
20
0.0000000000
3
COPYRIGHT_BL4
1

0
CIRCLE
5
294
100
AcDbEntity
8
0
100
AcDbCircle
62
7
6
BYLAYER
10
368.4166666667
20
59.2552477502
40
2.6387790604
0
ENDBLK
5
295
100
AcDbEntity
8
0
100
AcDbBlockEnd
0
BLOCK
5
296
100
AcDbEntity
8
0
100
AcDbBlockBegin
62
7
6
BYLAYER
2
MICRO_U_BL5
70
64
10
0.0000000000
20
0.0000000000
3
MICRO_U_BL5
1

0
ARC
5
297
100
AcDbEntity
8
0
100
AcDbCircle
62
7
6
BYLAYER
10
115.8029987548
20
24.2743672858
40
1.1407767248
100
AcDbArc
50
303.7730668774
51
1.5957171757
0
ENDBLK
5
298
100
AcDbEntity
8
0
100
AcDbBlockEnd
0
BLOCK
5
299
100
AcDbEntity
8
0
100
AcDbBlockBegin
62
7
6
BYLAYER
2
SURFACE_FINISH_BL6
70
64
10
0.0000000000
20
0.0000000000
3
SURFACE_FINISH_BL6
1

0
LINE
5
29A
100
AcDbEntity
8
0
100
AcDbLine
62
7
6
BYLAYER
10
97.0309676193
20
12.0901401771
11
99.8402817594
21
16.9560150021
0
LINE
5
29B
100
AcDbEntity
8
0
100
AcDbLine
62
7
6
BYLAYER
10
97.0309676193
20
12.0901401771
11
95.7597911309
21
14.2918824404
0
LINE
5
29C
100
AcDbEntity
8
0
100
AcDbLine
62
7
6
BYLAYER
10
95.7597911309
20
14.2918824404
11
98.3021441078
21
14.2918824404
0
ENDBLK
5
29D
100
AcDbEntity
8
0
100
AcDbBlockEnd
0
BLOCK
5
29E
100
AcDbEntity
8
0
100
AcDbBlockBegin
62
7
6
BYLAYER
2
PROJECTION_BL7
70
64
10
0.0000000000
20
0.0000000000
3
PROJECTION_BL7
1

0
LINE
5
29F
100
AcDbEntity
8
0
100
AcDbLine
62
7
6
BYLAYER
10
304.4288585399
20
278.0624994947
11
304.4288585399
21
282.4374994947
0
LINE
5
2A0
100
AcDbEntity
8
0
100
AcDbLine
62
7
6
BYLAYER
10
304.4288585399
20
282.4374994947
11
310.5538585399
21
284.6249994947
0
LINE
5
2A1
100
AcDbEntity
8
0
100
AcDbLine
62
7
6
BYLAYER
10
310.5538585399
20
284.6249994947
11
310.5538585399
21
275.8749994947
0
LINE
5
2A2
100
AcDbEntity
8
0
100
AcDbLine
62
7
6
BYLAYER
10
310.5538585399
20
275.8749994947
11
304.4288585399
21
278.0624994947
0
ARC
5
2A3
100
AcDbEntity
8
0
100
AcDbCircle
62
7
6
BYLAYER
10
292.1788585399
20
280.2499994947
40
2.1875000000
100
AcDbArc
50
180.0000000000
51
360.0000000000
0
ARC
5
2A4
100
AcDbEntity
8
0
100
AcDbCircle
62
7
6
BYLAYER
10
292.1788585399
20
280.2499994947
40
2.1875000000
100
AcDbArc
50
0.0000000000
51
180.0000000000
0
ARC
5
2A5
100
AcDbEntity
8
0
100
AcDbCircle
62
7
6
BYLAYER
10
292.1788585399
20
280.2499994947
40
4.3750000000
100
AcDbArc
50
180.0000000000
51
360.0000000000
0
ARC
5
2A6
100
AcDbEntity
8
0
100
AcDbCircle
62
7
6
BYLAYER
10
292.1788585399
20
280.2499994947
40
4.3750000000
100
AcDbArc
50
0.0000000000
51
180.0000000000
0
LINE
5
2A7
100
AcDbEntity
8
0
100
AcDbLine
62
7
6
BYLAYER
10
285.1534835399
20
280.2499994947
11
298.4009835399
21
280.2499994947
0
LINE
5
2A8
100
AcDbEntity
8
0
100
AcDbLine
62
7
6
BYLAYER
10
301.1493585399
20
280.2499994947
11
313.1464835399
21
280.2499994947
0
LINE
5
2A9
100
AcDbEntity
8
0
100
AcDbLine
62
7
6
BYLAYER
10
292.1788585399
20
285.2952494947
11
292.1788585399
21
275.2047494947
0
ENDBLK
5
2AA
100
AcDbEntity
8
0
100
AcDbBlockEnd
0
ENDSEC
0
SECTION
2
ENTITIES
0
INSERT
5
2AB
100
AcDbEntity
8
0
100
AcDbBlockReference
62
7
6
BYLAYER
2
COPYRIGHT_BL0
10
0.0000000000
20
0.0000000000
0
INSERT
5
2AC
100
AcDbEntity
8
0
100
AcDbBlockReference
62
7
6
BYLAYER
2
MICRO_U_BL1
10
0.0000000000
20
0.0000000000
0
INSERT
5
2AD
100
AcDbEntity
8
0
100
AcDbBlockReference
62
7
6
BYLAYER
2
PROJECTION_BL2
10
0.0000000000
20
0.0000000000
0
INSERT
5
2AE
100
AcDbEntity
8
0
100
AcDbBlockReference
62
7
6
BYLAYER
2
SURFACE_FINISH_BL3
10
0.0000000000
20
0.0000000000
0
DIMENSION
5
2AF
100
AcDbEntity
8
0
100
AcDbDimension
62
7
6
BYLAYER
2
*D0
10
127.6288265116
20
162.8092071588
11
149.4401874979
21
165.8092071588
70
160
3
DIMSTYLE_1
100
AcDbAlignedDimension
13
167.6288265116
23
142.1109751925
14
127.6288265116
24
142.1109751925
50
180.000000
100
AcDbRotatedDimension
0
DIMENSION
5
2B0
100
AcDbEntity
8
0
100
AcDbDimension
62
7
6
BYLAYER
2
*D1
10
114.0375536350
20
112.3109751925
11
111.0375536350
21
127.2407221980
70
160
3
DIMSTYLE_2
100
AcDbAlignedDimension
13
125.6288265116
23
140.1109751925
14
125.6288265116
24
112.3109751925
50
270.000000
100
AcDbRotatedDimension
0
DIMENSION
5
2B1
100
AcDbEntity
8
0
100
AcDbDimension
62
7
6
BYLAYER
2
*D2
10
214.1782177007
20
120.6587347164
11
235.0366260498
21
110.2500511838
70
162
3
DIMSTYLE_3
100
AcDb2LineAngularDimension
13
212.7269319815
23
119.9109751925
14
247.8859586911
24
119.9109751925
15
247.0433501266
25
127.7793320167
16
242.4710598574
26
107.2955302482
0
DIMENSION
5
2B2
100
AcDbEntity
8
0
100
AcDbDimension
62
7
6
BYLAYER
2
*D3
10
281.6760327143
20
143.4685036684
11
259.6694939690
21
164.4667377771
70
162
3
DIMSTYLE_3
100
AcDb2LineAngularDimension
13
283.4098748667
23
144.5770705576
14
258.0114868767
24
148.4914927689
15
258.3163505266
25
138.4073681231
16
260.6995508559
26
143.5260877763
0
DIMENSION
5
2B3
100
AcDbEntity
8
0
100
AcDbDimension
62
7
6
BYLAYER
2
*D4
10
322.8573846158
20
162.6673761096
11
348.7713036767
21
169.2666734533
70
162
3
DIMSTYLE_3
100
AcDb2LineAngularDimension
13
301.7945796262
23
133.6491480780
14
354.5327646605
24
125.5210919604
15
334.4644394178
25
177.1329945093
16
348.6194333583
26
152.9293515998
0
DIMENSION
5
2B4
100
AcDbEntity
8
0
100
AcDbDimension
62
7
6
BYLAYER
2
*D5
10
325.3034973602
20
155.0723425098
11
344.8904967576
21
146.4029181976
70
162
3
DIMSTYLE_3
100
AcDb2LineAngularDimension
13
309.4398505187
23
132.4708521088
14
341.8877584988
24
127.4699515888
15
329.2240595526
25
159.9722672714
16
337.1224699764
26
144.3314799789
0
DIMENSION
5
2B5
100
AcDbEntity
8
0
100
AcDbDimension
62
7
6
BYLAYER
2
*D6
10
322.8472421200
20
165.8504886359
11
369.8725236005
21
185.7704223252
70
162
3
DIMSTYLE_3
100
AcDb2LineAngularDimension
13
359.3567308472
23
158.4707885233
14
368.8771570985
24
157.0034919376
15
351.5352086908
25
201.6036735871
16
363.3873206995
26
180.5405088386
0
DIMENSION
5
2B6
100
AcDbEntity
8
0
100
AcDbDimension
62
7
6
BYLAYER
2
*D7
10
328.6171891211
20
162.4150518808
11
360.7748250582
21
177.2992036725
70
162
3
DIMSTYLE_3
100
AcDb2LineAngularDimension
13
351.8213016612
23
156.6295368025
14
359.1330471864
24
155.3665790510
15
347.5071449395
25
186.0237482156
16
354.7038302158
26
171.2199073861
0
DIMENSION
5
2B7
100
AcDbEntity
8
0
100
AcDbDimension
62
7
6
BYLAYER
2
*D8
10
187.6078081456
20
132.5109751925
11
187.6537627749
21
153.9289333312
70
162
3
DIMSTYLE_3
100
AcDb2LineAngularDimension
13
197.7833017139
23
136.6516668469
14
202.1801581599
24
149.6905480909
15
178.2569772208
25
132.5109751925
16
187.5617331239
26
144.8005005371
0
DIMENSION
5
2B8
100
AcDbEntity
8
0
100
AcDbDimension
62
7
6
BYLAYER
2
*D9
10
206.8594890114
20
152.9265767269
11
227.7625944713
21
165.5034355845
70
162
3
DIMSTYLE_3
100
AcDb2LineAngularDimension
13
212.2533443399
23
150.4717692079
14
227.0828065747
24
149.0960815900
15
212.9152642208
25
170.8849828670
16
221.2706274426
26
160.8173446465
0
LINE
5
2B9
100
AcDbEntity
8
0
100
AcDbLine
62
7
6
BYLAYER
10
209.0000000000
20
82.0000000000
11
410.0000000000
21
82.0000000000
0
LINE
5
2BA
100
AcDbEntity
8
0
100
AcDbLine
62
7
6
BYLAYER
10
209.0000000000
20
82.0000000000
11
209.0000000000
21
10.0000000000
0
LINE
5
2BB
100
AcDbEntity
8
0
100
AcDbLine
62
7
6
BYLAYER
10
209.0000000000
20
73.0000000000
11
410.0000000000
21
73.0000000000
0
LINE
5
2BC
100
AcDbEntity
8
0
100
AcDbLine
62
7
6
BYLAYER
10
209.0000000000
20
64.0000000000
11
410.0000000000
21
64.0000000000
0
LINE
5
2BD
100
AcDbEntity
8
0
100
AcDbLine
62
7
6
BYLAYER
10
209.0000000000
20
55.0000000000
11
410.0000000000
21
55.0000000000
0
LINE
5
2BE
100
AcDbEntity
8
0
100
AcDbLine
62
7
6
BYLAYER
10
209.0000000000
20
46.0000000000
11
410.0000000000
21
46.0000000000
0
LINE
5
2BF
100
AcDbEntity
8
0
100
AcDbLine
62
7
6
BYLAYER
10
209.0000000000
20
21.0000000000
11
410.0000000000
21
21.0000000000
0
LINE
5
2C0
100
AcDbEntity
8
0
100
AcDbLine
62
7
6
BYLAYER
10
209.0000000000
20
10.0000000000
11
410.0000000000
21
10.0000000000
0
LINE
5
2C1
100
AcDbEntity
8
0
100
AcDbLine
62
7
6
BYLAYER
10
224.0000000000
20
82.0000000000
11
224.0000000000
21
64.0000000000
0
LINE
5
2C2
100
AcDbEntity
8
0
100
AcDbLine
62
7
6
BYLAYER
10
224.0000000000
20
21.0000000000
11
224.0000000000
21
10.0000000000
0
LINE
5
2C3
100
AcDbEntity
8
0
100
AcDbLine
62
7
6
BYLAYER
10
253.5000000000
20
82.0000000000
11
253.5000000000
21
64.0000000000
0
LINE
5
2C4
100
AcDbEntity
8
0
100
AcDbLine
62
7
6
BYLAYER
10
283.0000000000
20
82.0000000000
11
283.0000000000
21
64.0000000000
0
LINE
5
2C5
100
AcDbEntity
8
0
100
AcDbLine
62
7
6
BYLAYER
10
315.5000000000
20
82.0000000000
11
315.5000000000
21
64.0000000000
0
LINE
5
2C6
100
AcDbEntity
8
0
100
AcDbLine
62
7
6
BYLAYER
10
344.0000000000
20
21.0000000000
11
344.0000000000
21
10.0000000000
0
LINE
5
2C7
100
AcDbEntity
8
0
100
AcDbLine
62
7
6
BYLAYER
10
348.0000000000
20
82.0000000000
11
348.0000000000
21
64.0000000000
0
LINE
5
2C8
100
AcDbEntity
8
0
100
AcDbLine
62
7
6
BYLAYER
10
365.0000000000
20
64.0000000000
11
365.0000000000
21
55.0000000000
0
LINE
5
2C9
100
AcDbEntity
8
0
100
AcDbLine
62
7
6
BYLAYER
10
380.5000000000
20
82.0000000000
11
380.5000000000
21
64.0000000000
0
LINE
5
2CA
100
AcDbEntity
8
0
100
AcDbLine
62
7
6
BYLAYER
10
410.0000000000
20
82.0000000000
11
410.0000000000
21
10.0000000000
0
TEXT
5
2CB
100
AcDbEntity
8
0
100
AcDbText
62
7
6
BYLAYER
10
215.3000000000
20
76.0000000000
7
STANDARD
40
3.0000000000
1
D
41
0.8000000000
72
1
11
216.5000000000
21
76.0000000000
100
AcDbText
0
TEXT
5
2CC
100
AcDbEntity
8
0
100
AcDbText
62
7
6
BYLAYER
10
227.9500000000
20
76.0000000000
7
STANDARD
40
3.0000000000
1
29/MAY/03
41
0.8000000000
72
1
11
238.7500000000
21
76.0000000000
100
AcDbText
0
TEXT
5
2CD
100
AcDbEntity
8
0
100
AcDbText
62
7
6
BYLAYER
10
259.8500000000
20
76.0000000000
7
STANDARD
40
3.0000000000
1
------
41
0.8000000000
72
1
11
267.0500000000
21
76.0000000000
100
AcDbText
0
TEXT
5
2CE
100
AcDbEntity
8
0
100
AcDbText
62
7
6
BYLAYER
10
274.2500000000
20
76.0000000000
7
STANDARD
40
3.0000000000
1
.
41
0.8000000000
72
1
11
275.4500000000
21
76.0000000000
100
AcDbText
0
TEXT
5
2CF
100
AcDbEntity
8
0
100
AcDbText
62
7
6
BYLAYER
10
289.6500000000
20
76.0000000000
7
STANDARD
40
3.0000000000
1
J NOVISS
41
0.8000000000
72
1
11
299.2500000000
21
76.0000000000
100
AcDbText
0
TEXT
5
2D0
100
AcDbEntity
8
0
100
AcDbText
62
7
6
BYLAYER
10
329.3500000000
20
76.0000000000
7
STANDARD
40
3.0000000000
1
IW
41
0.8000000000
72
1
11
331.7500000000
21
76.0000000000
100
AcDbText
0
TEXT
5
2D1
100
AcDbEntity
8
0
100
AcDbText
62
7
6
BYLAYER
10
361.8500000000
20
76.0000000000
7
STANDARD
40
3.0000000000
1
DG
41
0.8000000000
72
1
11
364.2500000000
21
76.0000000000
100
AcDbText
0
TEXT
5
2D2
100
AcDbEntity
8
0
100
AcDbText
62
7
6
BYLAYER
10
391.6500000000
20
76.0000000000
7
STANDARD
40
3.0000000000
1
REL
41
0.8000000000
72
1
11
395.2500000000
21
76.0000000000
100
AcDbText
0
TEXT
5
2D3
100
AcDbEntity
8
0
100
AcDbText
62
7
6
BYLAYER
10
210.5000000000
20
67.0000000000
7
STANDARD
40
3.0000000000
1
ISSUE
41
0.8000000000
72
1
11
216.5000000000
21
67.0000000000
100
AcDbText
0
TEXT
5
2D4
100
AcDbEntity
8
0
100
AcDbText
62
7
6
BYLAYER
10
227.9500000000
20
67.0000000000
7
STANDARD
40
3.0000000000
1
DATE APPD
41
0.8000000000
72
1
11
238.7500000000
21
67.0000000000
100
AcDbText
0
TEXT
5
2D5
100
AcDbEntity
8
0
100
AcDbText
62
7
6
BYLAYER
10
258.6500000000
20
67.0000000000
7
STANDARD
40
3.0000000000
1
MOD. No.
41
0.8000000000
72
1
11
268.2500000000
21
67.0000000000
100
AcDbText
0
TEXT
5
2D6
100
AcDbEntity
8
0
100
AcDbText
62
7
6
BYLAYER
10
290.8500000000
20
67.0000000000
7
STANDARD
40
3.0000000000
1
DRN. BY
41
0.8000000000
72
1
11
299.2500000000
21
67.0000000000
100
AcDbText
0
TEXT
5
2D7
100
AcDbEntity
8
0
100
AcDbText
62
7
6
BYLAYER
10
322.1500000000
20
67.0000000000
7
STANDARD
40
3.0000000000
1
CHKD BY.
41
0.8000000000
72
1
11
331.7500000000
21
67.0000000000
100
AcDbText
0
TEXT
5
2D8
100
AcDbEntity
8
0
100
AcDbText
62
7
6
BYLAYER
10
354.6500000000
20
67.0000000000
7
STANDARD
40
3.0000000000
1
APPD BY.
41
0.8000000000
72
1
11
364.2500000000
21
67.0000000000
100
AcDbText
0
TEXT
5
2D9
100
AcDbEntity
8
0
100
AcDbText
62
7
6
BYLAYER
10
388.0500000000
20
67.0000000000
7
STANDARD
40
3.0000000000
1
STATUS
41
0.8000000000
72
1
11
395.2500000000
21
67.0000000000
100
AcDbText
0
TEXT
5
2DA
100
AcDbEntity
8
0
100
AcDbText
62
7
6
BYLAYER
10
210.4000000000
20
57.5000000000
7
STANDARD
40
4.0000000000
1
USED ON
41
0.8000000000
72
0
100
AcDbText
0
TEXT
5
2DB
100
AcDbEntity
8
0
100
AcDbText
62
7
6
BYLAYER
10
254.9000000000
20
57.5000000000
7
STANDARD
40
4.0000000000
1
 
41
0.8000000000
72
0
100
AcDbText
0
INSERT
5
2DC
100
AcDbEntity
8
0
100
AcDbBlockReference
62
7
6
BYLAYER
2
COPYRIGHT_BL4
10
0.0000000000
20
0.0000000000
0
TEXT
5
2DD
100
AcDbEntity
8
0
100
AcDbText
62
7
6
BYLAYER
10
371.0554457271
20
57.3835313102
7
TEXTSTYLE_1
40
5.0000000000
1
 CLRC
41
0.7800000000
72
1
11
380.8054457271
21
57.3835313102
100
AcDbText
0
TEXT
5
2DE
100
AcDbEntity
8
0
100
AcDbText
62
7
6
BYLAYER
10
390.5554457271
20
57.3835313102
7
TEXTSTYLE_1
40
5.0000000000
1
 
41
0.8000000000
72
1
11
392.5554457271
21
57.3835313102
100
AcDbText
0
TEXT
5
2DF
100
AcDbEntity
8
0
100
AcDbText
62
7
6
BYLAYER
10
394.5554457271
20
57.3835313102
7
TEXTSTYLE_1
40
5.0000000000
1
2002
41
0.7333333333
72
1
11
401.8887790604
21
57.3835313102
100
AcDbText
0
TEXT
5
2E0
100
AcDbEntity
8
0
100
AcDbText
62
7
6
BYLAYER
10
367.1926306113
20
57.5014920980
7
TEXTSTYLE_1
40
3.5000000000
1
C
41
0.8000000000
72
0
100
AcDbText
0
TEXT
5
2E1
100
AcDbEntity
8
0
100
AcDbText
62
7
6
BYLAYER
10
210.4000000000
20
48.5000000000
7
TEXTSTYLE_1
40
3.0000000000
1
CENTRAL LABORATORY OF THE RESEARCH COUNCILS
41
0.7620155039
72
0
100
AcDbText
0
TEXT
5
2E2
100
AcDbEntity
8
0
100
AcDbText
62
7
6
BYLAYER
10
308.7000000000
20
48.5000000000
7
STANDARD
40
4.0000000000
1
 
41
0.8000000000
72
0
100
AcDbText
0
TEXT
5
2E3
100
AcDbEntity
8
0
100
AcDbText
62
7
6
BYLAYER
10
311.9000000000
20
48.5000000000
7
STANDARD
40
2.0000000000
1
RUTHERFORD APPLETON LABORATORY, CHILTON, OXON OX110QX
41
0.8000000000
72
0
100
AcDbText
0
TEXT
5
2E4
100
AcDbEntity
8
0
100
AcDbText
62
7
6
BYLAYER
10
210.4000000000
20
41.5000000000
7
STANDARD
40
3.0000000000
1
TITLE
41
0.8000000000
72
0
100
AcDbText
0
TEXT
5
2E5
100
AcDbEntity
8
0
100
AcDbText
62
7
6
BYLAYER
10
269.7500000000
20
36.5000000000
7
TEXTSTYLE_1
40
6.0000000000
1
POWER TAPE W12
41
0.9464285714
72
1
11
309.5000000000
21
36.5000000000
100
AcDbText
0
TEXT
5
2E6
100
AcDbEntity
8
0
100
AcDbText
62
7
6
BYLAYER
10
270.2500000000
20
27.5000000000
7
TEXTSTYLE_1
40
6.0000000000
1
WHEELS 2,3,4,5,6
41
0.8177083333
72
1
11
309.5000000000
21
27.5000000000
100
AcDbText
0
TEXT
5
2E7
100
AcDbEntity
8
0
100
AcDbText
62
7
6
BYLAYER
10
210.4000000000
20
24.2500000000
7
STANDARD
40
4.0000000000
1
ATLAS_ID
41
0.8000000000
72
0
100
AcDbText
0
TEXT
5
2E8
100
AcDbEntity
8
0
100
AcDbText
62
7
6
BYLAYER
10
389.4000000000
20
24.2500000000
7
STANDARD
40
4.0000000000
1
TDL008
41
0.8000000000
72
2
11
408.6000000000
21
24.2500000000
100
AcDbText
0
TEXT
5
2E9
100
AcDbEntity
8
0
100
AcDbText
62
7
6
BYLAYER
10
211.1333333333
20
12.0000000000
7
TEXTSTYLE_1
40
7.0000000000
1
A3
41
0.7666666667
72
1
11
216.5000000000
21
12.0000000000
100
AcDbText
0
TEXT
5
2EA
100
AcDbEntity
8
0
100
AcDbText
62
7
6
BYLAYER
10
225.4000000000
20
12.0000000000
7
TEXTSTYLE_1
40
5.0000000000
1
 
41
1.0000000000
72
0
100
AcDbText
0
TEXT
5
2EB
100
AcDbEntity
8
0
100
AcDbText
62
7
6
BYLAYER
10
230.4000000000
20
12.0000000000
7
TEXTSTYLE_1
40
7.0000000000
1
TD-1002-974
41
0.8068181818
72
0
100
AcDbText
0
TEXT
5
2EC
100
AcDbEntity
8
0
100
AcDbText
62
7
6
BYLAYER
10
345.4000000000
20
16.7500000000
7
STANDARD
40
2.5000000000
1
SHEET
41
0.8000000000
72
0
100
AcDbText
0
TEXT
5
2ED
100
AcDbEntity
8
0
100
AcDbText
62
7
6
BYLAYER
10
366.7666666667
20
12.0000000000
7
STANDARD
40
3.0000000000
1
 
41
0.8000000000
72
1
11
367.9666666667
21
12.0000000000
100
AcDbText
0
TEXT
5
2EE
100
AcDbEntity
8
0
100
AcDbText
62
7
6
BYLAYER
10
369.1666666667
20
12.0000000000
7
TEXTSTYLE_1
40
7.0000000000
1
1
41
0.3333333333
72
1
11
370.3333333333
21
12.0000000000
100
AcDbText
0
TEXT
5
2EF
100
AcDbEntity
8
0
100
AcDbText
62
7
6
BYLAYER
10
371.5000000000
20
12.0000000000
7
STANDARD
40
4.0000000000
1
 OF 
41
0.8000000000
72
1
11
377.9000000000
21
12.0000000000
100
AcDbText
0
TEXT
5
2F0
100
AcDbEntity
8
0
100
AcDbText
62
7
6
BYLAYER
10
384.3000000000
20
12.0000000000
7
TEXTSTYLE_1
40
7.0000000000
1
1
41
0.3333333333
72
1
11
385.4666666667
21
12.0000000000
100
AcDbText
0
TEXT
5
2F1
100
AcDbEntity
8
0
100
AcDbText
62
7
6
BYLAYER
10
386.6333333333
20
12.0000000000
7
STANDARD
40
4.0000000000
1
     
41
0.8000000000
72
1
11
394.6333333333
21
12.0000000000
100
AcDbText
0
TEXT
5
2F2
100
AcDbEntity
8
0
100
AcDbText
62
7
6
BYLAYER
10
402.6333333333
20
12.0000000000
7
TEXTSTYLE_1
40
7.0000000000
1
D
41
0.8000000000
72
1
11
405.4333333333
21
12.0000000000
100
AcDbText
0
LINE
5
2F3
100
AcDbEntity
8
0
100
AcDbLine
62
7
6
BYLAYER
10
20.0371621622
20
45.9172297297
11
209.0371621622
21
45.9172297297
0
LINE
5
2F4
100
AcDbEntity
8
0
100
AcDbLine
62
7
6
BYLAYER
10
20.0371621622
20
45.9172297297
11
20.0371621622
21
9.9172297297
0
LINE
5
2F5
100
AcDbEntity
8
0
100
AcDbLine
62
7
6
BYLAYER
10
20.0371621622
20
27.9172297297
11
209.0371621622
21
27.9172297297
0
LINE
5
2F6
100
AcDbEntity
8
0
100
AcDbLine
62
7
6
BYLAYER
10
20.0371621622
20
9.9172297297
11
209.0371621622
21
9.9172297297
0
LINE
5
2F7
100
AcDbEntity
8
0
100
AcDbLine
62
7
6
BYLAYER
10
83.0371621622
20
45.9172297297
11
83.0371621622
21
9.9172297297
0
LINE
5
2F8
100
AcDbEntity
8
0
100
AcDbLine
62
7
6
BYLAYER
10
146.0371621622
20
45.9172297297
11
146.0371621622
21
9.9172297297
0
LINE
5
2F9
100
AcDbEntity
8
0
100
AcDbLine
62
7
6
BYLAYER
10
209.0371621622
20
45.9172297297
11
209.0371621622
21
9.9172297297
0
TEXT
5
2FA
100
AcDbEntity
8
0
100
AcDbText
62
7
6
BYLAYER
10
21.4371621622
20
41.6672297297
7
STANDARD
40
2.5000000000
1
TOLERANCES UNLESS STATED
41
0.8000000000
72
0
100
AcDbText
0
TEXT
5
2FB
100
AcDbEntity
8
0
100
AcDbText
62
7
6
BYLAYER
10
84.4371621622
20
41.6672297297
7
STANDARD
40
2.5000000000
1
FINISH
41
0.8000000000
72
0
100
AcDbText
0
TEXT
5
2FC
100
AcDbEntity
8
0
100
AcDbText
62
7
6
BYLAYER
10
147.4371621622
20
41.6672297297
7
STANDARD
40
2.5000000000
1
ORIGINAL SCALE
41
0.8000000000
72
0
100
AcDbText
0
TEXT
5
2FD
100
AcDbEntity
8
0
100
AcDbText
62
7
6
BYLAYER
10
44.9871621622
20
34.1672297297
7
STANDARD
40
3.0000000000
1
%%p
41
1.1666666667
72
1
11
46.7371621622
21
34.1672297297
100
AcDbText
0
TEXT
5
2FE
100
AcDbEntity
8
0
100
AcDbText
62
7
6
BYLAYER
10
48.4871621622
20
34.1672297297
7
STANDARD
40
3.0000000000
1
 
41
0.8000000000
72
1
11
49.6871621622
21
34.1672297297
100
AcDbText
0
TEXT
5
2FF
100
AcDbEntity
8
0
100
AcDbText
62
7
6
BYLAYER
10
50.8871621622
20
34.1672297297
7
STANDARD
40
3.0000000000
1
 mm
41
0.8000000000
72
1
11
54.4871621622
21
34.1672297297
100
AcDbText
0
TEXT
5
300
100
AcDbEntity
8
0
100
AcDbText
62
7
6
BYLAYER
10
46.3871621622
20
29.6672297297
7
STANDARD
40
3.0000000000
1
%%p
41
1.1666666667
72
1
11
48.1371621622
21
29.6672297297
100
AcDbText
0
TEXT
5
301
100
AcDbEntity
8
0
100
AcDbText
62
7
6
BYLAYER
10
49.8871621622
20
29.6672297297
7
STANDARD
40
3.0000000000
1
 
41
0.8000000000
72
1
11
51.0871621622
21
29.6672297297
100
AcDbText
0
TEXT
5
302
100
AcDbEntity
8
0
100
AcDbText
62
7
6
BYLAYER
10
52.2871621622
20
29.6672297297
7
STANDARD
40
3.0000000000
1
 %%d
41
0.7333333333
72
1
11
54.4871621622
21
29.6672297297
100
AcDbText
0
TEXT
5
303
100
AcDbEntity
8
0
100
AcDbText
62
7
6
BYLAYER
10
102.5371621622
20
34.1672297297
7
STANDARD
40
3.0000000000
1
SEE NOTE 3
41
0.8000000000
72
1
11
114.5371621622
21
34.1672297297
100
AcDbText
0
TEXT
5
304
100
AcDbEntity
8
0
100
AcDbText
62
7
6
BYLAYER
10
95.3371621622
20
29.6672297297
7
STANDARD
40
3.0000000000
1
REMOVE ALL BURRS
41
0.8000000000
72
1
11
114.5371621622
21
29.6672297297
100
AcDbText
0
TEXT
5
305
100
AcDbEntity
8
0
100
AcDbText
62
7
6
BYLAYER
10
173.9371621622
20
34.1672297297
7
STANDARD
40
3.0000000000
1
1:1
41
0.8000000000
72
1
11
177.5371621622
21
34.1672297297
100
AcDbText
0
TEXT
5
306
100
AcDbEntity
8
0
100
AcDbText
62
7
6
BYLAYER
10
163.1371621622
20
29.6672297297
7
STANDARD
40
3.0000000000
1
DO NOT SCALE
41
0.8000000000
72
1
11
177.5371621622
21
29.6672297297
100
AcDbText
0
TEXT
5
307
100
AcDbEntity
8
0
100
AcDbText
62
7
6
BYLAYER
10
21.4371621622
20
23.6672297297
7
STANDARD
40
2.5000000000
1
MATERIAL 
41
0.8000000000
72
0
100
AcDbText
0
TEXT
5
308
100
AcDbEntity
8
0
100
AcDbText
62
7
6
BYLAYER
10
39.4371621622
20
23.6672297297
7
STANDARD
40
2.5000000000
1
& SPEC.
41
0.8000000000
72
0
100
AcDbText
0
INSERT
5
309
100
AcDbEntity
8
0
100
AcDbBlockReference
62
7
6
BYLAYER
2
MICRO_U_BL5
10
0.0000000000
20
0.0000000000
0
TEXT
5
30A
100
AcDbEntity
8
0
100
AcDbText
62
7
6
BYLAYER
10
84.4371621622
20
24.0083581219
7
STANDARD
40
2.5000000000
1
SURFACE TEXTURE 
41
0.8000000000
72
0
100
AcDbText
0
TEXT
5
30B
100
AcDbEntity
8
0
100
AcDbText
62
7
6
BYLAYER
10
116.4894190556
20
24.0082838118
7
STANDARD
40
1.8178175258
1
um
41
0.8000000000
72
0
100
AcDbText
0
TEXT
5
30C
100
AcDbEntity
8
0
100
AcDbText
62
7
6
BYLAYER
10
43.1371621622
20
16.1672297297
7
STANDARD
40
3.0000000000
1
-------
41
0.8000000000
72
1
11
51.5371621622
21
16.1672297297
100
AcDbText
0
TEXT
5
30D
100
AcDbEntity
8
0
100
AcDbText
62
7
6
BYLAYER
10
39.5371621622
20
11.6672297297
7
STANDARD
40
3.0000000000
1
SEE NOTE 3
41
0.8000000000
72
1
11
51.5371621622
21
11.6672297297
100
AcDbText
0
INSERT
5
30E
100
AcDbEntity
8
0
100
AcDbBlockReference
62
7
6
BYLAYER
2
SURFACE_FINISH_BL6
10
0.0000000000
20
0.0000000000
0
TEXT
5
30F
100
AcDbEntity
8
0
100
AcDbText
62
7
6
BYLAYER
10
102.5371621622
20
18.5810150021
7
STANDARD
40
3.0000000000
1
SEE NOTE 3
41
0.8000000000
72
1
11
114.5371621622
21
18.5810150021
100
AcDbText
0
TEXT
5
310
100
AcDbEntity
8
0
100
AcDbText
62
7
6
BYLAYER
10
99.8402817594
20
11.6672297297
7
STANDARD
40
3.0000000000
1
 UNLESS STATED
41
0.8000000000
72
1
11
116.6402817594
21
11.6672297297
100
AcDbText
0
TEXT
5
311
100
AcDbEntity
8
0
100
AcDbText
62
7
6
BYLAYER
10
95.6340425649
20
12.5409220665
7
STANDARD
40
3.5000000000
1
-
41
0.8000000000
72
0
100
AcDbText
0
LINE
5
312
100
AcDbEntity
8
0
100
AcDbLine
62
7
6
BYLAYER
10
10.0000000000
20
10.0000000000
11
10.0000000000
21
116.2000000000
0
LINE
5
313
100
AcDbEntity
8
0
100
AcDbLine
62
7
6
BYLAYER
10
10.0000000000
20
10.0000000000
11
20.0000000000
21
10.0000000000
0
LINE
5
314
100
AcDbEntity
8
0
100
AcDbLine
62
7
6
BYLAYER
10
20.0000000000
20
10.0000000000
11
20.0000000000
21
116.2000000000
0
LINE
5
315
100
AcDbEntity
8
0
100
AcDbLine
62
7
6
BYLAYER
10
10.0000000000
20
25.0000000000
11
20.0000000000
21
25.0000000000
0
LINE
5
316
100
AcDbEntity
8
0
100
AcDbLine
62
7
6
BYLAYER
10
10.0000000000
20
78.2000000000
11
20.0000000000
21
78.2000000000
0
LINE
5
317
100
AcDbEntity
8
0
100
AcDbLine
62
7
6
BYLAYER
10
10.0000000000
20
106.2000000000
11
20.0000000000
21
106.2000000000
0
LINE
5
318
100
AcDbEntity
8
0
100
AcDbLine
62
7
6
BYLAYER
10
10.0000000000
20
116.2000000000
11
20.0000000000
21
116.2000000000
0
TEXT
5
319
100
AcDbEntity
8
0
100
AcDbText
62
7
6
BYLAYER
10
17.5000000000
20
12.5000000000
7
STANDARD
40
5.0000000000
1
A3
50
90.0000000000
41
1.0000000000
72
1
11
17.5000000000
21
17.5000000000
100
AcDbText
0
TEXT
5
31A
100
AcDbEntity
8
0
100
AcDbText
62
7
6
BYLAYER
10
17.5000000000
20
26.4000000000
7
TEXTSTYLE_1
40
5.0000000000
1
 
50
90.0000000000
41
1.0000000000
72
0
100
AcDbText
0
TEXT
5
31B
100
AcDbEntity
8
0
100
AcDbText
62
7
6
BYLAYER
10
17.5000000000
20
31.4000000000
7
TEXTSTYLE_1
40
5.0000000000
1
TD-1002-974
50
90.0000000000
41
0.8068181818
72
0
100
AcDbText
0
TEXT
5
31C
100
AcDbEntity
8
0
100
AcDbText
62
7
6
BYLAYER
10
16.5000000000
20
79.6000000000
7
TEXTSTYLE_1
40
3.0000000000
1
Sheet 
50
90.0000000000
41
0.6666666667
72
0
100
AcDbText
0
TEXT
5
31D
100
AcDbEntity
8
0
100
AcDbText
62
7
6
BYLAYER
10
16.5000000000
20
91.6000000000
7
TEXTSTYLE_1
40
3.0000000000
1
1
50
90.0000000000
41
0.3333333333
72
0
100
AcDbText
0
TEXT
5
31E
100
AcDbEntity
8
0
100
AcDbText
62
7
6
BYLAYER
10
16.5000000000
20
92.6000000000
7
TEXTSTYLE_1
40
3.0000000000
1
 OF 
50
90.0000000000
41
0.7833333333
72
0
100
AcDbText
0
TEXT
5
31F
100
AcDbEntity
8
0
100
AcDbText
62
7
6
BYLAYER
10
16.5000000000
20
102.0000000000
7
TEXTSTYLE_1
40
3.0000000000
1
1
50
90.0000000000
41
0.3333333333
72
0
100
AcDbText
0
TEXT
5
320
100
AcDbEntity
8
0
100
AcDbText
62
7
6
BYLAYER
10
17.5000000000
20
109.2000000000
7
TEXTSTYLE_1
40
5.0000000000
1
D
50
90.0000000000
41
0.8000000000
72
1
11
17.5000000000
21
111.2000000000
100
AcDbText
0
LINE
5
321
100
AcDbEntity
8
0
100
AcDbLine
62
7
6
BYLAYER
10
10.0000000000
20
287.0000000000
11
116.2000000000
21
287.0000000000
0
LINE
5
322
100
AcDbEntity
8
0
100
AcDbLine
62
7
6
BYLAYER
10
10.0000000000
20
287.0000000000
11
10.0000000000
21
277.0000000000
0
LINE
5
323
100
AcDbEntity
8
0
100
AcDbLine
62
7
6
BYLAYER
10
10.0000000000
20
277.0000000000
11
116.2000000000
21
277.0000000000
0
LINE
5
324
100
AcDbEntity
8
0
100
AcDbLine
62
7
6
BYLAYER
10
25.0000000000
20
287.0000000000
11
25.0000000000
21
277.0000000000
0
LINE
5
325
100
AcDbEntity
8
0
100
AcDbLine
62
7
6
BYLAYER
10
78.2000000000
20
287.0000000000
11
78.2000000000
21
277.0000000000
0
LINE
5
326
100
AcDbEntity
8
0
100
AcDbLine
62
7
6
BYLAYER
10
106.2000000000
20
287.0000000000
11
106.2000000000
21
277.0000000000
0
LINE
5
327
100
AcDbEntity
8
0
100
AcDbLine
62
7
6
BYLAYER
10
116.2000000000
20
287.0000000000
11
116.2000000000
21
277.0000000000
0
TEXT
5
328
100
AcDbEntity
8
0
100
AcDbText
62
7
6
BYLAYER
10
12.5000000000
20
279.5000000000
7
STANDARD
40
5.0000000000
1
A3
41
1.0000000000
72
1
11
17.5000000000
21
279.5000000000
100
AcDbText
0
TEXT
5
329
100
AcDbEntity
8
0
100
AcDbText
62
7
6
BYLAYER
10
26.4000000000
20
279.5000000000
7
TEXTSTYLE_1
40
5.0000000000
1
 
41
1.0000000000
72
0
100
AcDbText
0
TEXT
5
32A
100
AcDbEntity
8
0
100
AcDbText
62
7
6
BYLAYER
10
31.4000000000
20
279.5000000000
7
TEXTSTYLE_1
40
5.0000000000
1
TD-1002-974
41
0.8068181818
72
0
100
AcDbText
0
TEXT
5
32B
100
AcDbEntity
8
0
100
AcDbText
62
7
6
BYLAYER
10
79.6000000000
20
280.5000000000
7
TEXTSTYLE_1
40
3.0000000000
1
Sheet 
41
0.6666666667
72
0
100
AcDbText
0
TEXT
5
32C
100
AcDbEntity
8
0
100
AcDbText
62
7
6
BYLAYER
10
91.6000000000
20
280.5000000000
7
TEXTSTYLE_1
40
3.0000000000
1
1
41
0.3333333333
72
0
100
AcDbText
0
TEXT
5
32D
100
AcDbEntity
8
0
100
AcDbText
62
7
6
BYLAYER
10
92.6000000000
20
280.5000000000
7
TEXTSTYLE_1
40
3.0000000000
1
 OF 
41
0.7833333333
72
0
100
AcDbText
0
TEXT
5
32E
100
AcDbEntity
8
0
100
AcDbText
62
7
6
BYLAYER
10
102.0000000000
20
280.5000000000
7
TEXTSTYLE_1
40
3.0000000000
1
1
41
0.3333333333
72
0
100
AcDbText
0
TEXT
5
32F
100
AcDbEntity
8
0
100
AcDbText
62
7
6
BYLAYER
10
109.2000000000
20
279.5000000000
7
TEXTSTYLE_1
40
5.0000000000
1
D
41
0.8000000000
72
1
11
111.2000000000
21
279.5000000000
100
AcDbText
0
LINE
5
330
100
AcDbEntity
8
0
100
AcDbLine
62
7
6
BYLAYER
10
331.0000000000
20
287.0000000000
11
410.0000000000
21
287.0000000000
0
LINE
5
331
100
AcDbEntity
8
0
100
AcDbLine
62
7
6
BYLAYER
10
331.0000000000
20
287.0000000000
11
331.0000000000
21
277.0000000000
0
LINE
5
332
100
AcDbEntity
8
0
100
AcDbLine
62
7
6
BYLAYER
10
331.0000000000
20
277.0000000000
11
410.0000000000
21
277.0000000000
0
LINE
5
333
100
AcDbEntity
8
0
100
AcDbLine
62
7
6
BYLAYER
10
410.0000000000
20
287.0000000000
11
410.0000000000
21
277.0000000000
0
TEXT
5
334
100
AcDbEntity
8
0
100
AcDbText
62
7
6
BYLAYER
10
336.5000000000
20
280.7500000000
7
STANDARD
40
2.5000000000
1
THIS DRAWING CONFORMS TO B.S. 8888
41
0.8000000000
72
1
11
370.5000000000
21
280.7500000000
100
AcDbText
0
LINE
5
335
100
AcDbEntity
8
0
100
AcDbLine
62
7
6
BYLAYER
10
236.4999835399
20
286.9999994947
11
330.9999835399
21
286.9999994947
0
LINE
5
336
100
AcDbEntity
8
0
100
AcDbLine
62
7
6
BYLAYER
10
236.4999835399
20
286.9999994947
11
236.4999835399
21
273.4999994947
0
LINE
5
337
100
AcDbEntity
8
0
100
AcDbLine
62
7
6
BYLAYER
10
236.4999835399
20
273.4999994947
11
330.9999835399
21
273.4999994947
0
LINE
5
338
100
AcDbEntity
8
0
100
AcDbLine
62
7
6
BYLAYER
10
330.9999835399
20
286.9999994947
11
330.9999835399
21
273.4999994947
0
INSERT
5
339
100
AcDbEntity
8
0
100
AcDbBlockReference
62
7
6
BYLAYER
2
PROJECTION_BL7
10
0.0000000000
20
0.0000000000
0
TEXT
5
33A
100
AcDbEntity
8
0
100
AcDbText
62
7
6
BYLAYER
10
254.3534835399
20
278.9781218886
7
STANDARD
40
3.5000000000
1
PROJECTION 
41
0.8000000000
72
1
11
269.7534835399
21
278.9781218886
100
AcDbText
0
TEXT
5
33B
100
AcDbEntity
8
0
100
AcDbText
62
7
6
BYLAYER
10
290.7970347322
20
278.8891837883
7
STANDARD
40
3.5000000000
1
l
41
0.8000000000
72
0
100
AcDbText
0
LINE
5
33C
100
AcDbEntity
8
0
100
AcDbLine
62
7
6
BYLAYER
10
159.0509538372
20
70.9185125895
11
209.0509538372
21
70.9185125895
0
LINE
5
33D
100
AcDbEntity
8
0
100
AcDbLine
62
7
6
BYLAYER
10
159.0509538372
20
70.9185125895
11
159.0509538372
21
45.9185125895
0
LINE
5
33E
100
AcDbEntity
8
0
100
AcDbLine
62
7
6
BYLAYER
10
159.0509538372
20
45.9185125895
11
209.0509538372
21
45.9185125895
0
LINE
5
33F
100
AcDbEntity
8
0
100
AcDbLine
62
7
6
BYLAYER
10
209.0509538372
20
70.9185125895
11
209.0509538372
21
45.9185125895
0
SOLID
5
340
100
AcDbEntity
8
0
100
AcDbTrace
62
7
6
BYLAYER
10
317.5736355662
20
161.5340098700
11
314.4700782944
21
165.5350012797
12
315.8733733250
22
166.3036124018
13
315.8733733250
23
166.3036124018
0
POLYLINE
5
341
100
AcDbEntity
8
0
100
AcDb2dPolyline
62
7
6
BYLAYER
66
1
70
0
0
VERTEX
5
342
100
AcDbEntity
8
0
100
AcDbVertex
62
7
6
BYLAYER
100
AcDb2dVertex
10
300.9505590820
20
175.9013726807
0
VERTEX
5
343
100
AcDbEntity
8
0
100
AcDbVertex
62
7
6
BYLAYER
100
AcDb2dVertex
10
299.9505468750
20
176.2347143555
0
VERTEX
5
344
100
AcDbEntity
8
0
100
AcDbVertex
62
7
6
BYLAYER
100
AcDb2dVertex
10
298.9505603027
20
175.9013726807
0
VERTEX
5
345
100
AcDbEntity
8
0
100
AcDbVertex
62
7
6
BYLAYER
100
AcDb2dVertex
10
298.2838769531
20
175.2347149658
0
VERTEX
5
346
100
AcDbEntity
8
0
100
AcDbVertex
62
7
6
BYLAYER
100
AcDb2dVertex
10
297.9505480957
20
174.2347155762
0
VERTEX
5
347
100
AcDbEntity
8
0
100
AcDbVertex
62
7
6
BYLAYER
100
AcDb2dVertex
10
298.2838769531
20
173.2347161865
0
VERTEX
5
348
100
AcDbEntity
8
0
100
AcDbVertex
62
7
6
BYLAYER
100
AcDb2dVertex
10
298.9505603027
20
172.5680456543
0
VERTEX
5
349
100
AcDbEntity
8
0
100
AcDbVertex
62
7
6
BYLAYER
100
AcDb2dVertex
10
299.9505468750
20
172.2347167969
0
VERTEX
5
34A
100
AcDbEntity
8
0
100
AcDbVertex
62
7
6
BYLAYER
100
AcDb2dVertex
10
300.9505590820
20
172.5680456543
0
SEQEND
5
34B
100
AcDbEntity
8
0
0
POLYLINE
5
34C
100
AcDbEntity
8
0
100
AcDb2dPolyline
62
7
6
BYLAYER
66
1
70
0
0
VERTEX
5
34D
100
AcDbEntity
8
0
100
AcDbVertex
62
7
6
BYLAYER
100
AcDb2dVertex
10
299.6172180176
20
177.4013781738
0
VERTEX
5
34E
100
AcDbEntity
8
0
100
AcDbVertex
62
7
6
BYLAYER
100
AcDb2dVertex
10
299.6172180176
20
171.2347174072
0
VERTEX
5
34F
100
AcDbEntity
8
0
100
AcDbVertex
62
7
6
BYLAYER
100
AcDb2dVertex
10
302.2839001465
20
171.2347174072
0
SEQEND
5
350
100
AcDbEntity
8
0
0
TEXT
5
351
100
AcDbEntity
8
0
100
AcDbText
62
7
6
BYLAYER
10
281.9505553494
20
172.2347115454
7
STANDARD
40
4.0000000000
1
PIPE 
41
0.8000000000
72
0
100
AcDbText
0
TEXT
5
352
100
AcDbEntity
8
0
100
AcDbText
62
7
6
BYLAYER
10
105.0900766775
20
191.0879021624
7
STANDARD
40
4.0000000000
1
3D-VIEW
41
0.8000000000
72
0
100
AcDbText
0
TEXT
5
353
100
AcDbEntity
8
0
100
AcDbText
62
7
6
BYLAYER
10
180.9307423353
20
99.8985303596
7
STANDARD
40
4.0000000000
1
DEVELOPED VIEW
41
0.8000000000
72
0
100
AcDbText
0
TEXT
5
354
100
AcDbEntity
8
0
100
AcDbText
62
7
6
BYLAYER
10
173.3214390379
20
244.2058476487
7
STANDARD
40
3.5000000000
1
NOTES -
41
0.8000000000
72
0
100
AcDbText
0
TEXT
5
355
100
AcDbEntity
8
0
100
AcDbText
62
7
6
BYLAYER
10
173.3214390379
20
238.9558476487
7
STANDARD
40
3.5000000000
1
 
41
0.8000000000
72
0
100
AcDbText
0
TEXT
5
356
100
AcDbEntity
8
0
100
AcDbText
62
7
6
BYLAYER
10
173.3214390379
20
233.7058476487
7
STANDARD
40
3.5000000000
1
1 - ALL OUTER MODULE TAPE ENDS SET FOR HIGH MODULES
41
0.8000000000
72
0
100
AcDbText
0
TEXT
5
357
100
AcDbEntity
8
0
100
AcDbText
62
7
6
BYLAYER
10
173.3214390379
20
228.4558476487
7
STANDARD
40
3.5000000000
1
2 - TAPE DESIGN SET TO ZERO MODULE ROTATION
41
0.8000000000
72
0
100
AcDbText
0
TEXT
5
358
100
AcDbEntity
8
0
100
AcDbText
62
7
6
BYLAYER
10
173.3214390379
20
223.2058476487
7
STANDARD
40
3.5000000000
1
3 - FOR TAPE SPECIFICATIONS REFER TO DOCUMENT ATL-IS-ER-0034
41
0.8000000000
72
0
100
AcDbText
0
TEXT
5
359
100
AcDbEntity
8
0
100
AcDbText
62
7
6
BYLAYER
10
173.3214390379
20
217.9558476487
7
STANDARD
40
3.5000000000
1
4 - ALL TWISTED PAIR WIRES TO LIE ONE WIRE DEEP 4mm EITHER SIDE
41
0.8000000000
72
0
100
AcDbText
0
TEXT
5
35A
100
AcDbEntity
8
0
100
AcDbText
62
7
6
BYLAYER
10
173.3214390379
20
212.7058476487
7
STANDARD
40
3.5000000000
1
    OF PIPE CENTER LINES 
41
0.8000000000
72
0
100
AcDbText
0
TEXT
5
35B
100
AcDbEntity
8
0
100
AcDbText
62
7
6
BYLAYER
10
173.3214390379
20
207.4558476487
7
STANDARD
40
3.5000000000
1
5 - ANY CUTS  BETWEEN TAPE LEGS MUST NOT BE SHORTENED
41
0.8000000000
72
0
100
AcDbText
0
TEXT
5
35C
100
AcDbEntity
8
0
100
AcDbText
62
7
6
BYLAYER
10
173.3214390379
20
202.2058476487
7
STANDARD
40
3.5000000000
1
6 - TAPE ENDS TO INCLUDE TEXT AS SHOWN ON 3D-VIEW
41
0.8000000000
72
0
100
AcDbText
0
TEXT
5
35D
100
AcDbEntity
8
0
100
AcDbText
62
7
6
BYLAYER
10
173.3214390379
20
196.9558476487
7
STANDARD
40
3.5000000000
1
7 - TEXT 'TD-1002-974 (W12)' TO BE LOCATED VISIBLY ON TAPE
41
0.8000000000
72
0
100
AcDbText
0
TEXT
5
35E
100
AcDbEntity
8
0
100
AcDbText
62
7
6
BYLAYER
10
173.3214390379
20
191.7058476487
7
STANDARD
40
3.5000000000
1
8 - FOR CONNECTOR POSITIONS REFER TO DRAWING TD-1010-345
41
0.8000000000
72
0
100
AcDbText
0
CIRCLE
5
35F
100
AcDbEntity
8
0
100
AcDbCircle
62
7
6
BYLAYER
10
123.4995744693
20
258.5625647508
40
0.8000000000
0
TEXT
5
360
100
AcDbEntity
8
0
100
AcDbText
62
7
6
BYLAYER
10
135.3826266516
20
264.3037024678
7
TEXTSTYLE_2
40
4.0000000000
1
I10
41
0.6472114137
72
0
100
AcDbText
0
CIRCLE
5
361
100
AcDbEntity
8
0
100
AcDbCircle
62
7
6
BYLAYER
10
102.7316518534
20
253.9263556469
40
0.8000000000
0
TEXT
5
362
100
AcDbEntity
8
0
100
AcDbText
62
7
6
BYLAYER
10
77.6260523561
20
245.0813045631
7
TEXTSTYLE_2
40
4.0000000000
1
O13
41
0.8352788586
72
0
100
AcDbText
0
CIRCLE
5
363
100
AcDbEntity
8
0
100
AcDbCircle
62
7
6
BYLAYER
10
57.8338672436
20
174.5301326489
40
0.8000000000
0
TEXT
5
364
100
AcDbEntity
8
0
100
AcDbText
62
7
6
BYLAYER
10
35.6434278909
20
186.6047467265
7
TEXTSTYLE_2
40
4.0000000000
1
M10
41
0.9247730220
72
0
100
AcDbText
0
LINE
5
365
100
AcDbEntity
8
0
100
AcDbLine
62
7
6
BYLAYER
10
0.0000000000
20
297.0000000000
11
0.0000000000
21
0.0000000000
0
LINE
5
366
100
AcDbEntity
8
0
100
AcDbLine
62
7
6
BYLAYER
10
10.0000000000
20
10.0000000000
11
10.0000000000
21
287.0000000000
0
LINE
5
367
100
AcDbEntity
8
0
100
AcDbLine
62
7
6
BYLAYER
10
10.0010000000
20
106.2230000000
11
10.0010000000
21
276.9990000000
0
LINE
5
368
100
AcDbEntity
8
0
100
AcDbLine
62
7
6
BYLAYER
10
0.0000000000
20
0.0000000000
11
420.0000000000
21
0.0000000000
0
LINE
5
369
100
AcDbEntity
8
0
100
AcDbLine
62
7
6
BYLAYER
10
160.0381492713
20
3.8460928114
11
260.0381492713
21
3.8460928114
0
LINE
5
36A
100
AcDbEntity
8
0
100
AcDbLine
62
7
6
BYLAYER
10
160.0381492713
20
3.8460928114
11
160.0381492713
21
8.8460928114
0
LINE
5
36B
100
AcDbEntity
8
0
100
AcDbLine
62
7
6
BYLAYER
10
310.6172220160
20
174.2347115454
11
303.6172220160
21
174.2347115454
0
LINE
5
36C
100
AcDbEntity
8
0
100
AcDbLine
62
7
6
BYLAYER
10
260.0381492713
20
3.8460928114
11
260.0381492713
21
8.8460928114
0
LINE
5
36D
100
AcDbEntity
8
0
100
AcDbLine
62
7
6
BYLAYER
10
317.5736355662
20
161.5340098700
11
310.6172220160
21
174.2347115454
0
LINE
5
36E
100
AcDbEntity
8
0
100
AcDbLine
62
7
6
BYLAYER
10
106.2230000000
20
286.9990000000
11
237.9920000000
21
286.9990000000
0
LINE
5
36F
100
AcDbEntity
8
0
100
AcDbLine
62
7
6
BYLAYER
10
10.0000000000
20
287.0000000000
11
410.0000000000
21
287.0000000000
0
LINE
5
370
100
AcDbEntity
8
0
100
AcDbLine
62
7
6
BYLAYER
10
0.0000000000
20
297.0000000000
11
420.0000000000
21
297.0000000000
0
LINE
5
371
100
AcDbEntity
8
0
100
AcDbLine
62
7
6
BYLAYER
10
401.4430414976
20
21.0017763982
11
401.4430414976
21
10.0350776605
0
LINE
5
372
100
AcDbEntity
8
0
100
AcDbLine
62
7
6
BYLAYER
10
410.0000000000
20
287.0000000000
11
410.0000000000
21
10.0000000000
0
LINE
5
373
100
AcDbEntity
8
0
100
AcDbLine
62
7
6
BYLAYER
10
420.0000000000
20
297.0000000000
11
420.0000000000
21
0.0000000000
0
LINE
5
374
100
AcDbEntity
8
0
100
AcDbLine
62
7
6
BYLAYER
10
40.4699959191
20
161.6852259631
11
36.8330246824
21
127.4938942555
0
LINE
5
375
100
AcDbEntity
8
0
100
AcDbLine
62
7
6
BYLAYER
10
50.9055233194
20
182.4521438142
11
50.9282543896
21
182.6658396374
0
LINE
5
376
100
AcDbEntity
8
0
100
AcDbLine
62
7
6
BYLAYER
10
52.3409941311
20
180.0164539366
11
52.3637252013
21
180.2301497598
0
LINE
5
377
100
AcDbEntity
8
0
100
AcDbLine
62
7
6
BYLAYER
10
54.9866624642
20
182.9936773264
11
55.0093935344
21
183.2073731496
0
LINE
5
378
100
AcDbEntity
8
0
100
AcDbLine
62
7
6
BYLAYER
10
54.6090980951
20
169.4475757085
11
54.6318291653
21
169.6612715317
0
LINE
5
379
100
AcDbEntity
8
0
100
AcDbLine
62
7
6
BYLAYER
10
54.6854498431
20
169.4915152609
11
54.7081809133
21
169.7052110841
0
LINE
5
37A
100
AcDbEntity
8
0
100
AcDbLine
62
7
6
BYLAYER
10
56.3768336132
20
183.7937048257
11
56.3995646834
21
184.0074006489
0
LINE
5
37B
100
AcDbEntity
8
0
100
AcDbLine
62
7
6
BYLAYER
10
59.9037095175
20
174.5126852964
11
59.9264405877
21
174.7263811195
0
LINE
5
37C
100
AcDbEntity
8
0
100
AcDbLine
62
7
6
BYLAYER
10
60.6503207341
20
161.0387750730
11
60.6730518043
21
161.2524708962
0
LINE
5
37D
100
AcDbEntity
8
0
100
AcDbLine
62
7
6
BYLAYER
10
62.9290585455
20
171.3541147332
11
62.9517896157
21
171.5678105564
0
LINE
5
37E
100
AcDbEntity
8
0
100
AcDbLine
62
7
6
BYLAYER
10
54.5102692052
20
175.6338799791
11
54.5391770811
21
175.4609317853
0
LINE
5
37F
100
AcDbEntity
8
0
100
AcDbLine
62
7
6
BYLAYER
10
64.2957600957
20
175.1100387547
11
64.2548441693
21
174.7253862730
0
LINE
5
380
100
AcDbEntity
8
0
100
AcDbLine
62
7
6
BYLAYER
10
63.7050433427
20
152.1089225797
11
60.0680721059
21
117.9175908721
0
LINE
5
381
100
AcDbEntity
8
0
100
AcDbLine
62
7
6
BYLAYER
10
63.8404092160
20
152.2059679993
11
60.2034379793
21
118.0146362917
0
LINE
5
382
100
AcDbEntity
8
0
100
AcDbLine
62
7
6
BYLAYER
10
68.2308096408
20
166.4733185663
11
68.2535407110
21
166.6870143894
0
LINE
5
383
100
AcDbEntity
8
0
100
AcDbLine
62
7
6
BYLAYER
10
70.9821046780
20
172.3542679969
11
70.9411887516
21
171.9696155152
0
LINE
5
384
100
AcDbEntity
8
0
100
AcDbLine
62
7
6
BYLAYER
10
71.1174705514
20
172.4513134165
11
71.0765546250
21
172.0666609347
0
LINE
5
385
100
AcDbEntity
8
0
100
AcDbLine
62
7
6
BYLAYER
10
73.9632155355
20
178.0446557850
11
73.9859466058
21
178.2583516081
0
LINE
5
386
100
AcDbEntity
8
0
100
AcDbLine
62
7
6
BYLAYER
10
76.7481214710
20
180.0411882801
11
76.7708525413
21
180.2548841032
0
LINE
5
387
100
AcDbEntity
8
0
100
AcDbLine
62
7
6
BYLAYER
10
78.1166556060
20
181.3283014428
11
78.1393866762
21
181.5419972660
0
LINE
5
388
100
AcDbEntity
8
0
100
AcDbLine
62
7
6
BYLAYER
10
92.9790540145
20
254.0937082711
11
92.9563229443
21
253.8800124479
0
LINE
5
389
100
AcDbEntity
8
0
100
AcDbLine
62
7
6
BYLAYER
10
57.5288153092
20
175.2696888113
11
52.0283740710
21
188.6047467265
0
LINE
5
38A
100
AcDbEntity
8
0
100
AcDbLine
62
7
6
BYLAYER
10
101.3071639791
20
238.3451459034
11
101.3298950493
21
238.5588417266
0
LINE
5
38B
100
AcDbEntity
8
0
100
AcDbLine
62
7
6
BYLAYER
10
101.6011995783
20
237.1873888867
11
101.6239306485
21
237.4010847099
0
LINE
5
38C
100
AcDbEntity
8
0
100
AcDbLine
62
7
6
BYLAYER
10
104.1324996843
20
248.1000017345
11
104.1097686141
21
247.8863059113
0
LINE
5
38D
100
AcDbEntity
8
0
100
AcDbLine
62
7
6
BYLAYER
10
104.2992527037
20
239.3088211098
11
104.3219837739
21
239.5225169330
0
LINE
5
38E
100
AcDbEntity
8
0
100
AcDbLine
62
7
6
BYLAYER
10
104.4608004448
20
215.1606030967
11
104.4835315150
21
215.3742989199
0
LINE
5
38F
100
AcDbEntity
8
0
100
AcDbLine
62
7
6
BYLAYER
10
104.7802843618
20
215.4073020044
11
104.8030154320
21
215.6209978276
0
LINE
5
390
100
AcDbEntity
8
0
100
AcDbLine
62
7
6
BYLAYER
10
107.3318817101
20
239.3662762358
11
107.3546127803
21
239.5799720590
0
LINE
5
391
100
AcDbEntity
8
0
100
AcDbLine
62
7
6
BYLAYER
10
107.6285100584
20
238.2042908430
11
107.6512411286
21
238.4179866661
0
LINE
5
392
100
AcDbEntity
8
0
100
AcDbLine
62
7
6
BYLAYER
10
108.6467550655
20
225.6719128226
11
108.6694861358
21
225.8856086458
0
LINE
5
393
100
AcDbEntity
8
0
100
AcDbLine
62
7
6
BYLAYER
10
110.3724831517
20
240.3536976708
11
110.3952142219
21
240.5673934939
0
LINE
5
394
100
AcDbEntity
8
0
100
AcDbLine
62
7
6
BYLAYER
10
110.9981182753
20
242.6577853043
11
111.0208493455
21
242.8714811275
0
LINE
5
395
100
AcDbEntity
8
0
100
AcDbLine
62
7
6
BYLAYER
10
111.7557499781
20
241.0166224600
11
111.7784810483
21
241.2303182832
0
LINE
5
396
100
AcDbEntity
8
0
100
AcDbLine
62
7
6
BYLAYER
10
113.0756436795
20
252.5709481516
11
113.0529126093
21
252.3572523284
0
LINE
5
397
100
AcDbEntity
8
0
100
AcDbLine
62
7
6
BYLAYER
10
113.4775278031
20
255.6860228297
11
112.7355856708
21
248.7109911613
0
LINE
5
398
100
AcDbEntity
8
0
100
AcDbLine
62
7
6
BYLAYER
10
113.8334185865
20
249.4868248825
11
113.5742843859
21
247.0506924984
0
LINE
5
399
100
AcDbEntity
8
0
100
AcDbLine
62
7
6
BYLAYER
10
114.9646538924
20
254.8868619581
11
114.6544162591
21
251.9703038826
0
LINE
5
39A
100
AcDbEntity
8
0
100
AcDbLine
62
7
6
BYLAYER
10
115.1302676701
20
254.9696572621
11
114.8528947736
21
252.3620620702
0
LINE
5
39B
100
AcDbEntity
8
0
100
AcDbLine
62
7
6
BYLAYER
10
115.2962883173
20
248.6757908967
11
115.0371541167
21
246.2396585126
0
LINE
5
39C
100
AcDbEntity
8
0
100
AcDbLine
62
7
6
BYLAYER
10
115.4652438981
20
248.7567621459
11
115.2061096975
21
246.3206297617
0
LINE
5
39D
100
AcDbEntity
8
0
100
AcDbLine
62
7
6
BYLAYER
10
112.6620170827
20
219.3476170310
11
112.6847481530
21
219.5613128542
0
LINE
5
39E
100
AcDbEntity
8
0
100
AcDbLine
62
7
6
BYLAYER
10
117.5971963952
20
260.0581899607
11
117.5744653250
21
259.8444941375
0
LINE
5
39F
100
AcDbEntity
8
0
100
AcDbLine
62
7
6
BYLAYER
10
118.9156036176
20
254.0607694475
11
118.9383346878
21
254.2744652707
0
LINE
5
3A0
100
AcDbEntity
8
0
100
AcDbLine
62
7
6
BYLAYER
10
115.9696729091
20
224.6309096572
11
115.9924039793
21
224.8446054804
0
LINE
5
3A1
100
AcDbEntity
8
0
100
AcDbLine
62
7
6
BYLAYER
10
119.4215476490
20
254.5060430433
11
119.3988165788
21
254.2923472201
0
LINE
5
3A2
100
AcDbEntity
8
0
100
AcDbLine
62
7
6
BYLAYER
10
116.6512428070
20
221.8818678051
11
116.6739738773
21
222.0955636283
0
LINE
5
3A3
100
AcDbEntity
8
0
100
AcDbLine
62
7
6
BYLAYER
10
123.9263884330
20
259.2391959949
11
128.3826266516
21
266.3037024678
0
LINE
5
3A4
100
AcDbEntity
8
0
100
AcDbLine
62
7
6
BYLAYER
10
117.5744653250
20
259.8444941375
11
117.9198793606
21
255.3141188710
0
LINE
5
3A5
100
AcDbEntity
8
0
100
AcDbLine
62
7
6
BYLAYER
10
117.5971963952
20
260.0581899607
11
117.9586779182
21
255.3170770291
0
LINE
5
3A6
100
AcDbEntity
8
0
100
AcDbLine
62
7
6
BYLAYER
10
128.5687193763
20
253.9754350671
11
128.5459883061
21
253.7617392439
0
LINE
5
3A7
100
AcDbEntity
8
0
100
AcDbLine
62
7
6
BYLAYER
10
134.6511202869
20
256.8904000362
11
134.6283892167
21
256.6767042130
0
LINE
5
3A8
100
AcDbEntity
8
0
100
AcDbLine
62
7
6
BYLAYER
10
97.0315734306
20
217.4100063699
11
70.6874285918
21
183.5777047159
0
LINE
5
3A9
100
AcDbEntity
8
0
100
AcDbLine
62
7
6
BYLAYER
10
104.4835315150
20
215.3742989199
11
78.1393866762
21
181.5419972660
0
LINE
5
3AA
100
AcDbEntity
8
0
100
AcDbLine
62
7
6
BYLAYER
10
104.4608004448
20
215.1606030967
11
78.1166556060
21
181.3283014428
0
LINE
5
3AB
100
AcDbEntity
8
0
100
AcDbLine
62
7
6
BYLAYER
10
51.8507738910
20
176.9219876434
11
53.8161671888
21
178.8955082195
0
LINE
5
3AC
100
AcDbEntity
8
0
100
AcDbLine
62
7
6
BYLAYER
10
54.5102692052
20
175.6338799791
11
56.1292464760
21
177.2595520314
0
LINE
5
3AD
100
AcDbEntity
8
0
100
AcDbLine
62
7
6
BYLAYER
10
54.5391770811
20
175.4609317853
11
56.2458682771
21
177.1746804768
0
LINE
5
3AE
100
AcDbEntity
8
0
100
AcDbLine
62
7
6
BYLAYER
10
102.1211746085
20
253.4093280524
11
94.6493986596
21
247.0813045631
0
LINE
5
3AF
100
AcDbEntity
8
0
100
AcDbLine
62
7
6
BYLAYER
10
117.8823081643
20
225.0203850991
11
118.1789170736
21
223.8596792445
0
LINE
5
3B0
100
AcDbEntity
8
0
100
AcDbLine
62
7
6
BYLAYER
10
113.0756436795
20
252.5709481516
11
112.5472254902
21
257.3318603134
0
LINE
5
3B1
100
AcDbEntity
8
0
100
AcDbLine
62
7
6
BYLAYER
10
101.9221980097
20
258.5646546882
11
92.9790540145
21
254.0937082711
0
LINE
5
3B2
100
AcDbEntity
8
0
100
AcDbLine
62
7
6
BYLAYER
10
70.0845079590
20
183.0106548610
11
67.2996020234
21
181.0141223659
0
LINE
5
3B3
100
AcDbEntity
8
0
100
AcDbLine
62
7
6
BYLAYER
10
40.6053617925
20
161.7822713826
11
40.4699959191
21
161.6852259631
0
LINE
5
3B4
100
AcDbEntity
8
0
100
AcDbLine
62
7
6
BYLAYER
10
60.1100931682
20
172.7390131285
11
50.1420590872
21
165.5928098397
0
LINE
5
3B5
100
AcDbEntity
8
0
100
AcDbLine
62
7
6
BYLAYER
10
62.9517896157
20
171.5678105564
11
60.5642444414
21
169.8561507609
0
LINE
5
3B6
100
AcDbEntity
8
0
100
AcDbLine
62
7
6
BYLAYER
10
62.9290585455
20
171.3541147332
11
60.7390796643
21
169.7840925849
0
LINE
5
3B7
100
AcDbEntity
8
0
100
AcDbLine
62
7
6
BYLAYER
10
76.7708525413
20
180.2548841032
11
73.9859466058
21
178.2583516081
0
LINE
5
3B8
100
AcDbEntity
8
0
100
AcDbLine
62
7
6
BYLAYER
10
76.7481214710
20
180.0411882801
11
73.9632155355
21
178.0446557850
0
LINE
5
3B9
100
AcDbEntity
8
0
100
AcDbLine
62
7
6
BYLAYER
10
71.1174705514
20
172.4513134165
11
70.9821046780
21
172.3542679969
0
LINE
5
3BA
100
AcDbEntity
8
0
100
AcDbLine
62
7
6
BYLAYER
10
71.0765546250
20
172.0666609347
11
70.9411887516
21
171.9696155152
0
LINE
5
3BB
100
AcDbEntity
8
0
100
AcDbLine
62
7
6
BYLAYER
10
68.2535407110
20
166.6870143894
11
60.6730518043
21
161.2524708962
0
LINE
5
3BC
100
AcDbEntity
8
0
100
AcDbLine
62
7
6
BYLAYER
10
68.2308096408
20
166.4733185663
11
60.6503207341
21
161.0387750730
0
LINE
5
3BD
100
AcDbEntity
8
0
100
AcDbLine
62
7
6
BYLAYER
10
57.4883818628
20
154.8239502192
11
57.3530159895
21
154.7269047996
0
LINE
5
3BE
100
AcDbEntity
8
0
100
AcDbLine
62
7
6
BYLAYER
10
53.7400693692
20
185.2955083132
11
52.3498982202
21
184.4954808139
0
LINE
5
3BF
100
AcDbEntity
8
0
100
AcDbLine
62
7
6
BYLAYER
10
115.1302676701
20
254.9696572621
11
114.9646538924
21
254.8868619581
0
LINE
5
3C0
100
AcDbEntity
8
0
100
AcDbLine
62
7
6
BYLAYER
10
104.1324996843
20
248.1000017345
11
113.0756436795
21
252.5709481516
0
LINE
5
3C1
100
AcDbEntity
8
0
100
AcDbLine
62
7
6
BYLAYER
10
104.1097686141
20
247.8863059113
11
113.0529126093
21
252.3572523284
0
LINE
5
3C2
100
AcDbEntity
8
0
100
AcDbLine
62
7
6
BYLAYER
10
109.5337232562
20
243.6706419990
11
102.8348576846
21
240.3216778045
0
LINE
5
3C3
100
AcDbEntity
8
0
100
AcDbLine
62
7
6
BYLAYER
10
111.0208493455
20
242.8714811275
11
104.3219837739
21
239.5225169330
0
LINE
5
3C4
100
AcDbEntity
8
0
100
AcDbLine
62
7
6
BYLAYER
10
110.9981182753
20
242.6577853043
11
104.2992527037
21
239.3088211098
0
LINE
5
3C5
100
AcDbEntity
8
0
100
AcDbLine
62
7
6
BYLAYER
10
123.6795973058
20
262.9731549298
11
117.5971963952
21
260.0581899607
0
LINE
5
3C6
100
AcDbEntity
8
0
100
AcDbLine
62
7
6
BYLAYER
10
117.9586779182
20
255.3170770291
11
117.4754649570
21
255.0854992565
0
LINE
5
3C7
100
AcDbEntity
8
0
100
AcDbLine
62
7
6
BYLAYER
10
119.4215476490
20
254.5060430433
11
118.9383346878
21
254.2744652707
0
LINE
5
3C8
100
AcDbEntity
8
0
100
AcDbLine
62
7
6
BYLAYER
10
119.3988165788
20
254.2923472201
11
118.9156036176
21
254.0607694475
0
LINE
5
3C9
100
AcDbEntity
8
0
100
AcDbLine
62
7
6
BYLAYER
10
115.4652438981
20
248.7567621459
11
115.2962883173
21
248.6757908967
0
LINE
5
3CA
100
AcDbEntity
8
0
100
AcDbLine
62
7
6
BYLAYER
10
128.5687193763
20
253.9754350671
11
134.6511202869
21
256.8904000362
0
LINE
5
3CB
100
AcDbEntity
8
0
100
AcDbLine
62
7
6
BYLAYER
10
128.5459883061
20
253.7617392439
11
134.6283892167
21
256.6767042131
0
LINE
5
3CC
100
AcDbEntity
8
0
100
AcDbLine
62
7
6
BYLAYER
10
115.2061096975
20
246.3206297617
11
115.0371541167
21
246.2396585126
0
LINE
5
3CD
100
AcDbEntity
8
0
100
AcDbLine
62
7
6
BYLAYER
10
110.3156113175
20
242.0413522690
11
108.9323444911
21
241.3784274797
0
LINE
5
3CE
100
AcDbEntity
8
0
100
AcDbLine
62
7
6
BYLAYER
10
111.7784810483
20
241.2303182832
11
110.3952142219
21
240.5673934939
0
LINE
5
3CF
100
AcDbEntity
8
0
100
AcDbLine
62
7
6
BYLAYER
10
111.7557499781
20
241.0166224600
11
110.3724831517
21
240.3536976708
0
LINE
5
3D0
100
AcDbEntity
8
0
100
AcDbLine
62
7
6
BYLAYER
10
107.6285100584
20
238.2042908430
11
115.9696729091
21
224.6309096572
0
LINE
5
3D1
100
AcDbEntity
8
0
100
AcDbLine
62
7
6
BYLAYER
10
107.6512411286
20
238.4179866661
11
115.9924039793
21
224.8446054804
0
LINE
5
3D2
100
AcDbEntity
8
0
100
AcDbLine
62
7
6
BYLAYER
10
109.5411453136
20
238.5937662849
11
117.8823081643
21
225.0203850991
0
LINE
5
3D3
100
AcDbEntity
8
0
100
AcDbLine
62
7
6
BYLAYER
10
101.6011995783
20
237.1873888867
11
108.6467550655
21
225.6719128226
0
LINE
5
3D4
100
AcDbEntity
8
0
100
AcDbLine
62
7
6
BYLAYER
10
101.6239306485
20
237.4010847099
11
108.6694861358
21
225.8856086458
0
LINE
5
3D5
100
AcDbEntity
8
0
100
AcDbLine
62
7
6
BYLAYER
10
103.5146990832
20
237.5754548699
11
110.5602545705
21
226.0599788058
0
LINE
5
3D6
100
AcDbEntity
8
0
100
AcDbLine
62
7
6
BYLAYER
10
63.8404092160
20
152.2059679993
11
63.7050433427
21
152.1089225797
0
LINE
5
3D7
100
AcDbEntity
8
0
100
AcDbLine
62
7
6
BYLAYER
10
56.3995646834
20
184.0074006489
11
55.0093935344
21
183.2073731496
0
LINE
5
3D8
100
AcDbEntity
8
0
100
AcDbLine
62
7
6
BYLAYER
10
56.3768336132
20
183.7937048257
11
54.9866624642
21
182.9936773264
0
LINE
5
3D9
100
AcDbEntity
8
0
100
AcDbLine
62
7
6
BYLAYER
10
57.7764183827
20
179.0977913978
11
59.4074789974
21
180.0364480127
0
LINE
5
3DA
100
AcDbEntity
8
0
100
AcDbLine
62
7
6
BYLAYER
10
54.7081809133
20
169.7052110841
11
54.6318291653
21
169.6612715317
0
LINE
5
3DB
100
AcDbEntity
8
0
100
AcDbLine
62
7
6
BYLAYER
10
54.6854498431
20
169.4915152609
11
54.6090980951
21
169.4475757085
0
LINE
5
3DC
100
AcDbEntity
8
0
100
AcDbLine
62
7
6
BYLAYER
10
106.7362437957
20
222.7579563404
11
98.8545110748
21
218.8176413138
0
LINE
5
3DD
100
AcDbEntity
8
0
100
AcDbLine
62
7
6
BYLAYER
10
115.1868477880
20
222.8947244999
11
110.6771279324
21
220.6401800308
0
LINE
5
3DE
100
AcDbEntity
8
0
100
AcDbLine
62
7
6
BYLAYER
10
116.6739738773
20
222.0955636283
11
112.1642540217
21
219.8410191592
0
LINE
5
3DF
100
AcDbEntity
8
0
100
AcDbLine
62
7
6
BYLAYER
10
116.6512428070
20
221.8818678051
11
112.4460684284
21
219.7795747713
0
LINE
5
3E0
100
AcDbEntity
8
0
100
AcDbLine
62
7
6
BYLAYER
10
112.6847481530
20
219.5613128542
11
104.8030154320
21
215.6209978276
0
LINE
5
3E1
100
AcDbEntity
8
0
100
AcDbLine
62
7
6
BYLAYER
10
112.6620170827
20
219.3476170310
11
104.7802843618
21
215.4073020044
0
LINE
5
3E2
100
AcDbEntity
8
0
100
AcDbLine
62
7
6
BYLAYER
10
36.8330246824
20
127.4938942555
11
60.0680721059
21
117.9175908721
0
LINE
5
3E3
100
AcDbEntity
8
0
100
AcDbLine
62
7
6
BYLAYER
10
52.3409941311
20
180.0164539366
11
59.9037095175
21
174.5126852964
0
LINE
5
3E4
100
AcDbEntity
8
0
100
AcDbLine
62
7
6
BYLAYER
10
52.3637252013
20
180.2301497598
11
59.9264405877
21
174.7263811195
0
LINE
5
3E5
100
AcDbEntity
8
0
100
AcDbLine
62
7
6
BYLAYER
10
55.0162038386
20
181.1065384513
11
62.5789192250
21
175.6027698110
0
LINE
5
3E6
100
AcDbEntity
8
0
100
AcDbLine
62
7
6
BYLAYER
10
60.2034379793
20
118.0146362917
11
60.0680721059
21
117.9175908721
0
LINE
5
3E7
100
AcDbEntity
8
0
100
AcDbLine
62
7
6
BYLAYER
10
53.2291750129
20
169.2667382436
11
50.5696796986
21
170.5548459079
0
LINE
5
3E8
100
AcDbEntity
8
0
100
AcDbLine
62
7
6
BYLAYER
10
52.6865254204
20
170.6034655825
11
54.6318291653
21
169.6612715317
0
LINE
5
3E9
100
AcDbEntity
8
0
100
AcDbLine
62
7
6
BYLAYER
10
40.4699959191
20
161.6852259631
11
46.8220232723
21
159.0672437432
0
LINE
5
3EA
100
AcDbEntity
8
0
100
AcDbLine
62
7
6
BYLAYER
10
46.8220232723
20
159.0672437432
11
57.3530159895
21
154.7269047996
0
LINE
5
3EB
100
AcDbEntity
8
0
100
AcDbLine
62
7
6
BYLAYER
10
57.3530159895
20
154.7269047996
11
63.7050433427
21
152.1089225797
0
LINE
5
3EC
100
AcDbEntity
8
0
100
AcDbLine
62
7
6
BYLAYER
10
40.6053617925
20
161.7822713826
11
46.8493350255
21
159.2088235687
0
LINE
5
3ED
100
AcDbEntity
8
0
100
AcDbLine
62
7
6
BYLAYER
10
57.4883818628
20
154.8239502192
11
63.8404092160
21
152.2059679993
0
LINE
5
3EE
100
AcDbEntity
8
0
100
AcDbLine
62
7
6
BYLAYER
10
50.1420590872
20
165.5928098397
11
60.6730518043
21
161.2524708962
0
LINE
5
3EF
100
AcDbEntity
8
0
100
AcDbLine
62
7
6
BYLAYER
10
60.5642444414
20
169.8561507609
11
61.5671961287
21
169.4427851472
0
LINE
5
3F0
100
AcDbEntity
8
0
100
AcDbLine
62
7
6
BYLAYER
10
61.5671961287
20
169.4427851472
11
68.2535407110
21
166.6870143894
0
LINE
5
3F1
100
AcDbEntity
8
0
100
AcDbLine
62
7
6
BYLAYER
10
64.2548441693
20
174.7253862730
11
70.9411887516
21
171.9696155152
0
LINE
5
3F2
100
AcDbEntity
8
0
100
AcDbLine
62
7
6
BYLAYER
10
64.2957600957
20
175.1100387547
11
70.9821046780
21
172.3542679969
0
LINE
5
3F3
100
AcDbEntity
8
0
100
AcDbLine
62
7
6
BYLAYER
10
51.8507738910
20
176.9219876434
11
54.5102692052
21
175.6338799791
0
LINE
5
3F4
100
AcDbEntity
8
0
100
AcDbLine
62
7
6
BYLAYER
10
59.4074789974
20
180.0364480127
11
64.8908755289
21
177.3806038527
0
LINE
5
3F5
100
AcDbEntity
8
0
100
AcDbLine
62
7
6
BYLAYER
10
53.7400693692
20
185.2955083132
11
56.3995646834
21
184.0074006489
0
LINE
5
3F6
100
AcDbEntity
8
0
100
AcDbLine
62
7
6
BYLAYER
10
55.2062376440
20
185.4876481197
11
57.8657329582
21
184.1995404554
0
LINE
5
3F7
100
AcDbEntity
8
0
100
AcDbLine
62
7
6
BYLAYER
10
67.2996020234
20
181.0141223659
11
73.9859466058
21
178.2583516081
0
LINE
5
3F8
100
AcDbEntity
8
0
100
AcDbLine
62
7
6
BYLAYER
10
106.7362437957
20
222.7579563404
11
107.2567379270
21
222.4782500353
0
LINE
5
3F9
100
AcDbEntity
8
0
100
AcDbLine
62
7
6
BYLAYER
10
108.7438640163
20
221.6790891638
11
110.6771279324
21
220.6401800308
0
LINE
5
3FA
100
AcDbEntity
8
0
100
AcDbLine
62
7
6
BYLAYER
10
112.1642540217
20
219.8410191592
11
112.6847481530
21
219.5613128542
0
LINE
5
3FB
100
AcDbEntity
8
0
100
AcDbLine
62
7
6
BYLAYER
10
109.5337232562
20
243.6706419990
11
111.0208493455
21
242.8714811275
0
LINE
5
3FC
100
AcDbEntity
8
0
100
AcDbLine
62
7
6
BYLAYER
10
92.9563229443
20
253.8800124479
11
104.1097686141
21
247.8863059113
0
LINE
5
3FD
100
AcDbEntity
8
0
100
AcDbLine
62
7
6
BYLAYER
10
92.9790540145
20
254.0937082711
11
104.1324996843
21
248.1000017345
0
LINE
5
3FE
100
AcDbEntity
8
0
100
AcDbLine
62
7
6
BYLAYER
10
110.3156113175
20
242.0413522690
11
111.7784810483
21
241.2303182832
0
LINE
5
3FF
100
AcDbEntity
8
0
100
AcDbLine
62
7
6
BYLAYER
10
113.5742843859
20
247.0506924984
11
115.0371541167
21
246.2396585126
0
LINE
5
400
100
AcDbEntity
8
0
100
AcDbLine
62
7
6
BYLAYER
10
113.8334185865
20
249.4868248825
11
115.2962883173
21
248.6757908967
0
LINE
5
401
100
AcDbEntity
8
0
100
AcDbLine
62
7
6
BYLAYER
10
112.7355856708
20
248.7109911613
11
113.6959930924
21
248.1948815741
0
LINE
5
402
100
AcDbEntity
8
0
100
AcDbLine
62
7
6
BYLAYER
10
113.4775278031
20
255.6860228297
11
114.9646538924
21
254.8868619581
0
LINE
5
403
100
AcDbEntity
8
0
100
AcDbLine
62
7
6
BYLAYER
10
111.0824062922
20
258.1190337719
11
112.5472254902
21
257.3318603134
0
LINE
5
404
100
AcDbEntity
8
0
100
AcDbLine
62
7
6
BYLAYER
10
114.2793633492
20
257.4432398603
11
112.7922372599
21
258.2424007318
0
LINE
5
405
100
AcDbEntity
8
0
100
AcDbLine
62
7
6
BYLAYER
10
117.4754649570
20
255.0854992565
11
118.9383346878
21
254.2744652707
0
LINE
5
406
100
AcDbEntity
8
0
100
AcDbLine
62
7
6
BYLAYER
10
134.6511202869
20
256.8904000362
11
123.6795973058
21
262.9731549298
0
LINE
5
407
100
AcDbEntity
8
0
100
AcDbLine
62
7
6
BYLAYER
10
52.0283740710
20
188.6047467265
11
46.7407041555
21
188.6047467265
0
LINE
5
408
100
AcDbEntity
8
0
100
AcDbLine
62
7
6
BYLAYER
10
55.5592040688
20
169.4764261043
11
54.6854498431
21
169.4915152609
0
LINE
5
409
100
AcDbEntity
8
0
100
AcDbLine
62
7
6
BYLAYER
10
61.7090047683
20
169.5843114945
11
61.2025907222
21
169.5930569295
0
LINE
5
40A
100
AcDbEntity
8
0
100
AcDbLine
62
7
6
BYLAYER
10
55.8508055596
20
169.6854787135
11
54.7081809133
21
169.7052110841
0
LINE
5
40B
100
AcDbEntity
8
0
100
AcDbLine
62
7
6
BYLAYER
10
119.3988165788
20
254.2923472201
11
128.5459883061
21
253.7617392439
0
LINE
5
40C
100
AcDbEntity
8
0
100
AcDbLine
62
7
6
BYLAYER
10
119.4215476490
20
254.5060430433
11
128.5687193763
21
253.9754350671
0
LINE
5
40D
100
AcDbEntity
8
0
100
AcDbLine
62
7
6
BYLAYER
10
94.6493986596
20
247.0813045631
11
87.6493986596
21
247.0813045631
0
LINE
5
40E
100
AcDbEntity
8
0
100
AcDbLine
62
7
6
BYLAYER
10
128.3826266516
20
266.3037024678
11
135.3826266516
21
266.3037024678
0
LINE
5
40F
100
AcDbEntity
8
0
100
AcDbLine
62
7
6
BYLAYER
10
111.0824062922
20
258.1190337719
11
101.9221980097
21
258.5646546882
0
LINE
5
410
100
AcDbEntity
8
0
100
AcDbLine
62
7
6
BYLAYER
10
127.6288265116
20
140.1109751925
11
127.6288265116
21
112.3109751925
0
LINE
5
411
100
AcDbEntity
8
0
100
AcDbLine
62
7
6
BYLAYER
10
235.6993988330
20
148.2967444939
11
242.0103514897
21
153.5361983362
0
LINE
5
412
100
AcDbEntity
8
0
100
AcDbLine
62
7
6
BYLAYER
10
201.0484160788
20
146.3343660606
11
197.1442358435
21
134.7565165064
0
LINE
5
413
100
AcDbEntity
8
0
100
AcDbLine
62
7
6
BYLAYER
10
204.2701716578
20
145.2479540810
11
200.3659914225
21
133.6701045267
0
LINE
5
414
100
AcDbEntity
8
0
100
AcDbLine
62
7
6
BYLAYER
10
167.6288265116
20
140.1109751925
11
167.6288265116
21
132.5109751925
0
LINE
5
415
100
AcDbEntity
8
0
100
AcDbLine
62
7
6
BYLAYER
10
167.6288265116
20
132.5109751925
11
167.6288265116
21
119.9109751925
0
LINE
5
416
100
AcDbEntity
8
0
100
AcDbLine
62
7
6
BYLAYER
10
167.6288265116
20
119.9109751925
11
167.6288265116
21
112.3109751925
0
LINE
5
417
100
AcDbEntity
8
0
100
AcDbLine
62
7
6
BYLAYER
10
175.6078081456
20
132.5109751925
11
175.6078081456
21
119.9109751925
0
LINE
5
418
100
AcDbEntity
8
0
100
AcDbLine
62
7
6
BYLAYER
10
189.6078081456
20
129.1109751925
11
189.6078081456
21
127.9109751925
0
LINE
5
419
100
AcDbEntity
8
0
100
AcDbLine
62
7
6
BYLAYER
10
189.6078081456
20
127.9109751925
11
189.6078081456
21
119.9109751925
0
LINE
5
41A
100
AcDbEntity
8
0
100
AcDbLine
62
7
6
BYLAYER
10
210.2618949435
20
150.6565103828
11
209.9478349462
21
147.2710464089
0
LINE
5
41B
100
AcDbEntity
8
0
100
AcDbLine
62
7
6
BYLAYER
10
325.1536374811
20
158.0862996225
11
308.5745002178
21
137.3656679330
0
LINE
5
41C
100
AcDbEntity
8
0
100
AcDbLine
62
7
6
BYLAYER
10
326.7152783354
20
156.8367885812
11
310.1361410720
21
136.1161568917
0
LINE
5
41D
100
AcDbEntity
8
0
100
AcDbLine
62
7
6
BYLAYER
10
319.4268377745
20
161.5877135496
11
305.3404351351
21
144.0321381965
0
LINE
5
41E
100
AcDbEntity
8
0
100
AcDbLine
62
7
6
BYLAYER
10
320.9867557744
20
160.3360523201
11
306.9003531351
21
142.7804769670
0
LINE
5
41F
100
AcDbEntity
8
0
100
AcDbLine
62
7
6
BYLAYER
10
356.5202489149
20
158.8927725449
11
363.9516050763
21
164.3393674079
0
LINE
5
420
100
AcDbEntity
8
0
100
AcDbLine
62
7
6
BYLAYER
10
357.6914921387
20
162.2118320402
11
350.1799790540
21
156.9130424446
0
LINE
5
421
100
AcDbEntity
8
0
100
AcDbLine
62
7
6
BYLAYER
10
196.4086925345
20
127.9109751925
11
196.4086925345
21
119.9109751925
0
LINE
5
422
100
AcDbEntity
8
0
100
AcDbLine
62
7
6
BYLAYER
10
196.8586925345
20
127.9109751925
11
196.8586925345
21
119.9109751925
0
LINE
5
423
100
AcDbEntity
8
0
100
AcDbLine
62
7
6
BYLAYER
10
204.0522760050
20
127.9109751925
11
204.0522760050
21
119.9109751925
0
LINE
5
424
100
AcDbEntity
8
0
100
AcDbLine
62
7
6
BYLAYER
10
221.6701949607
20
149.5981943881
11
221.3561349634
21
146.2127304143
0
LINE
5
425
100
AcDbEntity
8
0
100
AcDbLine
62
7
6
BYLAYER
10
224.8668618164
20
149.3016485699
11
224.5528018191
21
145.9161845961
0
LINE
5
426
100
AcDbEntity
8
0
100
AcDbLine
62
7
6
BYLAYER
10
235.5760514418
20
148.3081870854
11
235.2619914445
21
144.9227231116
0
LINE
5
427
100
AcDbEntity
8
0
100
AcDbLine
62
7
6
BYLAYER
10
255.4526349152
20
152.2891954057
11
254.0670761035
21
137.3533249329
0
LINE
5
428
100
AcDbEntity
8
0
100
AcDbLine
62
7
6
BYLAYER
10
298.9210908092
20
142.1864681212
11
298.8144651063
21
141.4946365235
0
LINE
5
429
100
AcDbEntity
8
0
100
AcDbLine
62
7
6
BYLAYER
10
298.5098202408
20
139.5179748160
11
298.1137819157
21
136.9483145963
0
LINE
5
42A
100
AcDbEntity
8
0
100
AcDbLine
62
7
6
BYLAYER
10
297.8091370502
20
134.9716528888
11
297.7025113473
21
134.2798212911
0
LINE
5
42B
100
AcDbEntity
8
0
100
AcDbLine
62
7
6
BYLAYER
10
335.0147062360
20
162.2224030684
11
334.7100613705
21
160.2457413609
0
LINE
5
42C
100
AcDbEntity
8
0
100
AcDbLine
62
7
6
BYLAYER
10
341.7362301104
20
161.1864758136
11
341.4315852449
21
159.2098141060
0
LINE
5
42D
100
AcDbEntity
8
0
100
AcDbLine
62
7
6
BYLAYER
10
349.8010098770
20
159.9435247625
11
349.4963650116
21
157.9668630550
0
LINE
5
42E
100
AcDbEntity
8
0
100
AcDbLine
62
7
6
BYLAYER
10
332.8767407321
20
159.9018306746
11
332.5363217338
21
157.9310148776
0
LINE
5
42F
100
AcDbEntity
8
0
100
AcDbLine
62
7
6
BYLAYER
10
339.5783859256
20
158.7442555489
11
339.2379669272
21
156.7734397519
0
LINE
5
430
100
AcDbEntity
8
0
100
AcDbLine
62
7
6
BYLAYER
10
342.3867984363
20
158.2591584762
11
342.0463794379
21
156.2883426793
0
LINE
5
431
100
AcDbEntity
8
0
100
AcDbLine
62
7
6
BYLAYER
10
349.4754124066
20
157.0347422365
11
349.1349934082
21
155.0639264395
0
LINE
5
432
100
AcDbEntity
8
0
100
AcDbLine
62
7
6
BYLAYER
10
356.5225337514
20
158.9075975077
11
356.2178888859
21
156.9309358002
0
LINE
5
433
100
AcDbEntity
8
0
100
AcDbLine
62
7
6
BYLAYER
10
377.2940716021
20
162.2830145660
11
375.0092351111
21
147.4580517597
0
LINE
5
434
100
AcDbEntity
8
0
100
AcDbLine
62
7
6
BYLAYER
10
364.0070207376
20
145.8988280704
11
366.5601632250
21
160.6799465477
0
LINE
5
435
100
AcDbEntity
8
0
100
AcDbLine
62
7
6
BYLAYER
10
240.6247926780
20
138.6003278634
11
235.3853388357
21
144.9112805201
0
LINE
5
436
100
AcDbEntity
8
0
100
AcDbLine
62
7
6
BYLAYER
10
349.8395600556
20
154.9422266476
11
355.1383496512
21
147.4307135629
0
LINE
5
437
100
AcDbEntity
8
0
100
AcDbLine
62
7
6
BYLAYER
10
361.6667685854
20
149.5144046015
11
356.2201737224
21
156.9457607630
0
LINE
5
438
100
AcDbEntity
8
0
100
AcDbLine
62
7
6
BYLAYER
10
167.6288265116
20
112.3109751925
11
127.6288265116
21
112.3109751925
0
LINE
5
439
100
AcDbEntity
8
0
100
AcDbLine
62
7
6
BYLAYER
10
209.1955700032
20
119.9109751925
11
167.6288265116
21
119.9109751925
0
LINE
5
43A
100
AcDbEntity
8
0
100
AcDbLine
62
7
6
BYLAYER
10
209.1955700032
20
127.9109751925
11
189.6078081456
21
127.9109751925
0
LINE
5
43B
100
AcDbEntity
8
0
100
AcDbLine
62
7
6
BYLAYER
10
194.0172377816
20
129.1109751925
11
189.6078081456
21
129.1109751925
0
LINE
5
43C
100
AcDbEntity
8
0
100
AcDbLine
62
7
6
BYLAYER
10
194.0172377816
20
132.5109751925
11
167.6288265116
21
132.5109751925
0
LINE
5
43D
100
AcDbEntity
8
0
100
AcDbLine
62
7
6
BYLAYER
10
167.6288265116
20
140.1109751925
11
127.6288265116
21
140.1109751925
0
LINE
5
43E
100
AcDbEntity
8
0
100
AcDbLine
62
7
6
BYLAYER
10
254.0670761035
20
137.3533249329
11
240.6247926780
21
138.6003278634
0
LINE
5
43F
100
AcDbEntity
8
0
100
AcDbLine
62
7
6
BYLAYER
10
235.3853388357
20
144.9112805201
11
207.7019926582
21
147.4793868989
0
LINE
5
440
100
AcDbEntity
8
0
100
AcDbLine
62
7
6
BYLAYER
10
235.6993988330
20
148.2967444939
11
208.0160526556
21
150.8648508727
0
LINE
5
441
100
AcDbEntity
8
0
100
AcDbLine
62
7
6
BYLAYER
10
242.0103514897
20
153.5361983362
11
255.4526349152
21
152.2891954057
0
LINE
5
442
100
AcDbEntity
8
0
100
AcDbLine
62
7
6
BYLAYER
10
297.7025113473
20
134.2798212911
11
285.9435868516
21
136.0921172229
0
LINE
5
443
100
AcDbEntity
8
0
100
AcDbLine
62
7
6
BYLAYER
10
304.5372839129
20
133.9347048931
11
297.8091370502
21
134.9716528888
0
LINE
5
444
100
AcDbEntity
8
0
100
AcDbLine
62
7
6
BYLAYER
10
304.8419287783
20
135.9113666006
11
298.1137819157
21
136.9483145963
0
LINE
5
445
100
AcDbEntity
8
0
100
AcDbLine
62
7
6
BYLAYER
10
298.9210908092
20
142.1864681212
11
287.1621663135
21
143.9987640529
0
LINE
5
446
100
AcDbEntity
8
0
100
AcDbLine
62
7
6
BYLAYER
10
375.0092351111
20
147.4580517597
11
361.6667685854
21
149.5144046015
0
LINE
5
447
100
AcDbEntity
8
0
100
AcDbLine
62
7
6
BYLAYER
10
355.1383496512
20
147.4307135629
11
364.0070207376
21
145.8988280704
0
LINE
5
448
100
AcDbEntity
8
0
100
AcDbLine
62
7
6
BYLAYER
10
349.8395600556
20
154.9422266476
11
330.5193980405
21
158.2793980925
0
LINE
5
449
100
AcDbEntity
8
0
100
AcDbLine
62
7
6
BYLAYER
10
350.1799790540
20
156.9130424446
11
330.8598170389
21
160.2502138895
0
LINE
5
44A
100
AcDbEntity
8
0
100
AcDbLine
62
7
6
BYLAYER
10
285.3246667849
20
136.0734060072
11
212.2235691881
21
120.2352383269
0
LINE
5
44B
100
AcDbEntity
8
0
100
AcDbLine
62
7
6
BYLAYER
10
283.6306812270
20
143.8920000579
11
210.5295836301
21
128.0538323776
0
LINE
5
44C
100
AcDbEntity
8
0
100
AcDbLine
62
7
6
BYLAYER
10
356.2329807752
20
156.9286098247
11
324.7158815052
21
161.7860532761
0
LINE
5
44D
100
AcDbEntity
8
0
100
AcDbLine
62
7
6
BYLAYER
10
356.5225337514
20
158.9075975077
11
325.0205263707
21
163.7627149836
0
LINE
5
44E
100
AcDbEntity
8
0
100
AcDbLine
62
7
6
BYLAYER
10
363.9516050763
20
164.3393674079
11
377.2940716021
21
162.2830145660
0
LINE
5
44F
100
AcDbEntity
8
0
100
AcDbLine
62
7
6
BYLAYER
10
366.5601632250
20
160.6799465477
11
357.6914921387
21
162.2118320402
0
ARC
5
450
100
AcDbEntity
8
DEFAULT_1
100
AcDbCircle
62
7
6
BYLAYER
10
314.8436162465
20
141.1157093895
40
20.6000000000
100
AcDbArc
50
354.3795621552
51
82.3844610000
0
ARC
5
451
100
AcDbEntity
8
0
100
AcDbCircle
62
7
6
BYLAYER
10
207.3971697197
20
144.1934953948
40
6.7000000000
100
AcDbArc
50
84.7000000000
51
161.3653188562
0
ARC
5
452
100
AcDbEntity
8
0
100
AcDbCircle
62
7
6
BYLAYER
10
194.0172377816
20
135.8109751925
40
3.3000000000
100
AcDbArc
50
270.0000000000
51
341.3653188562
0
ARC
5
453
100
AcDbEntity
8
0
100
AcDbCircle
62
7
6
BYLAYER
10
207.3971697197
20
144.1934953948
40
3.3000000000
100
AcDbArc
50
84.7000000000
51
161.3653188562
0
ARC
5
454
100
AcDbEntity
8
0
100
AcDbCircle
62
7
6
BYLAYER
10
194.0172377816
20
135.8109751925
40
6.7000000000
100
AcDbArc
50
270.0000000000
51
341.3653188562
0
ARC
5
455
100
AcDbEntity
8
0
100
AcDbCircle
62
7
6
BYLAYER
10
324.1065917743
20
157.8327298611
40
6.0000000000
100
AcDbArc
50
81.2384610000
51
141.2568216311
0
ARC
5
456
100
AcDbEntity
8
0
100
AcDbCircle
62
7
6
BYLAYER
10
299.8807221354
20
148.4129524998
40
7.0000000000
100
AcDbArc
50
261.2384610000
51
321.2568216312
0
ARC
5
457
100
AcDbEntity
8
0
100
AcDbCircle
62
7
6
BYLAYER
10
285.6846387160
20
134.4119547715
40
9.7000000000
100
AcDbArc
50
81.2384610000
51
102.2248206234
0
ARC
5
458
100
AcDbEntity
8
0
100
AcDbCircle
62
7
6
BYLAYER
10
209.1955700032
20
134.2109751925
40
6.3000000000
100
AcDbArc
50
270.0000000000
51
282.2248206234
0
ARC
5
459
100
AcDbEntity
8
0
100
AcDbCircle
62
7
6
BYLAYER
10
329.8385600439
20
154.3377664986
40
6.0000000000
100
AcDbArc
50
80.2000000000
51
141.3357544314
0
ARC
5
45A
100
AcDbEntity
8
0
100
AcDbCircle
62
7
6
BYLAYER
10
305.4512185093
20
139.8646900156
40
4.0000000000
100
AcDbArc
50
261.2384610000
51
321.3357544314
0
ARC
5
45B
100
AcDbEntity
8
0
100
AcDbCircle
62
7
6
BYLAYER
10
329.8385600439
20
154.3377664986
40
4.0000000000
100
AcDbArc
50
80.2000000000
51
141.3357544314
0
ARC
5
45C
100
AcDbEntity
8
0
100
AcDbCircle
62
7
6
BYLAYER
10
209.1955700032
20
134.2109751925
40
14.3000000000
100
AcDbArc
50
270.0000000000
51
282.2248206234
0
ARC
5
45D
100
AcDbEntity
8
0
100
AcDbCircle
62
7
6
BYLAYER
10
305.4512185093
20
139.8646900156
40
6.0000000000
100
AcDbArc
50
261.2384610000
51
321.3357544314
0
ARC
5
45E
100
AcDbEntity
8
0
100
AcDbCircle
62
7
6
BYLAYER
10
324.1065917743
20
157.8327298611
40
4.0000000000
100
AcDbArc
50
81.2384610000
51
141.2568216311
0
ARC
5
45F
100
AcDbEntity
8
0
100
AcDbCircle
62
7
6
BYLAYER
10
285.6846387160
20
134.4119547715
40
1.7000000000
100
AcDbArc
50
81.2384610000
51
102.2248206234
0
ARC
5
460
100
AcDbEntity
8
0
100
AcDbCircle
62
7
6
BYLAYER
10
299.8807221354
20
148.4129524998
40
9.0000000000
100
AcDbArc
50
261.2384610000
51
321.2568216312
0
SPLINE
5
461
100
AcDbEntity
8
0
100
AcDbSpline
62
7
6
BYLAYER
70
0
71
3
72
9
73
5
74
3
42
0.0000001000
43
0.0000001000
44
0.0000000001
40
0.0000000000
40
0.0000000000
40
0.0000000000
40
0.0000000000
40
0.8851718017
40
1.0000000000
40
1.0000000000
40
1.0000000000
40
1.0000000000
10
60.6286650230
20
173.5252382870
30
0.0000000000
10
60.6238023907
20
173.4663319949
30
0.0000000000
10
60.6118953716
20
173.4007908174
30
0.0000000000
10
60.5920504063
20
173.3377944163
30
0.0000000000
10
60.5896697055
20
173.3305946651
30
0.0000000000
11
60.6286650230
21
173.5252382870
31
0.0000000000
11
60.5965032636
21
173.3522954970
31
0.0000000000
11
60.5896697055
21
173.3305946651
31
0.0000000000
0
SPLINE
5
462
100
AcDbEntity
8
0
100
AcDbSpline
62
7
6
BYLAYER
70
0
71
3
72
8
73
4
74
2
42
0.0000001000
43
0.0000001000
44
0.0000000001
40
0.0000000000
40
0.0000000000
40
0.0000000000
40
0.0000000000
40
1.0000000000
40
1.0000000000
40
1.0000000000
40
1.0000000000
10
60.5896697055
20
173.3305946651
30
0.0000000000
10
60.5099648311
20
173.0895499870
30
0.0000000000
10
60.3159980655
20
172.8866288210
30
0.0000000000
10
60.1100931682
20
172.7390131285
30
0.0000000000
11
60.5896697055
21
173.3305946651
31
0.0000000000
11
60.1100931682
21
172.7390131285
31
0.0000000000
0
SPLINE
5
463
100
AcDbEntity
8
0
100
AcDbSpline
62
7
6
BYLAYER
70
0
71
3
72
8
73
4
74
2
42
0.0000001000
43
0.0000001000
44
0.0000000001
40
0.0000000000
40
0.0000000000
40
0.0000000000
40
0.0000000000
40
1.0000000000
40
1.0000000000
40
1.0000000000
40
1.0000000000
10
54.3100720081
20
182.3051191968
30
0.0000000000
10
54.3064010304
20
182.2740989736
30
0.0000000000
10
54.3044476701
20
182.2429654822
30
0.0000000000
10
54.3043422155
20
182.2118666439
30
0.0000000000
11
54.3100720081
21
182.3051191968
31
0.0000000000
11
54.3043422155
21
182.2118666439
31
0.0000000000
0
SPLINE
5
464
100
AcDbEntity
8
0
100
AcDbSpline
62
7
6
BYLAYER
70
0
71
3
72
8
73
4
74
2
42
0.0000001000
43
0.0000001000
44
0.0000000001
40
0.0000000000
40
0.0000000000
40
0.0000000000
40
0.0000000000
40
1.0000000000
40
1.0000000000
40
1.0000000000
40
1.0000000000
10
54.3043422155
20
182.2118666439
30
0.0000000000
10
54.3036638954
20
182.0118282147
30
0.0000000000
10
54.3794427700
20
181.8132235597
30
0.0000000000
10
54.4883075129
20
181.6417179242
30
0.0000000000
11
54.3043422155
21
182.2118666439
31
0.0000000000
11
54.4883075129
21
181.6417179242
31
0.0000000000
0
SPLINE
5
465
100
AcDbEntity
8
0
100
AcDbSpline
62
7
6
BYLAYER
70
0
71
3
72
8
73
4
74
2
42
0.0000001000
43
0.0000001000
44
0.0000000001
40
0.0000000000
40
0.0000000000
40
0.0000000000
40
0.0000000000
40
1.0000000000
40
1.0000000000
40
1.0000000000
40
1.0000000000
10
54.4883075129
20
181.6417179242
30
0.0000000000
10
54.6249079871
20
181.4265173869
30
0.0000000000
10
54.8136006312
20
181.2539830029
30
0.0000000000
10
55.0162038386
20
181.1065384513
30
0.0000000000
11
54.4883075129
21
181.6417179242
31
0.0000000000
11
55.0162038386
21
181.1065384513
31
0.0000000000
0
SPLINE
5
466
100
AcDbEntity
8
0
100
AcDbSpline
62
7
6
BYLAYER
70
0
71
3
72
10
73
6
74
4
42
0.0000001000
43
0.0000001000
44
0.0000000001
40
0.0000000000
40
0.0000000000
40
0.0000000000
40
0.0000000000
40
0.2211580250
40
0.5770355050
40
1.0000000000
40
1.0000000000
40
1.0000000000
40
1.0000000000
10
55.2062485796
20
185.4868392537
30
0.0000000000
10
55.1036106359
20
185.5360638294
30
0.0000000000
10
54.8144646343
20
185.6222784314
30
0.0000000000
10
54.2941154704
20
185.5680327252
30
0.0000000000
10
53.9271069139
20
185.4031462680
30
0.0000000000
10
53.7400693692
20
185.2955083132
30
0.0000000000
11
55.2062485796
21
185.4868392537
31
0.0000000000
11
54.8803384807
21
185.5848877699
31
0.0000000000
11
54.3370125657
21
185.5460668333
31
0.0000000000
11
53.7400693692
21
185.2955083132
31
0.0000000000
0
SPLINE
5
467
100
AcDbEntity
8
0
100
AcDbSpline
62
7
6
BYLAYER
70
0
71
3
72
11
73
7
74
5
42
0.0000001000
43
0.0000001000
44
0.0000000001
40
0.0000000000
40
0.0000000000
40
0.0000000000
40
0.0000000000
40
0.0769523312
40
0.3358853240
40
0.6391921705
40
1.0000000000
40
1.0000000000
40
1.0000000000
40
1.0000000000
10
53.3381416267
20
169.4924501136
30
0.0000000000
10
53.2970088724
20
169.5121771493
30
0.0000000000
10
53.1239709761
20
169.6111386397
30
0.0000000000
10
52.8683033152
20
169.9030093734
30
0.0000000000
10
52.6796559621
20
170.4200604095
30
0.0000000000
10
52.6403044192
20
170.8111587725
30
0.0000000000
10
52.6369359378
20
171.0235123071
30
0.0000000000
11
53.3381416267
21
169.4924501136
31
0.0000000000
11
53.2197525688
21
169.5603778792
31
0.0000000000
11
52.9093785670
21
169.8950932307
31
0.0000000000
11
52.7115101685
21
170.3918327721
31
0.0000000000
11
52.6369359378
21
171.0235123071
31
0.0000000000
0
SPLINE
5
468
100
AcDbEntity
8
0
100
AcDbSpline
62
7
6
BYLAYER
70
0
71
3
72
8
73
4
74
2
42
0.0000001000
43
0.0000001000
44
0.0000000001
40
0.0000000000
40
0.0000000000
40
0.0000000000
40
0.0000000000
40
1.0000000000
40
1.0000000000
40
1.0000000000
40
1.0000000000
10
52.6369359378
20
171.0235123071
30
0.0000000000
10
52.6330484048
20
171.2685875414
30
0.0000000000
10
52.6531500125
20
171.5134938016
30
0.0000000000
10
52.6897219557
20
171.7556901793
30
0.0000000000
11
52.6369359378
21
171.0235123071
31
0.0000000000
11
52.6897219557
21
171.7556901793
31
0.0000000000
0
SPLINE
5
469
100
AcDbEntity
8
0
100
AcDbSpline
62
7
6
BYLAYER
70
0
71
3
72
12
73
8
74
6
42
0.0000001000
43
0.0000001000
44
0.0000000001
40
0.0000000000
40
0.0000000000
40
0.0000000000
40
0.0000000000
40
0.1933604305
40
0.3983421631
40
0.6067256388
40
0.8099600973
40
1.0000000000
40
1.0000000000
40
1.0000000000
40
1.0000000000
10
52.6897219557
20
171.7556901793
30
0.0000000000
10
52.7301925578
20
172.0237052855
30
0.0000000000
10
52.8551164368
20
172.5690073570
30
0.0000000000
10
53.1457040042
20
173.3694908116
30
0.0000000000
10
53.5320135218
20
174.1438780349
30
0.0000000000
10
53.9934357560
20
174.8510179487
30
0.0000000000
10
54.3513851385
20
175.2723632871
30
0.0000000000
10
54.5391770811
20
175.4609317853
30
0.0000000000
11
52.6897219557
21
171.7556901793
31
0.0000000000
11
52.8669901207
21
172.5484451672
31
0.0000000000
11
53.1590750741
21
173.3585531463
31
0.0000000000
11
53.5500511938
21
174.1418438386
31
0.0000000000
11
54.0186009217
21
174.8556091504
31
0.0000000000
11
54.5391770811
21
175.4609317853
31
0.0000000000
0
SPLINE
5
46A
100
AcDbEntity
8
0
100
AcDbSpline
62
7
6
BYLAYER
70
0
71
3
72
9
73
5
74
3
42
0.0000001000
43
0.0000001000
44
0.0000000001
40
0.0000000000
40
0.0000000000
40
0.0000000000
40
0.0000000000
40
0.3785393264
40
1.0000000000
40
1.0000000000
40
1.0000000000
40
1.0000000000
10
109.3434872263
20
239.3676959347
30
0.0000000000
10
109.3420183026
20
239.3545639708
30
0.0000000000
10
109.3388524444
20
239.3197937926
30
0.0000000000
10
109.3376316601
20
239.2848529006
30
0.0000000000
10
109.3375891099
20
239.2631073357
30
0.0000000000
11
109.3434872263
21
239.3676959347
31
0.0000000000
11
109.3399002125
21
239.3282157492
31
0.0000000000
11
109.3375891099
21
239.2631073357
31
0.0000000000
0
SPLINE
5
46B
100
AcDbEntity
8
0
100
AcDbSpline
62
7
6
BYLAYER
70
0
71
3
72
8
73
4
74
2
42
0.0000001000
43
0.0000001000
44
0.0000000001
40
0.0000000000
40
0.0000000000
40
0.0000000000
40
0.0000000000
40
1.0000000000
40
1.0000000000
40
1.0000000000
40
1.0000000000
10
109.3375891099
20
239.2631073357
30
0.0000000000
10
109.3375270763
20
239.2314046863
30
0.0000000000
10
109.3389871142
20
239.1996357770
30
0.0000000000
10
109.3418604776
20
239.1679083093
30
0.0000000000
11
109.3375891099
21
239.2631073357
31
0.0000000000
11
109.3418604776
21
239.1679083093
31
0.0000000000
0
SPLINE
5
46C
100
AcDbEntity
8
0
100
AcDbSpline
62
7
6
BYLAYER
70
0
71
3
72
8
73
4
74
2
42
0.0000001000
43
0.0000001000
44
0.0000000001
40
0.0000000000
40
0.0000000000
40
0.0000000000
40
0.0000000000
40
1.0000000000
40
1.0000000000
40
1.0000000000
40
1.0000000000
10
109.3418604776
20
239.1679083093
30
0.0000000000
10
109.3601892590
20
238.9655232516
30
0.0000000000
10
109.4360260420
20
238.7648244416
30
0.0000000000
10
109.5411453136
20
238.5937662849
30
0.0000000000
11
109.3418604776
21
239.1679083093
31
0.0000000000
11
109.5411453136
21
238.5937662849
31
0.0000000000
0
SPLINE
5
46D
100
AcDbEntity
8
0
100
AcDbSpline
62
7
6
BYLAYER
70
0
71
3
72
8
73
4
74
2
42
0.0000001000
43
0.0000001000
44
0.0000000001
40
0.0000000000
40
0.0000000000
40
0.0000000000
40
0.0000000000
40
1.0000000000
40
1.0000000000
40
1.0000000000
40
1.0000000000
10
112.5947258293
20
257.1432451394
30
0.0000000000
10
112.8835715400
20
257.2802141651
30
0.0000000000
10
113.1985551196
20
257.3812591647
30
0.0000000000
10
113.5218580120
20
257.3753014983
30
0.0000000000
11
112.5947258293
21
257.1432451394
31
0.0000000000
11
113.5218580120
21
257.3753014983
31
0.0000000000
0
SPLINE
5
46E
100
AcDbEntity
8
0
100
AcDbSpline
62
7
6
BYLAYER
70
0
71
3
72
8
73
4
74
2
42
0.0000001000
43
0.0000001000
44
0.0000000001
40
0.0000000000
40
0.0000000000
40
0.0000000000
40
0.0000000000
40
1.0000000000
40
1.0000000000
40
1.0000000000
40
1.0000000000
10
113.5218580120
20
257.3753014983
30
0.0000000000
10
113.7407311489
20
257.3712682120
30
0.0000000000
10
113.9634171664
20
257.3181938099
30
0.0000000000
10
114.1578420632
20
257.2185303966
30
0.0000000000
11
113.5218580120
21
257.3753014983
31
0.0000000000
11
114.1578420632
21
257.2185303966
31
0.0000000000
0
SPLINE
5
46F
100
AcDbEntity
8
0
100
AcDbSpline
62
7
6
BYLAYER
70
0
71
3
72
8
73
4
74
2
42
0.0000001000
43
0.0000001000
44
0.0000000001
40
0.0000000000
40
0.0000000000
40
0.0000000000
40
0.0000000000
40
1.0000000000
40
1.0000000000
40
1.0000000000
40
1.0000000000
10
116.1899672283
20
224.0708214971
30
0.0000000000
10
116.1854901711
20
224.0312592260
30
0.0000000000
10
116.1785845718
20
223.9919509986
30
0.0000000000
10
116.1694687847
20
223.9530551402
30
0.0000000000
11
116.1899672283
21
224.0708214971
31
0.0000000000
11
116.1694687847
21
223.9530551402
31
0.0000000000
0
SPLINE
5
470
100
AcDbEntity
8
0
100
AcDbSpline
62
7
6
BYLAYER
70
0
71
3
72
8
73
4
74
2
42
0.0000001000
43
0.0000001000
44
0.0000000001
40
0.0000000000
40
0.0000000000
40
0.0000000000
40
0.0000000000
40
1.0000000000
40
1.0000000000
40
1.0000000000
40
1.0000000000
10
116.1694687847
20
223.9530551402
30
0.0000000000
10
116.1263179419
20
223.7689362002
30
0.0000000000
10
116.0336426785
20
223.5940573523
30
0.0000000000
10
115.9146034369
20
223.4452118901
30
0.0000000000
11
116.1694687847
21
223.9530551402
31
0.0000000000
11
115.9146034369
21
223.4452118901
31
0.0000000000
0
SPLINE
5
471
100
AcDbEntity
8
0
100
AcDbSpline
62
7
6
BYLAYER
70
0
71
3
72
8
73
4
74
2
42
0.0000001000
43
0.0000001000
44
0.0000000001
40
0.0000000000
40
0.0000000000
40
0.0000000000
40
0.0000000000
40
1.0000000000
40
1.0000000000
40
1.0000000000
40
1.0000000000
10
115.9146034369
20
223.4452118901
30
0.0000000000
10
115.7214600417
20
223.2037073448
30
0.0000000000
10
115.4589117097
20
223.0307374296
30
0.0000000000
10
115.1868477880
20
222.8947244999
30
0.0000000000
11
115.9146034369
21
223.4452118901
31
0.0000000000
11
115.1868477880
21
222.8947244999
31
0.0000000000
0
SPLINE
5
472
100
AcDbEntity
8
0
100
AcDbSpline
62
7
6
BYLAYER
70
0
71
3
72
9
73
5
74
3
42
0.0000001000
43
0.0000001000
44
0.0000000001
40
0.0000000000
40
0.0000000000
40
0.0000000000
40
0.0000000000
40
0.4862450799
40
1.0000000000
40
1.0000000000
40
1.0000000000
40
1.0000000000
10
103.3188469492
20
238.3464474073
30
0.0000000000
10
103.3169762603
20
238.3298819186
30
0.0000000000
10
103.3140056711
20
238.2957212909
30
0.0000000000
10
103.3129059013
20
238.2614194626
30
0.0000000000
10
103.3128156447
20
238.2437777175
30
0.0000000000
11
103.3188469492
21
238.3464474073
31
0.0000000000
11
103.3145297174
21
238.2966276596
31
0.0000000000
11
103.3128156447
21
238.2437777175
31
0.0000000000
0
SPLINE
5
473
100
AcDbEntity
8
0
100
AcDbSpline
62
7
6
BYLAYER
70
0
71
3
72
8
73
4
74
2
42
0.0000001000
43
0.0000001000
44
0.0000000001
40
0.0000000000
40
0.0000000000
40
0.0000000000
40
0.0000000000
40
1.0000000000
40
1.0000000000
40
1.0000000000
40
1.0000000000
10
103.3128156447
20
238.2437777175
30
0.0000000000
10
103.3126499738
20
238.2113953788
30
0.0000000000
10
103.3140838730
20
238.1789489837
30
0.0000000000
10
103.3169996130
20
238.1465514413
30
0.0000000000
11
103.3128156447
21
238.2437777175
31
0.0000000000
11
103.3169996130
21
238.1465514413
31
0.0000000000
0
SPLINE
5
474
100
AcDbEntity
8
0
100
AcDbSpline
62
7
6
BYLAYER
70
0
71
3
72
8
73
4
74
2
42
0.0000001000
43
0.0000001000
44
0.0000000001
40
0.0000000000
40
0.0000000000
40
0.0000000000
40
0.0000000000
40
1.0000000000
40
1.0000000000
40
1.0000000000
40
1.0000000000
10
103.3169996130
20
238.1465514413
30
0.0000000000
10
103.3351142255
20
237.9452752860
30
0.0000000000
10
103.4104243635
20
237.7458847304
30
0.0000000000
10
103.5146990832
20
237.5754548699
30
0.0000000000
11
103.3169996130
21
238.1465514413
31
0.0000000000
11
103.5146990832
21
237.5754548699
31
0.0000000000
0
SPLINE
5
475
100
AcDbEntity
8
0
100
AcDbSpline
62
7
6
BYLAYER
70
0
71
3
72
8
73
4
74
2
42
0.0000001000
43
0.0000001000
44
0.0000000001
40
0.0000000000
40
0.0000000000
40
0.0000000000
40
0.0000000000
40
1.0000000000
40
1.0000000000
40
1.0000000000
40
1.0000000000
10
109.0122273703
20
224.5363717053
30
0.0000000000
10
109.0078207475
20
224.4973497902
30
0.0000000000
10
109.0020625518
20
224.4584703981
30
0.0000000000
10
108.9950213780
20
224.4197828842
30
0.0000000000
11
109.0122273703
21
224.5363717053
31
0.0000000000
11
108.9950213780
21
224.4197828842
31
0.0000000000
0
SPLINE
5
476
100
AcDbEntity
8
0
100
AcDbSpline
62
7
6
BYLAYER
70
0
71
3
72
8
73
4
74
2
42
0.0000001000
43
0.0000001000
44
0.0000000001
40
0.0000000000
40
0.0000000000
40
0.0000000000
40
0.0000000000
40
1.0000000000
40
1.0000000000
40
1.0000000000
40
1.0000000000
10
108.9950213780
20
224.4197828842
30
0.0000000000
10
108.9303184218
20
224.0642744693
30
0.0000000000
10
108.7572783326
20
223.7249686295
30
0.0000000000
10
108.5291277693
20
223.4401630026
30
0.0000000000
11
108.9950213780
21
224.4197828842
31
0.0000000000
11
108.5291277693
21
223.4401630026
31
0.0000000000
0
SPLINE
5
477
100
AcDbEntity
8
0
100
AcDbSpline
62
7
6
BYLAYER
70
0
71
3
72
8
73
4
74
2
42
0.0000001000
43
0.0000001000
44
0.0000000001
40
0.0000000000
40
0.0000000000
40
0.0000000000
40
0.0000000000
40
1.0000000000
40
1.0000000000
40
1.0000000000
40
1.0000000000
10
108.5291277693
20
223.4401630026
30
0.0000000000
10
108.1911782254
20
223.0182927680
30
0.0000000000
10
107.7323096151
20
222.7160026127
30
0.0000000000
10
107.2567379270
20
222.4782500353
30
0.0000000000
11
108.5291277693
21
223.4401630026
31
0.0000000000
11
107.2567379270
21
222.4782500353
31
0.0000000000
0
SPLINE
5
478
100
AcDbEntity
8
0
100
AcDbSpline
62
7
6
BYLAYER
70
0
71
3
72
8
73
4
74
2
42
0.0000001000
43
0.0000001000
44
0.0000000001
40
0.0000000000
40
0.0000000000
40
0.0000000000
40
0.0000000000
40
1.0000000000
40
1.0000000000
40
1.0000000000
40
1.0000000000
10
113.2888412919
20
257.3239515480
30
0.0000000000
10
113.3356435294
20
257.2181367973
30
0.0000000000
10
113.3736169882
20
257.1076937005
30
0.0000000000
10
113.4039284997
20
256.9964949704
30
0.0000000000
11
113.2888412919
21
257.3239515480
31
0.0000000000
11
113.4039284997
21
256.9964949704
31
0.0000000000
0
SPLINE
5
479
100
AcDbEntity
8
0
100
AcDbSpline
62
7
6
BYLAYER
70
0
71
3
72
8
73
4
74
2
42
0.0000001000
43
0.0000001000
44
0.0000000001
40
0.0000000000
40
0.0000000000
40
0.0000000000
40
0.0000000000
40
1.0000000000
40
1.0000000000
40
1.0000000000
40
1.0000000000
10
113.4039284997
20
256.9964949704
30
0.0000000000
10
113.5216880608
20
256.5644903301
30
0.0000000000
10
113.5238054272
20
256.1210808747
30
0.0000000000
10
113.4775278031
20
255.6860228297
30
0.0000000000
11
113.4039284997
21
256.9964949704
31
0.0000000000
11
113.4775278031
21
255.6860228297
31
0.0000000000
0
SPLINE
5
47A
100
AcDbEntity
8
0
100
AcDbSpline
62
7
6
BYLAYER
70
0
71
3
72
9
73
5
74
3
42
0.0000001000
43
0.0000001000
44
0.0000000001
40
0.0000000000
40
0.0000000000
40
0.0000000000
40
0.0000000000
40
0.9501729361
40
1.0000000000
40
1.0000000000
40
1.0000000000
40
1.0000000000
10
117.4754649570
20
255.0854992565
30
0.0000000000
10
117.0093344195
20
254.8621081635
30
0.0000000000
10
116.5669435139
20
254.5277331649
30
0.0000000000
10
116.1729428025
20
254.1482909853
30
0.0000000000
10
116.1534303941
20
254.1292745778
30
0.0000000000
11
117.4754649570
21
255.0854992565
31
0.0000000000
11
116.2123267398
21
254.1859920748
31
0.0000000000
11
116.1534303941
21
254.1292745778
31
0.0000000000
0
SPLINE
5
47B
100
AcDbEntity
8
0
100
AcDbSpline
62
7
6
BYLAYER
70
0
71
3
72
8
73
4
74
2
42
0.0000001000
43
0.0000001000
44
0.0000000001
40
0.0000000000
40
0.0000000000
40
0.0000000000
40
0.0000000000
40
1.0000000000
40
1.0000000000
40
1.0000000000
40
1.0000000000
10
116.1534303941
20
254.1292745778
30
0.0000000000
10
115.7449137934
20
253.7311423751
30
0.0000000000
10
115.3887729217
20
253.2848303254
30
0.0000000000
10
115.0790441050
20
252.8084370965
30
0.0000000000
11
116.1534303941
21
254.1292745778
31
0.0000000000
11
115.0790441050
21
252.8084370965
31
0.0000000000
0
SPLINE
5
47C
100
AcDbEntity
8
0
100
AcDbSpline
62
7
6
BYLAYER
70
0
71
3
72
8
73
4
74
2
42
0.0000001000
43
0.0000001000
44
0.0000000001
40
0.0000000000
40
0.0000000000
40
0.0000000000
40
0.0000000000
40
1.0000000000
40
1.0000000000
40
1.0000000000
40
1.0000000000
10
115.0790441050
20
252.8084370965
30
0.0000000000
10
114.9881901268
20
252.6686947874
30
0.0000000000
10
114.9013296649
20
252.5263641490
30
0.0000000000
10
114.8186479531
20
252.3816255108
30
0.0000000000
11
115.0790441050
21
252.8084370965
31
0.0000000000
11
114.8186479531
21
252.3816255108
31
0.0000000000
0
SPLINE
5
47D
100
AcDbEntity
8
0
100
AcDbSpline
62
7
6
BYLAYER
70
0
71
3
72
8
73
4
74
2
42
0.0000001000
43
0.0000001000
44
0.0000000001
40
0.0000000000
40
0.0000000000
40
0.0000000000
40
0.0000000000
40
1.0000000000
40
1.0000000000
40
1.0000000000
40
1.0000000000
10
114.8186479531
20
252.3816255108
30
0.0000000000
10
114.5954183787
20
251.9908505265
30
0.0000000000
10
114.4026488769
20
251.5825229605
30
0.0000000000
10
114.2439848608
20
251.1601917097
30
0.0000000000
11
114.8186479531
21
252.3816255108
31
0.0000000000
11
114.2439848608
21
251.1601917097
31
0.0000000000
0
SPLINE
5
47E
100
AcDbEntity
8
0
100
AcDbSpline
62
7
6
BYLAYER
70
0
71
3
72
8
73
4
74
2
42
0.0000001000
43
0.0000001000
44
0.0000000001
40
0.0000000000
40
0.0000000000
40
0.0000000000
40
0.0000000000
40
1.0000000000
40
1.0000000000
40
1.0000000000
40
1.0000000000
10
114.2439848608
20
251.1601917097
30
0.0000000000
10
114.0412292784
20
250.6204977024
30
0.0000000000
10
113.8941682835
20
250.0579355424
30
0.0000000000
10
113.8334185865
20
249.4868248825
30
0.0000000000
11
114.2439848608
21
251.1601917097
31
0.0000000000
11
113.8334185865
21
249.4868248825
31
0.0000000000
0
SPLINE
5
47F
100
AcDbEntity
8
0
100
AcDbSpline
62
7
6
BYLAYER
70
0
71
3
72
11
73
7
74
5
42
0.0000001000
43
0.0000001000
44
0.0000000001
40
0.0000000000
40
0.0000000000
40
0.0000000000
40
0.0000000000
40
0.2077449602
40
0.4551383852
40
0.7274803677
40
1.0000000000
40
1.0000000000
40
1.0000000000
40
1.0000000000
10
50.1420590872
20
165.5928098397
30
0.0000000000
10
49.8061002760
20
165.3519569352
30
0.0000000000
10
49.1555377414
20
164.7070250474
30
0.0000000000
10
48.3244417501
20
163.5167790572
30
0.0000000000
10
47.6115372396
20
162.1046661251
30
0.0000000000
10
47.2517796376
20
161.0791170152
30
0.0000000000
10
47.1090564312
20
160.5551784190
30
0.0000000000
11
50.1420590872
21
165.5928098397
31
0.0000000000
11
49.2394191500
21
164.7424292520
31
0.0000000000
11
48.3815107381
21
163.5403726322
31
0.0000000000
11
47.6443087870
21
162.0913942696
31
0.0000000000
11
47.1090564312
21
160.5551784190
31
0.0000000000
0
SPLINE
5
480
100
AcDbEntity
8
0
100
AcDbSpline
62
7
6
BYLAYER
70
0
71
3
72
8
73
4
74
2
42
0.0000001000
43
0.0000001000
44
0.0000000001
40
0.0000000000
40
0.0000000000
40
0.0000000000
40
0.0000000000
40
1.0000000000
40
1.0000000000
40
1.0000000000
40
1.0000000000
10
47.1090564312
20
160.5551784190
30
0.0000000000
10
46.9887304149
20
160.1134601755
30
0.0000000000
10
46.8948552150
20
159.6639256842
30
0.0000000000
10
46.8385044806
20
159.2101685817
30
0.0000000000
11
47.1090564312
21
160.5551784190
31
0.0000000000
11
46.8385044806
21
159.2101685817
31
0.0000000000
0
SPLINE
5
481
100
AcDbEntity
8
0
100
AcDbSpline
62
7
6
BYLAYER
70
0
71
3
72
8
73
4
74
2
42
0.0000001000
43
0.0000001000
44
0.0000000001
40
0.0000000000
40
0.0000000000
40
0.0000000000
40
0.0000000000
40
1.0000000000
40
1.0000000000
40
1.0000000000
40
1.0000000000
10
46.8385044806
20
159.2101685817
30
0.0000000000
10
46.8325936096
20
159.1625720469
30
0.0000000000
10
46.8270956134
20
159.1149290516
30
0.0000000000
10
46.8220232723
20
159.0672437432
30
0.0000000000
11
46.8385044806
21
159.2101685817
31
0.0000000000
11
46.8220232723
21
159.0672437432
31
0.0000000000
0
SPLINE
5
482
100
AcDbEntity
8
0
100
AcDbSpline
62
7
6
BYLAYER
70
0
71
3
72
9
73
5
74
3
42
0.0000001000
43
0.0000001000
44
0.0000000001
40
0.0000000000
40
0.0000000000
40
0.0000000000
40
0.0000000000
40
0.5920036283
40
1.0000000000
40
1.0000000000
40
1.0000000000
40
1.0000000000
10
52.3498982202
20
184.4954808139
30
0.0000000000
10
51.9430662223
20
184.2613536806
30
0.0000000000
10
51.2871989506
20
183.7642425247
30
0.0000000000
10
50.9683147446
20
182.9868588154
30
0.0000000000
10
50.9300636061
20
182.6636318796
30
0.0000000000
11
52.3498982202
21
184.4954808139
31
0.0000000000
11
51.2846164941
21
183.5745438205
31
0.0000000000
11
50.9300636061
21
182.6636318796
31
0.0000000000
0
SPLINE
5
483
100
AcDbEntity
8
0
100
AcDbSpline
62
7
6
BYLAYER
70
0
71
3
72
9
73
5
74
3
42
0.0000001000
43
0.0000001000
44
0.0000000001
40
0.0000000000
40
0.0000000000
40
0.0000000000
40
0.0000000000
40
0.7164405595
40
1.0000000000
40
1.0000000000
40
1.0000000000
40
1.0000000000
10
110.5602545705
20
226.0599788058
30
0.0000000000
10
110.7856410559
20
225.6916000906
30
0.0000000000
10
111.0196229729
20
225.1088025222
30
0.0000000000
10
111.0171051158
20
224.4960419589
30
0.0000000000
10
110.9984366231
20
224.3241424508
30
0.0000000000
11
110.5602545705
21
226.0599788058
31
0.0000000000
11
110.9995170496
21
224.8411408406
31
0.0000000000
11
110.9984366231
21
224.3241424508
31
0.0000000000
0
SPLINE
5
484
100
AcDbEntity
8
0
100
AcDbSpline
62
7
6
BYLAYER
70
0
71
3
72
8
73
4
74
2
42
0.0000001000
43
0.0000001000
44
0.0000000001
40
0.0000000000
40
0.0000000000
40
0.0000000000
40
0.0000000000
40
1.0000000000
40
1.0000000000
40
1.0000000000
40
1.0000000000
10
62.5789192250
20
175.6027698110
30
0.0000000000
10
62.9652121703
20
175.3216449915
30
0.0000000000
10
63.3242522467
20
174.9946638807
30
0.0000000000
10
63.5981272494
20
174.5950517767
30
0.0000000000
11
62.5789192250
21
175.6027698110
31
0.0000000000
11
63.5981272494
21
174.5950517767
31
0.0000000000
0
SPLINE
5
485
100
AcDbEntity
8
0
100
AcDbSpline
62
7
6
BYLAYER
70
0
71
3
72
8
73
4
74
2
42
0.0000001000
43
0.0000001000
44
0.0000000001
40
0.0000000000
40
0.0000000000
40
0.0000000000
40
0.0000000000
40
1.0000000000
40
1.0000000000
40
1.0000000000
40
1.0000000000
10
63.5981272494
20
174.5950517767
30
0.0000000000
10
63.6196182312
20
174.5636941999
30
0.0000000000
10
63.6405848051
20
174.5318893943
30
0.0000000000
10
63.6609551547
20
174.4996659936
30
0.0000000000
11
63.5981272494
21
174.5950517767
31
0.0000000000
11
63.6609551547
21
174.4996659936
31
0.0000000000
0
SPLINE
5
486
100
AcDbEntity
8
0
100
AcDbSpline
62
7
6
BYLAYER
70
0
71
3
72
8
73
4
74
2
42
0.0000001000
43
0.0000001000
44
0.0000000001
40
0.0000000000
40
0.0000000000
40
0.0000000000
40
0.0000000000
40
1.0000000000
40
1.0000000000
40
1.0000000000
40
1.0000000000
10
63.6609551547
20
174.4996659936
30
0.0000000000
10
63.8498386565
20
174.2008754055
30
0.0000000000
10
63.9874595549
20
173.8660945356
30
0.0000000000
10
64.0165633965
20
173.5181511195
30
0.0000000000
11
63.6609551547
21
174.4996659936
31
0.0000000000
11
64.0165633965
21
173.5181511195
31
0.0000000000
0
SPLINE
5
487
100
AcDbEntity
8
0
100
AcDbSpline
62
7
6
BYLAYER
70
0
71
3
72
8
73
4
74
2
42
0.0000001000
43
0.0000001000
44
0.0000000001
40
0.0000000000
40
0.0000000000
40
0.0000000000
40
0.0000000000
40
1.0000000000
40
1.0000000000
40
1.0000000000
40
1.0000000000
10
112.7355856708
20
248.7109911613
30
0.0000000000
10
112.6856085524
20
248.2411540023
30
0.0000000000
10
112.5718870696
20
247.7776560105
30
0.0000000000
10
112.4151745673
20
247.3298984508
30
0.0000000000
11
112.7355856708
21
248.7109911613
31
0.0000000000
11
112.4151745673
21
247.3298984508
31
0.0000000000
0
SPLINE
5
488
100
AcDbEntity
8
0
100
AcDbSpline
62
7
6
BYLAYER
70
0
71
3
72
9
73
5
74
3
42
0.0000001000
43
0.0000001000
44
0.0000000001
40
0.0000000000
40
0.0000000000
40
0.0000000000
40
0.0000000000
40
0.0705054235
40
1.0000000000
40
1.0000000000
40
1.0000000000
40
1.0000000000
10
112.4151745673
20
247.3298984508
30
0.0000000000
10
112.4013061950
20
247.2902738614
30
0.0000000000
10
112.1998315451
20
246.7300145715
30
0.0000000000
10
111.9335210272
20
246.1958639143
30
0.0000000000
10
111.6377180832
20
245.7299400322
30
0.0000000000
11
112.4151745673
21
247.3298984508
31
0.0000000000
11
112.3725737839
21
247.2114010108
31
0.0000000000
11
111.6377180832
21
245.7299400322
31
0.0000000000
0
SPLINE
5
489
100
AcDbEntity
8
0
100
AcDbSpline
62
7
6
BYLAYER
70
0
71
3
72
8
73
4
74
2
42
0.0000001000
43
0.0000001000
44
0.0000000001
40
0.0000000000
40
0.0000000000
40
0.0000000000
40
0.0000000000
40
1.0000000000
40
1.0000000000
40
1.0000000000
40
1.0000000000
10
111.6377180832
20
245.7299400322
30
0.0000000000
10
111.3529091729
20
245.2813330260
30
0.0000000000
10
111.0233528097
20
244.8610624031
30
0.0000000000
10
110.6421290722
20
244.4873471873
30
0.0000000000
11
111.6377180832
21
245.7299400322
31
0.0000000000
11
110.6421290722
21
244.4873471873
31
0.0000000000
0
SPLINE
5
48A
100
AcDbEntity
8
0
100
AcDbSpline
62
7
6
BYLAYER
70
0
71
3
72
8
73
4
74
2
42
0.0000001000
43
0.0000001000
44
0.0000000001
40
0.0000000000
40
0.0000000000
40
0.0000000000
40
0.0000000000
40
1.0000000000
40
1.0000000000
40
1.0000000000
40
1.0000000000
10
110.6421290722
20
244.4873471873
30
0.0000000000
10
110.4862282361
20
244.3345169490
30
0.0000000000
10
110.3216866107
20
244.1894725808
30
0.0000000000
10
110.1481244312
20
244.0573247785
30
0.0000000000
11
110.6421290722
21
244.4873471873
31
0.0000000000
11
110.1481244312
21
244.0573247785
31
0.0000000000
0
SPLINE
5
48B
100
AcDbEntity
8
0
100
AcDbSpline
62
7
6
BYLAYER
70
0
71
3
72
8
73
4
74
2
42
0.0000001000
43
0.0000001000
44
0.0000000001
40
0.0000000000
40
0.0000000000
40
0.0000000000
40
0.0000000000
40
1.0000000000
40
1.0000000000
40
1.0000000000
40
1.0000000000
10
110.1481244312
20
244.0573247785
30
0.0000000000
10
109.9547022742
20
243.9100558688
30
0.0000000000
10
109.7500770878
20
243.7788037807
30
0.0000000000
10
109.5337232562
20
243.6706419990
30
0.0000000000
11
110.1481244312
21
244.0573247785
31
0.0000000000
11
109.5337232562
21
243.6706419990
31
0.0000000000
0
SPLINE
5
48C
100
AcDbEntity
8
0
100
AcDbSpline
62
7
6
BYLAYER
70
0
71
3
72
8
73
4
74
2
42
0.0000001000
43
0.0000001000
44
0.0000000001
40
0.0000000000
40
0.0000000000
40
0.0000000000
40
0.0000000000
40
1.0000000000
40
1.0000000000
40
1.0000000000
40
1.0000000000
10
108.9323444911
20
241.3784274797
30
0.0000000000
10
108.6315907758
20
241.2342925308
30
0.0000000000
10
108.3376965561
20
241.0617944278
30
0.0000000000
10
108.0833967745
20
240.8421163660
30
0.0000000000
11
108.9323444911
21
241.3784274797
31
0.0000000000
11
108.0833967745
21
240.8421163660
31
0.0000000000
0
SPLINE
5
48D
100
AcDbEntity
8
0
100
AcDbSpline
62
7
6
BYLAYER
70
0
71
3
72
9
73
5
74
3
42
0.0000001000
43
0.0000001000
44
0.0000000001
40
0.0000000000
40
0.0000000000
40
0.0000000000
40
0.0000000000
40
0.2768284964
40
1.0000000000
40
1.0000000000
40
1.0000000000
40
1.0000000000
10
108.0833967745
20
240.8421163660
30
0.0000000000
10
107.9799835474
20
240.7527823637
30
0.0000000000
10
107.6300721632
20
240.4018928569
30
0.0000000000
10
107.3943293940
20
239.9326794378
30
0.0000000000
10
107.3547539976
20
239.5788811409
30
0.0000000000
11
108.0833967745
21
240.8421163660
31
0.0000000000
11
107.7950018622
21
240.5494422979
31
0.0000000000
11
107.3547539976
21
239.5788811409
31
0.0000000000
0
SPLINE
5
48E
100
AcDbEntity
8
0
100
AcDbSpline
62
7
6
BYLAYER
70
0
71
3
72
10
73
6
74
4
42
0.0000001000
43
0.0000001000
44
0.0000000001
40
0.0000000000
40
0.0000000000
40
0.0000000000
40
0.0000000000
40
0.3167256523
40
0.6496072239
40
1.0000000000
40
1.0000000000
40
1.0000000000
40
1.0000000000
10
70.6874285918
20
183.5777047159
30
0.0000000000
10
70.6335788794
20
183.5085485627
30
0.0000000000
10
70.5150280756
20
183.3728744609
30
0.0000000000
10
70.3127050806
20
183.1835198574
30
0.0000000000
10
70.1633144100
20
183.0671521518
30
0.0000000000
10
70.0845079590
20
183.0106548610
30
0.0000000000
11
70.6874285918
21
183.5777047159
31
0.0000000000
11
70.5149147185
21
183.3792601416
31
0.0000000000
11
70.3136018894
21
183.1899244243
31
0.0000000000
11
70.0845079590
21
183.0106548610
31
0.0000000000
0
SPLINE
5
48F
100
AcDbEntity
8
0
100
AcDbSpline
62
7
6
BYLAYER
70
0
71
3
72
10
73
6
74
4
42
0.0000001000
43
0.0000001000
44
0.0000000001
40
0.0000000000
40
0.0000000000
40
0.0000000000
40
0.0000000000
40
0.3626531197
40
0.6952362828
40
1.0000000000
40
1.0000000000
40
1.0000000000
40
1.0000000000
10
98.8545110748
20
218.8176413138
30
0.0000000000
10
98.6036748566
20
218.6922407509
30
0.0000000000
10
98.1350986722
20
218.4253903762
30
0.0000000000
10
97.5180343809
20
217.9553569604
30
0.0000000000
10
97.1763641955
20
217.5959529954
30
0.0000000000
10
97.0315734306
20
217.4100063699
30
0.0000000000
11
98.8545110748
21
218.8176413138
31
0.0000000000
11
98.1255990123
21
218.3975410982
31
0.0000000000
11
97.5149224734
21
217.9259892389
31
0.0000000000
11
97.0315734306
21
217.4100063699
31
0.0000000000
0
SPLINE
5
490
100
AcDbEntity
8
0
100
AcDbSpline
62
7
6
BYLAYER
70
0
71
3
72
8
73
4
74
2
42
0.0000001000
43
0.0000001000
44
0.0000000001
40
0.0000000000
40
0.0000000000
40
0.0000000000
40
0.0000000000
40
1.0000000000
40
1.0000000000
40
1.0000000000
40
1.0000000000
10
102.8348576846
20
240.3216778045
30
0.0000000000
10
102.5498742244
20
240.1792060093
30
0.0000000000
10
102.2718883885
20
240.0096966987
30
0.0000000000
10
102.0314239995
20
239.7970284737
30
0.0000000000
11
102.8348576846
21
240.3216778045
31
0.0000000000
11
102.0314239995
21
239.7970284737
31
0.0000000000
0
SPLINE
5
491
100
AcDbEntity
8
0
100
AcDbSpline
62
7
6
BYLAYER
70
0
71
3
72
9
73
5
74
3
42
0.0000001000
43
0.0000001000
44
0.0000000001
40
0.0000000000
40
0.0000000000
40
0.0000000000
40
0.0000000000
40
0.2867041816
40
1.0000000000
40
1.0000000000
40
1.0000000000
40
1.0000000000
10
102.0314239995
20
239.7970284737
30
0.0000000000
10
101.9279344261
20
239.7055016412
30
0.0000000000
10
101.5912117803
20
239.3583814994
30
0.0000000000
10
101.3686382370
20
238.8983762756
30
0.0000000000
10
101.3301524475
20
238.5575735160
30
0.0000000000
11
102.0314239995
21
239.7970284737
31
0.0000000000
11
101.7442378198
21
239.4971809754
31
0.0000000000
11
101.3301524475
21
238.5575735160
31
0.0000000000
0
SPLINE
5
492
100
AcDbEntity
8
0
100
AcDbSpline
62
7
6
BYLAYER
70
0
71
3
72
9
73
5
74
3
42
0.0000001000
43
0.0000001000
44
0.0000000001
40
0.0000000000
40
0.0000000000
40
0.0000000000
40
0.0000000000
40
0.4825365921
40
1.0000000000
40
1.0000000000
40
1.0000000000
40
1.0000000000
10
113.5742843859
20
247.0506924984
30
0.0000000000
10
113.5199293938
20
246.5396987500
30
0.0000000000
10
113.2472435658
20
245.4965755991
30
0.0000000000
10
112.7605409672
20
244.5413275609
30
0.0000000000
10
112.4597773430
20
244.0787236754
30
0.0000000000
11
113.5742843859
21
247.0506924984
31
0.0000000000
11
113.2069356141
21
245.5534695477
31
0.0000000000
11
112.4597773430
21
244.0787236754
31
0.0000000000
0
SPLINE
5
493
100
AcDbEntity
8
0
100
AcDbSpline
62
7
6
BYLAYER
70
0
71
3
72
8
73
4
74
2
42
0.0000001000
43
0.0000001000
44
0.0000000001
40
0.0000000000
40
0.0000000000
40
0.0000000000
40
0.0000000000
40
1.0000000000
40
1.0000000000
40
1.0000000000
40
1.0000000000
10
112.4597773430
20
244.0787236754
30
0.0000000000
10
112.2536769044
20
243.7617210326
30
0.0000000000
10
112.0246081006
20
243.4596049426
30
0.0000000000
10
111.7703760295
20
243.1790365349
30
0.0000000000
11
112.4597773430
21
244.0787236754
31
0.0000000000
11
111.7703760295
21
243.1790365349
31
0.0000000000
0
SPLINE
5
494
100
AcDbEntity
8
0
100
AcDbSpline
62
7
6
BYLAYER
70
0
71
3
72
8
73
4
74
2
42
0.0000001000
43
0.0000001000
44
0.0000000001
40
0.0000000000
40
0.0000000000
40
0.0000000000
40
0.0000000000
40
1.0000000000
40
1.0000000000
40
1.0000000000
40
1.0000000000
10
111.7703760295
20
243.1790365349
30
0.0000000000
10
111.6664359230
20
243.0643290942
30
0.0000000000
10
111.5582897835
20
242.9532233426
30
0.0000000000
10
111.4457876171
20
242.8461744843
30
0.0000000000
11
111.7703760295
21
243.1790365349
31
0.0000000000
11
111.4457876171
21
242.8461744843
31
0.0000000000
0
SPLINE
5
495
100
AcDbEntity
8
0
100
AcDbSpline
62
7
6
BYLAYER
70
0
71
3
72
8
73
4
74
2
42
0.0000001000
43
0.0000001000
44
0.0000000001
40
0.0000000000
40
0.0000000000
40
0.0000000000
40
0.0000000000
40
1.0000000000
40
1.0000000000
40
1.0000000000
40
1.0000000000
10
111.4457876171
20
242.8461744843
30
0.0000000000
10
111.3660484830
20
242.7703005385
30
0.0000000000
10
111.2841210239
20
242.6964646428
30
0.0000000000
10
111.1999804154
20
242.6253024567
30
0.0000000000
11
111.4457876171
21
242.8461744843
31
0.0000000000
11
111.1999804154
21
242.6253024567
31
0.0000000000
0
SPLINE
5
496
100
AcDbEntity
8
0
100
AcDbSpline
62
7
6
BYLAYER
70
0
71
3
72
8
73
4
74
2
42
0.0000001000
43
0.0000001000
44
0.0000000001
40
0.0000000000
40
0.0000000000
40
0.0000000000
40
0.0000000000
40
1.0000000000
40
1.0000000000
40
1.0000000000
40
1.0000000000
10
111.1999804154
20
242.6253024567
30
0.0000000000
10
111.1634914624
20
242.5944418093
30
0.0000000000
10
111.1265862901
20
242.5640839971
30
0.0000000000
10
111.0892628739
20
242.5342808635
30
0.0000000000
11
111.1999804154
21
242.6253024567
31
0.0000000000
11
111.0892628739
21
242.5342808635
31
0.0000000000
0
SPLINE
5
497
100
AcDbEntity
8
0
100
AcDbSpline
62
7
6
BYLAYER
70
0
71
3
72
8
73
4
74
2
42
0.0000001000
43
0.0000001000
44
0.0000000001
40
0.0000000000
40
0.0000000000
40
0.0000000000
40
0.0000000000
40
1.0000000000
40
1.0000000000
40
1.0000000000
40
1.0000000000
10
111.0892628739
20
242.5342808635
30
0.0000000000
10
111.0386030660
20
242.4938284833
30
0.0000000000
10
110.9871727202
20
242.4543979966
30
0.0000000000
10
110.9349667737
20
242.4161190432
30
0.0000000000
11
111.0892628739
21
242.5342808635
31
0.0000000000
11
110.9349667737
21
242.4161190432
31
0.0000000000
0
SPLINE
5
498
100
AcDbEntity
8
0
100
AcDbSpline
62
7
6
BYLAYER
70
0
71
3
72
8
73
4
74
2
42
0.0000001000
43
0.0000001000
44
0.0000000001
40
0.0000000000
40
0.0000000000
40
0.0000000000
40
0.0000000000
40
1.0000000000
40
1.0000000000
40
1.0000000000
40
1.0000000000
10
110.9349667737
20
242.4161190432
30
0.0000000000
10
110.8225013988
20
242.3336560840
30
0.0000000000
10
110.7064365756
20
242.2565372204
30
0.0000000000
10
110.5867216876
20
242.1860585420
30
0.0000000000
11
110.9349667737
21
242.4161190432
31
0.0000000000
11
110.5867216876
21
242.1860585420
31
0.0000000000
0
SPLINE
5
499
100
AcDbEntity
8
0
100
AcDbSpline
62
7
6
BYLAYER
70
0
71
3
72
8
73
4
74
2
42
0.0000001000
43
0.0000001000
44
0.0000000001
40
0.0000000000
40
0.0000000000
40
0.0000000000
40
0.0000000000
40
1.0000000000
40
1.0000000000
40
1.0000000000
40
1.0000000000
10
110.5867216876
20
242.1860585420
30
0.0000000000
10
110.4983474471
20
242.1340307635
30
0.0000000000
10
110.4079841111
20
242.0856215406
30
0.0000000000
10
110.3156113175
20
242.0413522690
30
0.0000000000
11
110.5867216876
21
242.1860585420
31
0.0000000000
11
110.3156113175
21
242.0413522690
31
0.0000000000
0
SPLINE
5
49A
100
AcDbEntity
8
0
100
AcDbSpline
62
7
6
BYLAYER
70
0
71
3
72
11
73
7
74
5
42
0.0000001000
43
0.0000001000
44
0.0000000001
40
0.0000000000
40
0.0000000000
40
0.0000000000
40
0.0000000000
40
0.2126368573
40
0.4702067634
40
0.7436559382
40
1.0000000000
40
1.0000000000
40
1.0000000000
40
1.0000000000
10
67.2996020234
20
181.0141223659
30
0.0000000000
10
66.9097541129
20
180.7346357191
30
0.0000000000
10
66.1739448652
20
179.9467459115
30
0.0000000000
10
65.2946064974
20
178.5115095616
30
0.0000000000
10
64.6224627209
20
176.8592392230
30
0.0000000000
10
64.3569272388
20
175.6850738439
30
0.0000000000
10
64.2957600957
20
175.1100387547
30
0.0000000000
11
67.2996020234
21
181.0141223659
31
0.0000000000
11
66.2810309503
21
179.9975789182
31
0.0000000000
11
65.3544598607
21
178.5211032632
31
0.0000000000
11
64.6576062976
21
176.8067203055
31
0.0000000000
11
64.2957600957
21
175.1100387547
31
0.0000000000
0
SPLINE
5
49B
100
AcDbEntity
8
0
100
AcDbSpline
62
7
6
BYLAYER
70
0
71
3
72
15
73
11
74
9
42
0.0000001000
43
0.0000001000
44
0.0000000001
40
0.0000000000
40
0.0000000000
40
0.0000000000
40
0.0000000000
40
0.1392025680
40
0.3169479722
40
0.4846162197
40
0.6361324636
40
0.7674187197
40
0.8777822346
40
0.9719995448
40
1.0000000000
40
1.0000000000
40
1.0000000000
40
1.0000000000
10
57.7364079643
20
179.1286054224
30
0.0000000000
10
57.8573556645
20
179.3530024580
30
0.0000000000
10
58.1098133132
20
179.8763013549
30
0.0000000000
10
58.4131724424
20
180.7119667134
30
0.0000000000
10
58.6168573029
20
181.6010663584
30
0.0000000000
10
58.6845896078
20
182.4262772421
30
0.0000000000
10
58.6120276471
20
183.1474399207
30
0.0000000000
10
58.3982273135
20
183.7334310949
30
0.0000000000
10
58.1084706311
20
184.0642179264
30
0.0000000000
10
57.9123610154
20
184.1763742822
30
0.0000000000
10
57.8657438938
20
184.1987315893
30
0.0000000000
11
57.7364079643
21
179.1286054224
31
0.0000000000
11
58.0686859868
21
179.8171481523
31
0.0000000000
11
58.3997156006
21
180.7352705286
31
0.0000000000
11
58.6006195209
21
181.6337261815
31
0.0000000000
11
58.6604436746
21
182.4635277700
31
0.0000000000
11
58.5759262132
21
183.1794312430
31
0.0000000000
11
58.3516753615
21
183.7424027233
31
0.0000000000
11
57.9999181594
21
184.1217467884
31
0.0000000000
11
57.8657438938
21
184.1987315893
31
0.0000000000
0
SPLINE
5
49C
100
AcDbEntity
8
0
100
AcDbSpline
62
7
6
BYLAYER
70
0
71
3
72
8
73
4
74
2
42
0.0000001000
43
0.0000001000
44
0.0000000001
40
0.0000000000
40
0.0000000000
40
0.0000000000
40
0.0000000000
40
1.0000000000
40
1.0000000000
40
1.0000000000
40
1.0000000000
10
64.2548441693
20
174.7253862730
30
0.0000000000
10
64.2001156729
20
174.2108811932
30
0.0000000000
10
64.0851588549
20
173.7025562240
30
0.0000000000
10
63.9310870414
20
173.2073027802
30
0.0000000000
11
64.2548441693
21
174.7253862730
31
0.0000000000
11
63.9310870414
21
173.2073027802
31
0.0000000000
0
SPLINE
5
49D
100
AcDbEntity
8
0
100
AcDbSpline
62
7
6
BYLAYER
70
0
71
3
72
9
73
5
74
3
42
0.0000001000
43
0.0000001000
44
0.0000000001
40
0.0000000000
40
0.0000000000
40
0.0000000000
40
0.0000000000
40
0.5149516931
40
1.0000000000
40
1.0000000000
40
1.0000000000
40
1.0000000000
10
63.9310870414
20
173.2073027802
30
0.0000000000
10
63.7667344523
20
172.6790024775
30
0.0000000000
10
63.3611394942
20
171.6819650248
30
0.0000000000
10
62.7993295528
20
170.7649914466
30
0.0000000000
10
62.4785491942
20
170.3523240215
30
0.0000000000
11
63.9310870414
21
173.2073027802
31
0.0000000000
11
63.3075864849
21
171.6733811865
31
0.0000000000
11
62.4785491942
21
170.3523240215
31
0.0000000000
0
SPLINE
5
49E
100
AcDbEntity
8
0
100
AcDbSpline
62
7
6
BYLAYER
70
0
71
3
72
8
73
4
74
2
42
0.0000001000
43
0.0000001000
44
0.0000000001
40
0.0000000000
40
0.0000000000
40
0.0000000000
40
0.0000000000
40
1.0000000000
40
1.0000000000
40
1.0000000000
40
1.0000000000
10
62.4785491942
20
170.3523240215
30
0.0000000000
10
62.2137289425
20
170.0116463944
30
0.0000000000
10
61.9160074171
20
169.6928521470
30
0.0000000000
10
61.5671961287
20
169.4427851472
30
0.0000000000
11
62.4785491942
21
170.3523240215
31
0.0000000000
11
61.5671961287
21
169.4427851472
31
0.0000000000
0
SPLINE
5
49F
100
AcDbEntity
8
0
100
AcDbSpline
62
7
6
BYLAYER
70
0
71
3
72
8
73
4
74
2
42
0.0000001000
43
0.0000001000
44
0.0000000001
40
0.0000000000
40
0.0000000000
40
0.0000000000
40
0.0000000000
40
1.0000000000
40
1.0000000000
40
1.0000000000
40
1.0000000000
10
55.0093935344
20
183.2073731496
30
0.0000000000
10
54.8090135951
20
183.0920568003
30
0.0000000000
10
54.6177732735
20
182.9471072024
30
0.0000000000
10
54.4847025350
20
182.7537773170
30
0.0000000000
11
55.0093935344
21
183.2073731496
31
0.0000000000
11
54.4847025350
21
182.7537773170
31
0.0000000000
0
SPLINE
5
4A0
100
AcDbEntity
8
0
100
AcDbSpline
62
7
6
BYLAYER
70
0
71
3
72
8
73
4
74
2
42
0.0000001000
43
0.0000001000
44
0.0000000001
40
0.0000000000
40
0.0000000000
40
0.0000000000
40
0.0000000000
40
1.0000000000
40
1.0000000000
40
1.0000000000
40
1.0000000000
10
54.4847025350
20
182.7537773170
30
0.0000000000
10
54.3929929982
20
182.6205384515
30
0.0000000000
10
54.3289121211
20
182.4643205234
30
0.0000000000
10
54.3100720081
20
182.3051191968
30
0.0000000000
11
54.4847025350
21
182.7537773170
31
0.0000000000
11
54.3100720081
21
182.3051191968
31
0.0000000000
0
SPLINE
5
4A1
100
AcDbEntity
8
0
100
AcDbSpline
62
7
6
BYLAYER
70
0
71
3
72
9
73
5
74
3
42
0.0000001000
43
0.0000001000
44
0.0000000001
40
0.0000000000
40
0.0000000000
40
0.0000000000
40
0.0000000000
40
0.1345470534
40
1.0000000000
40
1.0000000000
40
1.0000000000
40
1.0000000000
10
50.9300636061
20
182.6636318796
30
0.0000000000
10
50.9226104091
20
182.6006514263
30
0.0000000000
10
50.8931343758
20
182.1308498193
30
0.0000000000
10
51.0709072743
20
181.6649346770
30
0.0000000000
10
51.2919356916
20
181.3167262654
30
0.0000000000
11
50.9300636061
21
182.6636318796
31
0.0000000000
11
50.9184303909
21
182.4743009389
31
0.0000000000
11
51.2919356916
21
181.3167262654
31
0.0000000000
0
SPLINE
5
4A2
100
AcDbEntity
8
0
100
AcDbSpline
62
7
6
BYLAYER
70
0
71
3
72
8
73
4
74
2
42
0.0000001000
43
0.0000001000
44
0.0000000001
40
0.0000000000
40
0.0000000000
40
0.0000000000
40
0.0000000000
40
1.0000000000
40
1.0000000000
40
1.0000000000
40
1.0000000000
10
51.2919356916
20
181.3167262654
30
0.0000000000
10
51.5692760485
20
180.8798039625
30
0.0000000000
10
51.9523792955
20
180.5295068797
30
0.0000000000
10
52.3637252013
20
180.2301497598
30
0.0000000000
11
51.2919356916
21
181.3167262654
31
0.0000000000
11
52.3637252013
21
180.2301497598
31
0.0000000000
0
SPLINE
5
4A3
100
AcDbEntity
8
0
100
AcDbSpline
62
7
6
BYLAYER
70
0
71
3
72
8
73
4
74
2
42
0.0000001000
43
0.0000001000
44
0.0000000001
40
0.0000000000
40
0.0000000000
40
0.0000000000
40
0.0000000000
40
1.0000000000
40
1.0000000000
40
1.0000000000
40
1.0000000000
10
110.3952142219
20
240.5673934939
30
0.0000000000
10
110.1131756618
20
240.4322277042
30
0.0000000000
10
109.8401856398
20
240.2596473443
30
0.0000000000
10
109.6369858027
20
240.0147367060
30
0.0000000000
11
110.3952142219
21
240.5673934939
31
0.0000000000
11
109.6369858027
21
240.0147367060
31
0.0000000000
0
SPLINE
5
4A4
100
AcDbEntity
8
0
100
AcDbSpline
62
7
6
BYLAYER
70
0
71
3
72
8
73
4
74
2
42
0.0000001000
43
0.0000001000
44
0.0000000001
40
0.0000000000
40
0.0000000000
40
0.0000000000
40
0.0000000000
40
1.0000000000
40
1.0000000000
40
1.0000000000
40
1.0000000000
10
109.6369858027
20
240.0147367060
30
0.0000000000
10
109.4835257924
20
239.8297759818
30
0.0000000000
10
109.3698708238
20
239.6035614660
30
0.0000000000
10
109.3434872263
20
239.3676959347
30
0.0000000000
11
109.6369858027
21
240.0147367060
31
0.0000000000
11
109.3434872263
21
239.3676959347
31
0.0000000000
0
SPLINE
5
4A5
100
AcDbEntity
8
0
100
AcDbSpline
62
7
6
BYLAYER
70
0
71
3
72
9
73
5
74
3
42
0.0000001000
43
0.0000001000
44
0.0000000001
40
0.0000000000
40
0.0000000000
40
0.0000000000
40
0.0000000000
40
0.3420272580
40
1.0000000000
40
1.0000000000
40
1.0000000000
40
1.0000000000
10
110.9984366231
20
224.3241424508
30
0.0000000000
10
110.9733643227
20
224.0932766720
30
0.0000000000
10
110.8053739071
20
223.4280644497
30
0.0000000000
10
110.3825280190
20
222.8797392825
30
0.0000000000
10
110.0592639253
20
222.5733768051
30
0.0000000000
11
110.9984366231
21
224.3241424508
31
0.0000000000
11
110.8286360529
21
223.6519090041
31
0.0000000000
11
110.0592639253
21
222.5733768051
31
0.0000000000
0
SPLINE
5
4A6
100
AcDbEntity
8
0
100
AcDbSpline
62
7
6
BYLAYER
70
0
71
3
72
8
73
4
74
2
42
0.0000001000
43
0.0000001000
44
0.0000000001
40
0.0000000000
40
0.0000000000
40
0.0000000000
40
0.0000000000
40
1.0000000000
40
1.0000000000
40
1.0000000000
40
1.0000000000
10
110.0592639253
20
222.5733768051
30
0.0000000000
10
109.6711483462
20
222.2055535525
30
0.0000000000
10
109.2181043572
20
221.9161761608
30
0.0000000000
10
108.7438640163
20
221.6790891638
30
0.0000000000
11
110.0592639253
21
222.5733768051
31
0.0000000000
11
108.7438640163
21
221.6790891638
31
0.0000000000
0
SPLINE
5
4A7
100
AcDbEntity
8
0
100
AcDbSpline
62
7
6
BYLAYER
70
0
71
3
72
8
73
4
74
2
42
0.0000001000
43
0.0000001000
44
0.0000000001
40
0.0000000000
40
0.0000000000
40
0.0000000000
40
0.0000000000
40
1.0000000000
40
1.0000000000
40
1.0000000000
40
1.0000000000
10
73.9859466058
20
178.2583516081
30
0.0000000000
10
73.9409838929
20
178.2261172995
30
0.0000000000
10
73.8967807244
20
178.1928612325
30
0.0000000000
10
73.8533059133
20
178.1586637281
30
0.0000000000
11
73.9859466058
21
178.2583516081
31
0.0000000000
11
73.8533059133
21
178.1586637281
31
0.0000000000
0
SPLINE
5
4A8
100
AcDbEntity
8
0
100
AcDbSpline
62
7
6
BYLAYER
70
0
71
3
72
11
73
7
74
5
42
0.0000001000
43
0.0000001000
44
0.0000000001
40
0.0000000000
40
0.0000000000
40
0.0000000000
40
0.0000000000
40
0.1964931070
40
0.4655378746
40
0.7511693398
40
1.0000000000
40
1.0000000000
40
1.0000000000
40
1.0000000000
10
73.8533059133
20
178.1586637281
30
0.0000000000
10
73.5198336237
20
177.8963527530
30
0.0000000000
10
72.8312906618
20
177.1436439863
30
0.0000000000
10
71.9809510797
20
175.7557388038
30
0.0000000000
10
71.3242809272
20
174.1415058776
30
0.0000000000
10
71.0616602410
20
173.0095748447
30
0.0000000000
10
70.9960814412
20
172.4761440975
30
0.0000000000
11
73.8533059133
21
178.1586637281
31
0.0000000000
11
72.9673755326
21
177.2418081604
31
0.0000000000
11
72.0408044430
21
175.7653325054
31
0.0000000000
11
71.3439508799
21
174.0509495477
31
0.0000000000
11
70.9960814412
21
172.4761440975
31
0.0000000000
0
SPLINE
5
4A9
100
AcDbEntity
8
0
100
AcDbSpline
62
7
6
BYLAYER
70
0
71
3
72
8
73
4
74
2
42
0.0000001000
43
0.0000001000
44
0.0000000001
40
0.0000000000
40
0.0000000000
40
0.0000000000
40
0.0000000000
40
1.0000000000
40
1.0000000000
40
1.0000000000
40
1.0000000000
10
70.9960814412
20
172.4761440975
30
0.0000000000
10
70.9910915171
20
172.4355550814
30
0.0000000000
10
70.9864298151
20
172.3949288069
30
0.0000000000
10
70.9821046780
20
172.3542679969
30
0.0000000000
11
70.9960814412
21
172.4761440975
31
0.0000000000
11
70.9821046780
21
172.3542679969
31
0.0000000000
0
SPLINE
5
4AA
100
AcDbEntity
8
0
100
AcDbSpline
62
7
6
BYLAYER
70
0
71
3
72
8
73
4
74
2
42
0.0000001000
43
0.0000001000
44
0.0000000001
40
0.0000000000
40
0.0000000000
40
0.0000000000
40
0.0000000000
40
1.0000000000
40
1.0000000000
40
1.0000000000
40
1.0000000000
10
112.1292551615
20
243.6881863157
30
0.0000000000
10
111.7996144238
20
243.3650381292
30
0.0000000000
10
111.4313424792
20
243.0766989800
30
0.0000000000
10
111.0208493455
20
242.8714811275
30
0.0000000000
11
112.1292551615
21
243.6881863157
31
0.0000000000
11
111.0208493455
21
242.8714811275
31
0.0000000000
0
SPLINE
5
4AB
100
AcDbEntity
8
0
100
AcDbSpline
62
7
6
BYLAYER
70
0
71
3
72
10
73
6
74
4
42
0.0000001000
43
0.0000001000
44
0.0000000001
40
0.0000000000
40
0.0000000000
40
0.0000000000
40
0.0000000000
40
0.3217836978
40
0.6668586446
40
1.0000000000
40
1.0000000000
40
1.0000000000
40
1.0000000000
10
115.0371541167
20
246.2396585126
30
0.0000000000
10
114.9827991246
20
245.7286647642
30
0.0000000000
10
114.7101132966
20
244.6855416133
30
0.0000000000
10
113.9802695695
20
243.2530820569
30
0.0000000000
10
113.2963339366
20
242.4040252724
30
0.0000000000
10
112.9086573479
20
242.0351404984
30
0.0000000000
11
115.0371541167
21
246.2396585126
31
0.0000000000
11
114.6698053449
21
244.7424355619
31
0.0000000000
11
113.9226470738
21
243.2676896896
31
0.0000000000
11
112.9086573479
21
242.0351404984
31
0.0000000000
0
SPLINE
5
4AC
100
AcDbEntity
8
0
100
AcDbSpline
62
7
6
BYLAYER
70
0
71
3
72
8
73
4
74
2
42
0.0000001000
43
0.0000001000
44
0.0000000001
40
0.0000000000
40
0.0000000000
40
0.0000000000
40
0.0000000000
40
1.0000000000
40
1.0000000000
40
1.0000000000
40
1.0000000000
10
112.9086573479
20
242.0351404984
30
0.0000000000
10
112.6180669039
20
241.7586358207
30
0.0000000000
10
112.2984140625
20
241.5091977904
30
0.0000000000
10
111.9484973595
20
241.3175912077
30
0.0000000000
11
112.9086573479
21
242.0351404984
31
0.0000000000
11
111.9484973595
21
241.3175912077
31
0.0000000000
0
SPLINE
5
4AD
100
AcDbEntity
8
0
100
AcDbSpline
62
7
6
BYLAYER
70
0
71
3
72
8
73
4
74
2
42
0.0000001000
43
0.0000001000
44
0.0000000001
40
0.0000000000
40
0.0000000000
40
0.0000000000
40
0.0000000000
40
1.0000000000
40
1.0000000000
40
1.0000000000
40
1.0000000000
10
111.9484973595
20
241.3175912077
30
0.0000000000
10
111.8925991956
20
241.2869826197
30
0.0000000000
10
111.8359287245
20
241.2578498396
30
0.0000000000
10
111.7784810483
20
241.2303182832
30
0.0000000000
11
111.9484973595
21
241.3175912077
31
0.0000000000
11
111.7784810483
21
241.2303182832
31
0.0000000000
0
SPLINE
5
4AE
100
AcDbEntity
8
0
100
AcDbSpline
62
7
6
BYLAYER
70
0
71
3
72
10
73
6
74
4
42
0.0000001000
43
0.0000001000
44
0.0000000001
40
0.0000000000
40
0.0000000000
40
0.0000000000
40
0.0000000000
40
0.2211580250
40
0.5770355050
40
1.0000000000
40
1.0000000000
40
1.0000000000
40
1.0000000000
10
57.8657438938
20
184.1987315893
30
0.0000000000
10
57.7631059501
20
184.2479561650
30
0.0000000000
10
57.4739599485
20
184.3341707670
30
0.0000000000
10
56.9536107846
20
184.2799250609
30
0.0000000000
10
56.5866022281
20
184.1150386036
30
0.0000000000
10
56.3995646834
20
184.0074006489
30
0.0000000000
11
57.8657438938
21
184.1987315893
31
0.0000000000
11
57.5398337949
21
184.2967801055
31
0.0000000000
11
56.9965078800
21
184.2579591689
31
0.0000000000
11
56.3995646834
21
184.0074006489
31
0.0000000000
0
SPLINE
5
4AF
100
AcDbEntity
8
0
100
AcDbSpline
62
7
6
BYLAYER
70
0
71
3
72
8
73
4
74
2
42
0.0000001000
43
0.0000001000
44
0.0000000001
40
0.0000000000
40
0.0000000000
40
0.0000000000
40
0.0000000000
40
1.0000000000
40
1.0000000000
40
1.0000000000
40
1.0000000000
10
115.9924039793
20
224.8446054804
30
0.0000000000
10
116.0267576677
20
224.7887025187
30
0.0000000000
10
116.0580076264
20
224.7296761478
30
0.0000000000
10
116.0851502648
20
224.6684798395
30
0.0000000000
11
115.9924039793
21
224.8446054804
31
0.0000000000
11
116.0851502648
21
224.6684798395
31
0.0000000000
0
SPLINE
5
4B0
100
AcDbEntity
8
0
100
AcDbSpline
62
7
6
BYLAYER
70
0
71
3
72
9
73
5
74
3
42
0.0000001000
43
0.0000001000
44
0.0000000001
40
0.0000000000
40
0.0000000000
40
0.0000000000
40
0.0000000000
40
0.9146676981
40
1.0000000000
40
1.0000000000
40
1.0000000000
40
1.0000000000
10
116.0851502648
20
224.6684798395
30
0.0000000000
10
116.1614016979
20
224.4965619091
30
0.0000000000
10
116.2093274093
20
224.2898821864
30
0.0000000000
10
116.1919113001
20
224.0880006149
30
0.0000000000
10
116.1899672283
20
224.0708214971
30
0.0000000000
11
116.0851502648
21
224.6684798395
31
0.0000000000
11
116.1944078203
21
224.1224895915
31
0.0000000000
11
116.1899672283
21
224.0708214971
31
0.0000000000
0
SPLINE
5
4B1
100
AcDbEntity
8
0
100
AcDbSpline
62
7
6
BYLAYER
70
0
71
3
72
8
73
4
74
2
42
0.0000001000
43
0.0000001000
44
0.0000000001
40
0.0000000000
40
0.0000000000
40
0.0000000000
40
0.0000000000
40
1.0000000000
40
1.0000000000
40
1.0000000000
40
1.0000000000
10
114.1578420632
20
257.2185303966
30
0.0000000000
10
114.2346959775
20
257.1791346014
30
0.0000000000
10
114.3071340083
20
257.1324591357
30
0.0000000000
10
114.3731751054
20
257.0786554538
30
0.0000000000
11
114.1578420632
21
257.2185303966
31
0.0000000000
11
114.3731751054
21
257.0786554538
31
0.0000000000
0
SPLINE
5
4B2
100
AcDbEntity
8
0
100
AcDbSpline
62
7
6
BYLAYER
70
0
71
3
72
8
73
4
74
2
42
0.0000001000
43
0.0000001000
44
0.0000000001
40
0.0000000000
40
0.0000000000
40
0.0000000000
40
0.0000000000
40
1.0000000000
40
1.0000000000
40
1.0000000000
40
1.0000000000
10
114.3731751054
20
257.0786554538
30
0.0000000000
10
114.5689081082
20
256.9191917759
30
0.0000000000
10
114.7084495095
20
256.6971128037
30
0.0000000000
10
114.8049289125
20
256.4559745972
30
0.0000000000
11
114.3731751054
21
257.0786554538
31
0.0000000000
11
114.8049289125
21
256.4559745972
31
0.0000000000
0
SPLINE
5
4B3
100
AcDbEntity
8
0
100
AcDbSpline
62
7
6
BYLAYER
70
0
71
3
72
9
73
5
74
3
42
0.0000001000
43
0.0000001000
44
0.0000000001
40
0.0000000000
40
0.0000000000
40
0.0000000000
40
0.0000000000
40
0.1681840859
40
1.0000000000
40
1.0000000000
40
1.0000000000
40
1.0000000000
10
114.8049289125
20
256.4559745972
30
0.0000000000
10
114.8387503725
20
256.3714420862
30
0.0000000000
10
115.0083834489
20
255.8548968129
30
0.0000000000
10
115.0109276860
20
255.3218839925
30
0.0000000000
10
114.9646538924
20
254.8868619581
30
0.0000000000
11
114.8049289125
21
256.4559745972
31
0.0000000000
11
114.8910832843
21
256.1972268978
31
0.0000000000
11
114.9646538924
21
254.8868619581
31
0.0000000000
0
SPLINE
5
4B4
100
AcDbEntity
8
0
100
AcDbSpline
62
7
6
BYLAYER
70
0
71
3
72
8
73
4
74
2
42
0.0000001000
43
0.0000001000
44
0.0000000001
40
0.0000000000
40
0.0000000000
40
0.0000000000
40
0.0000000000
40
1.0000000000
40
1.0000000000
40
1.0000000000
40
1.0000000000
10
118.1786530378
20
223.8597091241
30
0.0000000000
10
118.1401482951
20
223.5194554715
30
0.0000000000
10
117.9818874828
20
223.1917292007
30
0.0000000000
10
117.7656073506
20
222.9212947137
30
0.0000000000
11
118.1786530378
21
223.8597091241
31
0.0000000000
11
117.7656073506
21
222.9212947137
31
0.0000000000
0
SPLINE
5
4B5
100
AcDbEntity
8
0
100
AcDbSpline
62
7
6
BYLAYER
70
0
71
3
72
8
73
4
74
2
42
0.0000001000
43
0.0000001000
44
0.0000000001
40
0.0000000000
40
0.0000000000
40
0.0000000000
40
0.0000000000
40
1.0000000000
40
1.0000000000
40
1.0000000000
40
1.0000000000
10
117.7656073506
20
222.9212947137
30
0.0000000000
10
117.4758922579
20
222.5590378958
30
0.0000000000
10
117.0820697599
20
222.2995830230
30
0.0000000000
10
116.6739738773
20
222.0955636283
30
0.0000000000
11
117.7656073506
21
222.9212947137
31
0.0000000000
11
116.6739738773
21
222.0955636283
31
0.0000000000
0
SPLINE
5
4B6
100
AcDbEntity
8
0
100
AcDbSpline
62
7
6
BYLAYER
70
0
71
3
72
9
73
5
74
3
42
0.0000001000
43
0.0000001000
44
0.0000000001
40
0.0000000000
40
0.0000000000
40
0.0000000000
40
0.0000000000
40
0.3024001197
40
1.0000000000
40
1.0000000000
40
1.0000000000
40
1.0000000000
10
107.3547539976
20
239.5788811409
30
0.0000000000
10
107.3525506122
20
239.5591831951
30
0.0000000000
10
107.3466061609
20
239.4938961186
30
0.0000000000
10
107.3452334913
20
239.4282077894
30
0.0000000000
10
107.3463547069
20
239.3823329959
30
0.0000000000
11
107.3547539976
21
239.5788811409
31
0.0000000000
11
107.3493734770
21
239.5196608627
31
0.0000000000
11
107.3463547069
21
239.3823329959
31
0.0000000000
0
SPLINE
5
4B7
100
AcDbEntity
8
0
100
AcDbSpline
62
7
6
BYLAYER
70
0
71
3
72
8
73
4
74
2
42
0.0000001000
43
0.0000001000
44
0.0000000001
40
0.0000000000
40
0.0000000000
40
0.0000000000
40
0.0000000000
40
1.0000000000
40
1.0000000000
40
1.0000000000
40
1.0000000000
10
107.3463547069
20
239.3823329959
30
0.0000000000
10
107.3546152625
20
239.0443504653
30
0.0000000000
10
107.4757126342
20
238.7036201210
30
0.0000000000
10
107.6512411286
20
238.4179866661
30
0.0000000000
11
107.3463547069
21
239.3823329959
31
0.0000000000
11
107.6512411286
21
238.4179866661
31
0.0000000000
0
SPLINE
5
4B8
100
AcDbEntity
8
0
100
AcDbSpline
62
7
6
BYLAYER
70
0
71
3
72
8
73
4
74
2
42
0.0000001000
43
0.0000001000
44
0.0000000001
40
0.0000000000
40
0.0000000000
40
0.0000000000
40
0.0000000000
40
1.0000000000
40
1.0000000000
40
1.0000000000
40
1.0000000000
10
108.6694861358
20
225.8856086458
30
0.0000000000
10
108.7034273666
20
225.8301340375
30
0.0000000000
10
108.7356150144
20
225.7729060815
30
0.0000000000
10
108.7657311760
20
225.7142296653
30
0.0000000000
11
108.6694861358
21
225.8856086458
31
0.0000000000
11
108.7657311760
21
225.7142296653
31
0.0000000000
0
SPLINE
5
4B9
100
AcDbEntity
8
0
100
AcDbSpline
62
7
6
BYLAYER
70
0
71
3
72
9
73
5
74
3
42
0.0000001000
43
0.0000001000
44
0.0000000001
40
0.0000000000
40
0.0000000000
40
0.0000000000
40
0.0000000000
40
0.9275561820
40
1.0000000000
40
1.0000000000
40
1.0000000000
40
1.0000000000
10
108.7657311760
20
225.7142296653
30
0.0000000000
10
108.9377913275
20
225.3789985955
30
0.0000000000
10
109.0503937731
20
224.9666138367
30
0.0000000000
10
109.0155010757
20
224.5653613106
30
0.0000000000
10
109.0122273703
20
224.5363717053
30
0.0000000000
11
108.7657311760
21
225.7142296653
31
0.0000000000
11
109.0197825259
21
224.6235562637
31
0.0000000000
11
109.0122273703
21
224.5363717053
31
0.0000000000
0
SPLINE
5
4BA
100
AcDbEntity
8
0
100
AcDbSpline
62
7
6
BYLAYER
70
0
71
3
72
8
73
4
74
2
42
0.0000001000
43
0.0000001000
44
0.0000000001
40
0.0000000000
40
0.0000000000
40
0.0000000000
40
0.0000000000
40
1.0000000000
40
1.0000000000
40
1.0000000000
40
1.0000000000
10
59.9264405877
20
174.7263811195
30
0.0000000000
10
60.1701446651
20
174.5490253961
30
0.0000000000
10
60.4047188081
20
174.3344818745
30
0.0000000000
10
60.5316102424
20
174.0545252878
30
0.0000000000
11
59.9264405877
21
174.7263811195
31
0.0000000000
11
60.5316102424
21
174.0545252878
31
0.0000000000
0
SPLINE
5
4BB
100
AcDbEntity
8
0
100
AcDbSpline
62
7
6
BYLAYER
70
0
71
3
72
8
73
4
74
2
42
0.0000001000
43
0.0000001000
44
0.0000000001
40
0.0000000000
40
0.0000000000
40
0.0000000000
40
0.0000000000
40
1.0000000000
40
1.0000000000
40
1.0000000000
40
1.0000000000
10
60.5316102424
20
174.0545252878
30
0.0000000000
10
60.6060169094
20
173.8903641949
30
0.0000000000
10
60.6433977244
20
173.7037113343
30
0.0000000000
10
60.6286650230
20
173.5252382870
30
0.0000000000
11
60.5316102424
21
174.0545252878
31
0.0000000000
11
60.6286650230
21
173.5252382870
31
0.0000000000
0
SPLINE
5
4BC
100
AcDbEntity
8
0
100
AcDbSpline
62
7
6
BYLAYER
70
0
71
3
72
8
73
4
74
2
42
0.0000001000
43
0.0000001000
44
0.0000000001
40
0.0000000000
40
0.0000000000
40
0.0000000000
40
0.0000000000
40
1.0000000000
40
1.0000000000
40
1.0000000000
40
1.0000000000
10
63.5601144345
20
172.1261861172
30
0.0000000000
10
63.3856925476
20
171.9121929430
30
0.0000000000
10
63.1741723869
20
171.7272394345
30
0.0000000000
10
62.9517896157
20
171.5678105564
30
0.0000000000
11
63.5601144345
21
172.1261861172
31
0.0000000000
11
62.9517896157
21
171.5678105564
31
0.0000000000
0
SPLINE
5
4BD
100
AcDbEntity
8
0
100
AcDbSpline
62
7
6
BYLAYER
70
0
71
3
72
9
73
5
74
3
42
0.0000001000
43
0.0000001000
44
0.0000000001
40
0.0000000000
40
0.0000000000
40
0.0000000000
40
0.0000000000
40
0.4875648556
40
1.0000000000
40
1.0000000000
40
1.0000000000
40
1.0000000000
10
78.1393866762
20
181.5419972660
30
0.0000000000
10
78.0171563764
20
181.3850237753
30
0.0000000000
10
77.7480648695
20
181.0770650999
30
0.0000000000
10
77.4497385439
20
180.7978607360
30
0.0000000000
10
77.2908593994
20
180.6617975563
30
0.0000000000
11
78.1393866762
21
181.5419972660
31
0.0000000000
11
77.7478075669
21
181.0915595813
31
0.0000000000
11
77.2908593994
21
180.6617975563
31
0.0000000000
0
SPLINE
5
4BE
100
AcDbEntity
8
0
100
AcDbSpline
62
7
6
BYLAYER
70
0
71
3
72
8
73
4
74
2
42
0.0000001000
43
0.0000001000
44
0.0000000001
40
0.0000000000
40
0.0000000000
40
0.0000000000
40
0.0000000000
40
1.0000000000
40
1.0000000000
40
1.0000000000
40
1.0000000000
10
77.2908593994
20
180.6617975563
30
0.0000000000
10
77.1236224320
20
180.5185767855
30
0.0000000000
10
76.9497306762
20
180.3831239854
30
0.0000000000
10
76.7708525413
20
180.2548841032
30
0.0000000000
11
77.2908593994
21
180.6617975563
31
0.0000000000
11
76.7708525413
21
180.2548841032
31
0.0000000000
0
SPLINE
5
4BF
100
AcDbEntity
8
0
100
AcDbSpline
62
7
6
BYLAYER
70
0
71
3
72
8
73
4
74
2
42
0.0000001000
43
0.0000001000
44
0.0000000001
40
0.0000000000
40
0.0000000000
40
0.0000000000
40
0.0000000000
40
1.0000000000
40
1.0000000000
40
1.0000000000
40
1.0000000000
10
60.6730518043
20
161.2524708962
30
0.0000000000
10
60.3370929931
20
161.0116179916
30
0.0000000000
10
60.0401479490
20
160.7172430197
30
0.0000000000
10
59.7704118671
20
160.4020903085
30
0.0000000000
11
60.6730518043
21
161.2524708962
31
0.0000000000
11
59.7704118671
21
160.4020903085
31
0.0000000000
0
SPLINE
5
4C0
100
AcDbEntity
8
0
100
AcDbSpline
62
7
6
BYLAYER
70
0
71
3
72
11
73
7
74
5
42
0.0000001000
43
0.0000001000
44
0.0000000001
40
0.0000000000
40
0.0000000000
40
0.0000000000
40
0.0000000000
40
0.2411475536
40
0.5066137956
40
0.7722532024
40
1.0000000000
40
1.0000000000
40
1.0000000000
40
1.0000000000
10
59.7704118671
20
160.4020903085
30
0.0000000000
10
59.4491962138
20
160.0267901880
30
0.0000000000
10
58.8554344672
20
159.1764401137
30
0.0000000000
10
58.1425299567
20
157.7643271815
30
0.0000000000
10
57.6285024050
20
156.2990058229
30
0.0000000000
10
57.4226752484
20
155.3083553165
30
0.0000000000
10
57.3666660041
20
154.8467676703
30
0.0000000000
11
59.7704118671
21
160.4020903085
31
0.0000000000
11
58.9125034553
21
159.2000336887
31
0.0000000000
11
58.1753015041
21
157.7510553261
31
0.0000000000
11
57.6400491483
21
156.2148394755
31
0.0000000000
11
57.3666660041
21
154.8467676703
31
0.0000000000
0
SPLINE
5
4C1
100
AcDbEntity
8
0
100
AcDbSpline
62
7
6
BYLAYER
70
0
71
3
72
8
73
4
74
2
42
0.0000001000
43
0.0000001000
44
0.0000000001
40
0.0000000000
40
0.0000000000
40
0.0000000000
40
0.0000000000
40
1.0000000000
40
1.0000000000
40
1.0000000000
40
1.0000000000
10
57.3666660041
20
154.8467676703
30
0.0000000000
10
57.3618217411
20
154.8068447609
30
0.0000000000
10
57.3572692245
20
154.7668896556
30
0.0000000000
10
57.3530159895
20
154.7269047996
30
0.0000000000
11
57.3666660041
21
154.8467676703
31
0.0000000000
11
57.3530159895
21
154.7269047996
31
0.0000000000
0
SPLINE
5
4C2
100
AcDbEntity
8
0
100
AcDbSpline
62
7
6
BYLAYER
70
0
71
3
72
9
73
5
74
3
42
0.0000001000
43
0.0000001000
44
0.0000000001
40
0.0000000000
40
0.0000000000
40
0.0000000000
40
0.0000000000
40
0.5216257101
40
1.0000000000
40
1.0000000000
40
1.0000000000
40
1.0000000000
10
104.8030154320
20
215.6209978276
30
0.0000000000
10
104.7590544453
20
215.5990204094
30
0.0000000000
10
104.6769328460
20
215.5522528179
30
0.0000000000
10
104.6017463179
20
215.4949813453
30
0.0000000000
10
104.5682421720
20
215.4647289073
30
0.0000000000
11
104.8030154320
21
215.6209978276
31
0.0000000000
11
104.6752679572
21
215.5473720166
31
0.0000000000
11
104.5682421720
21
215.4647289073
31
0.0000000000
0
SPLINE
5
4C3
100
AcDbEntity
8
0
100
AcDbSpline
62
7
6
BYLAYER
70
0
71
3
72
8
73
4
74
2
42
0.0000001000
43
0.0000001000
44
0.0000000001
40
0.0000000000
40
0.0000000000
40
0.0000000000
40
0.0000000000
40
1.0000000000
40
1.0000000000
40
1.0000000000
40
1.0000000000
10
104.5682421720
20
215.4647289073
30
0.0000000000
10
104.5375405335
20
215.4370069823
30
0.0000000000
10
104.5089072161
20
215.4068875038
30
0.0000000000
10
104.4835315150
20
215.3742989199
30
0.0000000000
11
104.5682421720
21
215.4647289073
31
0.0000000000
11
104.4835315150
21
215.3742989199
31
0.0000000000
0
SPLINE
5
4C4
100
AcDbEntity
8
0
100
AcDbSpline
62
7
6
BYLAYER
70
0
71
3
72
9
73
5
74
3
42
0.0000001000
43
0.0000001000
44
0.0000000001
40
0.0000000000
40
0.0000000000
40
0.0000000000
40
0.0000000000
40
0.3811594254
40
1.0000000000
40
1.0000000000
40
1.0000000000
40
1.0000000000
10
101.3301524475
20
238.5575735160
30
0.0000000000
10
101.3273464143
20
238.5327252829
30
0.0000000000
10
101.3216620432
20
238.4673572137
30
0.0000000000
10
101.3205445591
20
238.4016444575
30
0.0000000000
10
101.3214983591
20
238.3609461004
30
0.0000000000
11
101.3301524475
21
238.5575735160
31
0.0000000000
11
101.3236765998
21
238.4828438945
31
0.0000000000
11
101.3214983591
21
238.3609461004
31
0.0000000000
0
SPLINE
5
4C5
100
AcDbEntity
8
0
100
AcDbSpline
62
7
6
BYLAYER
70
0
71
3
72
8
73
4
74
2
42
0.0000001000
43
0.0000001000
44
0.0000000001
40
0.0000000000
40
0.0000000000
40
0.0000000000
40
0.0000000000
40
1.0000000000
40
1.0000000000
40
1.0000000000
40
1.0000000000
10
101.3214983591
20
238.3609461004
30
0.0000000000
10
101.3293829679
20
238.0245122479
30
0.0000000000
10
101.4497028238
20
237.6858481112
30
0.0000000000
10
101.6239306485
20
237.4010847099
30
0.0000000000
11
101.3214983591
21
238.3609461004
31
0.0000000000
11
101.6239306485
21
237.4010847099
31
0.0000000000
0
SPLINE
5
4C6
100
AcDbEntity
8
0
100
AcDbSpline
62
7
6
BYLAYER
70
0
71
3
72
8
73
4
74
2
42
0.0000001000
43
0.0000001000
44
0.0000000001
40
0.0000000000
40
0.0000000000
40
0.0000000000
40
0.0000000000
40
1.0000000000
40
1.0000000000
40
1.0000000000
40
1.0000000000
10
54.6318291653
20
169.6612715317
30
0.0000000000
10
54.4667960376
20
169.5662968657
30
0.0000000000
10
54.2909335991
20
169.4872868973
30
0.0000000000
10
54.1051145801
20
169.4401904846
30
0.0000000000
11
54.6318291653
21
169.6612715317
31
0.0000000000
11
54.1051145801
21
169.4401904846
31
0.0000000000
0
SPLINE
5
4C7
100
AcDbEntity
8
0
100
AcDbSpline
62
7
6
BYLAYER
70
0
71
3
72
9
73
5
74
3
42
0.0000001000
43
0.0000001000
44
0.0000000001
40
0.0000000000
40
0.0000000000
40
0.0000000000
40
0.0000000000
40
0.6167341123
40
1.0000000000
40
1.0000000000
40
1.0000000000
40
1.0000000000
10
54.1051145801
20
169.4401904846
30
0.0000000000
10
53.9487685866
20
169.4005641025
30
0.0000000000
10
53.6838333432
20
169.3729449568
30
0.0000000000
10
53.4287045182
20
169.4490166645
30
0.0000000000
10
53.3381416267
20
169.4924501136
30
0.0000000000
11
54.1051145801
21
169.4401904846
31
0.0000000000
11
53.6257093610
21
169.4059367170
31
0.0000000000
11
53.3381416267
21
169.4924501136
31
0.0000000000
0
SPLINE
5
4C8
100
AcDbEntity
8
0
100
AcDbSpline
62
7
6
BYLAYER
70
0
71
3
72
8
73
4
74
2
42
0.0000001000
43
0.0000001000
44
0.0000000001
40
0.0000000000
40
0.0000000000
40
0.0000000000
40
0.0000000000
40
1.0000000000
40
1.0000000000
40
1.0000000000
40
1.0000000000
10
118.9383346878
20
254.2744652707
30
0.0000000000
10
118.8958929316
20
254.2541252382
30
0.0000000000
10
118.8538307287
20
254.2330032374
30
0.0000000000
10
118.8121464979
20
254.2111397546
30
0.0000000000
11
118.9383346878
21
254.2744652707
31
0.0000000000
11
118.8121464979
21
254.2111397546
31
0.0000000000
0
SPLINE
5
4C9
100
AcDbEntity
8
0
100
AcDbSpline
62
7
6
BYLAYER
70
0
71
3
72
8
73
4
74
2
42
0.0000001000
43
0.0000001000
44
0.0000000001
40
0.0000000000
40
0.0000000000
40
0.0000000000
40
0.0000000000
40
1.0000000000
40
1.0000000000
40
1.0000000000
40
1.0000000000
10
118.8121464979
20
254.2111397546
30
0.0000000000
10
118.7550388566
20
254.1811866544
30
0.0000000000
10
118.6986406372
20
254.1498418546
30
0.0000000000
10
118.6429477742
20
254.1172094604
30
0.0000000000
11
118.8121464979
21
254.2111397546
31
0.0000000000
11
118.6429477742
21
254.1172094604
31
0.0000000000
0
SPLINE
5
4CA
100
AcDbEntity
8
0
100
AcDbSpline
62
7
6
BYLAYER
70
0
71
3
72
8
73
4
74
2
42
0.0000001000
43
0.0000001000
44
0.0000000001
40
0.0000000000
40
0.0000000000
40
0.0000000000
40
0.0000000000
40
1.0000000000
40
1.0000000000
40
1.0000000000
40
1.0000000000
10
118.6429477742
20
254.1172094604
30
0.0000000000
10
118.5310653385
20
254.0516536326
30
0.0000000000
10
118.4220295479
20
253.9809013902
30
0.0000000000
10
118.3158074400
20
253.9057967682
30
0.0000000000
11
118.6429477742
21
254.1172094604
31
0.0000000000
11
118.3158074400
21
253.9057967682
31
0.0000000000
0
SPLINE
5
4CB
100
AcDbEntity
8
0
100
AcDbSpline
62
7
6
BYLAYER
70
0
71
3
72
8
73
4
74
2
42
0.0000001000
43
0.0000001000
44
0.0000000001
40
0.0000000000
40
0.0000000000
40
0.0000000000
40
0.0000000000
40
1.0000000000
40
1.0000000000
40
1.0000000000
40
1.0000000000
10
118.3158074400
20
253.9057967682
30
0.0000000000
10
118.0896183631
20
253.7458691838
30
0.0000000000
10
117.8761874612
20
253.5662064602
30
0.0000000000
10
117.6751964706
20
253.3749580890
30
0.0000000000
11
118.3158074400
21
253.9057967682
31
0.0000000000
11
117.6751964706
21
253.3749580890
31
0.0000000000
0
SPLINE
5
4CC
100
AcDbEntity
8
0
100
AcDbSpline
62
7
6
BYLAYER
70
0
71
3
72
10
73
6
74
4
42
0.0000001000
43
0.0000001000
44
0.0000000001
40
0.0000000000
40
0.0000000000
40
0.0000000000
40
0.0000000000
40
0.3406562700
40
0.6935153261
40
1.0000000000
40
1.0000000000
40
1.0000000000
40
1.0000000000
10
117.6751964706
20
253.3749580890
30
0.0000000000
10
117.2419108715
20
252.9626751063
30
0.0000000000
10
116.4775122229
20
252.0137292883
30
0.0000000000
10
115.6797991289
20
250.4480629650
30
0.0000000000
10
115.3774635138
20
249.3239277735
30
0.0000000000
10
115.3099896275
20
248.7931244392
30
0.0000000000
11
117.6751964706
21
253.3749580890
31
0.0000000000
11
116.5419138358
21
251.9974031106
31
0.0000000000
11
115.7068545916
21
250.3491577239
31
0.0000000000
11
115.3099896275
21
248.7931244392
31
0.0000000000
0
SPLINE
5
4CD
100
AcDbEntity
8
0
100
AcDbSpline
62
7
6
BYLAYER
70
0
71
3
72
8
73
4
74
2
42
0.0000001000
43
0.0000001000
44
0.0000000001
40
0.0000000000
40
0.0000000000
40
0.0000000000
40
0.0000000000
40
1.0000000000
40
1.0000000000
40
1.0000000000
40
1.0000000000
10
115.3099896275
20
248.7931244392
30
0.0000000000
10
115.3050234475
20
248.7540565113
30
0.0000000000
10
115.3004530558
20
248.7149437925
30
0.0000000000
10
115.2962883173
20
248.6757908967
30
0.0000000000
11
115.3099896275
21
248.7931244392
31
0.0000000000
11
115.2962883173
21
248.6757908967
31
0.0000000000
0
SPLINE
5
4CE
100
AcDbEntity
8
0
100
AcDbSpline
62
7
6
BYLAYER
70
0
71
3
72
8
73
4
74
2
42
0.0000001000
43
0.0000001000
44
0.0000000001
40
0.0000000000
40
0.0000000000
40
0.0000000000
40
0.0000000000
40
1.0000000000
40
1.0000000000
40
1.0000000000
40
1.0000000000
10
104.3219837739
20
239.5225169330
30
0.0000000000
10
104.0502285236
20
239.3866583173
30
0.0000000000
10
103.7880178891
20
239.2139210858
30
0.0000000000
10
103.5949038641
20
238.9728523803
30
0.0000000000
11
104.3219837739
21
239.5225169330
31
0.0000000000
11
103.5949038641
21
238.9728523803
31
0.0000000000
0
SPLINE
5
4CF
100
AcDbEntity
8
0
100
AcDbSpline
62
7
6
BYLAYER
70
0
71
3
72
8
73
4
74
2
42
0.0000001000
43
0.0000001000
44
0.0000000001
40
0.0000000000
40
0.0000000000
40
0.0000000000
40
0.0000000000
40
1.0000000000
40
1.0000000000
40
1.0000000000
40
1.0000000000
10
103.5949038641
20
238.9728523803
30
0.0000000000
10
103.4503446607
20
238.7923957821
30
0.0000000000
10
103.3445041422
20
238.5736492470
30
0.0000000000
10
103.3188469492
20
238.3464474073
30
0.0000000000
11
103.5949038641
21
238.9728523803
31
0.0000000000
11
103.3188469492
21
238.3464474073
31
0.0000000000
0
SPLINE
5
4D0
100
AcDbEntity
8
0
100
AcDbSpline
62
7
6
BYLAYER
70
0
71
3
72
11
73
7
74
5
42
0.0000001000
43
0.0000001000
44
0.0000000001
40
0.0000000000
40
0.0000000000
40
0.0000000000
40
0.0000000000
40
0.2563440618
40
0.5297932366
40
0.7873631427
40
1.0000000000
40
1.0000000000
40
1.0000000000
40
1.0000000000
10
70.9411887516
20
171.9696155152
30
0.0000000000
10
70.8864602552
20
171.4551104354
30
0.0000000000
10
70.6488758765
20
170.4045414120
30
0.0000000000
10
70.0474840765
20
168.9261942670
30
0.0000000000
10
69.2607076421
20
167.6420354276
30
0.0000000000
10
68.6023519994
20
166.9370813892
30
0.0000000000
10
68.2535407110
20
166.6870143894
30
0.0000000000
11
70.9411887516
21
171.9696155152
31
0.0000000000
11
70.6174316237
21
170.4515320224
31
0.0000000000
11
69.9939310672
21
168.9176104287
31
0.0000000000
11
69.1648937765
21
167.5965532637
31
0.0000000000
11
68.2535407110
21
166.6870143894
31
0.0000000000
0
SPLINE
5
4D1
100
AcDbEntity
8
0
100
AcDbSpline
62
7
6
BYLAYER
70
0
71
3
72
8
73
4
74
2
42
0.0000001000
43
0.0000001000
44
0.0000000001
40
0.0000000000
40
0.0000000000
40
0.0000000000
40
0.0000000000
40
1.0000000000
40
1.0000000000
40
1.0000000000
40
1.0000000000
10
50.8956993207
20
182.2606051157
30
0.0000000000
10
50.8943221252
20
181.8544664866
30
0.0000000000
10
51.0481762040
20
181.4512388538
30
0.0000000000
10
51.2692046214
20
181.1030304422
30
0.0000000000
11
50.8956993207
21
182.2606051157
31
0.0000000000
11
51.2692046214
21
181.1030304422
31
0.0000000000
0
SPLINE
5
4D2
100
AcDbEntity
8
0
100
AcDbSpline
62
7
6
BYLAYER
70
0
71
3
72
8
73
4
74
2
42
0.0000001000
43
0.0000001000
44
0.0000000001
40
0.0000000000
40
0.0000000000
40
0.0000000000
40
0.0000000000
40
1.0000000000
40
1.0000000000
40
1.0000000000
40
1.0000000000
10
51.2692046214
20
181.1030304422
30
0.0000000000
10
51.5220739252
20
180.7046598631
30
0.0000000000
10
51.8628656011
20
180.3783022066
30
0.0000000000
10
52.2328220299
20
180.0969092982
30
0.0000000000
11
51.2692046214
21
181.1030304422
31
0.0000000000
11
52.2328220299
21
180.0969092982
31
0.0000000000
0
SPLINE
5
4D3
100
AcDbEntity
8
0
100
AcDbSpline
62
7
6
BYLAYER
70
0
71
3
72
8
73
4
74
2
42
0.0000001000
43
0.0000001000
44
0.0000000001
40
0.0000000000
40
0.0000000000
40
0.0000000000
40
0.0000000000
40
1.0000000000
40
1.0000000000
40
1.0000000000
40
1.0000000000
10
52.2328220299
20
180.0969092982
30
0.0000000000
10
52.2686240163
20
180.0696779155
30
0.0000000000
10
52.3046991339
20
180.0428676329
30
0.0000000000
10
52.3409941311
20
180.0164539366
30
0.0000000000
11
52.2328220299
21
180.0969092982
31
0.0000000000
11
52.3409941311
21
180.0164539366
31
0.0000000000
0
SPLINE
5
4D4
100
AcDbEntity
8
0
100
AcDbSpline
62
7
6
BYLAYER
70
0
71
3
72
8
73
4
74
2
42
0.0000001000
43
0.0000001000
44
0.0000000001
40
0.0000000000
40
0.0000000000
40
0.0000000000
40
0.0000000000
40
1.0000000000
40
1.0000000000
40
1.0000000000
40
1.0000000000
10
63.0651090343
20
171.4561026093
30
0.0000000000
10
63.0203751101
20
171.4209991713
30
0.0000000000
10
62.9749481033
20
171.3870135081
30
0.0000000000
10
62.9290585455
20
171.3541147332
30
0.0000000000
11
63.0651090343
21
171.4561026093
31
0.0000000000
11
62.9290585455
21
171.3541147332
31
0.0000000000
0
SPLINE
5
4D5
100
AcDbEntity
8
0
100
AcDbSpline
62
7
6
BYLAYER
70
0
71
3
72
17
73
13
74
11
42
0.0000001000
43
0.0000001000
44
0.0000000001
40
0.0000000000
40
0.0000000000
40
0.0000000000
40
0.0000000000
40
0.0202533209
40
0.0884026923
40
0.1682309548
40
0.2631930780
40
0.3727879790
40
0.4940659654
40
0.6226329722
40
0.7533335931
40
0.8808046885
40
1.0000000000
40
1.0000000000
40
1.0000000000
40
1.0000000000
10
50.5696694063
20
170.5556071936
30
0.0000000000
10
50.5257944684
20
170.5766493650
30
0.0000000000
10
50.3412207124
20
170.6822082881
30
0.0000000000
10
50.0685085407
20
170.9935370707
30
0.0000000000
10
49.8672846974
20
171.5450581759
30
0.0000000000
10
49.7989910873
20
172.2237995204
30
0.0000000000
10
49.8627391389
20
173.0004685874
30
0.0000000000
10
50.0544425371
20
173.8372682533
30
0.0000000000
10
50.3644026090
20
174.6911172714
30
0.0000000000
10
50.7764660944
20
175.5171303096
30
0.0000000000
10
51.2686498109
20
176.2714128844
30
0.0000000000
10
51.6504624856
20
176.7208479119
30
0.0000000000
10
51.8507738910
20
176.9219876434
30
0.0000000000
11
50.5696694063
21
170.5556071936
31
0.0000000000
11
50.4433877446
21
170.6280634769
31
0.0000000000
11
50.1123221426
21
170.9850931851
31
0.0000000000
11
49.9012625175
21
171.5149486960
31
0.0000000000
11
49.8217166715
21
172.1887402000
31
0.0000000000
11
49.8780217573
21
172.9697299304
31
0.0000000000
11
50.0671077999
21
173.8153352508
31
0.0000000000
11
50.3786650835
21
174.6794504285
31
0.0000000000
11
50.7957062779
21
175.5149605003
31
0.0000000000
11
51.2954926543
21
176.2763101661
31
0.0000000000
11
51.8507738910
21
176.9219876434
31
0.0000000000
0
SPLINE
5
4D6
100
AcDbEntity
8
0
100
AcDbSpline
62
7
6
BYLAYER
70
0
71
3
72
9
73
5
74
3
42
0.0000001000
43
0.0000001000
44
0.0000000001
40
0.0000000000
40
0.0000000000
40
0.0000000000
40
0.0000000000
40
0.3832658877
40
1.0000000000
40
1.0000000000
40
1.0000000000
40
1.0000000000
10
57.7567669877
20
183.9737810049
30
0.0000000000
10
57.6601665701
20
184.0201100174
30
0.0000000000
10
57.3880291568
20
184.1012531722
30
0.0000000000
10
57.1054315638
20
184.0717927501
30
0.0000000000
10
56.9386625041
20
184.0295246093
30
0.0000000000
11
57.7567669877
21
183.9737810049
31
0.0000000000
11
57.4500280711
21
184.0660619614
31
0.0000000000
11
56.9386625041
21
184.0295246093
31
0.0000000000
0
SPLINE
5
4D7
100
AcDbEntity
8
0
100
AcDbSpline
62
7
6
BYLAYER
70
0
71
3
72
8
73
4
74
2
42
0.0000001000
43
0.0000001000
44
0.0000000001
40
0.0000000000
40
0.0000000000
40
0.0000000000
40
0.0000000000
40
1.0000000000
40
1.0000000000
40
1.0000000000
40
1.0000000000
10
56.9386625041
20
184.0295246093
30
0.0000000000
10
56.7740176885
20
183.9877948647
30
0.0000000000
10
56.6167010724
20
183.9225762427
30
0.0000000000
10
56.4672462317
20
183.8436196685
30
0.0000000000
11
56.9386625041
21
184.0295246093
31
0.0000000000
11
56.4672462317
21
183.8436196685
31
0.0000000000
0
SPLINE
5
4D8
100
AcDbEntity
8
0
100
AcDbSpline
62
7
6
BYLAYER
70
0
71
3
72
8
73
4
74
2
42
0.0000001000
43
0.0000001000
44
0.0000000001
40
0.0000000000
40
0.0000000000
40
0.0000000000
40
0.0000000000
40
1.0000000000
40
1.0000000000
40
1.0000000000
40
1.0000000000
10
56.4672462317
20
183.8436196685
30
0.0000000000
10
56.4367805048
20
183.8275247102
30
0.0000000000
10
56.4066414587
20
183.8108588978
30
0.0000000000
10
56.3768336132
20
183.7937048257
30
0.0000000000
11
56.4672462317
21
183.8436196685
31
0.0000000000
11
56.3768336132
21
183.7937048257
31
0.0000000000
0
SPLINE
5
4D9
100
AcDbEntity
8
0
100
AcDbSpline
62
7
6
BYLAYER
70
0
71
3
72
9
73
5
74
3
42
0.0000001000
43
0.0000001000
44
0.0000000001
40
0.0000000000
40
0.0000000000
40
0.0000000000
40
0.0000000000
40
0.6147387396
40
1.0000000000
40
1.0000000000
40
1.0000000000
40
1.0000000000
10
111.0615873093
20
258.1226101647
30
0.0000000000
10
111.3868872203
20
258.2852373652
30
0.0000000000
10
111.9714509696
20
258.4890099440
30
0.0000000000
10
112.5831037706
20
258.3431335632
30
0.0000000000
10
112.7888607803
20
258.2376541897
30
0.0000000000
11
111.0615873093
21
258.1226101647
31
0.0000000000
11
112.1158322386
21
258.4036375199
31
0.0000000000
11
112.7888607803
21
258.2376541897
31
0.0000000000
0
SPLINE
5
4DA
100
AcDbEntity
8
0
100
AcDbSpline
62
7
6
BYLAYER
70
0
71
3
72
8
73
4
74
2
42
0.0000001000
43
0.0000001000
44
0.0000000001
40
0.0000000000
40
0.0000000000
40
0.0000000000
40
0.0000000000
40
1.0000000000
40
1.0000000000
40
1.0000000000
40
1.0000000000
10
118.1559219676
20
223.6460133009
30
0.0000000000
10
118.1174172249
20
223.3057596483
30
0.0000000000
10
117.9591564126
20
222.9780333775
30
0.0000000000
10
117.7428762804
20
222.7075988905
30
0.0000000000
11
118.1559219676
21
223.6460133009
31
0.0000000000
11
117.7428762804
21
222.7075988905
31
0.0000000000
0
SPLINE
5
4DB
100
AcDbEntity
8
0
100
AcDbSpline
62
7
6
BYLAYER
70
0
71
3
72
8
73
4
74
2
42
0.0000001000
43
0.0000001000
44
0.0000000001
40
0.0000000000
40
0.0000000000
40
0.0000000000
40
0.0000000000
40
1.0000000000
40
1.0000000000
40
1.0000000000
40
1.0000000000
10
117.7428762804
20
222.7075988905
30
0.0000000000
10
117.6555952757
20
222.5984636062
30
0.0000000000
10
117.5588654231
20
222.4986586854
30
0.0000000000
10
117.4551430526
20
222.4068889877
30
0.0000000000
11
117.7428762804
21
222.7075988905
31
0.0000000000
11
117.4551430526
21
222.4068889877
31
0.0000000000
0
SPLINE
5
4DC
100
AcDbEntity
8
0
100
AcDbSpline
62
7
6
BYLAYER
70
0
71
3
72
8
73
4
74
2
42
0.0000001000
43
0.0000001000
44
0.0000000001
40
0.0000000000
40
0.0000000000
40
0.0000000000
40
0.0000000000
40
1.0000000000
40
1.0000000000
40
1.0000000000
40
1.0000000000
10
117.4551430526
20
222.4068889877
30
0.0000000000
10
117.2510292860
20
222.2262967147
30
0.0000000000
10
117.0198364761
20
222.0768214380
30
0.0000000000
10
116.7802837792
20
221.9485931741
30
0.0000000000
11
117.4551430526
21
222.4068889877
31
0.0000000000
11
116.7802837792
21
221.9485931741
31
0.0000000000
0
SPLINE
5
4DD
100
AcDbEntity
8
0
100
AcDbSpline
62
7
6
BYLAYER
70
0
71
3
72
8
73
4
74
2
42
0.0000001000
43
0.0000001000
44
0.0000000001
40
0.0000000000
40
0.0000000000
40
0.0000000000
40
0.0000000000
40
1.0000000000
40
1.0000000000
40
1.0000000000
40
1.0000000000
10
116.7802837792
20
221.9485931741
30
0.0000000000
10
116.7375012221
20
221.9256924383
30
0.0000000000
10
116.6944520211
20
221.9034693896
30
0.0000000000
10
116.6512428070
20
221.8818678051
30
0.0000000000
11
116.7802837792
21
221.9485931741
31
0.0000000000
11
116.6512428070
21
221.8818678051
31
0.0000000000
0
SPLINE
5
4DE
100
AcDbEntity
8
0
100
AcDbSpline
62
7
6
BYLAYER
70
0
71
3
72
9
73
5
74
3
42
0.0000001000
43
0.0000001000
44
0.0000000001
40
0.0000000000
40
0.0000000000
40
0.0000000000
40
0.0000000000
40
0.0588189057
40
1.0000000000
40
1.0000000000
40
1.0000000000
40
1.0000000000
10
107.3320229274
20
239.3651853177
30
0.0000000000
10
107.3298195420
20
239.3454873719
30
0.0000000000
10
107.2992578923
20
239.0098330525
30
0.0000000000
10
107.3895375810
20
238.6635728232
30
0.0000000000
10
107.5328104865
20
238.3765566681
30
0.0000000000
11
107.3320229274
21
239.3651853177
31
0.0000000000
11
107.3266424068
21
239.3059650395
31
0.0000000000
11
107.5328104865
21
238.3765566681
31
0.0000000000
0
SPLINE
5
4DF
100
AcDbEntity
8
0
100
AcDbSpline
62
7
6
BYLAYER
70
0
71
3
72
8
73
4
74
2
42
0.0000001000
43
0.0000001000
44
0.0000000001
40
0.0000000000
40
0.0000000000
40
0.0000000000
40
0.0000000000
40
1.0000000000
40
1.0000000000
40
1.0000000000
40
1.0000000000
10
107.5328104865
20
238.3765566681
30
0.0000000000
10
107.5623710958
20
238.3173384064
30
0.0000000000
10
107.5944136507
20
238.2597751377
30
0.0000000000
10
107.6285100584
20
238.2042908430
30
0.0000000000
11
107.5328104865
21
238.3765566681
31
0.0000000000
11
107.6285100584
21
238.2042908430
31
0.0000000000
0
SPLINE
5
4E0
100
AcDbEntity
8
0
100
AcDbSpline
62
7
6
BYLAYER
70
0
71
3
72
9
73
5
74
3
42
0.0000001000
43
0.0000001000
44
0.0000000001
40
0.0000000000
40
0.0000000000
40
0.0000000000
40
0.0000000000
40
0.0744900431
40
1.0000000000
40
1.0000000000
40
1.0000000000
40
1.0000000000
10
101.3074213773
20
238.3438776929
30
0.0000000000
10
101.3046153440
20
238.3190294597
30
0.0000000000
10
101.2755288846
20
237.9845464245
30
0.0000000000
10
101.3660165307
20
237.6410385040
30
0.0000000000
10
101.5057546726
20
237.3599195107
30
0.0000000000
11
101.3074213773
21
238.3438776929
31
0.0000000000
11
101.3009455296
21
238.2691480713
31
0.0000000000
11
101.5057546726
21
237.3599195107
31
0.0000000000
0
SPLINE
5
4E1
100
AcDbEntity
8
0
100
AcDbSpline
62
7
6
BYLAYER
70
0
71
3
72
8
73
4
74
2
42
0.0000001000
43
0.0000001000
44
0.0000000001
40
0.0000000000
40
0.0000000000
40
0.0000000000
40
0.0000000000
40
1.0000000000
40
1.0000000000
40
1.0000000000
40
1.0000000000
10
101.5057546726
20
237.3599195107
30
0.0000000000
10
101.5352245567
20
237.3006333056
30
0.0000000000
10
101.5671847001
20
237.2429838666
30
0.0000000000
10
101.6011995783
20
237.1873888867
30
0.0000000000
11
101.5057546726
21
237.3599195107
31
0.0000000000
11
101.6011995783
21
237.1873888867
31
0.0000000000
0
SPLINE
5
4E2
100
AcDbEntity
8
0
100
AcDbSpline
62
7
6
BYLAYER
70
0
71
3
72
8
73
4
74
2
42
0.0000001000
43
0.0000001000
44
0.0000000001
40
0.0000000000
40
0.0000000000
40
0.0000000000
40
0.0000000000
40
1.0000000000
40
1.0000000000
40
1.0000000000
40
1.0000000000
10
110.8059049827
20
223.4382131809
30
0.0000000000
10
110.6380180172
20
223.0268264731
30
0.0000000000
10
110.3597969487
20
222.6660434593
30
0.0000000000
10
110.0365328551
20
222.3596809819
30
0.0000000000
11
110.8059049827
21
223.4382131809
31
0.0000000000
11
110.0365328551
21
222.3596809819
31
0.0000000000
0
SPLINE
5
4E3
100
AcDbEntity
8
0
100
AcDbSpline
62
7
6
BYLAYER
70
0
71
3
72
8
73
4
74
2
42
0.0000001000
43
0.0000001000
44
0.0000000001
40
0.0000000000
40
0.0000000000
40
0.0000000000
40
0.0000000000
40
1.0000000000
40
1.0000000000
40
1.0000000000
40
1.0000000000
10
110.0365328551
20
222.3596809819
30
0.0000000000
10
109.7028467013
20
222.0434413538
30
0.0000000000
10
109.3211663221
20
221.7851878728
30
0.0000000000
10
108.9192844498
20
221.5682981365
30
0.0000000000
11
110.0365328551
21
222.3596809819
31
0.0000000000
11
108.9192844498
21
221.5682981365
31
0.0000000000
0
SPLINE
5
4E4
100
AcDbEntity
8
0
100
AcDbSpline
62
7
6
BYLAYER
70
0
71
3
72
8
73
4
74
2
42
0.0000001000
43
0.0000001000
44
0.0000000001
40
0.0000000000
40
0.0000000000
40
0.0000000000
40
0.0000000000
40
1.0000000000
40
1.0000000000
40
1.0000000000
40
1.0000000000
10
114.2759891807
20
257.4384868562
30
0.0000000000
10
114.3574239375
20
257.3967401264
30
0.0000000000
10
114.4341770277
20
257.3472746996
30
0.0000000000
10
114.5041462997
20
257.2902531009
30
0.0000000000
11
114.2759891807
21
257.4384868562
31
0.0000000000
11
114.5041462997
21
257.2902531009
31
0.0000000000
0
SPLINE
5
4E5
100
AcDbEntity
8
0
100
AcDbSpline
62
7
6
BYLAYER
70
0
71
3
72
8
73
4
74
2
42
0.0000001000
43
0.0000001000
44
0.0000000001
40
0.0000000000
40
0.0000000000
40
0.0000000000
40
0.0000000000
40
1.0000000000
40
1.0000000000
40
1.0000000000
40
1.0000000000
10
114.5041462997
20
257.2902531009
30
0.0000000000
10
114.7839992070
20
257.0621864121
30
0.0000000000
10
114.9553297785
20
256.7132418616
30
0.0000000000
10
115.0524025705
20
256.3569784716
30
0.0000000000
11
114.5041462997
21
257.2902531009
31
0.0000000000
11
115.0524025705
21
256.3569784716
31
0.0000000000
0
SPLINE
5
4E6
100
AcDbEntity
8
0
100
AcDbSpline
62
7
6
BYLAYER
70
0
71
3
72
8
73
4
74
2
42
0.0000001000
43
0.0000001000
44
0.0000000001
40
0.0000000000
40
0.0000000000
40
0.0000000000
40
0.0000000000
40
1.0000000000
40
1.0000000000
40
1.0000000000
40
1.0000000000
10
115.0524025705
20
256.3569784716
30
0.0000000000
10
115.1042720033
20
256.1666143169
30
0.0000000000
10
115.1349397737
20
255.9741605285
30
0.0000000000
10
115.1495361729
20
255.7811241175
30
0.0000000000
11
115.0524025705
21
256.3569784716
31
0.0000000000
11
115.1495361729
21
255.7811241175
31
0.0000000000
0
SPLINE
5
4E7
100
AcDbEntity
8
0
100
AcDbSpline
62
7
6
BYLAYER
70
0
71
3
72
8
73
4
74
2
42
0.0000001000
43
0.0000001000
44
0.0000000001
40
0.0000000000
40
0.0000000000
40
0.0000000000
40
0.0000000000
40
1.0000000000
40
1.0000000000
40
1.0000000000
40
1.0000000000
10
115.1495361729
20
255.7811241175
30
0.0000000000
10
115.1700072554
20
255.5103954111
30
0.0000000000
10
115.1588669854
20
255.2385207235
30
0.0000000000
10
115.1302676701
20
254.9696572621
30
0.0000000000
11
115.1495361729
21
255.7811241175
31
0.0000000000
11
115.1302676701
21
254.9696572621
31
0.0000000000
0
SPLINE
5
4E8
100
AcDbEntity
8
0
100
AcDbSpline
62
7
6
BYLAYER
70
0
71
3
72
10
73
6
74
4
42
0.0000001000
43
0.0000001000
44
0.0000000001
40
0.0000000000
40
0.0000000000
40
0.0000000000
40
0.0000000000
40
0.2992327644
40
0.6434511884
40
1.0000000000
40
1.0000000000
40
1.0000000000
40
1.0000000000
10
118.9156036176
20
254.0607694475
30
0.0000000000
10
118.4740062663
20
253.8491357805
30
0.0000000000
10
117.6176899613
20
253.2019010393
30
0.0000000000
10
116.5842981246
20
251.9190195695
30
0.0000000000
10
116.0601890394
20
250.8903540624
30
0.0000000000
10
115.8542014212
20
250.3420570348
30
0.0000000000
11
118.9156036176
21
254.0607694475
31
0.0000000000
11
117.7189463592
21
253.2086047491
31
0.0000000000
11
116.6453101788
21
251.9035526643
31
0.0000000000
11
115.8542014212
21
250.3420570348
31
0.0000000000
0
SPLINE
5
4E9
100
AcDbEntity
8
0
100
AcDbSpline
62
7
6
BYLAYER
70
0
71
3
72
8
73
4
74
2
42
0.0000001000
43
0.0000001000
44
0.0000000001
40
0.0000000000
40
0.0000000000
40
0.0000000000
40
0.0000000000
40
1.0000000000
40
1.0000000000
40
1.0000000000
40
1.0000000000
10
115.8542014212
20
250.3420570348
30
0.0000000000
10
115.6621171852
20
249.8307679752
30
0.0000000000
10
115.5227962427
20
249.2978143500
30
0.0000000000
10
115.4652438981
20
248.7567621459
30
0.0000000000
11
115.8542014212
21
250.3420570348
31
0.0000000000
11
115.4652438981
21
248.7567621459
31
0.0000000000
0
SPLINE
5
4EA
100
AcDbEntity
8
0
100
AcDbSpline
62
7
6
BYLAYER
70
0
71
3
72
8
73
4
74
2
42
0.0000001000
43
0.0000001000
44
0.0000000001
40
0.0000000000
40
0.0000000000
40
0.0000000000
40
0.0000000000
40
1.0000000000
40
1.0000000000
40
1.0000000000
40
1.0000000000
10
78.1166556060
20
181.3283014428
30
0.0000000000
10
77.9944253062
20
181.1713279521
30
0.0000000000
10
77.8632257445
20
181.0211781250
30
0.0000000000
10
77.7250764966
20
180.8778637581
30
0.0000000000
11
78.1166556060
21
181.3283014428
31
0.0000000000
11
77.7250764966
21
180.8778637581
31
0.0000000000
0
SPLINE
5
4EB
100
AcDbEntity
8
0
100
AcDbSpline
62
7
6
BYLAYER
70
0
71
3
72
8
73
4
74
2
42
0.0000001000
43
0.0000001000
44
0.0000000001
40
0.0000000000
40
0.0000000000
40
0.0000000000
40
0.0000000000
40
1.0000000000
40
1.0000000000
40
1.0000000000
40
1.0000000000
10
77.7250764966
20
180.8778637581
30
0.0000000000
10
77.5798803674
20
180.7272390414
30
0.0000000000
10
77.4270074737
20
180.5841649129
30
0.0000000000
10
77.2681283291
20
180.4481017332
30
0.0000000000
11
77.7250764966
21
180.8778637581
31
0.0000000000
11
77.2681283291
21
180.4481017332
31
0.0000000000
0
SPLINE
5
4EC
100
AcDbEntity
8
0
100
AcDbSpline
62
7
6
BYLAYER
70
0
71
3
72
8
73
4
74
2
42
0.0000001000
43
0.0000001000
44
0.0000000001
40
0.0000000000
40
0.0000000000
40
0.0000000000
40
0.0000000000
40
1.0000000000
40
1.0000000000
40
1.0000000000
40
1.0000000000
10
77.2681283291
20
180.4481017332
30
0.0000000000
10
77.1387668729
20
180.3373173309
30
0.0000000000
10
77.0054236163
20
180.2311807860
30
0.0000000000
10
76.8688707428
20
180.1294352058
30
0.0000000000
11
77.2681283291
21
180.4481017332
31
0.0000000000
11
76.8688707428
21
180.1294352058
31
0.0000000000
0
SPLINE
5
4ED
100
AcDbEntity
8
0
100
AcDbSpline
62
7
6
BYLAYER
70
0
71
3
72
8
73
4
74
2
42
0.0000001000
43
0.0000001000
44
0.0000000001
40
0.0000000000
40
0.0000000000
40
0.0000000000
40
0.0000000000
40
1.0000000000
40
1.0000000000
40
1.0000000000
40
1.0000000000
10
76.8688707428
20
180.1294352058
30
0.0000000000
10
76.8288896694
20
180.0996452980
30
0.0000000000
10
76.7886334517
20
180.0702318053
30
0.0000000000
10
76.7481214710
20
180.0411882801
30
0.0000000000
11
76.8688707428
21
180.1294352058
31
0.0000000000
11
76.7481214710
21
180.0411882801
31
0.0000000000
0
SPLINE
5
4EE
100
AcDbEntity
8
0
100
AcDbSpline
62
7
6
BYLAYER
70
0
71
3
72
9
73
5
74
3
42
0.0000001000
43
0.0000001000
44
0.0000000001
40
0.0000000000
40
0.0000000000
40
0.0000000000
40
0.0000000000
40
0.5216257101
40
1.0000000000
40
1.0000000000
40
1.0000000000
40
1.0000000000
10
104.7802843618
20
215.4073020044
30
0.0000000000
10
104.7363233751
20
215.3853245862
30
0.0000000000
10
104.6542017758
20
215.3385569947
30
0.0000000000
10
104.5790152476
20
215.2812855222
30
0.0000000000
10
104.5455111018
20
215.2510330841
30
0.0000000000
11
104.7802843618
21
215.4073020044
31
0.0000000000
11
104.6525368869
21
215.3336761935
31
0.0000000000
11
104.5455111018
21
215.2510330841
31
0.0000000000
0
SPLINE
5
4EF
100
AcDbEntity
8
0
100
AcDbSpline
62
7
6
BYLAYER
70
0
71
3
72
8
73
4
74
2
42
0.0000001000
43
0.0000001000
44
0.0000000001
40
0.0000000000
40
0.0000000000
40
0.0000000000
40
0.0000000000
40
1.0000000000
40
1.0000000000
40
1.0000000000
40
1.0000000000
10
104.5455111018
20
215.2510330841
30
0.0000000000
10
104.5148094633
20
215.2233111591
30
0.0000000000
10
104.4861761459
20
215.1931916806
30
0.0000000000
10
104.4608004448
20
215.1606030967
30
0.0000000000
11
104.5455111018
21
215.2510330841
31
0.0000000000
11
104.4608004448
21
215.1606030967
31
0.0000000000
0
SPLINE
5
4F0
100
AcDbEntity
8
0
100
AcDbSpline
62
7
6
BYLAYER
70
0
71
3
72
8
73
4
74
2
42
0.0000001000
43
0.0000001000
44
0.0000000001
40
0.0000000000
40
0.0000000000
40
0.0000000000
40
0.0000000000
40
1.0000000000
40
1.0000000000
40
1.0000000000
40
1.0000000000
10
104.2992527037
20
239.3088211098
30
0.0000000000
10
104.0274974533
20
239.1729624942
30
0.0000000000
10
103.7652868189
20
239.0002252626
30
0.0000000000
10
103.5721727938
20
238.7591565571
30
0.0000000000
11
104.2992527037
21
239.3088211098
31
0.0000000000
11
103.5721727938
21
238.7591565571
31
0.0000000000
0
SPLINE
5
4F1
100
AcDbEntity
8
0
100
AcDbSpline
62
7
6
BYLAYER
70
0
71
3
72
8
73
4
74
2
42
0.0000001000
43
0.0000001000
44
0.0000000001
40
0.0000000000
40
0.0000000000
40
0.0000000000
40
0.0000000000
40
1.0000000000
40
1.0000000000
40
1.0000000000
40
1.0000000000
10
54.9866624642
20
182.9936773264
30
0.0000000000
10
54.7862825249
20
182.8783609771
30
0.0000000000
10
54.5950422033
20
182.7334113792
30
0.0000000000
10
54.4619714648
20
182.5400814938
30
0.0000000000
11
54.9866624642
21
182.9936773264
31
0.0000000000
11
54.4619714648
21
182.5400814938
31
0.0000000000
0
SPLINE
5
4F2
100
AcDbEntity
8
0
100
AcDbSpline
62
7
6
BYLAYER
70
0
71
3
72
8
73
4
74
2
42
0.0000001000
43
0.0000001000
44
0.0000000001
40
0.0000000000
40
0.0000000000
40
0.0000000000
40
0.0000000000
40
1.0000000000
40
1.0000000000
40
1.0000000000
40
1.0000000000
10
110.3724831517
20
240.3536976708
30
0.0000000000
10
110.0904445916
20
240.2185318810
30
0.0000000000
10
109.8174545696
20
240.0459515211
30
0.0000000000
10
109.6142547324
20
239.8010408829
30
0.0000000000
11
110.3724831517
21
240.3536976708
31
0.0000000000
11
109.6142547324
21
239.8010408829
31
0.0000000000
0
SPLINE
5
4F3
100
AcDbEntity
8
0
100
AcDbSpline
62
7
6
BYLAYER
70
0
71
3
72
10
73
6
74
4
42
0.0000001000
43
0.0000001000
44
0.0000000001
40
0.0000000000
40
0.0000000000
40
0.0000000000
40
0.0000000000
40
0.2859344576
40
0.6322907400
40
1.0000000000
40
1.0000000000
40
1.0000000000
40
1.0000000000
10
73.9632155355
20
178.0446557850
30
0.0000000000
10
73.5938859360
20
177.7798789617
30
0.0000000000
10
72.8968034909
20
177.0334570386
30
0.0000000000
10
72.0637460898
20
175.6737594440
30
0.0000000000
10
71.6342926047
20
174.6180727294
30
0.0000000000
10
71.4602722163
20
174.0586959382
30
0.0000000000
11
73.9632155355
21
178.0446557850
31
0.0000000000
11
72.9982534662
21
177.0816146240
31
0.0000000000
11
72.1204492761
21
175.6828482139
31
0.0000000000
11
71.4602722163
21
174.0586959382
31
0.0000000000
0
SPLINE
5
4F4
100
AcDbEntity
8
0
100
AcDbSpline
62
7
6
BYLAYER
70
0
71
3
72
8
73
4
74
2
42
0.0000001000
43
0.0000001000
44
0.0000000001
40
0.0000000000
40
0.0000000000
40
0.0000000000
40
0.0000000000
40
1.0000000000
40
1.0000000000
40
1.0000000000
40
1.0000000000
10
71.4602722163
20
174.0586959382
30
0.0000000000
10
71.2971373549
20
173.5343099390
30
0.0000000000
10
71.1754183712
20
172.9960835009
30
0.0000000000
10
71.1174705514
20
172.4513134165
30
0.0000000000
11
71.4602722163
21
174.0586959382
31
0.0000000000
11
71.1174705514
21
172.4513134165
31
0.0000000000
0
SPLINE
5
4F5
100
AcDbEntity
8
0
100
AcDbSpline
62
7
6
BYLAYER
70
0
71
3
72
8
73
4
74
2
42
0.0000001000
43
0.0000001000
44
0.0000000001
40
0.0000000000
40
0.0000000000
40
0.0000000000
40
0.0000000000
40
1.0000000000
40
1.0000000000
40
1.0000000000
40
1.0000000000
10
111.7736444379
20
243.1656106123
30
0.0000000000
10
111.5699715521
20
242.9999773542
30
0.0000000000
10
111.3541083934
20
242.8503423396
30
0.0000000000
10
111.1254666651
20
242.7246225820
30
0.0000000000
11
111.7736444379
21
243.1656106123
31
0.0000000000
11
111.1254666651
21
242.7246225820
31
0.0000000000
0
SPLINE
5
4F6
100
AcDbEntity
8
0
100
AcDbSpline
62
7
6
BYLAYER
70
0
71
3
72
8
73
4
74
2
42
0.0000001000
43
0.0000001000
44
0.0000000001
40
0.0000000000
40
0.0000000000
40
0.0000000000
40
0.0000000000
40
1.0000000000
40
1.0000000000
40
1.0000000000
40
1.0000000000
10
111.1254666651
20
242.7246225820
30
0.0000000000
10
111.0834499532
20
242.7015194901
30
0.0000000000
10
111.0410017069
20
242.6792240204
30
0.0000000000
10
110.9981182753
20
242.6577853043
30
0.0000000000
11
111.1254666651
21
242.7246225820
31
0.0000000000
11
110.9981182753
21
242.6577853043
31
0.0000000000
0
SPLINE
5
4F7
100
AcDbEntity
8
0
100
AcDbSpline
62
7
6
BYLAYER
70
0
71
3
72
8
73
4
74
2
42
0.0000001000
43
0.0000001000
44
0.0000000001
40
0.0000000000
40
0.0000000000
40
0.0000000000
40
0.0000000000
40
1.0000000000
40
1.0000000000
40
1.0000000000
40
1.0000000000
10
115.2061096975
20
246.3206297617
30
0.0000000000
10
115.2019444194
20
246.2814717928
30
0.0000000000
10
115.1973508408
20
246.2423562440
30
0.0000000000
10
115.1923399574
20
246.2032882579
30
0.0000000000
11
115.2061096975
21
246.3206297617
31
0.0000000000
11
115.1923399574
21
246.2032882579
31
0.0000000000
0
SPLINE
5
4F8
100
AcDbEntity
8
0
100
AcDbSpline
62
7
6
BYLAYER
70
0
71
3
72
10
73
6
74
4
42
0.0000001000
43
0.0000001000
44
0.0000000001
40
0.0000000000
40
0.0000000000
40
0.0000000000
40
0.0000000000
40
0.3056123197
40
0.6589152277
40
1.0000000000
40
1.0000000000
40
1.0000000000
40
1.0000000000
10
115.1923399574
20
246.2032882579
30
0.0000000000
10
115.1281146271
20
245.7025473467
30
0.0000000000
10
114.8418342496
20
244.6397717584
30
0.0000000000
10
114.0870554711
20
243.1583723381
30
0.0000000000
10
113.3628883304
20
242.2593710369
30
0.0000000000
10
112.9524072365
20
241.8687871585
30
0.0000000000
11
115.1923399574
21
246.2032882579
31
0.0000000000
11
114.8171521745
21
244.7353348728
31
0.0000000000
11
114.0260434169
21
243.1738392433
31
0.0000000000
11
112.9524072365
21
241.8687871585
31
0.0000000000
0
SPLINE
5
4F9
100
AcDbEntity
8
0
100
AcDbSpline
62
7
6
BYLAYER
70
0
71
3
72
8
73
4
74
2
42
0.0000001000
43
0.0000001000
44
0.0000000001
40
0.0000000000
40
0.0000000000
40
0.0000000000
40
0.0000000000
40
1.0000000000
40
1.0000000000
40
1.0000000000
40
1.0000000000
10
112.9524072365
20
241.8687871585
30
0.0000000000
10
112.7115491650
20
241.6396041802
30
0.0000000000
10
112.4518343105
20
241.4279830668
30
0.0000000000
10
112.1726524291
20
241.2495497732
30
0.0000000000
11
112.9524072365
21
241.8687871585
31
0.0000000000
11
112.1726524291
21
241.2495497732
31
0.0000000000
0
SPLINE
5
4FA
100
AcDbEntity
8
0
100
AcDbSpline
62
7
6
BYLAYER
70
0
71
3
72
8
73
4
74
2
42
0.0000001000
43
0.0000001000
44
0.0000000001
40
0.0000000000
40
0.0000000000
40
0.0000000000
40
0.0000000000
40
1.0000000000
40
1.0000000000
40
1.0000000000
40
1.0000000000
10
112.1726524291
20
241.2495497732
30
0.0000000000
10
112.1322408712
20
241.2237215663
30
0.0000000000
10
112.0914214295
20
241.1985887286
30
0.0000000000
10
112.0501922533
20
241.1741986517
30
0.0000000000
11
112.1726524291
21
241.2495497732
31
0.0000000000
11
112.0501922533
21
241.1741986517
31
0.0000000000
0
SPLINE
5
4FB
100
AcDbEntity
8
0
100
AcDbSpline
62
7
6
BYLAYER
70
0
71
3
72
8
73
4
74
2
42
0.0000001000
43
0.0000001000
44
0.0000000001
40
0.0000000000
40
0.0000000000
40
0.0000000000
40
0.0000000000
40
1.0000000000
40
1.0000000000
40
1.0000000000
40
1.0000000000
10
112.0501922533
20
241.1741986517
30
0.0000000000
10
111.9948384523
20
241.1414528249
30
0.0000000000
10
111.9387460873
20
241.1100458563
30
0.0000000000
10
111.8819106793
20
241.0800924370
30
0.0000000000
11
112.0501922533
21
241.1741986517
31
0.0000000000
11
111.8819106793
21
241.0800924370
31
0.0000000000
0
SPLINE
5
4FC
100
AcDbEntity
8
0
100
AcDbSpline
62
7
6
BYLAYER
70
0
71
3
72
8
73
4
74
2
42
0.0000001000
43
0.0000001000
44
0.0000000001
40
0.0000000000
40
0.0000000000
40
0.0000000000
40
0.0000000000
40
1.0000000000
40
1.0000000000
40
1.0000000000
40
1.0000000000
10
111.8819106793
20
241.0800924370
30
0.0000000000
10
111.8402568046
20
241.0581399955
30
0.0000000000
10
111.7982038253
20
241.0369682871
30
0.0000000000
10
111.7557499781
20
241.0166224600
30
0.0000000000
11
111.8819106793
21
241.0800924370
31
0.0000000000
11
111.7557499781
21
241.0166224600
31
0.0000000000
0
SPLINE
5
4FD
100
AcDbEntity
8
0
100
AcDbSpline
62
7
6
BYLAYER
70
0
71
3
72
8
73
4
74
2
42
0.0000001000
43
0.0000001000
44
0.0000000001
40
0.0000000000
40
0.0000000000
40
0.0000000000
40
0.0000000000
40
1.0000000000
40
1.0000000000
40
1.0000000000
40
1.0000000000
10
59.9037095175
20
174.5126852964
30
0.0000000000
10
60.1474135948
20
174.3353295729
30
0.0000000000
10
60.3819877379
20
174.1207860513
30
0.0000000000
10
60.5088791721
20
173.8408294647
30
0.0000000000
11
59.9037095175
21
174.5126852964
31
0.0000000000
11
60.5088791721
21
173.8408294647
31
0.0000000000
0
SPLINE
5
4FE
100
AcDbEntity
8
0
100
AcDbSpline
62
7
6
BYLAYER
70
0
71
3
72
10
73
6
74
4
42
0.0000001000
43
0.0000001000
44
0.0000000001
40
0.0000000000
40
0.0000000000
40
0.0000000000
40
0.0000000000
40
0.2859344576
40
0.6322907400
40
1.0000000000
40
1.0000000000
40
1.0000000000
40
1.0000000000
10
60.6503207341
20
161.0387750730
30
0.0000000000
10
60.2399545124
20
160.7445786027
30
0.0000000000
10
59.4654184623
20
159.9152209105
30
0.0000000000
10
58.5397991277
20
158.4044458053
30
0.0000000000
10
58.0626285887
20
157.2314605668
30
0.0000000000
10
57.8692726016
20
156.6099307989
30
0.0000000000
11
60.6503207341
21
161.0387750730
31
0.0000000000
11
59.5781406571
21
159.9687293386
31
0.0000000000
11
58.6028026680
21
158.4145444386
31
0.0000000000
11
57.8692726016
21
156.6099307989
31
0.0000000000
0
SPLINE
5
4FF
100
AcDbEntity
8
0
100
AcDbSpline
62
7
6
BYLAYER
70
0
71
3
72
8
73
4
74
2
42
0.0000001000
43
0.0000001000
44
0.0000000001
40
0.0000000000
40
0.0000000000
40
0.0000000000
40
0.0000000000
40
1.0000000000
40
1.0000000000
40
1.0000000000
40
1.0000000000
10
57.8692726016
20
156.6099307989
30
0.0000000000
10
57.6880116445
20
156.0272796886
30
0.0000000000
10
57.5527683292
20
155.4292503130
30
0.0000000000
10
57.4883818628
20
154.8239502192
30
0.0000000000
11
57.8692726016
21
156.6099307989
31
0.0000000000
11
57.4883818628
21
154.8239502192
31
0.0000000000
0
SPLINE
5
500
100
AcDbEntity
8
0
100
AcDbSpline
62
7
6
BYLAYER
70
0
71
3
72
10
73
6
74
4
42
0.0000001000
43
0.0000001000
44
0.0000000001
40
0.0000000000
40
0.0000000000
40
0.0000000000
40
0.0000000000
40
0.0952606554
40
0.5608278376
40
1.0000000000
40
1.0000000000
40
1.0000000000
40
1.0000000000
10
55.2121700404
20
180.9660737362
30
0.0000000000
10
55.2382045598
20
181.0230989739
30
0.0000000000
10
55.3875691525
20
181.3606131613
30
0.0000000000
10
55.6124985427
20
181.9802276097
30
0.0000000000
10
55.7457506802
20
182.5618831527
30
0.0000000000
10
55.7889193225
20
182.8477659325
30
0.0000000000
11
55.2121700404
21
180.9660737362
31
0.0000000000
11
55.2882759962
21
181.1380454344
31
0.0000000000
11
55.5998332798
21
182.0021606121
31
0.0000000000
11
55.7889193225
21
182.8477659325
31
0.0000000000
0
SPLINE
5
501
100
AcDbEntity
8
0
100
AcDbSpline
62
7
6
BYLAYER
70
0
71
3
72
8
73
4
74
2
42
0.0000001000
43
0.0000001000
44
0.0000000001
40
0.0000000000
40
0.0000000000
40
0.0000000000
40
0.0000000000
40
1.0000000000
40
1.0000000000
40
1.0000000000
40
1.0000000000
10
55.7889193225
20
182.8477659325
30
0.0000000000
10
55.8206008561
20
183.0575757486
30
0.0000000000
10
55.8406948818
20
183.2692920700
30
0.0000000000
10
55.8449053840
20
183.4814630995
30
0.0000000000
11
55.7889193225
21
182.8477659325
31
0.0000000000
11
55.8449053840
21
183.4814630995
31
0.0000000000
0
SPLINE
5
502
100
AcDbEntity
8
0
100
AcDbSpline
62
7
6
BYLAYER
70
0
71
3
72
8
73
4
74
2
42
0.0000001000
43
0.0000001000
44
0.0000000001
40
0.0000000000
40
0.0000000000
40
0.0000000000
40
0.0000000000
40
1.0000000000
40
1.0000000000
40
1.0000000000
40
1.0000000000
10
54.6090980951
20
169.4475757085
30
0.0000000000
10
54.4330627589
20
169.3462693982
30
0.0000000000
10
54.2454761578
20
169.2619920985
30
0.0000000000
10
54.0472692042
20
169.2117559249
30
0.0000000000
11
54.6090980951
21
169.4475757085
31
0.0000000000
11
54.0472692042
21
169.2117559249
31
0.0000000000
0
SPLINE
5
503
100
AcDbEntity
8
0
100
AcDbSpline
62
7
6
BYLAYER
70
0
71
3
72
8
73
4
74
2
42
0.0000001000
43
0.0000001000
44
0.0000000001
40
0.0000000000
40
0.0000000000
40
0.0000000000
40
0.0000000000
40
1.0000000000
40
1.0000000000
40
1.0000000000
40
1.0000000000
10
54.0472692042
20
169.2117559249
30
0.0000000000
10
53.8805001444
20
169.1694877841
30
0.0000000000
10
53.7062125688
20
169.1513185368
30
0.0000000000
10
53.5359036371
20
169.1752185728
30
0.0000000000
11
54.0472692042
21
169.2117559249
31
0.0000000000
11
53.5359036371
21
169.1752185728
31
0.0000000000
0
SPLINE
5
504
100
AcDbEntity
8
0
100
AcDbSpline
62
7
6
BYLAYER
70
0
71
3
72
8
73
4
74
2
42
0.0000001000
43
0.0000001000
44
0.0000000001
40
0.0000000000
40
0.0000000000
40
0.0000000000
40
0.0000000000
40
1.0000000000
40
1.0000000000
40
1.0000000000
40
1.0000000000
10
53.5359036371
20
169.1752185728
30
0.0000000000
10
53.4300661254
20
169.1900711136
30
0.0000000000
10
53.3257651381
20
169.2211705168
30
0.0000000000
10
53.2291647205
20
169.2674995292
30
0.0000000000
11
53.5359036371
21
169.1752185728
31
0.0000000000
11
53.2291647205
21
169.2674995292
31
0.0000000000
0
SPLINE
5
505
100
AcDbEntity
8
0
100
AcDbSpline
62
7
6
BYLAYER
70
0
71
3
72
8
73
4
74
2
42
0.0000001000
43
0.0000001000
44
0.0000000001
40
0.0000000000
40
0.0000000000
40
0.0000000000
40
0.0000000000
40
1.0000000000
40
1.0000000000
40
1.0000000000
40
1.0000000000
10
71.0765546250
20
172.0666609347
30
0.0000000000
10
71.0722291410
20
172.0259968638
30
0.0000000000
10
71.0675483371
20
171.9853692527
30
0.0000000000
10
71.0625215110
20
171.9447811362
30
0.0000000000
11
71.0765546250
21
172.0666609347
31
0.0000000000
11
71.0625215110
21
171.9447811362
31
0.0000000000
0
SPLINE
5
506
100
AcDbEntity
8
0
100
AcDbSpline
62
7
6
BYLAYER
70
0
71
3
72
11
73
7
74
5
42
0.0000001000
43
0.0000001000
44
0.0000000001
40
0.0000000000
40
0.0000000000
40
0.0000000000
40
0.0000000000
40
0.2483944952
40
0.5347375770
40
0.8044526375
40
1.0000000000
40
1.0000000000
40
1.0000000000
40
1.0000000000
10
71.0625215110
20
171.9447811362
30
0.0000000000
10
71.0002047478
20
171.4416167184
30
0.0000000000
10
70.7515720098
20
170.3714831859
30
0.0000000000
10
70.1302790866
20
168.8442149072
30
0.0000000000
10
69.3262296511
20
167.5318634632
30
0.0000000000
10
68.6764011079
20
166.8206519068
30
0.0000000000
10
68.3633685143
20
166.5732001431
30
0.0000000000
11
71.0625215110
21
171.9447811362
31
0.0000000000
11
70.7337529601
21
170.4592784130
31
0.0000000000
11
70.0735759003
21
168.8351261373
31
0.0000000000
11
69.1957717101
21
167.4363597272
31
0.0000000000
11
68.3633685143
21
166.5732001431
31
0.0000000000
0
SPLINE
5
507
100
AcDbEntity
8
0
100
AcDbSpline
62
7
6
BYLAYER
70
0
71
3
72
8
73
4
74
2
42
0.0000001000
43
0.0000001000
44
0.0000000001
40
0.0000000000
40
0.0000000000
40
0.0000000000
40
0.0000000000
40
1.0000000000
40
1.0000000000
40
1.0000000000
40
1.0000000000
10
68.3633685143
20
166.5732001431
30
0.0000000000
10
68.3199612845
20
166.5388867974
30
0.0000000000
10
68.2757865871
20
166.5055630790
30
0.0000000000
10
68.2308096408
20
166.4733185663
30
0.0000000000
11
68.3633685143
21
166.5732001431
31
0.0000000000
11
68.2308096408
21
166.4733185663
31
0.0000000000
0
SPLINE
5
508
100
AcDbEntity
8
0
100
AcDbSpline
62
7
6
BYLAYER
70
0
71
3
72
12
73
8
74
6
42
0.0000001000
43
0.0000001000
44
0.0000000001
40
0.0000000000
40
0.0000000000
40
0.0000000000
40
0.0000000000
40
0.0543293294
40
0.2371393319
40
0.4512778423
40
0.7060127817
40
1.0000000000
40
1.0000000000
40
1.0000000000
40
1.0000000000
10
53.2291647205
20
169.2674995292
30
0.0000000000
10
53.1852897826
20
169.2885417006
30
0.0000000000
10
53.0007160266
20
169.3941006238
30
0.0000000000
10
52.7280038550
20
169.7054294064
30
0.0000000000
10
52.5267800116
20
170.2569505115
30
0.0000000000
10
52.4584864015
20
170.9356918560
30
0.0000000000
10
52.4985069988
20
171.4232794631
30
0.0000000000
10
52.5375170715
20
171.6816222660
30
0.0000000000
11
53.2291647205
21
169.2674995292
31
0.0000000000
11
53.1028830589
21
169.3399558125
31
0.0000000000
11
52.7718174568
21
169.6969855208
31
0.0000000000
11
52.5607578318
21
170.2268410316
31
0.0000000000
11
52.4812119857
21
170.9006325356
31
0.0000000000
11
52.5375170715
21
171.6816222660
31
0.0000000000
0
SPLINE
5
509
100
AcDbEntity
8
0
100
AcDbSpline
62
7
6
BYLAYER
70
0
71
3
72
12
73
8
74
6
42
0.0000001000
43
0.0000001000
44
0.0000000001
40
0.0000000000
40
0.0000000000
40
0.0000000000
40
0.0000000000
40
0.1983224113
40
0.4085643484
40
0.6222953235
40
0.8307451482
40
1.0000000000
40
1.0000000000
40
1.0000000000
40
1.0000000000
10
52.5375170715
20
171.6816222660
30
0.0000000000
10
52.5806857138
20
171.9675050459
30
0.0000000000
10
52.7139378513
20
172.5491605889
30
0.0000000000
10
53.0238979232
20
173.4030096071
30
0.0000000000
10
53.4359614086
20
174.2290226453
30
0.0000000000
10
53.9076778069
20
174.9519385961
30
0.0000000000
10
54.2616198614
20
175.3753784501
30
0.0000000000
10
54.4319710649
20
175.5536159984
30
0.0000000000
11
52.5375170715
21
171.6816222660
31
0.0000000000
11
52.7266031142
21
172.5272275864
31
0.0000000000
11
53.0381603978
21
173.3913427641
31
0.0000000000
11
53.4552015921
21
174.2268528359
31
0.0000000000
11
53.9549879685
21
174.9882025018
31
0.0000000000
11
54.4319710649
21
175.5536159984
31
0.0000000000
0
SPLINE
5
50A
100
AcDbEntity
8
0
100
AcDbSpline
62
7
6
BYLAYER
70
0
71
3
72
8
73
4
74
2
42
0.0000001000
43
0.0000001000
44
0.0000000001
40
0.0000000000
40
0.0000000000
40
0.0000000000
40
0.0000000000
40
1.0000000000
40
1.0000000000
40
1.0000000000
40
1.0000000000
10
54.4319710649
20
175.5536159984
30
0.0000000000
10
54.4577991108
20
175.5806397439
30
0.0000000000
10
54.4838971390
20
175.6073988593
30
0.0000000000
10
54.5102692052
20
175.6338799791
30
0.0000000000
11
54.4319710649
21
175.5536159984
31
0.0000000000
11
54.5102692052
21
175.6338799791
31
0.0000000000
0
SPLINE
5
50B
100
AcDbEntity
8
0
100
AcDbSpline
62
7
6
BYLAYER
70
0
71
3
72
8
73
4
74
2
42
0.0000001000
43
0.0000001000
44
0.0000000001
40
0.0000000000
40
0.0000000000
40
0.0000000000
40
0.0000000000
40
1.0000000000
40
1.0000000000
40
1.0000000000
40
1.0000000000
10
112.5487133987
20
257.3234492932
30
0.0000000000
10
112.8740041993
20
257.4860719391
30
0.0000000000
10
113.2333455787
20
257.6113388514
30
0.0000000000
10
113.6029267289
20
257.6044765585
30
0.0000000000
11
112.5487133987
21
257.3234492932
31
0.0000000000
11
113.6029267289
21
257.6044765585
31
0.0000000000
0
SPLINE
5
50C
100
AcDbEntity
8
0
100
AcDbSpline
62
7
6
BYLAYER
70
0
71
3
72
8
73
4
74
2
42
0.0000001000
43
0.0000001000
44
0.0000000001
40
0.0000000000
40
0.0000000000
40
0.0000000000
40
0.0000000000
40
1.0000000000
40
1.0000000000
40
1.0000000000
40
1.0000000000
10
113.6029267289
20
257.6044765585
30
0.0000000000
10
113.8345628525
20
257.6001755953
30
0.0000000000
10
114.0702213570
20
257.5439717142
30
0.0000000000
10
114.2759891807
20
257.4384868562
30
0.0000000000
11
113.6029267289
21
257.6044765585
31
0.0000000000
11
114.2759891807
21
257.4384868562
31
0.0000000000
0
SPLINE
5
50D
100
AcDbEntity
8
0
100
AcDbSpline
62
7
6
BYLAYER
70
0
71
3
72
15
73
11
74
9
42
0.0000001000
43
0.0000001000
44
0.0000000001
40
0.0000000000
40
0.0000000000
40
0.0000000000
40
0.0000000000
40
0.1391507541
40
0.3169068573
40
0.4845851972
40
0.6361105614
40
0.7674047199
40
0.8777748780
40
0.9719978594
40
1.0000000000
40
1.0000000000
40
1.0000000000
40
1.0000000000
10
57.6351867085
20
179.2021715133
30
0.0000000000
10
57.7489624264
20
179.4132818252
30
0.0000000000
10
57.9865148433
20
179.9057090570
30
0.0000000000
10
58.2719938569
20
180.6921199453
30
0.0000000000
10
58.4636972551
20
181.5289196111
30
0.0000000000
10
58.5274453068
20
182.3055886782
30
0.0000000000
10
58.4591516966
20
182.9843300227
30
0.0000000000
10
58.2579278533
20
183.5358511278
30
0.0000000000
10
57.9852156816
20
183.8471799104
30
0.0000000000
10
57.8006419256
20
183.9527388336
30
0.0000000000
10
57.7567669877
20
183.9737810049
30
0.0000000000
11
57.6351867085
21
179.2021715133
31
0.0000000000
11
57.9477713105
21
179.8499377701
31
0.0000000000
11
58.2593285941
21
180.7140529478
31
0.0000000000
11
58.4484146367
21
181.5596582682
31
0.0000000000
11
58.5047197225
21
182.3406479985
31
0.0000000000
11
58.4251738765
21
183.0144395026
31
0.0000000000
11
58.2141142514
21
183.5442950134
31
0.0000000000
11
57.8830486494
21
183.9013247217
31
0.0000000000
11
57.7567669877
21
183.9737810049
31
0.0000000000
0
ENDSEC
0
SECTION
2
OBJECTS
0
DICTIONARY
5
50E
100
AcDbDictionary
3
ACAD_GROUP
350
50F
3
ACAD_MLINESTYLE
350
510
0
DICTIONARY
5
50F
102
{ACAD_REACTORS
330
50E
102
}
100
AcDbDictionary
0
DICTIONARY
5
510
102
{ACAD_REACTORS
330
50E
102
}
100
AcDbDictionary
3
STANDARD
350
511
0
MLINESTYLE
5
511
102
{ACAD_REACTORS
330
510
102
}
100
AcDbMlineStyle
2
STANDARD
70
0
3

62
256
51
90.0
52
90.0
71
2
49
0.5
62
256
6
BYLAYER
49
-0.5
62
256
6
BYLAYER
0
ENDSEC
0
EOF
