999
DXF file: td-1002-967.dxf
999
Pro/ENGINEER 2003060 by Parametric Technology Corporation
0
SECTION
2
HEADER
9
$ACADVER
1
AC1014
9
$HANDSEED
5
       4FD
9
$EXTMAX
10
420.0000000000
20
297.0000000000
9
$EXTMIN
10
0.0000000000
20
0.0000000000
9
$LIMMIN
10
0.0000000000
20
0.0000000000
9
$LIMMAX
10
420.0000000000
20
297.0000000000
9
$VIEWCTR
10
210.0000000000
20
148.5000000000
9
$VIEWSIZE
40
297.0000000000
9
$CLAYER
8
0
9
$LTSCALE
40
23.1000000000
9
$CELTYPE
6
BYLAYER
9
$DIMSCALE
40
1
9
$DIMASZ
40
5.0000000000
9
$DIMEXO
40
2.6250000000
9
$DIMDLI
40
15.9600000000
9
$DIMEXE
40
7.5600000000
9
$DIMCEN
40
3.7800000000
9
$DIMLFAC
40
1.0000000000
9
$DIMTXT
40
4.0000000000
9
$DIMTOL
70
1
9
$DIMLIM
70
0
9
$DIMTFAC
40
1.0000000000
9
$DIMTP
40
0.0100000000
9
$DIMTM
40
0.0100000000
0
ENDSEC
0
SECTION
2
CLASSES
0
ENDSEC
0
SECTION
2
TABLES
0
TABLE
2
VPORT
5
8
100
AcDbSymbolTable
70
2
0
VPORT
5
1F4
100
AcDbSymbolTableRecord
100
AcDbViewportTableRecord
2
*ACTIVE
70
0
10
0.0
20
0.0
11
1.0
21
1.0
12
210.0000000000
22
148.5000000000
13
0.0
23
0.0
14
1.0
24
1.0
15
0.0
25
0.0
16
0.0
26
0.0
36
1.0
17
0.0
27
0.0
37
0.0
40
297.0000000000
41
1.4141414141
42
50.0
43
0.0
44
0.0
50
0.0
51
0.0
71
0
72
100
73
1
74
1
75
0
76
0
77
0
78
0
0
ENDTAB
0
TABLE
2
LTYPE
5
5
100
AcDbSymbolTable
70
6
0
LTYPE
5
14
100
AcDbSymbolTableRecord
100
AcDbLinetypeTableRecord
2
BYBLOCK
70
0
3

72
65
73
0
40
0.0
0
LTYPE
5
15
100
AcDbSymbolTableRecord
100
AcDbLinetypeTableRecord
2
BYLAYER
70
0
3

72
65
73
0
40
0.0
0
LTYPE
5
16
100
AcDbSymbolTableRecord
100
AcDbLinetypeTableRecord
2
CONTINUOUS
70
64
3
Solid line
72
65
73
0
40
0
0
LTYPE
5
1F5
100
AcDbSymbolTableRecord
100
AcDbLinetypeTableRecord
2
CENTER
70
64
3
____ _ ____ _ ____ _ ____ _ ____ _ ____ _ ____
72
65
73
4
40
0.6
49
0.375
74
0
49
-0.075
74
0
49
0.075
74
0
49
-0.075
74
0
0
LTYPE
5
1F6
100
AcDbSymbolTableRecord
100
AcDbLinetypeTableRecord
2
HIDDEN
70
64
3
- - - - - - - - - - - - - - - - - - - -
72
65
73
2
40
0.2
49
0.1
74
0
49
-0.1
74
0
0
LTYPE
5
1F7
100
AcDbSymbolTableRecord
100
AcDbLinetypeTableRecord
2
PHANTOM
70
64
3
_____ _ _ _____ _ _ _____ _ _ _____
72
65
73
6
40
0.8
49
0.45
74
0
49
-0.05
74
0
49
0.1
74
0
49
-0.05
74
0
49
0.1
74
0
49
-0.05
74
0
0
LTYPE
5
1F8
100
AcDbSymbolTableRecord
100
AcDbLinetypeTableRecord
2
DOT
70
64
3
. . . . . . . . . . . . . . . . . . . .
72
65
73
2
40
0.2
49
0.1
74
0
49
-0.1
74
0
0
LTYPE
5
1F9
100
AcDbSymbolTableRecord
100
AcDbLinetypeTableRecord
2
DASHED
70
64
3
- - - - - - - - - - - - - - - - - - - -
72
65
73
2
40
0.2
49
0.1
74
0
49
-0.1
74
0
0
ENDTAB
0
TABLE
2
LAYER
5
2
100
AcDbSymbolTable
70
36
0
LAYER
5
10
100
AcDbSymbolTableRecord
100
AcDbLayerTableRecord
2
0
70
0
62
7
6
CONTINUOUS
0
LAYER
5
1FA
100
AcDbSymbolTableRecord
100
AcDbLayerTableRecord
2
DEFAULT_1
70
0
62
7
6
CENTER
0
LAYER
5
1FB
100
AcDbSymbolTableRecord
100
AcDbLayerTableRecord
2
DEFAULT_2
70
0
62
7
6
HIDDEN
0
LAYER
5
1FC
100
AcDbSymbolTableRecord
100
AcDbLayerTableRecord
2
DEFAULT_3
70
0
62
7
6
PHANTOM
0
LAYER
5
1FD
100
AcDbSymbolTableRecord
100
AcDbLayerTableRecord
2
AXIS
70
0
62
7
6
CONTINUOUS
0
LAYER
5
1FE
100
AcDbSymbolTableRecord
100
AcDbLayerTableRecord
2
CSYS
70
0
62
7
6
CONTINUOUS
0
LAYER
5
1FF
100
AcDbSymbolTableRecord
100
AcDbLayerTableRecord
2
CURVES
70
0
62
7
6
CONTINUOUS
0
LAYER
5
200
100
AcDbSymbolTableRecord
100
AcDbLayerTableRecord
2
DTMS
70
0
62
7
6
CONTINUOUS
0
LAYER
5
201
100
AcDbSymbolTableRecord
100
AcDbLayerTableRecord
2
GEOM
70
0
62
7
6
CONTINUOUS
0
LAYER
5
202
100
AcDbSymbolTableRecord
100
AcDbLayerTableRecord
2
PLANES
70
0
62
7
6
CONTINUOUS
0
LAYER
5
203
100
AcDbSymbolTableRecord
100
AcDbLayerTableRecord
2
POINTS
70
0
62
7
6
CONTINUOUS
0
LAYER
5
204
100
AcDbSymbolTableRecord
100
AcDbLayerTableRecord
2
SKELETON
70
0
62
7
6
CONTINUOUS
0
ENDTAB
0
TABLE
2
STYLE
5
3
100
AcDbSymbolTable
70
1
0
STYLE
5
11
100
AcDbSymbolTableRecord
100
AcDbTextStyleTableRecord
2
STANDARD
70
0
40
0.0
41
0.8000000000
50
0.0
71
0
42
0.2
3
txt
4

0
STYLE
5
205
100
AcDbSymbolTableRecord
100
AcDbTextStyleTableRecord
2
TEXTSTYLE_1
70
0
40
0.0
41
0.8000000000
50
0.0
71
0
42
0.2
3
txt
4

0
STYLE
5
206
100
AcDbSymbolTableRecord
100
AcDbTextStyleTableRecord
2
TEXTSTYLE_2
70
0
40
0.0
41
0.8000000000
50
0.0
71
0
42
0.2
3
cgtime.ttf
4

0
ENDTAB
0
TABLE
2
VIEW
5
6
100
AcDbSymbolTable
70
0
0
ENDTAB
0
TABLE
2
UCS
5
7
100
AcDbSymbolTable
70
0
0
ENDTAB
0
TABLE
2
APPID
5
9
100
AcDbSymbolTable
70
1
0
APPID
5
207
100
AcDbSymbolTableRecord
100
AcDbRegAppTableRecord
2
ACAD
70
0
0
ENDTAB
0
TABLE
2
DIMSTYLE
5
A
100
AcDbSymbolTable
70
1
0
DIMSTYLE
105
208
100
AcDbSymbolTableRecord
100
AcDbDimStyleTableRecord
2
STANDARD
70
0
3

4

5

6

7

40
1.0
41
5.0000000000
42
0.0625
43
0.38
44
0.18
45
0.0
46
0.0
47
0.0100000000
48
0.0100000000
140
4.0000000000
141
0.09
142
0.0
143
25.4
144
1.0000000000
145
0.0
146
1.0000000000
147
0.09
71
1
72
0
73
0
74
0
75
0
76
0
77
1
78
8
170
0
171
2
172
0
173
0
174
0
175
0
176
0
177
0
178
0
270
2
271
2
272
2
273
2
274
2
340
11
275
0
280
0
281
0
282
0
283
1
284
8
285
0
286
0
287
3
288
0
0
DIMSTYLE
105
209
100
AcDbSymbolTableRecord
100
AcDbDimStyleTableRecord
2
DIMSTYLE_1
70
0
3

4

5

6

7

40
1.0
41
5.0000000000
42
0.0625
43
0.38
44
0.18
45
0.0
46
0.0
47
0.2000000000
48
0.2000000000
140
4.0000000000
141
0.09
142
0.0
143
25.4
144
1.0000000000
145
0.0
146
1.0000000000
147
0.09
71
0
72
0
73
0
74
0
75
0
76
0
77
1
78
8
170
0
171
2
172
0
173
0
174
0
175
0
176
0
177
0
178
0
270
2
271
2
272
2
273
2
274
2
340
11
275
0
280
0
281
0
282
0
283
1
284
8
285
0
286
0
287
3
288
0
0
DIMSTYLE
105
20A
100
AcDbSymbolTableRecord
100
AcDbDimStyleTableRecord
2
DIMSTYLE_2
70
0
3

4

5

6

7

40
1.0
41
5.0000000000
42
0.0625
43
0.38
44
0.18
45
0.0
46
0.0
47
0.3000000000
48
0.3000000000
140
4.0000000000
141
0.09
142
0.0
143
25.4
144
1.0000000000
145
0.0
146
1.0000000000
147
0.09
71
0
72
0
73
0
74
0
75
0
76
0
77
1
78
8
170
0
171
2
172
0
173
0
174
0
175
0
176
0
177
0
178
0
270
2
271
2
272
2
273
2
274
2
340
11
275
0
280
0
281
0
282
0
283
1
284
8
285
0
286
0
287
3
288
0
0
DIMSTYLE
105
20B
100
AcDbSymbolTableRecord
100
AcDbDimStyleTableRecord
2
DIMSTYLE_3
70
0
3

4

5

6

7

40
1.0
41
5.0000000000
42
0.0625
43
0.38
44
0.18
45
0.0
46
0.0
47
0.5000000000
48
0.5000000000
140
4.0000000000
141
0.09
142
0.0
143
25.4
144
1.0000000000
145
0.0
146
1.0000000000
147
0.09
71
0
72
0
73
0
74
0
75
0
76
0
77
1
78
8
170
0
171
2
172
0
173
0
174
0
175
0
176
0
177
0
178
0
270
2
271
1
272
1
273
2
274
2
340
11
275
0
280
0
281
0
282
0
283
1
284
8
285
0
286
0
287
3
288
0
0
ENDTAB
0
TABLE
2
BLOCK_RECORD
5
1
100
AcDbSymbolTable
70
0
0
BLOCK_RECORD
5
1B
100
AcDbSymbolTableRecord
100
AcDbBlockTableRecord
2
*MODEL_SPACE
0
BLOCK_RECORD
5
1C
100
AcDbSymbolTableRecord
100
AcDbBlockTableRecord
2
*PAPER_SPACE
0
BLOCK_RECORD
5
20C
100
AcDbSymbolTableRecord
100
AcDbBlockTableRecord
2
COPYRIGHT_BL0
0
BLOCK_RECORD
5
20D
100
AcDbSymbolTableRecord
100
AcDbBlockTableRecord
2
MICRO_U_BL1
0
BLOCK_RECORD
5
20E
100
AcDbSymbolTableRecord
100
AcDbBlockTableRecord
2
PROJECTION_BL2
0
BLOCK_RECORD
5
20F
100
AcDbSymbolTableRecord
100
AcDbBlockTableRecord
2
SURFACE_FINISH_BL3
0
BLOCK_RECORD
5
210
100
AcDbSymbolTableRecord
100
AcDbBlockTableRecord
2
*D0
0
BLOCK_RECORD
5
211
100
AcDbSymbolTableRecord
100
AcDbBlockTableRecord
2
*D1
0
BLOCK_RECORD
5
212
100
AcDbSymbolTableRecord
100
AcDbBlockTableRecord
2
*D2
0
BLOCK_RECORD
5
213
100
AcDbSymbolTableRecord
100
AcDbBlockTableRecord
2
*D3
0
BLOCK_RECORD
5
214
100
AcDbSymbolTableRecord
100
AcDbBlockTableRecord
2
*D4
0
BLOCK_RECORD
5
215
100
AcDbSymbolTableRecord
100
AcDbBlockTableRecord
2
*D5
0
BLOCK_RECORD
5
216
100
AcDbSymbolTableRecord
100
AcDbBlockTableRecord
2
*D6
0
BLOCK_RECORD
5
217
100
AcDbSymbolTableRecord
100
AcDbBlockTableRecord
2
*D7
0
BLOCK_RECORD
5
218
100
AcDbSymbolTableRecord
100
AcDbBlockTableRecord
2
*D8
0
BLOCK_RECORD
5
219
100
AcDbSymbolTableRecord
100
AcDbBlockTableRecord
2
*D9
0
BLOCK_RECORD
5
21A
100
AcDbSymbolTableRecord
100
AcDbBlockTableRecord
2
COPYRIGHT_BL4
0
BLOCK_RECORD
5
21B
100
AcDbSymbolTableRecord
100
AcDbBlockTableRecord
2
MICRO_U_BL5
0
BLOCK_RECORD
5
21C
100
AcDbSymbolTableRecord
100
AcDbBlockTableRecord
2
SURFACE_FINISH_BL6
0
BLOCK_RECORD
5
21D
100
AcDbSymbolTableRecord
100
AcDbBlockTableRecord
2
PROJECTION_BL7
0
ENDTAB
0
ENDSEC
0
SECTION
2
BLOCKS
0
BLOCK
5
1E
100
AcDbEntity
8
0
100
AcDbBlockBegin
2
*MODEL_SPACE
70
0
10
0.0
20
0.0
30
0.0
3
*MODEL_SPACE
1

0
ENDBLK
5
1F
100
AcDbEntity
8
0
100
AcDbBlockEnd
0
BLOCK
5
20
100
AcDbEntity
8
0
100
AcDbBlockBegin
2
*PAPER_SPACE
70
0
10
0.0
20
0.0
30
0.0
3
*PAPER_SPACE
1

0
ENDBLK
5
21
100
AcDbEntity
8
0
100
AcDbBlockEnd
0
BLOCK
5
21E
100
AcDbEntity
8
0
100
AcDbBlockBegin
62
7
6
BYLAYER
2
COPYRIGHT_BL0
70
64
10
0.0000000000
20
0.0000000000
3
COPYRIGHT_BL0
1

0
TEXT
5
21F
100
AcDbEntity
8
0
100
AcDbText
62
7
6
BYLAYER
10
409.9593803245
20
9.9568590072
7
TEXTSTYLE_1
40
0.1000000000
1
C
41
0.8000000000
72
0
100
AcDbText
0
CIRCLE
5
220
100
AcDbEntity
8
0
100
AcDbCircle
62
7
6
BYLAYER
10
409.9943527832
20
10.0069663115
40
0.0753936874
0
ENDBLK
5
221
100
AcDbEntity
8
0
100
AcDbBlockEnd
0
BLOCK
5
222
100
AcDbEntity
8
0
100
AcDbBlockBegin
62
7
6
BYLAYER
2
MICRO_U_BL1
70
64
10
0.0000000000
20
0.0000000000
3
MICRO_U_BL1
1

0
TEXT
5
223
100
AcDbEntity
8
0
100
AcDbText
62
7
6
BYLAYER
10
409.9173172813
20
9.9658183152
7
STANDARD
40
0.1000000000
1
um
41
0.8000000000
72
0
100
AcDbText
0
ARC
5
224
100
AcDbEntity
8
0
100
AcDbCircle
62
7
6
BYLAYER
10
409.8795565990
20
9.9804558390
40
0.0627552936
100
AcDbArc
50
303.7730668774
51
1.5957171757
0
ENDBLK
5
225
100
AcDbEntity
8
0
100
AcDbBlockEnd
0
BLOCK
5
226
100
AcDbEntity
8
0
100
AcDbBlockBegin
62
7
6
BYLAYER
2
PROJECTION_BL2
70
64
10
0.0000000000
20
0.0000000000
3
PROJECTION_BL2
1

0
LINE
5
227
100
AcDbEntity
8
0
100
AcDbLine
62
7
6
BYLAYER
10
409.6178469936
20
9.9332236616
11
409.6178469936
21
10.0582236616
0
LINE
5
228
100
AcDbEntity
8
0
100
AcDbLine
62
7
6
BYLAYER
10
409.6178469936
20
10.0582236616
11
409.7928469936
21
10.1207236616
0
LINE
5
229
100
AcDbEntity
8
0
100
AcDbLine
62
7
6
BYLAYER
10
409.7928469936
20
10.1207236616
11
409.7928469936
21
9.8707236616
0
LINE
5
22A
100
AcDbEntity
8
0
100
AcDbLine
62
7
6
BYLAYER
10
409.7928469936
20
9.8707236616
11
409.6178469936
21
9.9332236616
0
ARC
5
22B
100
AcDbEntity
8
0
100
AcDbCircle
62
7
6
BYLAYER
10
409.2678469936
20
9.9957236616
40
0.0625000000
100
AcDbArc
50
180.0000000000
51
360.0000000000
0
ARC
5
22C
100
AcDbEntity
8
0
100
AcDbCircle
62
7
6
BYLAYER
10
409.2678469936
20
9.9957236616
40
0.0625000000
100
AcDbArc
50
0.0000000000
51
180.0000000000
0
ARC
5
22D
100
AcDbEntity
8
0
100
AcDbCircle
62
7
6
BYLAYER
10
409.2678469936
20
9.9957236616
40
0.1250000000
100
AcDbArc
50
180.0000000000
51
360.0000000000
0
ARC
5
22E
100
AcDbEntity
8
0
100
AcDbCircle
62
7
6
BYLAYER
10
409.2678469936
20
9.9957236616
40
0.1250000000
100
AcDbArc
50
0.0000000000
51
180.0000000000
0
LINE
5
22F
100
AcDbEntity
8
0
100
AcDbLine
62
7
6
BYLAYER
10
409.0671219936
20
9.9957236616
11
409.4456219936
21
9.9957236616
0
LINE
5
230
100
AcDbEntity
8
0
100
AcDbLine
62
7
6
BYLAYER
10
409.5241469936
20
9.9957236616
11
409.8669219936
21
9.9957236616
0
LINE
5
231
100
AcDbEntity
8
0
100
AcDbLine
62
7
6
BYLAYER
10
409.2678469936
20
10.1398736616
11
409.2678469936
21
9.8515736616
0
TEXT
5
232
100
AcDbEntity
8
0
100
AcDbText
62
7
6
BYLAYER
10
409.2283663134
20
9.9568432128
7
STANDARD
40
0.1000000000
1
l
41
0.8000000000
72
0
100
AcDbText
0
ENDBLK
5
233
100
AcDbEntity
8
0
100
AcDbBlockEnd
0
BLOCK
5
234
100
AcDbEntity
8
0
100
AcDbBlockBegin
62
7
6
BYLAYER
2
SURFACE_FINISH_BL3
70
64
10
0.0000000000
20
0.0000000000
3
SURFACE_FINISH_BL3
1

0
LINE
5
235
100
AcDbEntity
8
0
100
AcDbLine
62
7
6
BYLAYER
10
409.9768652881
20
9.9666906703
11
410.0571314064
21
10.1057156653
0
LINE
5
236
100
AcDbEntity
8
0
100
AcDbLine
62
7
6
BYLAYER
10
409.9768652881
20
9.9666906703
11
409.9405459599
21
10.0295975921
0
LINE
5
237
100
AcDbEntity
8
0
100
AcDbLine
62
7
6
BYLAYER
10
409.9405459599
20
10.0295975921
11
410.0131846164
21
10.0295975921
0
TEXT
5
238
100
AcDbEntity
8
0
100
AcDbText
62
7
6
BYLAYER
10
409.9369531437
20
9.9795701528
7
STANDARD
40
0.1000000000
1
-
41
0.8000000000
72
0
100
AcDbText
0
ENDBLK
5
239
100
AcDbEntity
8
0
100
AcDbBlockEnd
0
BLOCK
5
23A
100
AcDbEntity
8
0
100
AcDbBlockBegin
62
7
6
BYLAYER
2
*D0
70
65
10
0.0000000000
20
0.0000000000
3
*D0
1

0
TEXT
5
23B
100
AcDbEntity
8
0
100
AcDbText
62
7
6
BYLAYER
10
121.3645653553
20
148.5220308928
7
STANDARD
40
4.0000000000
1
27.8
50
90.0000000000
41
0.8000000000
72
0
100
AcDbText
0
LINE
5
23C
100
AcDbEntity
8
0
100
AcDbLine
62
7
6
BYLAYER
10
135.8002758446
20
169.2955450976
11
119.3645653553
21
169.2955450976
0
LINE
5
23D
100
AcDbEntity
8
0
100
AcDbLine
62
7
6
BYLAYER
10
135.8002758446
20
141.4955450976
11
119.3645653553
21
141.4955450976
0
LINE
5
23E
100
AcDbEntity
8
0
100
AcDbLine
62
7
6
BYLAYER
10
122.3645653553
20
169.2955450976
11
122.3645653553
21
155.3955450976
0
LINE
5
23F
100
AcDbEntity
8
0
100
AcDbLine
62
7
6
BYLAYER
10
122.3645653553
20
141.4955450976
11
122.3645653553
21
155.3955450976
0
SOLID
5
240
100
AcDbEntity
8
0
100
AcDbTrace
62
7
6
BYLAYER
10
123.1645653553
20
164.2955450976
11
122.3645653553
21
169.2955450976
12
121.5645653553
22
164.2955450976
13
121.5645653553
23
164.2955450976
0
SOLID
5
241
100
AcDbEntity
8
0
100
AcDbTrace
62
7
6
BYLAYER
10
121.5645653553
20
146.4955450976
11
122.3645653553
21
141.4955450976
12
123.1645653553
22
146.4955450976
13
123.1645653553
23
146.4955450976
0
ENDBLK
5
242
100
AcDbEntity
8
0
100
AcDbBlockEnd
0
BLOCK
5
243
100
AcDbEntity
8
0
100
AcDbBlockBegin
62
7
6
BYLAYER
2
*D1
70
65
10
0.0000000000
20
0.0000000000
3
*D1
1

0
TEXT
5
244
100
AcDbEntity
8
0
100
AcDbText
62
7
6
BYLAYER
10
154.9893736182
20
178.1442066891
7
STANDARD
40
4.0000000000
1
40
41
0.8000000000
72
0
100
AcDbText
0
LINE
5
245
100
AcDbEntity
8
0
100
AcDbLine
62
7
6
BYLAYER
10
177.8002758446
20
171.2955450976
11
177.8002758446
21
180.1442066891
0
LINE
5
246
100
AcDbEntity
8
0
100
AcDbLine
62
7
6
BYLAYER
10
137.8002758446
20
171.2955450976
11
137.8002758446
21
180.1442066891
0
LINE
5
247
100
AcDbEntity
8
0
100
AcDbLine
62
7
6
BYLAYER
10
177.8002758446
20
177.1442066891
11
157.8002758446
21
177.1442066891
0
LINE
5
248
100
AcDbEntity
8
0
100
AcDbLine
62
7
6
BYLAYER
10
137.8002758446
20
177.1442066891
11
157.8002758446
21
177.1442066891
0
SOLID
5
249
100
AcDbEntity
8
0
100
AcDbTrace
62
7
6
BYLAYER
10
172.8002758446
20
176.3442066891
11
177.8002758446
21
177.1442066891
12
172.8002758446
22
177.9442066891
13
172.8002758446
23
177.9442066891
0
SOLID
5
24A
100
AcDbEntity
8
0
100
AcDbTrace
62
7
6
BYLAYER
10
142.8002758446
20
177.9442066891
11
137.8002758446
21
177.1442066891
12
142.8002758446
22
176.3442066891
13
142.8002758446
23
176.3442066891
0
ENDBLK
5
24B
100
AcDbEntity
8
0
100
AcDbBlockEnd
0
BLOCK
5
24C
100
AcDbEntity
8
0
100
AcDbBlockBegin
62
7
6
BYLAYER
2
*D2
70
65
10
0.0000000000
20
0.0000000000
3
*D2
1

0
TEXT
5
24D
100
AcDbEntity
8
0
100
AcDbText
62
7
6
BYLAYER
10
287.0078662187
20
188.3040606889
7
STANDARD
40
4.0000000000
1
11.4%%d
50
-72.0816100119
41
0.7733333333
72
0
100
AcDbText
0
LINE
5
24E
100
AcDbEntity
8
0
100
AcDbLine
62
7
6
BYLAYER
10
282.3262898180
20
151.1168534782
11
288.2471827525
21
149.9232056119
0
LINE
5
24F
100
AcDbEntity
8
0
100
AcDbLine
62
7
6
BYLAYER
10
233.3673669534
20
161.6955450976
11
289.4220123920
21
161.6955450976
0
ARC
5
250
100
AcDbEntity
8
0
100
AcDbCircle
62
7
6
BYLAYER
10
229.8524386654
20
161.6955450976
40
56.5695737266
100
AcDbArc
50
338.4736120214
51
348.6019859402
0
ARC
5
251
100
AcDbEntity
8
0
100
AcDbCircle
62
7
6
BYLAYER
10
229.8524386654
20
161.6955450976
40
56.5695737266
100
AcDbArc
50
0.0000000000
51
17.9183899881
0
SOLID
5
252
100
AcDbEntity
8
0
100
AcDbTrace
62
7
6
BYLAYER
10
285.3063486773
20
150.5160757005
11
284.8791302821
21
145.4705346549
12
283.3261861004
22
145.8557156105
13
283.3261861004
23
145.8557156105
0
SOLID
5
253
100
AcDbEntity
8
0
100
AcDbTrace
62
7
6
BYLAYER
10
286.4220123920
20
161.6955450976
11
285.4018985651
21
166.6553200704
12
287.0003363763
22
166.7260064452
13
287.0003363763
23
166.7260064452
0
ENDBLK
5
254
100
AcDbEntity
8
0
100
AcDbBlockEnd
0
BLOCK
5
255
100
AcDbEntity
8
0
100
AcDbBlockBegin
62
7
6
BYLAYER
2
*D3
70
65
10
0.0000000000
20
0.0000000000
3
*D3
1

0
TEXT
5
256
100
AcDbEntity
8
0
100
AcDbText
62
7
6
BYLAYER
10
289.7470488162
20
119.0831063612
7
STANDARD
40
4.0000000000
1
10.6%%d
50
47.9467679536
41
0.7733333333
72
0
100
AcDbText
0
LINE
5
257
100
AcDbEntity
8
0
100
AcDbLine
62
7
6
BYLAYER
10
281.3301497577
20
138.4641782839
11
308.7309654564
21
132.9401930411
0
LINE
5
258
100
AcDbEntity
8
0
100
AcDbLine
62
7
6
BYLAYER
10
283.0665531011
20
138.8078023639
11
309.3187601370
21
138.4412285828
0
ARC
5
259
100
AcDbEntity
8
0
100
AcDbCircle
62
7
6
BYLAYER
10
279.3695937075
20
138.8594250097
40
26.9520860387
100
AcDbArc
50
317.9467679536
51
348.6019859402
0
ARC
5
25A
100
AcDbEntity
8
0
100
AcDbCircle
62
7
6
BYLAYER
10
279.3695937075
20
138.8594250097
40
26.9520860387
100
AcDbArc
50
359.2000000000
51
20.4583840193
0
SOLID
5
25B
100
AcDbEntity
8
0
100
AcDbTrace
62
7
6
BYLAYER
10
305.7901313811
20
133.5330631298
11
305.1184821764
21
128.5142099395
12
303.5860674128
22
128.9743240472
13
303.5860674128
23
128.9743240472
0
SOLID
5
25C
100
AcDbEntity
8
0
100
AcDbTrace
62
7
6
BYLAYER
10
306.3190525649
20
138.4831151239
11
305.1279694326
21
143.4046312492
12
306.7230051351
22
143.5305721391
13
306.7230051351
23
143.5305721391
0
ENDBLK
5
25D
100
AcDbEntity
8
0
100
AcDbBlockEnd
0
BLOCK
5
25E
100
AcDbEntity
8
0
100
AcDbBlockBegin
62
7
6
BYLAYER
2
*D4
70
65
10
0.0000000000
20
0.0000000000
3
*D4
1

0
TEXT
5
25F
100
AcDbEntity
8
0
100
AcDbText
62
7
6
BYLAYER
10
351.5456357613
20
170.3958829225
7
STANDARD
40
4.0000000000
1
59.7%%d
50
-58.9145764120
41
0.7733333333
72
0
100
AcDbText
0
LINE
5
260
100
AcDbEntity
8
0
100
AcDbLine
62
7
6
BYLAYER
10
329.1364097958
20
138.1645040104
11
359.5954073751
21
137.7391885352
0
LINE
5
261
100
AcDbEntity
8
0
100
AcDbLine
62
7
6
BYLAYER
10
333.1260884218
20
171.0430076822
11
337.2752885422
21
177.9216587519
0
ARC
5
262
100
AcDbEntity
8
0
100
AcDbCircle
62
7
6
BYLAYER
10
313.4261103142
20
138.3838754284
40
43.1737978975
100
AcDbArc
50
359.2000000000
51
29.0508168194
0
ARC
5
263
100
AcDbEntity
8
0
100
AcDbCircle
62
7
6
BYLAYER
10
313.4261103142
20
138.3838754284
40
43.1737978975
100
AcDbArc
50
29.0508168194
51
58.9016336388
0
SOLID
5
264
100
AcDbEntity
8
0
100
AcDbTrace
62
7
6
BYLAYER
10
356.5956998030
20
137.7810750762
11
355.5768284834
21
142.7411054425
12
357.1752839521
22
142.8113913898
13
357.1752839521
23
142.8113913898
0
SOLID
5
265
100
AcDbEntity
8
0
100
AcDbTrace
62
7
6
BYLAYER
10
335.7257617988
20
175.3528133163
11
340.3026941720
21
173.1867823720
12
339.3983758806
22
171.8668549392
13
339.3983758806
23
171.8668549392
0
ENDBLK
5
266
100
AcDbEntity
8
0
100
AcDbBlockEnd
0
BLOCK
5
267
100
AcDbEntity
8
0
100
AcDbBlockBegin
62
7
6
BYLAYER
2
*D5
70
65
10
0.0000000000
20
0.0000000000
3
*D5
1

0
TEXT
5
268
100
AcDbEntity
8
0
100
AcDbText
62
7
6
BYLAYER
10
346.8344077935
20
153.3237486911
7
STANDARD
40
4.0000000000
1
59.7%%d
50
-74.5596878007
41
0.7733333333
72
0
100
AcDbText
0
LINE
5
269
100
AcDbEntity
8
0
100
AcDbLine
62
7
6
BYLAYER
10
329.9434522410
20
138.1532348398
11
346.9206518751
21
137.9161730090
0
LINE
5
26A
100
AcDbEntity
8
0
100
AcDbLine
62
7
6
BYLAYER
10
330.8300448453
20
153.9506404029
11
334.5614864889
21
160.1469687585
0
ARC
5
26B
100
AcDbEntity
8
0
100
AcDbCircle
62
7
6
BYLAYER
10
321.3887502221
20
138.2726887760
40
22.5343906430
100
AcDbArc
50
359.2000000000
51
29.0717814182
0
ARC
5
26C
100
AcDbEntity
8
0
100
AcDbCircle
62
7
6
BYLAYER
10
321.3887502221
20
138.2726887760
40
22.5343906430
100
AcDbArc
50
29.0717814182
51
58.9435628365
0
SOLID
5
26D
100
AcDbEntity
8
0
100
AcDbTrace
62
7
6
BYLAYER
10
343.9209443030
20
137.9580595500
11
342.6405684965
21
142.8571041297
12
344.2330504649
22
143.0120272729
13
344.2330504649
23
143.0120272729
0
SOLID
5
26E
100
AcDbEntity
8
0
100
AcDbTrace
62
7
6
BYLAYER
10
333.0138400480
20
157.5769900633
11
337.4712722481
21
155.1746374286
12
336.4991843271
22
153.9037931919
13
336.4991843271
23
153.9037931919
0
ENDBLK
5
26F
100
AcDbEntity
8
0
100
AcDbBlockEnd
0
BLOCK
5
270
100
AcDbEntity
8
0
100
AcDbBlockBegin
62
7
6
BYLAYER
2
*D6
70
65
10
0.0000000000
20
0.0000000000
3
*D6
1

0
TEXT
5
271
100
AcDbEntity
8
0
100
AcDbText
62
7
6
BYLAYER
10
352.9420645062
20
110.1756003868
7
STANDARD
40
4.0000000000
1
59.6%%d
50
53.8675572782
41
0.7733333333
72
0
100
AcDbText
0
LINE
5
272
100
AcDbEntity
8
0
100
AcDbLine
62
7
6
BYLAYER
10
336.8612540779
20
122.0404100630
11
350.3637835856
21
98.2646575015
0
LINE
5
273
100
AcDbEntity
8
0
100
AcDbLine
62
7
6
BYLAYER
10
332.3787153866
20
138.1192299419
11
373.5966866813
21
137.5436810913
0
ARC
5
274
100
AcDbEntity
8
0
100
AcDbCircle
62
7
6
BYLAYER
10
327.6927431263
20
138.1846627098
40
42.9084185236
100
AcDbArc
50
299.5927524013
51
329.3963762006
0
ARC
5
275
100
AcDbEntity
8
0
100
AcDbCircle
62
7
6
BYLAYER
10
327.6927431263
20
138.1846627098
40
42.9084185236
100
AcDbArc
50
329.3963762006
51
359.2000000000
0
SOLID
5
276
100
AcDbEntity
8
0
100
AcDbTrace
62
7
6
BYLAYER
10
348.8822879566
20
100.8733297119
11
352.6440135957
21
104.2629344404
12
353.5138197194
22
102.9200132561
13
353.5138197194
23
102.9200132561
0
SOLID
5
277
100
AcDbEntity
8
0
100
AcDbTrace
62
7
6
BYLAYER
10
370.5969791092
20
137.5855676323
11
371.0340759685
21
132.5408727619
12
369.4382474606
22
132.6563343282
13
369.4382474606
23
132.6563343282
0
ENDBLK
5
278
100
AcDbEntity
8
0
100
AcDbBlockEnd
0
BLOCK
5
279
100
AcDbEntity
8
0
100
AcDbBlockBegin
62
7
6
BYLAYER
2
*D7
70
65
10
0.0000000000
20
0.0000000000
3
*D7
1

0
TEXT
5
27A
100
AcDbEntity
8
0
100
AcDbText
62
7
6
BYLAYER
10
369.4835862593
20
207.2617930666
7
STANDARD
40
4.0000000000
1
60.7%%d
50
-58.4128687110
41
0.7733333333
72
0
100
AcDbText
0
LINE
5
27B
100
AcDbEntity
8
0
100
AcDbLine
62
7
6
BYLAYER
10
365.4047494892
20
173.6757873269
11
377.8381419120
21
173.2766974145
0
LINE
5
27C
100
AcDbEntity
8
0
100
AcDbLine
62
7
6
BYLAYER
10
332.4348941843
20
176.4797830553
11
355.3989739875
21
214.5502273617
0
ARC
5
27D
100
AcDbEntity
8
0
100
AcDbCircle
62
7
6
BYLAYER
10
331.4018763554
20
174.7672194316
40
43.4601809588
100
AcDbArc
50
358.1615380000
51
28.5315858194
0
ARC
5
27E
100
AcDbEntity
8
0
100
AcDbCircle
62
7
6
BYLAYER
10
331.4018763554
20
174.7672194316
40
43.4601809588
100
AcDbArc
50
28.5315858194
51
58.9016336388
0
SOLID
5
27F
100
AcDbEntity
8
0
100
AcDbTrace
62
7
6
BYLAYER
10
374.8396861636
20
173.3729425423
11
373.9127751470
21
178.3509778944
12
375.5122575541
22
178.3916722346
13
375.5122575541
23
178.3916722346
0
SOLID
5
280
100
AcDbEntity
8
0
100
AcDbTrace
62
7
6
BYLAYER
10
353.8494472442
20
211.9813819262
11
358.4272057790
21
209.8170975649
12
357.5233911997
22
208.4968251664
13
357.5233911997
23
208.4968251664
0
ENDBLK
5
281
100
AcDbEntity
8
0
100
AcDbBlockEnd
0
BLOCK
5
282
100
AcDbEntity
8
0
100
AcDbBlockBegin
62
7
6
BYLAYER
2
*D8
70
65
10
0.0000000000
20
0.0000000000
3
*D8
1

0
TEXT
5
283
100
AcDbEntity
8
0
100
AcDbText
62
7
6
BYLAYER
10
360.2366201911
20
194.7516364838
7
STANDARD
40
4.0000000000
1
59.7%%d
50
-49.3162531928
41
0.7733333333
72
0
100
AcDbText
0
LINE
5
284
100
AcDbEntity
8
0
100
AcDbLine
62
7
6
BYLAYER
10
362.5107865471
20
157.4504048558
11
373.7563037824
21
157.2933776098
0
LINE
5
285
100
AcDbEntity
8
0
100
AcDbLine
62
7
6
BYLAYER
10
330.2801691270
20
159.6281846317
11
352.2114736487
21
196.0466997959
0
ARC
5
286
100
AcDbEntity
8
0
100
AcDbCircle
62
7
6
BYLAYER
10
329.2484048331
20
157.9148655016
40
41.5122378238
100
AcDbArc
50
359.2000000000
51
29.0717814182
0
ARC
5
287
100
AcDbEntity
8
0
100
AcDbCircle
62
7
6
BYLAYER
10
329.2484048331
20
157.9148655016
40
41.5122378238
100
AcDbArc
50
29.0717814182
51
58.9435628365
0
SOLID
5
288
100
AcDbEntity
8
0
100
AcDbTrace
62
7
6
BYLAYER
10
370.7565962104
20
157.3352641508
11
369.7262317108
21
162.2929197457
12
371.3245199837
22
162.3669102619
13
371.3245199837
23
162.3669102619
0
SOLID
5
289
100
AcDbEntity
8
0
100
AcDbTrace
62
7
6
BYLAYER
10
350.6638272077
20
193.4767211007
11
355.2373186955
21
191.3034342785
12
354.3309082554
22
189.9849426728
13
354.3309082554
23
189.9849426728
0
ENDBLK
5
28A
100
AcDbEntity
8
0
100
AcDbBlockEnd
0
BLOCK
5
28B
100
AcDbEntity
8
0
100
AcDbBlockBegin
62
7
6
BYLAYER
2
*D9
70
65
10
0.0000000000
20
0.0000000000
3
*D9
1

0
TEXT
5
28C
100
AcDbEntity
8
0
100
AcDbText
62
7
6
BYLAYER
10
360.4221717494
20
98.7399193459
7
STANDARD
40
4.0000000000
1
65.5%%d
50
60.7513136512
41
0.7733333333
72
0
100
AcDbText
0
LINE
5
28D
100
AcDbEntity
8
0
100
AcDbLine
62
7
6
BYLAYER
10
333.1506839059
20
121.6891847894
11
354.7405624946
21
83.6729293267
0
LINE
5
28E
100
AcDbEntity
8
0
100
AcDbLine
62
7
6
BYLAYER
10
365.8742099327
20
126.4278191567
11
377.7021975862
21
127.4802376730
0
ARC
5
28F
100
AcDbEntity
8
0
100
AcDbCircle
62
7
6
BYLAYER
10
332.1630201532
20
123.4282995963
40
42.7190866428
100
AcDbArc
50
299.5927524013
51
332.3386837006
0
ARC
5
290
100
AcDbEntity
8
0
100
AcDbCircle
62
7
6
BYLAYER
10
332.1630201532
20
123.4282995963
40
42.7190866428
100
AcDbArc
50
332.3386837006
51
5.0846150000
0
SOLID
5
291
100
AcDbEntity
8
0
100
AcDbTrace
62
7
6
BYLAYER
10
353.2590668656
20
86.2816015371
11
357.0199170966
21
89.6721775264
12
357.8900699679
22
88.3294809931
13
357.8900699679
23
88.3294809931
0
SOLID
5
292
100
AcDbEntity
8
0
100
AcDbTrace
62
7
6
BYLAYER
10
374.7140028883
20
127.2143571595
11
375.6647216940
21
122.2408137796
12
374.0654523059
22
122.1924668638
13
374.0654523059
23
122.1924668638
0
ENDBLK
5
293
100
AcDbEntity
8
0
100
AcDbBlockEnd
0
BLOCK
5
294
100
AcDbEntity
8
0
100
AcDbBlockBegin
62
7
6
BYLAYER
2
COPYRIGHT_BL4
70
64
10
0.0000000000
20
0.0000000000
3
COPYRIGHT_BL4
1

0
CIRCLE
5
295
100
AcDbEntity
8
0
100
AcDbCircle
62
7
6
BYLAYER
10
368.4166666667
20
59.2552477502
40
2.6387790604
0
ENDBLK
5
296
100
AcDbEntity
8
0
100
AcDbBlockEnd
0
BLOCK
5
297
100
AcDbEntity
8
0
100
AcDbBlockBegin
62
7
6
BYLAYER
2
MICRO_U_BL5
70
64
10
0.0000000000
20
0.0000000000
3
MICRO_U_BL5
1

0
ARC
5
298
100
AcDbEntity
8
0
100
AcDbCircle
62
7
6
BYLAYER
10
115.8029987548
20
24.2743672858
40
1.1407767248
100
AcDbArc
50
303.7730668774
51
1.5957171757
0
ENDBLK
5
299
100
AcDbEntity
8
0
100
AcDbBlockEnd
0
BLOCK
5
29A
100
AcDbEntity
8
0
100
AcDbBlockBegin
62
7
6
BYLAYER
2
SURFACE_FINISH_BL6
70
64
10
0.0000000000
20
0.0000000000
3
SURFACE_FINISH_BL6
1

0
LINE
5
29B
100
AcDbEntity
8
0
100
AcDbLine
62
7
6
BYLAYER
10
97.0309676193
20
12.0901401771
11
99.8402817594
21
16.9560150021
0
LINE
5
29C
100
AcDbEntity
8
0
100
AcDbLine
62
7
6
BYLAYER
10
97.0309676193
20
12.0901401771
11
95.7597911309
21
14.2918824404
0
LINE
5
29D
100
AcDbEntity
8
0
100
AcDbLine
62
7
6
BYLAYER
10
95.7597911309
20
14.2918824404
11
98.3021441078
21
14.2918824404
0
ENDBLK
5
29E
100
AcDbEntity
8
0
100
AcDbBlockEnd
0
BLOCK
5
29F
100
AcDbEntity
8
0
100
AcDbBlockBegin
62
7
6
BYLAYER
2
PROJECTION_BL7
70
64
10
0.0000000000
20
0.0000000000
3
PROJECTION_BL7
1

0
LINE
5
2A0
100
AcDbEntity
8
0
100
AcDbLine
62
7
6
BYLAYER
10
304.4288585399
20
278.0624994947
11
304.4288585399
21
282.4374994947
0
LINE
5
2A1
100
AcDbEntity
8
0
100
AcDbLine
62
7
6
BYLAYER
10
304.4288585399
20
282.4374994947
11
310.5538585399
21
284.6249994947
0
LINE
5
2A2
100
AcDbEntity
8
0
100
AcDbLine
62
7
6
BYLAYER
10
310.5538585399
20
284.6249994947
11
310.5538585399
21
275.8749994947
0
LINE
5
2A3
100
AcDbEntity
8
0
100
AcDbLine
62
7
6
BYLAYER
10
310.5538585399
20
275.8749994947
11
304.4288585399
21
278.0624994947
0
ARC
5
2A4
100
AcDbEntity
8
0
100
AcDbCircle
62
7
6
BYLAYER
10
292.1788585399
20
280.2499994947
40
2.1875000000
100
AcDbArc
50
180.0000000000
51
360.0000000000
0
ARC
5
2A5
100
AcDbEntity
8
0
100
AcDbCircle
62
7
6
BYLAYER
10
292.1788585399
20
280.2499994947
40
2.1875000000
100
AcDbArc
50
0.0000000000
51
180.0000000000
0
ARC
5
2A6
100
AcDbEntity
8
0
100
AcDbCircle
62
7
6
BYLAYER
10
292.1788585399
20
280.2499994947
40
4.3750000000
100
AcDbArc
50
180.0000000000
51
360.0000000000
0
ARC
5
2A7
100
AcDbEntity
8
0
100
AcDbCircle
62
7
6
BYLAYER
10
292.1788585399
20
280.2499994947
40
4.3750000000
100
AcDbArc
50
0.0000000000
51
180.0000000000
0
LINE
5
2A8
100
AcDbEntity
8
0
100
AcDbLine
62
7
6
BYLAYER
10
285.1534835399
20
280.2499994947
11
298.4009835399
21
280.2499994947
0
LINE
5
2A9
100
AcDbEntity
8
0
100
AcDbLine
62
7
6
BYLAYER
10
301.1493585399
20
280.2499994947
11
313.1464835399
21
280.2499994947
0
LINE
5
2AA
100
AcDbEntity
8
0
100
AcDbLine
62
7
6
BYLAYER
10
292.1788585399
20
285.2952494947
11
292.1788585399
21
275.2047494947
0
ENDBLK
5
2AB
100
AcDbEntity
8
0
100
AcDbBlockEnd
0
ENDSEC
0
SECTION
2
ENTITIES
0
INSERT
5
2AC
100
AcDbEntity
8
0
100
AcDbBlockReference
62
7
6
BYLAYER
2
COPYRIGHT_BL0
10
0.0000000000
20
0.0000000000
0
INSERT
5
2AD
100
AcDbEntity
8
0
100
AcDbBlockReference
62
7
6
BYLAYER
2
MICRO_U_BL1
10
0.0000000000
20
0.0000000000
0
INSERT
5
2AE
100
AcDbEntity
8
0
100
AcDbBlockReference
62
7
6
BYLAYER
2
PROJECTION_BL2
10
0.0000000000
20
0.0000000000
0
INSERT
5
2AF
100
AcDbEntity
8
0
100
AcDbBlockReference
62
7
6
BYLAYER
2
SURFACE_FINISH_BL3
10
0.0000000000
20
0.0000000000
0
DIMENSION
5
2B0
100
AcDbEntity
8
0
100
AcDbDimension
62
7
6
BYLAYER
2
*D0
10
122.3645653553
20
141.4955450976
11
119.3645653553
21
154.9220308928
70
160
3
DIMSTYLE_1
100
AcDbAlignedDimension
13
135.8002758446
23
169.2955450976
14
135.8002758446
24
141.4955450976
50
270.000000
100
AcDbRotatedDimension
0
DIMENSION
5
2B1
100
AcDbEntity
8
0
100
AcDbDimension
62
7
6
BYLAYER
2
*D1
10
137.8002758446
20
177.1442066891
11
158.1893736182
21
180.1442066891
70
160
3
DIMSTYLE_2
100
AcDbAlignedDimension
13
177.8002758446
23
171.2955450976
14
137.8002758446
24
171.2955450976
50
180.000000
100
AcDbRotatedDimension
0
DIMENSION
5
2B2
100
AcDbEntity
8
0
100
AcDbDimension
62
7
6
BYLAYER
2
*D2
10
233.3673669534
20
161.6955450976
11
291.2901106682
21
181.5611513080
70
162
3
DIMSTYLE_3
100
AcDb2LineAngularDimension
13
282.3262898180
23
151.1168534782
14
288.2471827525
24
149.9232056119
15
289.4220123920
25
161.6955450976
16
282.4762096453
26
140.9384884791
0
DIMENSION
5
2B3
100
AcDbEntity
8
0
100
AcDbDimension
62
7
6
BYLAYER
2
*D3
10
283.0665531011
20
138.8078023639
11
293.4419503179
21
126.1649244425
70
162
3
DIMSTYLE_3
100
AcDb2LineAngularDimension
13
281.3301497577
23
138.4641782839
14
308.7309654564
24
132.9401930411
15
309.3187601370
25
138.4412285828
16
299.3821329792
26
120.8063584076
0
DIMENSION
5
2B4
100
AcDbEntity
8
0
100
AcDbDimension
62
7
6
BYLAYER
2
*D4
10
333.1260884218
20
171.0430076822
11
357.2512723466
21
164.8056990614
70
162
3
DIMSTYLE_3
100
AcDb2LineAngularDimension
13
329.1364097958
23
138.1645040104
14
359.5954073751
24
137.7391885352
15
337.2752885422
25
177.9216587519
16
351.1681857342
26
159.3484304652
0
DIMENSION
5
2B5
100
AcDbEntity
8
0
100
AcDbDimension
62
7
6
BYLAYER
2
*D5
10
330.8300448453
20
153.9506404029
11
350.8211035766
21
146.4019930484
70
162
3
DIMSTYLE_3
100
AcDb2LineAngularDimension
13
329.9434522410
23
138.1532348398
14
346.9206518751
24
137.9161730090
15
334.5614864889
25
160.1469687585
16
341.0840699604
26
149.2222614643
0
DIMENSION
5
2B6
100
AcDbEntity
8
0
100
AcDbDimension
62
7
6
BYLAYER
2
*D6
10
332.3787153866
20
138.1192299419
11
355.8867414182
21
117.6007820229
70
162
3
DIMSTYLE_3
100
AcDb2LineAngularDimension
13
336.8612540779
23
122.0404100630
14
350.3637835856
24
98.2646575015
15
373.5966866813
25
137.5436810913
16
364.6244407317
26
116.3401647257
0
DIMENSION
5
2B7
100
AcDbEntity
8
0
100
AcDbDimension
62
7
6
BYLAYER
2
*D7
10
332.4348941843
20
176.4797830553
11
375.2379536519
21
201.7217840093
70
162
3
DIMSTYLE_3
100
AcDb2LineAngularDimension
13
365.4047494892
23
173.6757873269
14
377.8381419120
24
173.2766974145
15
355.3989739875
25
214.5502273617
16
369.5839892528
26
195.5256775551
0
DIMENSION
5
2B8
100
AcDbEntity
8
0
100
AcDbDimension
62
7
6
BYLAYER
2
*D8
10
330.2801691270
20
159.6281846317
11
366.7944897458
21
190.1910672925
70
162
3
DIMSTYLE_3
100
AcDb2LineAngularDimension
13
362.5107865471
23
157.4504048558
14
373.7563037824
24
157.2933776098
15
352.2114736487
25
196.0466997959
16
365.5305839231
26
178.0858686899
0
DIMENSION
5
2B9
100
AcDbEntity
8
0
100
AcDbDimension
62
7
6
BYLAYER
2
*D9
10
365.8742099327
20
126.4278191567
11
362.4556735641
21
106.4645109088
70
162
3
DIMSTYLE_3
100
AcDb2LineAngularDimension
13
333.1506839059
23
121.6891847894
14
354.7405624946
24
83.6729293267
15
377.7021975862
25
127.4802376730
16
369.9996255782
26
103.5962131324
0
LINE
5
2BA
100
AcDbEntity
8
0
100
AcDbLine
62
7
6
BYLAYER
10
209.0000000000
20
82.0000000000
11
410.0000000000
21
82.0000000000
0
LINE
5
2BB
100
AcDbEntity
8
0
100
AcDbLine
62
7
6
BYLAYER
10
209.0000000000
20
82.0000000000
11
209.0000000000
21
10.0000000000
0
LINE
5
2BC
100
AcDbEntity
8
0
100
AcDbLine
62
7
6
BYLAYER
10
209.0000000000
20
73.0000000000
11
410.0000000000
21
73.0000000000
0
LINE
5
2BD
100
AcDbEntity
8
0
100
AcDbLine
62
7
6
BYLAYER
10
209.0000000000
20
64.0000000000
11
410.0000000000
21
64.0000000000
0
LINE
5
2BE
100
AcDbEntity
8
0
100
AcDbLine
62
7
6
BYLAYER
10
209.0000000000
20
55.0000000000
11
410.0000000000
21
55.0000000000
0
LINE
5
2BF
100
AcDbEntity
8
0
100
AcDbLine
62
7
6
BYLAYER
10
209.0000000000
20
46.0000000000
11
410.0000000000
21
46.0000000000
0
LINE
5
2C0
100
AcDbEntity
8
0
100
AcDbLine
62
7
6
BYLAYER
10
209.0000000000
20
21.0000000000
11
410.0000000000
21
21.0000000000
0
LINE
5
2C1
100
AcDbEntity
8
0
100
AcDbLine
62
7
6
BYLAYER
10
209.0000000000
20
10.0000000000
11
410.0000000000
21
10.0000000000
0
LINE
5
2C2
100
AcDbEntity
8
0
100
AcDbLine
62
7
6
BYLAYER
10
224.0000000000
20
82.0000000000
11
224.0000000000
21
64.0000000000
0
LINE
5
2C3
100
AcDbEntity
8
0
100
AcDbLine
62
7
6
BYLAYER
10
224.0000000000
20
21.0000000000
11
224.0000000000
21
10.0000000000
0
LINE
5
2C4
100
AcDbEntity
8
0
100
AcDbLine
62
7
6
BYLAYER
10
253.5000000000
20
82.0000000000
11
253.5000000000
21
64.0000000000
0
LINE
5
2C5
100
AcDbEntity
8
0
100
AcDbLine
62
7
6
BYLAYER
10
283.0000000000
20
82.0000000000
11
283.0000000000
21
64.0000000000
0
LINE
5
2C6
100
AcDbEntity
8
0
100
AcDbLine
62
7
6
BYLAYER
10
315.5000000000
20
82.0000000000
11
315.5000000000
21
64.0000000000
0
LINE
5
2C7
100
AcDbEntity
8
0
100
AcDbLine
62
7
6
BYLAYER
10
344.0000000000
20
21.0000000000
11
344.0000000000
21
10.0000000000
0
LINE
5
2C8
100
AcDbEntity
8
0
100
AcDbLine
62
7
6
BYLAYER
10
348.0000000000
20
82.0000000000
11
348.0000000000
21
64.0000000000
0
LINE
5
2C9
100
AcDbEntity
8
0
100
AcDbLine
62
7
6
BYLAYER
10
365.0000000000
20
64.0000000000
11
365.0000000000
21
55.0000000000
0
LINE
5
2CA
100
AcDbEntity
8
0
100
AcDbLine
62
7
6
BYLAYER
10
380.5000000000
20
82.0000000000
11
380.5000000000
21
64.0000000000
0
LINE
5
2CB
100
AcDbEntity
8
0
100
AcDbLine
62
7
6
BYLAYER
10
410.0000000000
20
82.0000000000
11
410.0000000000
21
10.0000000000
0
TEXT
5
2CC
100
AcDbEntity
8
0
100
AcDbText
62
7
6
BYLAYER
10
215.3000000000
20
76.0000000000
7
STANDARD
40
3.0000000000
1
D
41
0.8000000000
72
1
11
216.5000000000
21
76.0000000000
100
AcDbText
0
TEXT
5
2CD
100
AcDbEntity
8
0
100
AcDbText
62
7
6
BYLAYER
10
227.9500000000
20
76.0000000000
7
STANDARD
40
3.0000000000
1
29/MAY/03
41
0.8000000000
72
1
11
238.7500000000
21
76.0000000000
100
AcDbText
0
TEXT
5
2CE
100
AcDbEntity
8
0
100
AcDbText
62
7
6
BYLAYER
10
259.8500000000
20
76.0000000000
7
STANDARD
40
3.0000000000
1
------
41
0.8000000000
72
1
11
267.0500000000
21
76.0000000000
100
AcDbText
0
TEXT
5
2CF
100
AcDbEntity
8
0
100
AcDbText
62
7
6
BYLAYER
10
274.2500000000
20
76.0000000000
7
STANDARD
40
3.0000000000
1
.
41
0.8000000000
72
1
11
275.4500000000
21
76.0000000000
100
AcDbText
0
TEXT
5
2D0
100
AcDbEntity
8
0
100
AcDbText
62
7
6
BYLAYER
10
289.6500000000
20
76.0000000000
7
STANDARD
40
3.0000000000
1
J NOVISS
41
0.8000000000
72
1
11
299.2500000000
21
76.0000000000
100
AcDbText
0
TEXT
5
2D1
100
AcDbEntity
8
0
100
AcDbText
62
7
6
BYLAYER
10
329.3500000000
20
76.0000000000
7
STANDARD
40
3.0000000000
1
IW
41
0.8000000000
72
1
11
331.7500000000
21
76.0000000000
100
AcDbText
0
TEXT
5
2D2
100
AcDbEntity
8
0
100
AcDbText
62
7
6
BYLAYER
10
361.8500000000
20
76.0000000000
7
STANDARD
40
3.0000000000
1
DG
41
0.8000000000
72
1
11
364.2500000000
21
76.0000000000
100
AcDbText
0
TEXT
5
2D3
100
AcDbEntity
8
0
100
AcDbText
62
7
6
BYLAYER
10
391.6500000000
20
76.0000000000
7
STANDARD
40
3.0000000000
1
REL
41
0.8000000000
72
1
11
395.2500000000
21
76.0000000000
100
AcDbText
0
TEXT
5
2D4
100
AcDbEntity
8
0
100
AcDbText
62
7
6
BYLAYER
10
210.5000000000
20
67.0000000000
7
STANDARD
40
3.0000000000
1
ISSUE
41
0.8000000000
72
1
11
216.5000000000
21
67.0000000000
100
AcDbText
0
TEXT
5
2D5
100
AcDbEntity
8
0
100
AcDbText
62
7
6
BYLAYER
10
227.9500000000
20
67.0000000000
7
STANDARD
40
3.0000000000
1
DATE APPD
41
0.8000000000
72
1
11
238.7500000000
21
67.0000000000
100
AcDbText
0
TEXT
5
2D6
100
AcDbEntity
8
0
100
AcDbText
62
7
6
BYLAYER
10
258.6500000000
20
67.0000000000
7
STANDARD
40
3.0000000000
1
MOD. No.
41
0.8000000000
72
1
11
268.2500000000
21
67.0000000000
100
AcDbText
0
TEXT
5
2D7
100
AcDbEntity
8
0
100
AcDbText
62
7
6
BYLAYER
10
290.8500000000
20
67.0000000000
7
STANDARD
40
3.0000000000
1
DRN. BY
41
0.8000000000
72
1
11
299.2500000000
21
67.0000000000
100
AcDbText
0
TEXT
5
2D8
100
AcDbEntity
8
0
100
AcDbText
62
7
6
BYLAYER
10
322.1500000000
20
67.0000000000
7
STANDARD
40
3.0000000000
1
CHKD BY.
41
0.8000000000
72
1
11
331.7500000000
21
67.0000000000
100
AcDbText
0
TEXT
5
2D9
100
AcDbEntity
8
0
100
AcDbText
62
7
6
BYLAYER
10
354.6500000000
20
67.0000000000
7
STANDARD
40
3.0000000000
1
APPD BY.
41
0.8000000000
72
1
11
364.2500000000
21
67.0000000000
100
AcDbText
0
TEXT
5
2DA
100
AcDbEntity
8
0
100
AcDbText
62
7
6
BYLAYER
10
388.0500000000
20
67.0000000000
7
STANDARD
40
3.0000000000
1
STATUS
41
0.8000000000
72
1
11
395.2500000000
21
67.0000000000
100
AcDbText
0
TEXT
5
2DB
100
AcDbEntity
8
0
100
AcDbText
62
7
6
BYLAYER
10
210.4000000000
20
57.5000000000
7
STANDARD
40
4.0000000000
1
USED ON
41
0.8000000000
72
0
100
AcDbText
0
TEXT
5
2DC
100
AcDbEntity
8
0
100
AcDbText
62
7
6
BYLAYER
10
254.9000000000
20
57.5000000000
7
STANDARD
40
4.0000000000
1
 
41
0.8000000000
72
0
100
AcDbText
0
INSERT
5
2DD
100
AcDbEntity
8
0
100
AcDbBlockReference
62
7
6
BYLAYER
2
COPYRIGHT_BL4
10
0.0000000000
20
0.0000000000
0
TEXT
5
2DE
100
AcDbEntity
8
0
100
AcDbText
62
7
6
BYLAYER
10
371.0554457271
20
57.3835313102
7
TEXTSTYLE_1
40
5.0000000000
1
 CLRC
41
0.7800000000
72
1
11
380.8054457271
21
57.3835313102
100
AcDbText
0
TEXT
5
2DF
100
AcDbEntity
8
0
100
AcDbText
62
7
6
BYLAYER
10
390.5554457271
20
57.3835313102
7
TEXTSTYLE_1
40
5.0000000000
1
 
41
0.8000000000
72
1
11
392.5554457271
21
57.3835313102
100
AcDbText
0
TEXT
5
2E0
100
AcDbEntity
8
0
100
AcDbText
62
7
6
BYLAYER
10
394.5554457271
20
57.3835313102
7
TEXTSTYLE_1
40
5.0000000000
1
2002
41
0.7333333333
72
1
11
401.8887790604
21
57.3835313102
100
AcDbText
0
TEXT
5
2E1
100
AcDbEntity
8
0
100
AcDbText
62
7
6
BYLAYER
10
367.1926306113
20
57.5014920980
7
TEXTSTYLE_1
40
3.5000000000
1
C
41
0.8000000000
72
0
100
AcDbText
0
TEXT
5
2E2
100
AcDbEntity
8
0
100
AcDbText
62
7
6
BYLAYER
10
210.4000000000
20
48.5000000000
7
TEXTSTYLE_1
40
3.0000000000
1
CENTRAL LABORATORY OF THE RESEARCH COUNCILS
41
0.7620155039
72
0
100
AcDbText
0
TEXT
5
2E3
100
AcDbEntity
8
0
100
AcDbText
62
7
6
BYLAYER
10
308.7000000000
20
48.5000000000
7
STANDARD
40
4.0000000000
1
 
41
0.8000000000
72
0
100
AcDbText
0
TEXT
5
2E4
100
AcDbEntity
8
0
100
AcDbText
62
7
6
BYLAYER
10
311.9000000000
20
48.5000000000
7
STANDARD
40
2.0000000000
1
RUTHERFORD APPLETON LABORATORY, CHILTON, OXON OX110QX
41
0.8000000000
72
0
100
AcDbText
0
TEXT
5
2E5
100
AcDbEntity
8
0
100
AcDbText
62
7
6
BYLAYER
10
210.4000000000
20
41.5000000000
7
STANDARD
40
3.0000000000
1
TITLE
41
0.8000000000
72
0
100
AcDbText
0
TEXT
5
2E6
100
AcDbEntity
8
0
100
AcDbText
62
7
6
BYLAYER
10
271.2500000000
20
36.5000000000
7
TEXTSTYLE_1
40
6.0000000000
1
POWER TAPE W11
41
0.9107142857
72
1
11
309.5000000000
21
36.5000000000
100
AcDbText
0
TEXT
5
2E7
100
AcDbEntity
8
0
100
AcDbText
62
7
6
BYLAYER
10
270.2500000000
20
27.5000000000
7
TEXTSTYLE_1
40
6.0000000000
1
WHEELS 2,3,4,5,6
41
0.8177083333
72
1
11
309.5000000000
21
27.5000000000
100
AcDbText
0
TEXT
5
2E8
100
AcDbEntity
8
0
100
AcDbText
62
7
6
BYLAYER
10
210.4000000000
20
24.2500000000
7
STANDARD
40
4.0000000000
1
ATLAS_ID
41
0.8000000000
72
0
100
AcDbText
0
TEXT
5
2E9
100
AcDbEntity
8
0
100
AcDbText
62
7
6
BYLAYER
10
389.4000000000
20
24.2500000000
7
STANDARD
40
4.0000000000
1
TDL008
41
0.8000000000
72
2
11
408.6000000000
21
24.2500000000
100
AcDbText
0
TEXT
5
2EA
100
AcDbEntity
8
0
100
AcDbText
62
7
6
BYLAYER
10
211.1333333333
20
12.0000000000
7
TEXTSTYLE_1
40
7.0000000000
1
A3
41
0.7666666667
72
1
11
216.5000000000
21
12.0000000000
100
AcDbText
0
TEXT
5
2EB
100
AcDbEntity
8
0
100
AcDbText
62
7
6
BYLAYER
10
225.4000000000
20
12.0000000000
7
TEXTSTYLE_1
40
5.0000000000
1
 
41
1.0000000000
72
0
100
AcDbText
0
TEXT
5
2EC
100
AcDbEntity
8
0
100
AcDbText
62
7
6
BYLAYER
10
230.4000000000
20
12.0000000000
7
TEXTSTYLE_1
40
7.0000000000
1
TD-1002-967
41
0.7992424242
72
0
100
AcDbText
0
TEXT
5
2ED
100
AcDbEntity
8
0
100
AcDbText
62
7
6
BYLAYER
10
345.4000000000
20
16.7500000000
7
STANDARD
40
2.5000000000
1
SHEET
41
0.8000000000
72
0
100
AcDbText
0
TEXT
5
2EE
100
AcDbEntity
8
0
100
AcDbText
62
7
6
BYLAYER
10
366.7666666667
20
12.0000000000
7
STANDARD
40
3.0000000000
1
 
41
0.8000000000
72
1
11
367.9666666667
21
12.0000000000
100
AcDbText
0
TEXT
5
2EF
100
AcDbEntity
8
0
100
AcDbText
62
7
6
BYLAYER
10
369.1666666667
20
12.0000000000
7
TEXTSTYLE_1
40
7.0000000000
1
1
41
0.3333333333
72
1
11
370.3333333333
21
12.0000000000
100
AcDbText
0
TEXT
5
2F0
100
AcDbEntity
8
0
100
AcDbText
62
7
6
BYLAYER
10
371.5000000000
20
12.0000000000
7
STANDARD
40
4.0000000000
1
 OF 
41
0.8000000000
72
1
11
377.9000000000
21
12.0000000000
100
AcDbText
0
TEXT
5
2F1
100
AcDbEntity
8
0
100
AcDbText
62
7
6
BYLAYER
10
384.3000000000
20
12.0000000000
7
TEXTSTYLE_1
40
7.0000000000
1
1
41
0.3333333333
72
1
11
385.4666666667
21
12.0000000000
100
AcDbText
0
TEXT
5
2F2
100
AcDbEntity
8
0
100
AcDbText
62
7
6
BYLAYER
10
386.6333333333
20
12.0000000000
7
STANDARD
40
4.0000000000
1
     
41
0.8000000000
72
1
11
394.6333333333
21
12.0000000000
100
AcDbText
0
TEXT
5
2F3
100
AcDbEntity
8
0
100
AcDbText
62
7
6
BYLAYER
10
402.6333333333
20
12.0000000000
7
TEXTSTYLE_1
40
7.0000000000
1
D
41
0.8000000000
72
1
11
405.4333333333
21
12.0000000000
100
AcDbText
0
LINE
5
2F4
100
AcDbEntity
8
0
100
AcDbLine
62
7
6
BYLAYER
10
20.0371621622
20
45.9172297297
11
209.0371621622
21
45.9172297297
0
LINE
5
2F5
100
AcDbEntity
8
0
100
AcDbLine
62
7
6
BYLAYER
10
20.0371621622
20
45.9172297297
11
20.0371621622
21
9.9172297297
0
LINE
5
2F6
100
AcDbEntity
8
0
100
AcDbLine
62
7
6
BYLAYER
10
20.0371621622
20
27.9172297297
11
209.0371621622
21
27.9172297297
0
LINE
5
2F7
100
AcDbEntity
8
0
100
AcDbLine
62
7
6
BYLAYER
10
20.0371621622
20
9.9172297297
11
209.0371621622
21
9.9172297297
0
LINE
5
2F8
100
AcDbEntity
8
0
100
AcDbLine
62
7
6
BYLAYER
10
83.0371621622
20
45.9172297297
11
83.0371621622
21
9.9172297297
0
LINE
5
2F9
100
AcDbEntity
8
0
100
AcDbLine
62
7
6
BYLAYER
10
146.0371621622
20
45.9172297297
11
146.0371621622
21
9.9172297297
0
LINE
5
2FA
100
AcDbEntity
8
0
100
AcDbLine
62
7
6
BYLAYER
10
209.0371621622
20
45.9172297297
11
209.0371621622
21
9.9172297297
0
TEXT
5
2FB
100
AcDbEntity
8
0
100
AcDbText
62
7
6
BYLAYER
10
21.4371621622
20
41.6672297297
7
STANDARD
40
2.5000000000
1
TOLERANCES UNLESS STATED
41
0.8000000000
72
0
100
AcDbText
0
TEXT
5
2FC
100
AcDbEntity
8
0
100
AcDbText
62
7
6
BYLAYER
10
84.4371621622
20
41.6672297297
7
STANDARD
40
2.5000000000
1
FINISH
41
0.8000000000
72
0
100
AcDbText
0
TEXT
5
2FD
100
AcDbEntity
8
0
100
AcDbText
62
7
6
BYLAYER
10
147.4371621622
20
41.6672297297
7
STANDARD
40
2.5000000000
1
ORIGINAL SCALE
41
0.8000000000
72
0
100
AcDbText
0
TEXT
5
2FE
100
AcDbEntity
8
0
100
AcDbText
62
7
6
BYLAYER
10
44.9871621622
20
34.1672297297
7
STANDARD
40
3.0000000000
1
%%p
41
1.1666666667
72
1
11
46.7371621622
21
34.1672297297
100
AcDbText
0
TEXT
5
2FF
100
AcDbEntity
8
0
100
AcDbText
62
7
6
BYLAYER
10
48.4871621622
20
34.1672297297
7
STANDARD
40
3.0000000000
1
 
41
0.8000000000
72
1
11
49.6871621622
21
34.1672297297
100
AcDbText
0
TEXT
5
300
100
AcDbEntity
8
0
100
AcDbText
62
7
6
BYLAYER
10
50.8871621622
20
34.1672297297
7
STANDARD
40
3.0000000000
1
 mm
41
0.8000000000
72
1
11
54.4871621622
21
34.1672297297
100
AcDbText
0
TEXT
5
301
100
AcDbEntity
8
0
100
AcDbText
62
7
6
BYLAYER
10
46.3871621622
20
29.6672297297
7
STANDARD
40
3.0000000000
1
%%p
41
1.1666666667
72
1
11
48.1371621622
21
29.6672297297
100
AcDbText
0
TEXT
5
302
100
AcDbEntity
8
0
100
AcDbText
62
7
6
BYLAYER
10
49.8871621622
20
29.6672297297
7
STANDARD
40
3.0000000000
1
 
41
0.8000000000
72
1
11
51.0871621622
21
29.6672297297
100
AcDbText
0
TEXT
5
303
100
AcDbEntity
8
0
100
AcDbText
62
7
6
BYLAYER
10
52.2871621622
20
29.6672297297
7
STANDARD
40
3.0000000000
1
 %%d
41
0.7333333333
72
1
11
54.4871621622
21
29.6672297297
100
AcDbText
0
TEXT
5
304
100
AcDbEntity
8
0
100
AcDbText
62
7
6
BYLAYER
10
102.5371621622
20
34.1672297297
7
STANDARD
40
3.0000000000
1
SEE NOTE 3
41
0.8000000000
72
1
11
114.5371621622
21
34.1672297297
100
AcDbText
0
TEXT
5
305
100
AcDbEntity
8
0
100
AcDbText
62
7
6
BYLAYER
10
95.3371621622
20
29.6672297297
7
STANDARD
40
3.0000000000
1
REMOVE ALL BURRS
41
0.8000000000
72
1
11
114.5371621622
21
29.6672297297
100
AcDbText
0
TEXT
5
306
100
AcDbEntity
8
0
100
AcDbText
62
7
6
BYLAYER
10
173.9371621622
20
34.1672297297
7
STANDARD
40
3.0000000000
1
1:1
41
0.8000000000
72
1
11
177.5371621622
21
34.1672297297
100
AcDbText
0
TEXT
5
307
100
AcDbEntity
8
0
100
AcDbText
62
7
6
BYLAYER
10
163.1371621622
20
29.6672297297
7
STANDARD
40
3.0000000000
1
DO NOT SCALE
41
0.8000000000
72
1
11
177.5371621622
21
29.6672297297
100
AcDbText
0
TEXT
5
308
100
AcDbEntity
8
0
100
AcDbText
62
7
6
BYLAYER
10
21.4371621622
20
23.6672297297
7
STANDARD
40
2.5000000000
1
MATERIAL 
41
0.8000000000
72
0
100
AcDbText
0
TEXT
5
309
100
AcDbEntity
8
0
100
AcDbText
62
7
6
BYLAYER
10
39.4371621622
20
23.6672297297
7
STANDARD
40
2.5000000000
1
& SPEC.
41
0.8000000000
72
0
100
AcDbText
0
INSERT
5
30A
100
AcDbEntity
8
0
100
AcDbBlockReference
62
7
6
BYLAYER
2
MICRO_U_BL5
10
0.0000000000
20
0.0000000000
0
TEXT
5
30B
100
AcDbEntity
8
0
100
AcDbText
62
7
6
BYLAYER
10
84.4371621622
20
24.0083581219
7
STANDARD
40
2.5000000000
1
SURFACE TEXTURE 
41
0.8000000000
72
0
100
AcDbText
0
TEXT
5
30C
100
AcDbEntity
8
0
100
AcDbText
62
7
6
BYLAYER
10
116.4894190556
20
24.0082838118
7
STANDARD
40
1.8178175258
1
um
41
0.8000000000
72
0
100
AcDbText
0
TEXT
5
30D
100
AcDbEntity
8
0
100
AcDbText
62
7
6
BYLAYER
10
43.1371621622
20
16.1672297297
7
STANDARD
40
3.0000000000
1
-------
41
0.8000000000
72
1
11
51.5371621622
21
16.1672297297
100
AcDbText
0
TEXT
5
30E
100
AcDbEntity
8
0
100
AcDbText
62
7
6
BYLAYER
10
39.5371621622
20
11.6672297297
7
STANDARD
40
3.0000000000
1
SEE NOTE 3
41
0.8000000000
72
1
11
51.5371621622
21
11.6672297297
100
AcDbText
0
INSERT
5
30F
100
AcDbEntity
8
0
100
AcDbBlockReference
62
7
6
BYLAYER
2
SURFACE_FINISH_BL6
10
0.0000000000
20
0.0000000000
0
TEXT
5
310
100
AcDbEntity
8
0
100
AcDbText
62
7
6
BYLAYER
10
102.5371621622
20
18.5810150021
7
STANDARD
40
3.0000000000
1
SEE NOTE 3
41
0.8000000000
72
1
11
114.5371621622
21
18.5810150021
100
AcDbText
0
TEXT
5
311
100
AcDbEntity
8
0
100
AcDbText
62
7
6
BYLAYER
10
99.8402817594
20
11.6672297297
7
STANDARD
40
3.0000000000
1
 UNLESS STATED
41
0.8000000000
72
1
11
116.6402817594
21
11.6672297297
100
AcDbText
0
TEXT
5
312
100
AcDbEntity
8
0
100
AcDbText
62
7
6
BYLAYER
10
95.6340425649
20
12.5409220665
7
STANDARD
40
3.5000000000
1
-
41
0.8000000000
72
0
100
AcDbText
0
LINE
5
313
100
AcDbEntity
8
0
100
AcDbLine
62
7
6
BYLAYER
10
10.0000000000
20
10.0000000000
11
10.0000000000
21
116.2000000000
0
LINE
5
314
100
AcDbEntity
8
0
100
AcDbLine
62
7
6
BYLAYER
10
10.0000000000
20
10.0000000000
11
20.0000000000
21
10.0000000000
0
LINE
5
315
100
AcDbEntity
8
0
100
AcDbLine
62
7
6
BYLAYER
10
20.0000000000
20
10.0000000000
11
20.0000000000
21
116.2000000000
0
LINE
5
316
100
AcDbEntity
8
0
100
AcDbLine
62
7
6
BYLAYER
10
10.0000000000
20
25.0000000000
11
20.0000000000
21
25.0000000000
0
LINE
5
317
100
AcDbEntity
8
0
100
AcDbLine
62
7
6
BYLAYER
10
10.0000000000
20
78.2000000000
11
20.0000000000
21
78.2000000000
0
LINE
5
318
100
AcDbEntity
8
0
100
AcDbLine
62
7
6
BYLAYER
10
10.0000000000
20
106.2000000000
11
20.0000000000
21
106.2000000000
0
LINE
5
319
100
AcDbEntity
8
0
100
AcDbLine
62
7
6
BYLAYER
10
10.0000000000
20
116.2000000000
11
20.0000000000
21
116.2000000000
0
TEXT
5
31A
100
AcDbEntity
8
0
100
AcDbText
62
7
6
BYLAYER
10
17.5000000000
20
12.5000000000
7
STANDARD
40
5.0000000000
1
A3
50
90.0000000000
41
1.0000000000
72
1
11
17.5000000000
21
17.5000000000
100
AcDbText
0
TEXT
5
31B
100
AcDbEntity
8
0
100
AcDbText
62
7
6
BYLAYER
10
17.5000000000
20
26.4000000000
7
TEXTSTYLE_1
40
5.0000000000
1
 
50
90.0000000000
41
1.0000000000
72
0
100
AcDbText
0
TEXT
5
31C
100
AcDbEntity
8
0
100
AcDbText
62
7
6
BYLAYER
10
17.5000000000
20
31.4000000000
7
TEXTSTYLE_1
40
5.0000000000
1
TD-1002-967
50
90.0000000000
41
0.7992424242
72
0
100
AcDbText
0
TEXT
5
31D
100
AcDbEntity
8
0
100
AcDbText
62
7
6
BYLAYER
10
16.5000000000
20
79.6000000000
7
TEXTSTYLE_1
40
3.0000000000
1
Sheet 
50
90.0000000000
41
0.6666666667
72
0
100
AcDbText
0
TEXT
5
31E
100
AcDbEntity
8
0
100
AcDbText
62
7
6
BYLAYER
10
16.5000000000
20
91.6000000000
7
TEXTSTYLE_1
40
3.0000000000
1
1
50
90.0000000000
41
0.3333333333
72
0
100
AcDbText
0
TEXT
5
31F
100
AcDbEntity
8
0
100
AcDbText
62
7
6
BYLAYER
10
16.5000000000
20
92.6000000000
7
TEXTSTYLE_1
40
3.0000000000
1
 OF 
50
90.0000000000
41
0.7833333333
72
0
100
AcDbText
0
TEXT
5
320
100
AcDbEntity
8
0
100
AcDbText
62
7
6
BYLAYER
10
16.5000000000
20
102.0000000000
7
TEXTSTYLE_1
40
3.0000000000
1
1
50
90.0000000000
41
0.3333333333
72
0
100
AcDbText
0
TEXT
5
321
100
AcDbEntity
8
0
100
AcDbText
62
7
6
BYLAYER
10
17.5000000000
20
109.2000000000
7
TEXTSTYLE_1
40
5.0000000000
1
D
50
90.0000000000
41
0.8000000000
72
1
11
17.5000000000
21
111.2000000000
100
AcDbText
0
LINE
5
322
100
AcDbEntity
8
0
100
AcDbLine
62
7
6
BYLAYER
10
10.0000000000
20
287.0000000000
11
116.2000000000
21
287.0000000000
0
LINE
5
323
100
AcDbEntity
8
0
100
AcDbLine
62
7
6
BYLAYER
10
10.0000000000
20
287.0000000000
11
10.0000000000
21
277.0000000000
0
LINE
5
324
100
AcDbEntity
8
0
100
AcDbLine
62
7
6
BYLAYER
10
10.0000000000
20
277.0000000000
11
116.2000000000
21
277.0000000000
0
LINE
5
325
100
AcDbEntity
8
0
100
AcDbLine
62
7
6
BYLAYER
10
25.0000000000
20
287.0000000000
11
25.0000000000
21
277.0000000000
0
LINE
5
326
100
AcDbEntity
8
0
100
AcDbLine
62
7
6
BYLAYER
10
78.2000000000
20
287.0000000000
11
78.2000000000
21
277.0000000000
0
LINE
5
327
100
AcDbEntity
8
0
100
AcDbLine
62
7
6
BYLAYER
10
106.2000000000
20
287.0000000000
11
106.2000000000
21
277.0000000000
0
LINE
5
328
100
AcDbEntity
8
0
100
AcDbLine
62
7
6
BYLAYER
10
116.2000000000
20
287.0000000000
11
116.2000000000
21
277.0000000000
0
TEXT
5
329
100
AcDbEntity
8
0
100
AcDbText
62
7
6
BYLAYER
10
12.5000000000
20
279.5000000000
7
STANDARD
40
5.0000000000
1
A3
41
1.0000000000
72
1
11
17.5000000000
21
279.5000000000
100
AcDbText
0
TEXT
5
32A
100
AcDbEntity
8
0
100
AcDbText
62
7
6
BYLAYER
10
26.4000000000
20
279.5000000000
7
TEXTSTYLE_1
40
5.0000000000
1
 
41
1.0000000000
72
0
100
AcDbText
0
TEXT
5
32B
100
AcDbEntity
8
0
100
AcDbText
62
7
6
BYLAYER
10
31.4000000000
20
279.5000000000
7
TEXTSTYLE_1
40
5.0000000000
1
TD-1002-967
41
0.7992424242
72
0
100
AcDbText
0
TEXT
5
32C
100
AcDbEntity
8
0
100
AcDbText
62
7
6
BYLAYER
10
79.6000000000
20
280.5000000000
7
TEXTSTYLE_1
40
3.0000000000
1
Sheet 
41
0.6666666667
72
0
100
AcDbText
0
TEXT
5
32D
100
AcDbEntity
8
0
100
AcDbText
62
7
6
BYLAYER
10
91.6000000000
20
280.5000000000
7
TEXTSTYLE_1
40
3.0000000000
1
1
41
0.3333333333
72
0
100
AcDbText
0
TEXT
5
32E
100
AcDbEntity
8
0
100
AcDbText
62
7
6
BYLAYER
10
92.6000000000
20
280.5000000000
7
TEXTSTYLE_1
40
3.0000000000
1
 OF 
41
0.7833333333
72
0
100
AcDbText
0
TEXT
5
32F
100
AcDbEntity
8
0
100
AcDbText
62
7
6
BYLAYER
10
102.0000000000
20
280.5000000000
7
TEXTSTYLE_1
40
3.0000000000
1
1
41
0.3333333333
72
0
100
AcDbText
0
TEXT
5
330
100
AcDbEntity
8
0
100
AcDbText
62
7
6
BYLAYER
10
109.2000000000
20
279.5000000000
7
TEXTSTYLE_1
40
5.0000000000
1
D
41
0.8000000000
72
1
11
111.2000000000
21
279.5000000000
100
AcDbText
0
LINE
5
331
100
AcDbEntity
8
0
100
AcDbLine
62
7
6
BYLAYER
10
331.0000000000
20
287.0000000000
11
410.0000000000
21
287.0000000000
0
LINE
5
332
100
AcDbEntity
8
0
100
AcDbLine
62
7
6
BYLAYER
10
331.0000000000
20
287.0000000000
11
331.0000000000
21
277.0000000000
0
LINE
5
333
100
AcDbEntity
8
0
100
AcDbLine
62
7
6
BYLAYER
10
331.0000000000
20
277.0000000000
11
410.0000000000
21
277.0000000000
0
LINE
5
334
100
AcDbEntity
8
0
100
AcDbLine
62
7
6
BYLAYER
10
410.0000000000
20
287.0000000000
11
410.0000000000
21
277.0000000000
0
TEXT
5
335
100
AcDbEntity
8
0
100
AcDbText
62
7
6
BYLAYER
10
336.5000000000
20
280.7500000000
7
STANDARD
40
2.5000000000
1
THIS DRAWING CONFORMS TO B.S. 8888
41
0.8000000000
72
1
11
370.5000000000
21
280.7500000000
100
AcDbText
0
LINE
5
336
100
AcDbEntity
8
0
100
AcDbLine
62
7
6
BYLAYER
10
236.4999835399
20
286.9999994947
11
330.9999835399
21
286.9999994947
0
LINE
5
337
100
AcDbEntity
8
0
100
AcDbLine
62
7
6
BYLAYER
10
236.4999835399
20
286.9999994947
11
236.4999835399
21
273.4999994947
0
LINE
5
338
100
AcDbEntity
8
0
100
AcDbLine
62
7
6
BYLAYER
10
236.4999835399
20
273.4999994947
11
330.9999835399
21
273.4999994947
0
LINE
5
339
100
AcDbEntity
8
0
100
AcDbLine
62
7
6
BYLAYER
10
330.9999835399
20
286.9999994947
11
330.9999835399
21
273.4999994947
0
INSERT
5
33A
100
AcDbEntity
8
0
100
AcDbBlockReference
62
7
6
BYLAYER
2
PROJECTION_BL7
10
0.0000000000
20
0.0000000000
0
TEXT
5
33B
100
AcDbEntity
8
0
100
AcDbText
62
7
6
BYLAYER
10
254.3534835399
20
278.9781218886
7
STANDARD
40
3.5000000000
1
PROJECTION 
41
0.8000000000
72
1
11
269.7534835399
21
278.9781218886
100
AcDbText
0
TEXT
5
33C
100
AcDbEntity
8
0
100
AcDbText
62
7
6
BYLAYER
10
290.7970347322
20
278.8891837883
7
STANDARD
40
3.5000000000
1
l
41
0.8000000000
72
0
100
AcDbText
0
LINE
5
33D
100
AcDbEntity
8
0
100
AcDbLine
62
7
6
BYLAYER
10
159.0509538372
20
70.9185125895
11
209.0509538372
21
70.9185125895
0
LINE
5
33E
100
AcDbEntity
8
0
100
AcDbLine
62
7
6
BYLAYER
10
159.0509538372
20
70.9185125895
11
159.0509538372
21
45.9185125895
0
LINE
5
33F
100
AcDbEntity
8
0
100
AcDbLine
62
7
6
BYLAYER
10
159.0509538372
20
45.9185125895
11
209.0509538372
21
45.9185125895
0
LINE
5
340
100
AcDbEntity
8
0
100
AcDbLine
62
7
6
BYLAYER
10
209.0509538372
20
70.9185125895
11
209.0509538372
21
45.9185125895
0
SOLID
5
341
100
AcDbEntity
8
0
100
AcDbTrace
62
7
6
BYLAYER
10
262.2946574485
20
136.3631442144
11
260.8391497826
21
131.5132475728
12
259.3985833504
22
132.2095006551
13
259.3985833504
23
132.2095006551
0
POLYLINE
5
342
100
AcDbEntity
8
0
100
AcDb2dPolyline
62
7
6
BYLAYER
66
1
70
0
0
VERTEX
5
343
100
AcDbEntity
8
0
100
AcDbVertex
62
7
6
BYLAYER
100
AcDb2dVertex
10
246.9895568848
20
126.3637390137
0
VERTEX
5
344
100
AcDbEntity
8
0
100
AcDbVertex
62
7
6
BYLAYER
100
AcDb2dVertex
10
245.9895703125
20
126.6970806885
0
VERTEX
5
345
100
AcDbEntity
8
0
100
AcDbVertex
62
7
6
BYLAYER
100
AcDb2dVertex
10
244.9895581055
20
126.3637390137
0
VERTEX
5
346
100
AcDbEntity
8
0
100
AcDbVertex
62
7
6
BYLAYER
100
AcDb2dVertex
10
244.3229003906
20
125.6970812988
0
VERTEX
5
347
100
AcDbEntity
8
0
100
AcDbVertex
62
7
6
BYLAYER
100
AcDb2dVertex
10
243.9895715332
20
124.6970819092
0
VERTEX
5
348
100
AcDbEntity
8
0
100
AcDbVertex
62
7
6
BYLAYER
100
AcDb2dVertex
10
244.3229003906
20
123.6970825195
0
VERTEX
5
349
100
AcDbEntity
8
0
100
AcDbVertex
62
7
6
BYLAYER
100
AcDb2dVertex
10
244.9895581055
20
123.0304119873
0
VERTEX
5
34A
100
AcDbEntity
8
0
100
AcDbVertex
62
7
6
BYLAYER
100
AcDb2dVertex
10
245.9895703125
20
122.6970831299
0
VERTEX
5
34B
100
AcDbEntity
8
0
100
AcDbVertex
62
7
6
BYLAYER
100
AcDb2dVertex
10
246.9895568848
20
123.0304119873
0
SEQEND
5
34C
100
AcDbEntity
8
0
0
POLYLINE
5
34D
100
AcDbEntity
8
0
100
AcDb2dPolyline
62
7
6
BYLAYER
66
1
70
0
0
VERTEX
5
34E
100
AcDbEntity
8
0
100
AcDbVertex
62
7
6
BYLAYER
100
AcDb2dVertex
10
245.6562158203
20
127.8637445068
0
VERTEX
5
34F
100
AcDbEntity
8
0
100
AcDbVertex
62
7
6
BYLAYER
100
AcDb2dVertex
10
245.6562158203
20
121.6970709229
0
VERTEX
5
350
100
AcDbEntity
8
0
100
AcDbVertex
62
7
6
BYLAYER
100
AcDb2dVertex
10
248.3228979492
20
121.6970709229
0
SEQEND
5
351
100
AcDbEntity
8
0
0
TEXT
5
352
100
AcDbEntity
8
0
100
AcDbText
62
7
6
BYLAYER
10
227.9895591175
20
122.6970768133
7
STANDARD
40
4.0000000000
1
PIPE 
41
0.8000000000
72
0
100
AcDbText
0
TEXT
5
353
100
AcDbEntity
8
0
100
AcDbText
62
7
6
BYLAYER
10
186.5569917744
20
261.7364130435
7
STANDARD
40
3.5000000000
1
NOTES -
41
0.8000000000
72
0
100
AcDbText
0
TEXT
5
354
100
AcDbEntity
8
0
100
AcDbText
62
7
6
BYLAYER
10
186.5569917744
20
256.4864130435
7
STANDARD
40
3.5000000000
1
 
41
0.8000000000
72
0
100
AcDbText
0
TEXT
5
355
100
AcDbEntity
8
0
100
AcDbText
62
7
6
BYLAYER
10
186.5569917744
20
251.2364130435
7
STANDARD
40
3.5000000000
1
1 - ALL OUTER MODULE TAPE ENDS SET FOR HIGH MODULES
41
0.8000000000
72
0
100
AcDbText
0
TEXT
5
356
100
AcDbEntity
8
0
100
AcDbText
62
7
6
BYLAYER
10
186.5569917744
20
245.9864130435
7
STANDARD
40
3.5000000000
1
2 - TAPE DESIGN SET TO ZERO MODULE ROTATION
41
0.8000000000
72
0
100
AcDbText
0
TEXT
5
357
100
AcDbEntity
8
0
100
AcDbText
62
7
6
BYLAYER
10
186.5569917744
20
240.7364130435
7
STANDARD
40
3.5000000000
1
3 - FOR TAPE SPECIFICATIONS REFER TO DOCUMENT ATL-IS-ER-0034
41
0.8000000000
72
0
100
AcDbText
0
TEXT
5
358
100
AcDbEntity
8
0
100
AcDbText
62
7
6
BYLAYER
10
186.5569917744
20
235.4864130435
7
STANDARD
40
3.5000000000
1
4 - ALL TWISTED PAIR WIRES TO LIE ONE WIRE DEEP 4mm EITHER SIDE
41
0.8000000000
72
0
100
AcDbText
0
TEXT
5
359
100
AcDbEntity
8
0
100
AcDbText
62
7
6
BYLAYER
10
186.5569917744
20
230.2364130435
7
STANDARD
40
3.5000000000
1
    OF PIPE CENTER LINES 
41
0.8000000000
72
0
100
AcDbText
0
TEXT
5
35A
100
AcDbEntity
8
0
100
AcDbText
62
7
6
BYLAYER
10
186.5569917744
20
224.9864130435
7
STANDARD
40
3.5000000000
1
5 - ANY CUTS  BETWEEN TAPE LEGS MUST NOT BE SHORTENED
41
0.8000000000
72
0
100
AcDbText
0
TEXT
5
35B
100
AcDbEntity
8
0
100
AcDbText
62
7
6
BYLAYER
10
186.5569917744
20
219.7364130435
7
STANDARD
40
3.5000000000
1
6 - TAPE ENDS TO INCLUDE TEXT AS SHOWN ON 3D-VIEW
41
0.8000000000
72
0
100
AcDbText
0
TEXT
5
35C
100
AcDbEntity
8
0
100
AcDbText
62
7
6
BYLAYER
10
186.5569917744
20
214.4864130435
7
STANDARD
40
3.5000000000
1
7 - TEXT 'TD-1002-967 (W11)' TO BE LOCATED VISIBLY ON TAPE
41
0.8000000000
72
0
100
AcDbText
0
TEXT
5
35D
100
AcDbEntity
8
0
100
AcDbText
62
7
6
BYLAYER
10
186.5569917744
20
209.2364130435
7
STANDARD
40
3.5000000000
1
8 - FOR CONNECTOR POSITIONS REFER TO DRAWING TD-1010-345
41
0.8000000000
72
0
100
AcDbText
0
TEXT
5
35E
100
AcDbEntity
8
0
100
AcDbText
62
7
6
BYLAYER
10
95.1274068570
20
181.5760778429
7
STANDARD
40
4.0000000000
1
3D-VIEW
41
0.8000000000
72
0
100
AcDbText
0
CIRCLE
5
35F
100
AcDbEntity
8
0
100
AcDbCircle
62
7
6
BYLAYER
10
145.7325192396
20
256.7619707195
40
0.8000000000
0
TEXT
5
360
100
AcDbEntity
8
0
100
AcDbText
62
7
6
BYLAYER
10
160.5286896722
20
260.5852696265
7
TEXTSTYLE_2
40
4.0000000000
1
I9
41
0.6070038911
72
0
100
AcDbText
0
CIRCLE
5
361
100
AcDbEntity
8
0
100
AcDbCircle
62
7
6
BYLAYER
10
153.4117714453
20
234.3119868838
40
0.8000000000
0
TEXT
5
362
100
AcDbEntity
8
0
100
AcDbText
62
7
6
BYLAYER
10
173.7975356799
20
224.1613616607
7
TEXTSTYLE_2
40
4.0000000000
1
011
41
0.7276264591
72
0
100
AcDbText
0
CIRCLE
5
363
100
AcDbEntity
8
0
100
AcDbCircle
62
7
6
BYLAYER
10
115.7843613768
20
251.9908719546
40
0.8000000000
0
CIRCLE
5
364
100
AcDbEntity
8
0
100
AcDbCircle
62
7
6
BYLAYER
10
115.7843613768
20
251.9908719546
40
0.8000000000
0
TEXT
5
365
100
AcDbEntity
8
0
100
AcDbText
62
7
6
BYLAYER
10
92.2045187948
20
243.4446070544
7
TEXTSTYLE_2
40
4.0000000000
1
O12
41
0.8352788586
72
0
100
AcDbText
0
TEXT
5
366
100
AcDbEntity
8
0
100
AcDbText
62
7
6
BYLAYER
10
174.9829306079
20
113.1395320756
7
STANDARD
40
4.0000000000
1
DEVELOPED VIEW
41
0.8000000000
72
0
100
AcDbText
0
LINE
5
367
100
AcDbEntity
8
0
100
AcDbLine
62
7
6
BYLAYER
10
0.0000000000
20
297.0000000000
11
0.0000000000
21
0.0000000000
0
LINE
5
368
100
AcDbEntity
8
0
100
AcDbLine
62
7
6
BYLAYER
10
10.0000000000
20
10.0000000000
11
10.0000000000
21
287.0000000000
0
LINE
5
369
100
AcDbEntity
8
0
100
AcDbLine
62
7
6
BYLAYER
10
10.0010000000
20
106.2230000000
11
10.0010000000
21
276.9990000000
0
LINE
5
36A
100
AcDbEntity
8
0
100
AcDbLine
62
7
6
BYLAYER
10
0.0000000000
20
0.0000000000
11
420.0000000000
21
0.0000000000
0
LINE
5
36B
100
AcDbEntity
8
0
100
AcDbLine
62
7
6
BYLAYER
10
160.0381492713
20
3.8460928114
11
260.0381492713
21
3.8460928114
0
LINE
5
36C
100
AcDbEntity
8
0
100
AcDbLine
62
7
6
BYLAYER
10
160.0381492713
20
3.8460928114
11
160.0381492713
21
8.8460928114
0
LINE
5
36D
100
AcDbEntity
8
0
100
AcDbLine
62
7
6
BYLAYER
10
256.6562257842
20
124.6970768133
11
249.6562257842
21
124.6970768133
0
LINE
5
36E
100
AcDbEntity
8
DEFAULT_1
100
AcDbLine
62
7
6
BYLAYER
10
262.2946574485
20
136.3631442144
11
261.9365123731
21
149.5480913434
0
LINE
5
36F
100
AcDbEntity
8
0
100
AcDbLine
62
7
6
BYLAYER
10
260.0381492713
20
3.8460928114
11
260.0381492713
21
8.8460928114
0
LINE
5
370
100
AcDbEntity
8
0
100
AcDbLine
62
7
6
BYLAYER
10
262.2946574485
20
136.3631442144
11
256.6562257842
21
124.6970768133
0
LINE
5
371
100
AcDbEntity
8
0
100
AcDbLine
62
7
6
BYLAYER
10
106.2230000000
20
286.9990000000
11
237.9920000000
21
286.9990000000
0
LINE
5
372
100
AcDbEntity
8
0
100
AcDbLine
62
7
6
BYLAYER
10
10.0000000000
20
287.0000000000
11
410.0000000000
21
287.0000000000
0
LINE
5
373
100
AcDbEntity
8
0
100
AcDbLine
62
7
6
BYLAYER
10
0.0000000000
20
297.0000000000
11
420.0000000000
21
297.0000000000
0
LINE
5
374
100
AcDbEntity
8
0
100
AcDbLine
62
7
6
BYLAYER
10
401.4430414976
20
21.0017763982
11
401.4430414976
21
10.0350776605
0
LINE
5
375
100
AcDbEntity
8
0
100
AcDbLine
62
7
6
BYLAYER
10
410.0000000000
20
287.0000000000
11
410.0000000000
21
10.0000000000
0
LINE
5
376
100
AcDbEntity
8
0
100
AcDbLine
62
7
6
BYLAYER
10
420.0000000000
20
297.0000000000
11
420.0000000000
21
0.0000000000
0
LINE
5
377
100
AcDbEntity
8
0
100
AcDbLine
62
7
6
BYLAYER
10
26.0143413221
20
169.0106099415
11
24.0420245149
21
135.3134885796
0
LINE
5
378
100
AcDbEntity
8
0
100
AcDbLine
62
7
6
BYLAYER
10
45.1707132492
20
167.7168625684
11
45.1830402292
21
167.9274695769
0
LINE
5
379
100
AcDbEntity
8
0
100
AcDbLine
62
7
6
BYLAYER
10
47.2817938365
20
183.6802981863
11
47.2596052724
21
183.3012055710
0
LINE
5
37A
100
AcDbEntity
8
0
100
AcDbLine
62
7
6
BYLAYER
10
47.4527356394
20
158.6273044349
11
45.4804188322
21
124.9301830730
0
LINE
5
37B
100
AcDbEntity
8
0
100
AcDbLine
62
7
6
BYLAYER
10
47.6114163065
20
158.7243909328
11
45.6390994993
21
125.0272695709
0
LINE
5
37C
100
AcDbEntity
8
0
100
AcDbLine
62
7
6
BYLAYER
10
54.0568306072
20
173.1537064561
11
54.0691575873
21
173.3643134646
0
LINE
5
37D
100
AcDbEntity
8
0
100
AcDbLine
62
7
6
BYLAYER
10
56.9984761530
20
178.9741956905
11
56.9762875889
21
178.5951030752
0
LINE
5
37E
100
AcDbEntity
8
0
100
AcDbLine
62
7
6
BYLAYER
10
57.1571568201
20
179.0712821885
11
57.1349682560
21
178.6921895731
0
LINE
5
37F
100
AcDbEntity
8
0
100
AcDbLine
62
7
6
BYLAYER
10
60.2352944689
20
184.6097653056
11
60.2476214489
21
184.8203723141
0
LINE
5
380
100
AcDbEntity
8
0
100
AcDbLine
62
7
6
BYLAYER
10
68.9960228748
20
189.9698917552
11
69.0083498548
21
190.1804987637
0
LINE
5
381
100
AcDbEntity
8
0
100
AcDbLine
62
7
6
BYLAYER
10
69.7976989770
20
190.3653582075
11
69.8100259571
21
190.5759652160
0
LINE
5
382
100
AcDbEntity
8
0
100
AcDbLine
62
7
6
BYLAYER
10
103.9128683450
20
252.1772105817
11
103.9005413650
21
251.9666035731
0
LINE
5
383
100
AcDbEntity
8
0
100
AcDbLine
62
7
6
BYLAYER
10
108.1638417947
20
205.5648448370
11
108.1761687748
21
205.7754518455
0
LINE
5
384
100
AcDbEntity
8
0
100
AcDbLine
62
7
6
BYLAYER
10
110.5740917488
20
206.7359410739
11
110.5864187288
21
206.9465480824
0
LINE
5
385
100
AcDbEntity
8
0
100
AcDbLine
62
7
6
BYLAYER
10
115.1689481059
20
246.3907094537
11
115.1566211259
21
246.1801024452
0
LINE
5
386
100
AcDbEntity
8
0
100
AcDbLine
62
7
6
BYLAYER
10
115.7408568073
20
238.9875330297
11
115.7531837874
21
239.1981400382
0
LINE
5
387
100
AcDbEntity
8
0
100
AcDbLine
62
7
6
BYLAYER
10
116.1192477257
20
237.6606104448
11
116.1315747058
21
237.8712174533
0
LINE
5
388
100
AcDbEntity
8
0
100
AcDbLine
62
7
6
BYLAYER
10
119.9530720820
20
239.8690774591
11
119.9653990621
21
240.0796844676
0
LINE
5
389
100
AcDbEntity
8
0
100
AcDbLine
62
7
6
BYLAYER
10
124.0672874049
20
251.4689175936
11
124.0549604248
21
251.2583105851
0
LINE
5
38A
100
AcDbEntity
8
0
100
AcDbLine
62
7
6
BYLAYER
10
124.4706045671
20
256.4203848245
11
124.4582775870
21
256.2097778160
0
LINE
5
38B
100
AcDbEntity
8
0
100
AcDbLine
62
7
6
BYLAYER
10
123.6244806568
20
241.9643197602
11
123.6368076368
21
242.1749267687
0
LINE
5
38C
100
AcDbEntity
8
0
100
AcDbLine
62
7
6
BYLAYER
10
124.4986698857
20
255.5397607488
11
124.0963172570
21
248.6655479909
0
LINE
5
38D
100
AcDbEntity
8
0
100
AcDbLine
62
7
6
BYLAYER
10
123.4382686069
20
226.2052175380
11
123.4505955870
21
226.4158245465
0
LINE
5
38E
100
AcDbEntity
8
0
100
AcDbLine
62
7
6
BYLAYER
10
127.0500479648
20
254.2281538264
11
126.6476953362
21
247.3539410686
0
LINE
5
38F
100
AcDbEntity
8
0
100
AcDbLine
62
7
6
BYLAYER
10
127.2148320259
20
254.3221947179
11
126.8124793973
21
247.4479819601
0
LINE
5
390
100
AcDbEntity
8
0
100
AcDbLine
62
7
6
BYLAYER
10
125.4372058866
20
223.2059441777
11
125.4495328666
21
223.4165511863
0
LINE
5
391
100
AcDbEntity
8
0
100
AcDbLine
62
7
6
BYLAYER
10
127.4797265119
20
231.7999392313
11
127.4920534919
21
232.0105462398
0
LINE
5
392
100
AcDbEntity
8
0
100
AcDbLine
62
7
6
BYLAYER
10
127.2542944658
20
220.4574805129
11
127.2666214459
21
220.6680875214
0
LINE
5
393
100
AcDbEntity
8
0
100
AcDbLine
62
7
6
BYLAYER
10
127.9164691970
20
230.2720363647
11
127.9287961770
21
230.4826433732
0
LINE
5
394
100
AcDbEntity
8
0
100
AcDbLine
62
7
6
BYLAYER
10
130.4141968299
20
226.3715613727
11
130.4265238099
21
226.5821683812
0
LINE
5
395
100
AcDbEntity
8
0
100
AcDbLine
62
7
6
BYLAYER
10
130.5582245034
20
218.5975076723
11
130.5705514835
21
218.8081146808
0
LINE
5
396
100
AcDbEntity
8
0
100
AcDbLine
62
7
6
BYLAYER
10
131.8889904827
20
232.9792322678
11
131.9013174627
21
233.1898392763
0
LINE
5
397
100
AcDbEntity
8
0
100
AcDbLine
62
7
6
BYLAYER
10
133.6552471586
20
246.9453646309
11
133.2652215099
21
240.2817588816
0
LINE
5
398
100
AcDbEntity
8
0
100
AcDbLine
62
7
6
BYLAYER
10
132.8918422302
20
233.5744741499
11
132.9041692103
21
233.7850811584
0
LINE
5
399
100
AcDbEntity
8
0
100
AcDbLine
62
7
6
BYLAYER
10
132.3120179662
20
223.3120424263
11
132.3243449463
21
223.5226494348
0
LINE
5
39A
100
AcDbEntity
8
0
100
AcDbLine
62
7
6
BYLAYER
10
136.2468222931
20
245.6571524093
11
135.8567966445
21
238.9935466599
0
LINE
5
39B
100
AcDbEntity
8
0
100
AcDbLine
62
7
6
BYLAYER
10
136.4081792798
20
245.7529257244
11
136.0181536311
21
239.0893199751
0
LINE
5
39C
100
AcDbEntity
8
0
100
AcDbLine
62
7
6
BYLAYER
10
138.9982811239
20
258.8008082789
11
138.9859541439
21
258.5902012704
0
LINE
5
39D
100
AcDbEntity
8
0
100
AcDbLine
62
7
6
BYLAYER
10
136.9066880116
20
222.3656332960
11
136.9190149917
21
222.5762403045
0
LINE
5
39E
100
AcDbEntity
8
0
100
AcDbLine
62
7
6
BYLAYER
10
139.5344906807
20
251.2677715496
11
139.5468176607
21
251.4783785581
0
LINE
5
39F
100
AcDbEntity
8
0
100
AcDbLine
62
7
6
BYLAYER
10
139.9866763098
20
222.8383566081
11
139.9990032898
21
223.0489636166
0
LINE
5
3A0
100
AcDbEntity
8
0
100
AcDbLine
62
7
6
BYLAYER
10
142.2672964560
20
253.0931166509
11
142.2549694760
21
252.8825096424
0
LINE
5
3A1
100
AcDbEntity
8
0
100
AcDbLine
62
7
6
BYLAYER
10
141.8782265880
20
233.7161758956
11
141.8658996080
21
233.5055688870
0
LINE
5
3A2
100
AcDbEntity
8
0
100
AcDbLine
62
7
6
BYLAYER
10
115.2182344052
20
251.4256284212
11
109.2278650983
21
245.4446070544
0
LINE
5
3A3
100
AcDbEntity
8
0
100
AcDbLine
62
7
6
BYLAYER
10
124.0672874049
20
251.4689175936
11
123.5379267813
21
255.8881133787
0
LINE
5
3A4
100
AcDbEntity
8
0
100
AcDbLine
62
7
6
BYLAYER
10
150.4317008352
20
253.1175190656
11
150.4193738551
21
252.9069120571
0
LINE
5
3A5
100
AcDbEntity
8
0
100
AcDbLine
62
7
6
BYLAYER
10
150.6476761068
20
221.3973914091
11
150.6600030868
21
221.6079984176
0
LINE
5
3A6
100
AcDbEntity
8
0
100
AcDbLine
62
7
6
BYLAYER
10
154.2439882865
20
228.6519874964
11
154.2316613065
21
228.4413804878
0
LINE
5
3A7
100
AcDbEntity
8
0
100
AcDbLine
62
7
6
BYLAYER
10
156.2405523554
20
256.5653584096
11
156.2282253753
21
256.3547514011
0
LINE
5
3A8
100
AcDbEntity
8
0
100
AcDbLine
62
7
6
BYLAYER
10
157.3174317695
20
222.6336946791
11
157.3297587496
21
222.8443016876
0
LINE
5
3A9
100
AcDbEntity
8
0
100
AcDbLine
62
7
6
BYLAYER
10
160.1888335253
20
232.8776785853
11
160.1126562119
21
231.5761857602
0
LINE
5
3AA
100
AcDbEntity
8
0
100
AcDbLine
62
7
6
BYLAYER
10
161.1433145799
20
239.3087821677
11
161.1309875999
21
239.0981751592
0
LINE
5
3AB
100
AcDbEntity
8
0
100
AcDbLine
62
7
6
BYLAYER
10
160.2971906696
20
224.8527171035
11
160.3095176497
21
225.0633241120
0
LINE
5
3AC
100
AcDbEntity
8
0
100
AcDbLine
62
7
6
BYLAYER
10
161.8563552200
20
234.3209068601
11
161.8440282400
21
234.1102998516
0
LINE
5
3AD
100
AcDbEntity
8
0
100
AcDbLine
62
7
6
BYLAYER
10
163.3179148256
20
237.3025158142
11
162.9155621969
21
230.4283030564
0
LINE
5
3AE
100
AcDbEntity
8
0
100
AcDbLine
62
7
6
BYLAYER
10
163.4588845836
20
237.4074958024
11
163.0565319550
21
230.5332830446
0
LINE
5
3AF
100
AcDbEntity
8
0
100
AcDbLine
62
7
6
BYLAYER
10
146.3734583431
20
257.2407160231
11
153.5286896722
21
262.5852696265
0
LINE
5
3B0
100
AcDbEntity
8
0
100
AcDbLine
62
7
6
BYLAYER
10
144.8071326441
20
262.2486476229
11
138.9982811239
21
258.8008082789
0
LINE
5
3B1
100
AcDbEntity
8
0
100
AcDbLine
62
7
6
BYLAYER
10
112.8112076440
20
257.2554187215
11
103.9128683450
21
252.1772105817
0
LINE
5
3B2
100
AcDbEntity
8
0
100
AcDbLine
62
7
6
BYLAYER
10
120.9865487022
20
257.1997203010
11
121.9192264880
21
257.7319917468
0
LINE
5
3B3
100
AcDbEntity
8
0
100
AcDbLine
62
7
6
BYLAYER
10
123.5379267813
20
255.8881133787
11
124.4706045671
21
256.4203848245
0
LINE
5
3B4
100
AcDbEntity
8
0
100
AcDbLine
62
7
6
BYLAYER
10
123.6255618946
20
255.7345539044
11
124.4582775870
21
256.2097778160
0
LINE
5
3B5
100
AcDbEntity
8
0
100
AcDbLine
62
7
6
BYLAYER
10
127.2148320259
20
254.3221947179
11
127.0500479648
21
254.2281538264
0
LINE
5
3B6
100
AcDbEntity
8
0
100
AcDbLine
62
7
6
BYLAYER
10
115.1689481059
20
246.3907094537
11
124.0672874049
21
251.4689175936
0
LINE
5
3B7
100
AcDbEntity
8
0
100
AcDbLine
62
7
6
BYLAYER
10
126.6527672993
20
226.8905238010
11
127.0310954133
21
225.5649718649
0
LINE
5
3B8
100
AcDbEntity
8
0
100
AcDbLine
62
7
6
BYLAYER
10
138.9859541439
20
258.5902012704
11
139.6321355372
21
254.3746478227
0
LINE
5
3B9
100
AcDbEntity
8
0
100
AcDbLine
62
7
6
BYLAYER
10
138.9982811239
20
258.8008082789
11
139.6757213215
21
254.3813288726
0
LINE
5
3BA
100
AcDbEntity
8
0
100
AcDbLine
62
7
6
BYLAYER
10
149.4905935215
20
239.3850952593
11
141.8782265880
21
233.7161758956
0
LINE
5
3BB
100
AcDbEntity
8
0
100
AcDbLine
62
7
6
BYLAYER
10
157.5425197645
20
239.8624781382
11
158.3404085950
21
240.4566648715
0
LINE
5
3BC
100
AcDbEntity
8
0
100
AcDbLine
62
7
6
BYLAYER
10
160.3454257495
20
238.7145954344
11
161.1433145799
21
239.3087821677
0
LINE
5
3BD
100
AcDbEntity
8
0
100
AcDbLine
62
7
6
BYLAYER
10
160.4419166891
20
238.5850249835
11
161.1309875999
21
239.0981751592
0
LINE
5
3BE
100
AcDbEntity
8
0
100
AcDbLine
62
7
6
BYLAYER
10
163.4588845836
20
237.4074958024
11
163.3179148256
21
237.3025158142
0
LINE
5
3BF
100
AcDbEntity
8
0
100
AcDbLine
62
7
6
BYLAYER
10
154.2439882865
20
228.6519874964
11
161.8563552200
21
234.3209068601
0
LINE
5
3C0
100
AcDbEntity
8
0
100
AcDbLine
62
7
6
BYLAYER
10
154.2316613065
20
228.4413804878
11
161.8440282400
21
234.1102998516
0
LINE
5
3C1
100
AcDbEntity
8
0
100
AcDbLine
62
7
6
BYLAYER
10
163.0565319550
20
230.5332830446
11
162.9155621969
21
230.4283030564
0
LINE
5
3C2
100
AcDbEntity
8
0
100
AcDbLine
62
7
6
BYLAYER
10
157.5066116647
20
226.2112068158
11
154.5268527646
21
223.9921843914
0
LINE
5
3C3
100
AcDbEntity
8
0
100
AcDbLine
62
7
6
BYLAYER
10
160.3095176497
20
225.0633241120
11
157.3297587496
21
222.8443016876
0
LINE
5
3C4
100
AcDbEntity
8
0
100
AcDbLine
62
7
6
BYLAYER
10
160.2971906696
20
224.8527171035
11
157.3174317695
21
222.6336946790
0
LINE
5
3C5
100
AcDbEntity
8
0
100
AcDbLine
62
7
6
BYLAYER
10
59.2916675383
20
194.8866012595
11
50.5309391324
21
189.5264748099
0
LINE
5
3C6
100
AcDbEntity
8
0
100
AcDbLine
62
7
6
BYLAYER
10
26.1730219892
20
169.1076964395
11
26.0143413221
21
169.0106099415
0
LINE
5
3C7
100
AcDbEntity
8
0
100
AcDbLine
62
7
6
BYLAYER
10
44.3524752708
20
178.0704159604
11
35.4663579128
21
172.6335720727
0
LINE
5
3C8
100
AcDbEntity
8
0
100
AcDbLine
62
7
6
BYLAYER
10
69.0083498548
20
190.1804987637
11
60.2476214489
21
184.8203723141
0
LINE
5
3C9
100
AcDbEntity
8
0
100
AcDbLine
62
7
6
BYLAYER
10
68.9960228748
20
189.9698917552
11
60.2352944689
21
184.6097653056
0
LINE
5
3CA
100
AcDbEntity
8
0
100
AcDbLine
62
7
6
BYLAYER
10
57.1571568201
20
179.0712821885
11
56.9984761530
21
178.9741956905
0
LINE
5
3CB
100
AcDbEntity
8
0
100
AcDbLine
62
7
6
BYLAYER
10
57.1349682560
20
178.6921895732
11
56.9762875889
21
178.5951030752
0
LINE
5
3CC
100
AcDbEntity
8
0
100
AcDbLine
62
7
6
BYLAYER
10
54.0691575873
20
173.3643134645
11
45.1830402292
21
167.9274695769
0
LINE
5
3CD
100
AcDbEntity
8
0
100
AcDbLine
62
7
6
BYLAYER
10
54.0568306072
20
173.1537064560
11
45.1707132492
21
167.7168625684
0
LINE
5
3CE
100
AcDbEntity
8
0
100
AcDbLine
62
7
6
BYLAYER
10
139.6757213215
20
254.3813288725
11
136.9552425262
21
252.7665907798
0
LINE
5
3CF
100
AcDbEntity
8
0
100
AcDbLine
62
7
6
BYLAYER
10
142.2672964560
20
253.0931166509
11
139.5468176607
21
251.4783785581
0
LINE
5
3D0
100
AcDbEntity
8
0
100
AcDbLine
62
7
6
BYLAYER
10
142.2549694760
20
252.8825096424
11
139.5344906807
21
251.2677715496
0
LINE
5
3D1
100
AcDbEntity
8
0
100
AcDbLine
62
7
6
BYLAYER
10
136.4081792798
20
245.7529257244
11
136.2468222931
21
245.6571524093
0
LINE
5
3D2
100
AcDbEntity
8
0
100
AcDbLine
62
7
6
BYLAYER
10
150.4317008352
20
253.1175190656
11
156.2405523554
21
256.5653584096
0
LINE
5
3D3
100
AcDbEntity
8
0
100
AcDbLine
62
7
6
BYLAYER
10
150.4193738551
20
252.9069120571
11
156.2282253753
21
256.3547514011
0
LINE
5
3D4
100
AcDbEntity
8
0
100
AcDbLine
62
7
6
BYLAYER
10
136.0181536311
20
239.0893199751
11
135.8567966445
21
238.9935466600
0
LINE
5
3D5
100
AcDbEntity
8
0
100
AcDbLine
62
7
6
BYLAYER
10
130.3125940757
20
235.0732933800
11
129.3097423282
21
234.4780514980
0
LINE
5
3D6
100
AcDbEntity
8
0
100
AcDbLine
62
7
6
BYLAYER
10
132.9041692103
20
233.7850811584
11
131.9013174627
21
233.1898392763
0
LINE
5
3D7
100
AcDbEntity
8
0
100
AcDbLine
62
7
6
BYLAYER
10
132.8918422302
20
233.5744741498
11
131.8889904827
21
232.9792322678
0
LINE
5
3D8
100
AcDbEntity
8
0
100
AcDbLine
62
7
6
BYLAYER
10
122.8579577321
20
224.7047634079
11
100.9823461714
21
211.7205110216
0
LINE
5
3D9
100
AcDbEntity
8
0
100
AcDbLine
62
7
6
BYLAYER
10
125.4495328666
20
223.4165511863
11
123.5580540605
21
222.2938653983
0
LINE
5
3DA
100
AcDbEntity
8
0
100
AcDbLine
62
7
6
BYLAYER
10
125.4372058866
20
223.2059441777
11
123.7444518803
21
222.2012113416
0
LINE
5
3DB
100
AcDbEntity
8
0
100
AcDbLine
62
7
6
BYLAYER
10
134.3274398571
20
223.8644525262
11
127.9789763489
21
220.0963269025
0
LINE
5
3DC
100
AcDbEntity
8
0
100
AcDbLine
62
7
6
BYLAYER
10
115.1566211259
20
246.1801024452
11
124.0549604248
21
251.2583105851
0
LINE
5
3DD
100
AcDbEntity
8
0
100
AcDbLine
62
7
6
BYLAYER
10
126.8124793973
20
247.4479819601
11
126.6476953362
21
247.3539410686
0
LINE
5
3DE
100
AcDbEntity
8
0
100
AcDbLine
62
7
6
BYLAYER
10
121.0854295577
20
243.4865336911
11
117.4140209829
21
241.3912913899
0
LINE
5
3DF
100
AcDbEntity
8
0
100
AcDbLine
62
7
6
BYLAYER
10
123.6368076368
20
242.1749267687
11
119.9653990621
21
240.0796844676
0
LINE
5
3E0
100
AcDbEntity
8
0
100
AcDbLine
62
7
6
BYLAYER
10
123.6244806568
20
241.9643197602
11
119.9530720820
21
239.8690774591
0
LINE
5
3E1
100
AcDbEntity
8
0
100
AcDbLine
62
7
6
BYLAYER
10
24.0420245149
20
135.3134885796
11
45.4804188322
21
124.9301830730
0
LINE
5
3E2
100
AcDbEntity
8
0
100
AcDbLine
62
7
6
BYLAYER
10
127.9164691970
20
230.2720363647
11
130.4141968299
21
226.3715613727
0
LINE
5
3E3
100
AcDbEntity
8
0
100
AcDbLine
62
7
6
BYLAYER
10
127.9287961770
20
230.4826433732
11
130.4265238099
21
226.5821683812
0
LINE
5
3E4
100
AcDbEntity
8
0
100
AcDbLine
62
7
6
BYLAYER
10
116.1192477257
20
237.6606104448
11
123.4382686069
21
226.2052175380
0
LINE
5
3E5
100
AcDbEntity
8
0
100
AcDbLine
62
7
6
BYLAYER
10
116.1315747058
20
237.8712174533
11
123.4505955870
21
226.4158245465
0
LINE
5
3E6
100
AcDbEntity
8
0
100
AcDbLine
62
7
6
BYLAYER
10
119.3337464181
20
238.3459167078
11
126.6527672993
21
226.8905238010
0
LINE
5
3E7
100
AcDbEntity
8
0
100
AcDbLine
62
7
6
BYLAYER
10
161.8563552200
20
234.3209068601
11
160.3454257495
21
238.7145954344
0
LINE
5
3E8
100
AcDbEntity
8
0
100
AcDbLine
62
7
6
BYLAYER
10
41.7505603061
20
161.5629924383
11
41.5918796390
21
161.4659059403
0
LINE
5
3E9
100
AcDbEntity
8
0
100
AcDbLine
62
7
6
BYLAYER
10
47.6114163065
20
158.7243909329
11
47.4527356394
21
158.6273044349
0
LINE
5
3EA
100
AcDbEntity
8
0
100
AcDbLine
62
7
6
BYLAYER
10
136.9190149917
20
222.5762403045
11
110.5864187288
21
206.9465480824
0
LINE
5
3EB
100
AcDbEntity
8
0
100
AcDbLine
62
7
6
BYLAYER
10
136.9066880116
20
222.3656332960
11
110.5740917488
21
206.7359410739
0
LINE
5
3EC
100
AcDbEntity
8
0
100
AcDbLine
62
7
6
BYLAYER
10
129.7844903749
20
224.8407963510
11
124.7267668745
21
221.9862344376
0
LINE
5
3ED
100
AcDbEntity
8
0
100
AcDbLine
62
7
6
BYLAYER
10
132.3243449463
20
223.5226494348
11
127.2666214459
21
220.6680875214
0
LINE
5
3EE
100
AcDbEntity
8
0
100
AcDbLine
62
7
6
BYLAYER
10
132.3120179662
20
223.3120424263
11
127.3537927810
21
220.5136370230
0
LINE
5
3EF
100
AcDbEntity
8
0
100
AcDbLine
62
7
6
BYLAYER
10
100.2316125791
20
211.3557433413
11
61.8654697614
21
196.1562567117
0
LINE
5
3F0
100
AcDbEntity
8
0
100
AcDbLine
62
7
6
BYLAYER
10
26.0143413221
20
169.0106099415
11
31.8751973225
21
166.1720084361
0
LINE
5
3F1
100
AcDbEntity
8
0
100
AcDbLine
62
7
6
BYLAYER
10
31.8751973225
20
166.1720084361
11
41.5918796390
21
161.4659059403
0
LINE
5
3F2
100
AcDbEntity
8
0
100
AcDbLine
62
7
6
BYLAYER
10
41.5918796390
20
161.4659059403
11
47.4527356394
21
158.6273044348
0
LINE
5
3F3
100
AcDbEntity
8
0
100
AcDbLine
62
7
6
BYLAYER
10
26.1730219892
20
169.1076964395
11
31.9434352863
21
166.3128992510
0
LINE
5
3F4
100
AcDbEntity
8
0
100
AcDbLine
62
7
6
BYLAYER
10
41.7505603061
20
161.5629924383
11
47.6114163065
21
158.7243909328
0
LINE
5
3F5
100
AcDbEntity
8
0
100
AcDbLine
62
7
6
BYLAYER
10
35.4663579128
20
172.6335720727
11
45.1830402292
21
167.9274695769
0
LINE
5
3F6
100
AcDbEntity
8
0
100
AcDbLine
62
7
6
BYLAYER
10
131.1301397420
20
230.9586373365
11
133.6278673749
21
227.0581623445
0
LINE
5
3F7
100
AcDbEntity
8
0
100
AcDbLine
62
7
6
BYLAYER
10
45.6390994993
20
125.0272695709
11
45.4804188322
21
124.9301830730
0
LINE
5
3F8
100
AcDbEntity
8
0
100
AcDbLine
62
7
6
BYLAYER
10
108.1761687748
20
205.7754518455
11
69.8100259571
21
190.5759652160
0
LINE
5
3F9
100
AcDbEntity
8
0
100
AcDbLine
62
7
6
BYLAYER
10
108.1638417947
20
205.5648448370
11
69.7976989770
21
190.3653582075
0
LINE
5
3FA
100
AcDbEntity
8
0
100
AcDbLine
62
7
6
BYLAYER
10
44.3524752708
20
178.0704159604
11
54.0691575873
21
173.3643134646
0
LINE
5
3FB
100
AcDbEntity
8
0
100
AcDbLine
62
7
6
BYLAYER
10
47.2596052724
20
183.3012055710
11
56.9762875889
21
178.5951030752
0
LINE
5
3FC
100
AcDbEntity
8
0
100
AcDbLine
62
7
6
BYLAYER
10
47.2817938365
20
183.6802981863
11
56.9984761530
21
178.9741956905
0
LINE
5
3FD
100
AcDbEntity
8
0
100
AcDbLine
62
7
6
BYLAYER
10
50.5309391324
20
189.5264748099
11
60.2476214489
21
184.8203723141
0
LINE
5
3FE
100
AcDbEntity
8
0
100
AcDbLine
62
7
6
BYLAYER
10
123.5580540605
20
222.2938653983
11
124.4727276374
21
221.8392022612
0
LINE
5
3FF
100
AcDbEntity
8
0
100
AcDbLine
62
7
6
BYLAYER
10
127.0643027720
20
220.5509900396
11
127.9789763489
21
220.0963269025
0
LINE
5
400
100
AcDbEntity
8
0
100
AcDbLine
62
7
6
BYLAYER
10
154.0950675102
20
233.8959262059
11
166.7975356799
21
226.1613616607
0
LINE
5
401
100
AcDbEntity
8
0
100
AcDbLine
62
7
6
BYLAYER
10
157.5066116647
20
226.2112068158
11
160.3095176497
21
225.0633241120
0
LINE
5
402
100
AcDbEntity
8
0
100
AcDbLine
62
7
6
BYLAYER
10
154.2316613065
20
228.4413804878
11
141.8658996080
21
233.5055688870
0
LINE
5
403
100
AcDbEntity
8
0
100
AcDbLine
62
7
6
BYLAYER
10
141.8782265880
20
233.7161758956
11
154.2439882865
21
228.6519874964
0
LINE
5
404
100
AcDbEntity
8
0
100
AcDbLine
62
7
6
BYLAYER
10
130.3125940757
20
235.0732933800
11
132.9041692103
21
233.7850811584
0
LINE
5
405
100
AcDbEntity
8
0
100
AcDbLine
62
7
6
BYLAYER
10
133.2652215099
20
240.2817588816
11
135.8567966445
21
238.9935466600
0
LINE
5
406
100
AcDbEntity
8
0
100
AcDbLine
62
7
6
BYLAYER
10
133.6552471586
20
246.9453646309
11
136.2468222931
21
245.6571524093
0
LINE
5
407
100
AcDbEntity
8
0
100
AcDbLine
62
7
6
BYLAYER
10
136.9552425262
20
252.7665907798
11
139.5468176607
21
251.4783785581
0
LINE
5
408
100
AcDbEntity
8
0
100
AcDbLine
62
7
6
BYLAYER
10
103.9005413650
20
251.9666035731
11
115.1566211259
21
246.1801024452
0
LINE
5
409
100
AcDbEntity
8
0
100
AcDbLine
62
7
6
BYLAYER
10
103.9128683450
20
252.1772105817
11
115.1689481059
21
246.3907094537
0
LINE
5
40A
100
AcDbEntity
8
0
100
AcDbLine
62
7
6
BYLAYER
10
121.0854295577
20
243.4865336911
11
123.6368076368
21
242.1749267687
0
LINE
5
40B
100
AcDbEntity
8
0
100
AcDbLine
62
7
6
BYLAYER
10
124.0963172570
20
248.6655479909
11
126.6476953362
21
247.3539410686
0
LINE
5
40C
100
AcDbEntity
8
0
100
AcDbLine
62
7
6
BYLAYER
10
124.4986698857
20
255.5397607488
11
127.0500479648
21
254.2281538264
0
LINE
5
40D
100
AcDbEntity
8
0
100
AcDbLine
62
7
6
BYLAYER
10
121.9192264880
20
257.7319917468
11
124.4706045671
21
256.4203848245
0
LINE
5
40E
100
AcDbEntity
8
0
100
AcDbLine
62
7
6
BYLAYER
10
126.3061270174
20
256.6315920957
11
123.7547489383
21
257.9431990180
0
LINE
5
40F
100
AcDbEntity
8
0
100
AcDbLine
62
7
6
BYLAYER
10
160.1126562119
20
231.5761857602
11
162.9155621969
21
230.4283030564
0
LINE
5
410
100
AcDbEntity
8
0
100
AcDbLine
62
7
6
BYLAYER
10
160.5150088406
20
238.4503985180
11
163.3179148256
21
237.3025158142
0
LINE
5
411
100
AcDbEntity
8
0
100
AcDbLine
62
7
6
BYLAYER
10
158.3404085949
20
240.4566648715
11
161.1433145799
21
239.3087821677
0
LINE
5
412
100
AcDbEntity
8
0
100
AcDbLine
62
7
6
BYLAYER
10
162.6268539605
20
239.6821717442
11
159.8239479755
21
240.8300544480
0
LINE
5
413
100
AcDbEntity
8
0
100
AcDbLine
62
7
6
BYLAYER
10
156.2405523554
20
256.5653584096
11
144.8071326441
21
262.2486476229
0
LINE
5
414
100
AcDbEntity
8
0
100
AcDbLine
62
7
6
BYLAYER
10
150.6476761068
20
221.3973914091
11
139.9866763098
21
222.8383566081
0
LINE
5
415
100
AcDbEntity
8
0
100
AcDbLine
62
7
6
BYLAYER
10
150.6600030868
20
221.6079984176
11
139.9990032898
21
223.0489636166
0
LINE
5
416
100
AcDbEntity
8
0
100
AcDbLine
62
7
6
BYLAYER
10
151.2417492292
20
223.3832589002
11
140.5807494322
21
224.8242240992
0
LINE
5
417
100
AcDbEntity
8
0
100
AcDbLine
62
7
6
BYLAYER
10
166.7975356799
20
226.1613616607
11
173.7975356799
21
226.1613616607
0
LINE
5
418
100
AcDbEntity
8
0
100
AcDbLine
62
7
6
BYLAYER
10
157.5425197645
20
239.8624781382
11
149.4905935215
21
239.3850952593
0
LINE
5
419
100
AcDbEntity
8
0
100
AcDbLine
62
7
6
BYLAYER
10
142.2549694760
20
252.8825096424
11
150.4193738551
21
252.9069120571
0
LINE
5
41A
100
AcDbEntity
8
0
100
AcDbLine
62
7
6
BYLAYER
10
142.2672964560
20
253.0931166509
11
150.4317008352
21
253.1175190656
0
LINE
5
41B
100
AcDbEntity
8
0
100
AcDbLine
62
7
6
BYLAYER
10
109.2278650983
20
245.4446070544
11
102.2278650983
21
245.4446070544
0
LINE
5
41C
100
AcDbEntity
8
0
100
AcDbLine
62
7
6
BYLAYER
10
153.5286896722
20
262.5852696265
11
160.5286896722
21
262.5852696265
0
LINE
5
41D
100
AcDbEntity
8
0
100
AcDbLine
62
7
6
BYLAYER
10
120.9865487022
20
257.1997203010
11
112.8112076440
21
257.2554187215
0
LINE
5
41E
100
AcDbEntity
8
0
100
AcDbLine
62
7
6
BYLAYER
10
137.8002758446
20
169.2955450976
11
137.8002758446
21
141.4955450976
0
LINE
5
41F
100
AcDbEntity
8
0
100
AcDbLine
62
7
6
BYLAYER
10
177.8002758446
20
169.2955450976
11
177.8002758446
21
161.6955450976
0
LINE
5
420
100
AcDbEntity
8
0
100
AcDbLine
62
7
6
BYLAYER
10
177.8002758446
20
161.6955450976
11
177.8002758446
21
149.0955450976
0
LINE
5
421
100
AcDbEntity
8
0
100
AcDbLine
62
7
6
BYLAYER
10
177.8002758446
20
149.0955450976
11
177.8002758446
21
141.4955450976
0
LINE
5
422
100
AcDbEntity
8
0
100
AcDbLine
62
7
6
BYLAYER
10
185.7792574786
20
161.6955450976
11
185.7792574786
21
149.0955450976
0
LINE
5
423
100
AcDbEntity
8
0
100
AcDbLine
62
7
6
BYLAYER
10
199.7792574786
20
161.6955450976
11
199.7792574786
21
149.0955450976
0
LINE
5
424
100
AcDbEntity
8
0
100
AcDbLine
62
7
6
BYLAYER
10
206.5801418675
20
161.6955450976
11
206.5801418675
21
149.0955450976
0
LINE
5
425
100
AcDbEntity
8
0
100
AcDbLine
62
7
6
BYLAYER
10
207.0301418675
20
161.6955450976
11
207.0301418675
21
149.0955450976
0
LINE
5
426
100
AcDbEntity
8
0
100
AcDbLine
62
7
6
BYLAYER
10
214.2237253381
20
161.6955450976
11
214.2237253381
21
149.0955450976
0
LINE
5
427
100
AcDbEntity
8
0
100
AcDbLine
62
7
6
BYLAYER
10
364.0580165523
20
173.7190150730
11
370.0411049129
21
179.3299556063
0
LINE
5
428
100
AcDbEntity
8
0
100
AcDbLine
62
7
6
BYLAYER
10
326.9668378510
20
154.1261587398
11
323.0995060750
21
147.7041750047
0
LINE
5
429
100
AcDbEntity
8
0
100
AcDbLine
62
7
6
BYLAYER
10
329.8794803722
20
152.3721594401
11
326.0121485962
21
145.9501757049
0
LINE
5
42A
100
AcDbEntity
8
0
100
AcDbLine
62
7
6
BYLAYER
10
329.3739797347
20
171.4053200645
11
318.0043622028
21
152.5564746177
0
LINE
5
42B
100
AcDbEntity
8
0
100
AcDbLine
62
7
6
BYLAYER
10
332.2853378950
20
169.6491897554
11
320.9157203630
21
150.8003443086
0
LINE
5
42C
100
AcDbEntity
8
0
100
AcDbLine
62
7
6
BYLAYER
10
367.2215889635
20
163.1851907869
11
361.3411736783
21
157.4667367936
0
LINE
5
42D
100
AcDbEntity
8
0
100
AcDbLine
62
7
6
BYLAYER
10
364.5028102225
20
129.7192283637
11
369.7659509791
21
136.0104404390
0
LINE
5
42E
100
AcDbEntity
8
0
100
AcDbLine
62
7
6
BYLAYER
10
312.1547903872
20
147.6025244234
11
312.1380357708
21
146.4026413946
0
LINE
5
42F
100
AcDbEntity
8
0
100
AcDbLine
62
7
6
BYLAYER
10
312.0905643576
20
143.0029728130
11
312.0738097412
21
141.8030897842
0
LINE
5
430
100
AcDbEntity
8
0
100
AcDbLine
62
7
6
BYLAYER
10
335.2242518398
20
157.8314215142
11
335.1767804267
21
154.4317529325
0
LINE
5
431
100
AcDbEntity
8
0
100
AcDbLine
62
7
6
BYLAYER
10
342.0244733058
20
157.7364663399
11
341.9770018926
21
154.3367977582
0
LINE
5
432
100
AcDbEntity
8
0
100
AcDbLine
62
7
6
BYLAYER
10
349.9337022707
20
157.6260254934
11
349.8862308575
21
154.2263569118
0
LINE
5
433
100
AcDbEntity
8
0
100
AcDbLine
62
7
6
BYLAYER
10
340.8931780283
20
174.4625654302
11
340.7841002168
21
171.0643155819
0
LINE
5
434
100
AcDbEntity
8
0
100
AcDbLine
62
7
6
BYLAYER
10
347.6905616584
20
174.2443814346
11
347.5814838470
21
170.8461315864
0
LINE
5
435
100
AcDbEntity
8
0
100
AcDbLine
62
7
6
BYLAYER
10
355.8463612942
20
173.9825946871
11
355.7372834827
21
170.5843448389
0
LINE
5
436
100
AcDbEntity
8
0
100
AcDbLine
62
7
6
BYLAYER
10
341.4172443637
20
127.6651446363
11
341.7185756123
21
124.2785239787
0
LINE
5
437
100
AcDbEntity
8
0
100
AcDbLine
62
7
6
BYLAYER
10
348.1913665877
20
128.2678855140
11
348.4926978362
21
124.8812648564
0
LINE
5
438
100
AcDbEntity
8
0
100
AcDbLine
62
7
6
BYLAYER
10
356.3192561660
20
128.9910805106
11
356.6205874145
21
125.6044598529
0
LINE
5
439
100
AcDbEntity
8
0
100
AcDbLine
62
7
6
BYLAYER
10
363.0933783900
20
129.5938213882
11
363.3947096385
21
126.2072007306
0
LINE
5
43A
100
AcDbEntity
8
0
100
AcDbLine
62
7
6
BYLAYER
10
357.1265845396
20
157.5255873837
11
357.0791131264
21
154.1259188021
0
LINE
5
43B
100
AcDbEntity
8
0
100
AcDbLine
62
7
6
BYLAYER
10
376.0112789745
20
148.0609933037
11
376.2207116796
21
163.0595311638
0
LINE
5
43C
100
AcDbEntity
8
0
100
AcDbLine
62
7
6
BYLAYER
10
362.6437449243
20
173.7644106915
11
362.5346671128
21
170.3661608433
0
LINE
5
43D
100
AcDbEntity
8
0
100
AcDbLine
62
7
6
BYLAYER
10
383.5341557809
20
178.8968525315
11
383.0529301422
21
163.9045737893
0
LINE
5
43E
100
AcDbEntity
8
0
100
AcDbLine
62
7
6
BYLAYER
10
384.5422296868
20
122.2659292599
11
383.2128271197
21
137.2069027494
0
LINE
5
43F
100
AcDbEntity
8
0
100
AcDbLine
62
7
6
BYLAYER
10
330.0351419488
20
127.1751461142
11
324.6848968115
21
136.5960553191
0
LINE
5
440
100
AcDbEntity
8
0
100
AcDbLine
62
7
6
BYLAYER
10
332.9916371206
20
128.8541744938
11
327.6413919833
21
138.2750836986
0
LINE
5
441
100
AcDbEntity
8
0
100
AcDbLine
62
7
6
BYLAYER
10
371.0953535463
20
121.0694669495
11
364.8041414710
21
126.3326077061
0
LINE
5
442
100
AcDbEntity
8
0
100
AcDbLine
62
7
6
BYLAYER
10
361.2937022651
20
154.0670682119
11
367.0121562584
21
148.1866529267
0
LINE
5
443
100
AcDbEntity
8
0
100
AcDbLine
62
7
6
BYLAYER
10
369.5598792742
20
164.3376768641
11
363.9489387409
21
170.3207652247
0
LINE
5
444
100
AcDbEntity
8
0
100
AcDbLine
62
7
6
BYLAYER
10
277.7057484124
20
139.1948550551
11
229.1526293116
21
148.9831298405
0
LINE
5
445
100
AcDbEntity
8
0
100
AcDbLine
62
7
6
BYLAYER
10
384.5422296868
20
122.2659292599
11
371.0953535463
21
121.0694669495
0
LINE
5
446
100
AcDbEntity
8
0
100
AcDbLine
62
7
6
BYLAYER
10
364.8041414710
20
126.3326077061
11
336.4549763653
21
123.8101848604
0
LINE
5
447
100
AcDbEntity
8
0
100
AcDbLine
62
7
6
BYLAYER
10
364.5028102225
20
129.7192283637
11
336.1536451168
21
127.1968055180
0
LINE
5
448
100
AcDbEntity
8
0
100
AcDbLine
62
7
6
BYLAYER
10
321.8614325752
20
138.2660884564
11
281.0667480531
21
138.8357267246
0
LINE
5
449
100
AcDbEntity
8
0
100
AcDbLine
62
7
6
BYLAYER
10
320.0232515364
20
142.7112249724
11
312.3997027401
21
142.9950607154
0
LINE
5
44A
100
AcDbEntity
8
0
100
AcDbLine
62
7
6
BYLAYER
10
280.1958027848
20
151.5463581711
11
231.6426836840
21
161.3346329565
0
LINE
5
44B
100
AcDbEntity
8
0
100
AcDbLine
62
7
6
BYLAYER
10
369.7659509791
20
136.0104404390
11
383.2128271197
21
137.2069027494
0
LINE
5
44C
100
AcDbEntity
8
0
100
AcDbLine
62
7
6
BYLAYER
10
177.8002758446
20
141.4955450976
11
137.8002758446
21
141.4955450976
0
LINE
5
44D
100
AcDbEntity
8
0
100
AcDbLine
62
7
6
BYLAYER
10
228.0261761431
20
149.0955450976
11
177.8002758446
21
149.0955450976
0
LINE
5
44E
100
AcDbEntity
8
0
100
AcDbLine
62
7
6
BYLAYER
10
228.0261761431
20
161.6955450976
11
177.8002758446
21
161.6955450976
0
LINE
5
44F
100
AcDbEntity
8
0
100
AcDbLine
62
7
6
BYLAYER
10
177.8002758446
20
169.2955450976
11
137.8002758446
21
169.2955450976
0
LINE
5
450
100
AcDbEntity
8
0
100
AcDbLine
62
7
6
BYLAYER
10
321.9089039884
20
141.6657570380
11
312.0738097412
21
141.8030897842
0
LINE
5
451
100
AcDbEntity
8
0
100
AcDbLine
62
7
6
BYLAYER
10
315.0850856154
20
147.5616071246
11
312.1547903872
21
147.6025244234
0
LINE
5
452
100
AcDbEntity
8
0
100
AcDbLine
62
7
6
BYLAYER
10
367.0121562584
20
148.1866529267
11
376.0112789745
21
148.0609933037
0
LINE
5
453
100
AcDbEntity
8
0
100
AcDbLine
62
7
6
BYLAYER
10
315.1325570285
20
150.9612757062
11
281.2426715254
21
151.4344985271
0
LINE
5
454
100
AcDbEntity
8
0
100
AcDbLine
62
7
6
BYLAYER
10
361.2937022651
20
154.0670682119
11
333.6231538775
21
154.4534470613
0
LINE
5
455
100
AcDbEntity
8
0
100
AcDbLine
62
7
6
BYLAYER
10
361.3411736783
20
157.4667367936
11
333.6706252906
21
157.8531156429
0
LINE
5
456
100
AcDbEntity
8
0
100
AcDbLine
62
7
6
BYLAYER
10
376.2207116796
20
163.0595311638
11
367.2215889635
21
163.1851907869
0
LINE
5
457
100
AcDbEntity
8
0
100
AcDbLine
62
7
6
BYLAYER
10
383.0529301422
20
163.9045737893
11
369.5598792742
21
164.3376768641
0
LINE
5
458
100
AcDbEntity
8
0
100
AcDbLine
62
7
6
BYLAYER
10
363.9489387409
20
170.3207652247
11
335.2169375146
21
171.2430116610
0
LINE
5
459
100
AcDbEntity
8
0
100
AcDbLine
62
7
6
BYLAYER
10
320.1497508067
20
146.1088709125
11
312.5262020105
21
146.3927066556
0
LINE
5
45A
100
AcDbEntity
8
0
100
AcDbLine
62
7
6
BYLAYER
10
364.0580165523
20
173.7190150730
11
335.3260153261
21
174.6412615092
0
LINE
5
45B
100
AcDbEntity
8
0
100
AcDbLine
62
7
6
BYLAYER
10
370.0411049129
20
179.3299556063
11
383.5341557809
21
178.8968525315
0
ARC
5
45C
100
AcDbEntity
8
DEFAULT_1
100
AcDbCircle
62
7
6
BYLAYER
10
282.5289168418
20
150.1074465064
40
20.6000000000
100
AcDbArc
50
89.3075380000
51
181.5559528939
0
ARC
5
45D
100
AcDbEntity
8
0
100
AcDbCircle
62
7
6
BYLAYER
10
333.5631165020
20
150.1538662080
40
7.7000000000
100
AcDbArc
50
89.2000000000
51
148.9435628365
0
ARC
5
45E
100
AcDbEntity
8
0
100
AcDbCircle
62
7
6
BYLAYER
10
320.2725295103
20
149.4065860897
40
3.3000000000
100
AcDbArc
50
267.8677801461
51
328.9435628365
0
ARC
5
45F
100
AcDbEntity
8
0
100
AcDbCircle
62
7
6
BYLAYER
10
311.9048673591
20
129.7042692437
40
16.7000000000
100
AcDbArc
50
87.8677801461
51
89.2000000000
0
ARC
5
460
100
AcDbEntity
8
0
100
AcDbCircle
62
7
6
BYLAYER
10
335.1110678741
20
167.9447103377
40
6.7000000000
100
AcDbArc
50
88.1615380000
51
148.9016336388
0
ARC
5
461
100
AcDbEntity
8
0
100
AcDbCircle
62
7
6
BYLAYER
10
315.1786322237
20
154.2609540354
40
3.3000000000
100
AcDbArc
50
269.2000000000
51
328.9016336388
0
ARC
5
462
100
AcDbEntity
8
0
100
AcDbCircle
62
7
6
BYLAYER
10
281.3222559533
20
157.1339429140
40
5.7000000000
100
AcDbArc
50
258.6019859402
51
269.2000000000
0
ARC
5
463
100
AcDbEntity
8
0
100
AcDbCircle
62
7
6
BYLAYER
10
228.0261761431
20
143.3955450976
40
18.3000000000
100
AcDbArc
50
78.6019859402
51
90.0000000000
0
ARC
5
464
100
AcDbEntity
8
0
100
AcDbCircle
62
7
6
BYLAYER
10
335.8611765520
20
130.4838196857
40
3.3000000000
100
AcDbArc
50
209.5927524013
51
275.0846150000
0
ARC
5
465
100
AcDbEntity
8
0
100
AcDbCircle
62
7
6
BYLAYER
10
321.8153573801
20
134.9664101271
40
6.7000000000
100
AcDbArc
50
29.5927524013
51
89.2000000000
0
ARC
5
466
100
AcDbEntity
8
0
100
AcDbCircle
62
7
6
BYLAYER
10
335.8611765520
20
130.4838196857
40
6.7000000000
100
AcDbArc
50
209.5927524013
51
275.0846150000
0
ARC
5
467
100
AcDbEntity
8
0
100
AcDbCircle
62
7
6
BYLAYER
10
321.8153573801
20
134.9664101271
40
3.3000000000
100
AcDbArc
50
29.5927524013
51
89.2000000000
0
ARC
5
468
100
AcDbEntity
8
0
100
AcDbCircle
62
7
6
BYLAYER
10
333.5631165020
20
150.1538662080
40
4.3000000000
100
AcDbArc
50
89.2000000000
51
148.9435628365
0
ARC
5
469
100
AcDbEntity
8
0
100
AcDbCircle
62
7
6
BYLAYER
10
320.2725295103
20
149.4065860897
40
6.7000000000
100
AcDbArc
50
267.8677801461
51
328.9435628365
0
ARC
5
46A
100
AcDbEntity
8
0
100
AcDbCircle
62
7
6
BYLAYER
10
311.9048673591
20
129.7042692437
40
13.3000000000
100
AcDbArc
50
87.8677801461
51
89.2000000000
0
ARC
5
46B
100
AcDbEntity
8
0
100
AcDbCircle
62
7
6
BYLAYER
10
281.3222559533
20
157.1339429140
40
18.3000000000
100
AcDbArc
50
258.6019859402
51
269.2000000000
0
ARC
5
46C
100
AcDbEntity
8
0
100
AcDbCircle
62
7
6
BYLAYER
10
228.0261761431
20
143.3955450976
40
5.7000000000
100
AcDbArc
50
78.6019859402
51
90.0000000000
0
ARC
5
46D
100
AcDbEntity
8
0
100
AcDbCircle
62
7
6
BYLAYER
10
335.1110678741
20
167.9447103377
40
3.3000000000
100
AcDbArc
50
88.1615380000
51
148.9016336388
0
ARC
5
46E
100
AcDbEntity
8
0
100
AcDbCircle
62
7
6
BYLAYER
10
315.1786322237
20
154.2609540354
40
6.7000000000
100
AcDbArc
50
269.2000000000
51
328.9016336388
0
SPLINE
5
46F
100
AcDbEntity
8
0
100
AcDbSpline
62
7
6
BYLAYER
70
0
71
3
72
8
73
4
74
2
42
0.0000001000
43
0.0000001000
44
0.0000000001
40
0.0000000000
40
0.0000000000
40
0.0000000000
40
0.0000000000
40
1.0000000000
40
1.0000000000
40
1.0000000000
40
1.0000000000
10
130.6136499469
20
225.9278781550
30
0.0000000000
10
130.6112862230
20
225.8898584748
30
0.0000000000
10
130.6064466726
20
225.8520033686
30
0.0000000000
10
130.5993560595
20
225.8144870137
30
0.0000000000
11
130.6136499469
21
225.9278781550
31
0.0000000000
11
130.5993560595
21
225.8144870137
31
0.0000000000
0
SPLINE
5
470
100
AcDbEntity
8
0
100
AcDbSpline
62
7
6
BYLAYER
70
0
71
3
72
8
73
4
74
2
42
0.0000001000
43
0.0000001000
44
0.0000000001
40
0.0000000000
40
0.0000000000
40
0.0000000000
40
0.0000000000
40
1.0000000000
40
1.0000000000
40
1.0000000000
40
1.0000000000
10
130.5993560595
20
225.8144870137
30
0.0000000000
10
130.5678923595
20
225.6480129285
30
0.0000000000
10
130.4921045936
20
225.4882089532
30
0.0000000000
10
130.3916310939
20
225.3502935095
30
0.0000000000
11
130.5993560595
21
225.8144870137
31
0.0000000000
11
130.3916310939
21
225.3502935095
31
0.0000000000
0
SPLINE
5
471
100
AcDbEntity
8
0
100
AcDbSpline
62
7
6
BYLAYER
70
0
71
3
72
8
73
4
74
2
42
0.0000001000
43
0.0000001000
44
0.0000000001
40
0.0000000000
40
0.0000000000
40
0.0000000000
40
0.0000000000
40
1.0000000000
40
1.0000000000
40
1.0000000000
40
1.0000000000
10
130.3916310939
20
225.3502935095
30
0.0000000000
10
130.2336265661
20
225.1334078172
30
0.0000000000
10
130.0145725472
20
224.9706539453
30
0.0000000000
10
129.7844903749
20
224.8407963511
30
0.0000000000
11
130.3916310939
21
225.3502935095
31
0.0000000000
11
129.7844903749
21
224.8407963511
31
0.0000000000
0
SPLINE
5
472
100
AcDbEntity
8
0
100
AcDbSpline
62
7
6
BYLAYER
70
0
71
3
72
9
73
5
74
3
42
0.0000001000
43
0.0000001000
44
0.0000000001
40
0.0000000000
40
0.0000000000
40
0.0000000000
40
0.0000000000
40
0.5402815247
40
1.0000000000
40
1.0000000000
40
1.0000000000
40
1.0000000000
10
130.8864102760
20
231.8109786820
30
0.0000000000
10
130.8852612963
20
231.7929074244
30
0.0000000000
10
130.8839187254
20
231.7594129476
30
0.0000000000
10
130.8840742361
20
231.7258723937
30
0.0000000000
10
130.8844532172
20
231.7104521304
30
0.0000000000
11
130.8864102760
21
231.8109786820
31
0.0000000000
11
130.8842478600
21
231.7567010803
31
0.0000000000
11
130.8844532172
21
231.7104521304
31
0.0000000000
0
SPLINE
5
473
100
AcDbEntity
8
0
100
AcDbSpline
62
7
6
BYLAYER
70
0
71
3
72
8
73
4
74
2
42
0.0000001000
43
0.0000001000
44
0.0000000001
40
0.0000000000
40
0.0000000000
40
0.0000000000
40
0.0000000000
40
1.0000000000
40
1.0000000000
40
1.0000000000
40
1.0000000000
10
130.8844532172
20
231.7104521304
30
0.0000000000
10
130.8852416232
20
231.6783728812
30
0.0000000000
10
130.8873607770
20
231.6462890834
30
0.0000000000
10
130.8907286029
20
231.6142789471
30
0.0000000000
11
130.8844532172
21
231.7104521304
31
0.0000000000
11
130.8907286029
21
231.6142789471
31
0.0000000000
0
SPLINE
5
474
100
AcDbEntity
8
0
100
AcDbSpline
62
7
6
BYLAYER
70
0
71
3
72
8
73
4
74
2
42
0.0000001000
43
0.0000001000
44
0.0000000001
40
0.0000000000
40
0.0000000000
40
0.0000000000
40
0.0000000000
40
1.0000000000
40
1.0000000000
40
1.0000000000
40
1.0000000000
10
130.8907286029
20
231.6142789471
30
0.0000000000
10
130.9151805319
20
231.3818709806
30
0.0000000000
10
131.0054551181
20
231.1533460192
30
0.0000000000
10
131.1301397420
20
230.9586373365
30
0.0000000000
11
130.8907286029
21
231.6142789471
31
0.0000000000
11
131.1301397420
21
230.9586373365
31
0.0000000000
0
SPLINE
5
475
100
AcDbEntity
8
0
100
AcDbSpline
62
7
6
BYLAYER
70
0
71
3
72
8
73
4
74
2
42
0.0000001000
43
0.0000001000
44
0.0000000001
40
0.0000000000
40
0.0000000000
40
0.0000000000
40
0.0000000000
40
1.0000000000
40
1.0000000000
40
1.0000000000
40
1.0000000000
10
123.6368462868
20
225.7629464710
30
0.0000000000
10
123.6343855219
20
225.7241808209
30
0.0000000000
10
123.6293833105
20
225.6855673080
30
0.0000000000
10
123.6220693381
20
225.6473022515
30
0.0000000000
11
123.6368462868
21
225.7629464710
31
0.0000000000
11
123.6220693381
21
225.6473022515
31
0.0000000000
0
SPLINE
5
476
100
AcDbEntity
8
0
100
AcDbSpline
62
7
6
BYLAYER
70
0
71
3
72
8
73
4
74
2
42
0.0000001000
43
0.0000001000
44
0.0000000001
40
0.0000000000
40
0.0000000000
40
0.0000000000
40
0.0000000000
40
1.0000000000
40
1.0000000000
40
1.0000000000
40
1.0000000000
10
123.6220693381
20
225.6473022515
30
0.0000000000
10
123.5922340416
20
225.4912106999
30
0.0000000000
10
123.5239309740
20
225.3409174725
30
0.0000000000
10
123.4327507945
20
225.2097483847
30
0.0000000000
11
123.6220693381
21
225.6473022515
31
0.0000000000
11
123.4327507945
21
225.2097483847
31
0.0000000000
0
SPLINE
5
477
100
AcDbEntity
8
0
100
AcDbSpline
62
7
6
BYLAYER
70
0
71
3
72
8
73
4
74
2
42
0.0000001000
43
0.0000001000
44
0.0000000001
40
0.0000000000
40
0.0000000000
40
0.0000000000
40
0.0000000000
40
1.0000000000
40
1.0000000000
40
1.0000000000
40
1.0000000000
10
123.4327507945
20
225.2097483847
30
0.0000000000
10
123.2850331791
20
224.9972462269
30
0.0000000000
10
123.0772722173
20
224.8349373516
30
0.0000000000
10
122.8579577321
20
224.7047634079
30
0.0000000000
11
123.4327507945
21
225.2097483847
31
0.0000000000
11
122.8579577321
21
224.7047634079
31
0.0000000000
0
SPLINE
5
478
100
AcDbEntity
8
0
100
AcDbSpline
62
7
6
BYLAYER
70
0
71
3
72
9
73
5
74
3
42
0.0000001000
43
0.0000001000
44
0.0000000001
40
0.0000000000
40
0.0000000000
40
0.0000000000
40
0.0000000000
40
0.2922959966
40
1.0000000000
40
1.0000000000
40
1.0000000000
40
1.0000000000
10
119.1474341904
20
238.9989229319
30
0.0000000000
10
119.1468060481
20
238.9888562938
30
0.0000000000
10
119.1452494717
20
238.9543777492
30
0.0000000000
10
119.1457681848
20
238.9198052177
30
0.0000000000
10
119.1471141358
20
238.8953512887
30
0.0000000000
11
119.1474341904
21
238.9989229319
31
0.0000000000
11
119.1460733924
21
238.9686923827
31
0.0000000000
11
119.1471141358
21
238.8953512887
31
0.0000000000
0
SPLINE
5
479
100
AcDbEntity
8
0
100
AcDbSpline
62
7
6
BYLAYER
70
0
71
3
72
8
73
4
74
2
42
0.0000001000
43
0.0000001000
44
0.0000000001
40
0.0000000000
40
0.0000000000
40
0.0000000000
40
0.0000000000
40
1.0000000000
40
1.0000000000
40
1.0000000000
40
1.0000000000
10
119.1471141358
20
238.8953512887
30
0.0000000000
10
119.1488588319
20
238.8636527511
30
0.0000000000
10
119.1522482777
20
238.8319763761
30
0.0000000000
10
119.1571506067
20
238.8004534200
30
0.0000000000
11
119.1471141358
21
238.8953512887
31
0.0000000000
11
119.1571506067
21
238.8004534200
31
0.0000000000
0
SPLINE
5
47A
100
AcDbEntity
8
0
100
AcDbSpline
62
7
6
BYLAYER
70
0
71
3
72
8
73
4
74
2
42
0.0000001000
43
0.0000001000
44
0.0000000001
40
0.0000000000
40
0.0000000000
40
0.0000000000
40
0.0000000000
40
1.0000000000
40
1.0000000000
40
1.0000000000
40
1.0000000000
10
119.1571506067
20
238.8004534200
30
0.0000000000
10
119.1822521569
20
238.6390454312
30
0.0000000000
10
119.2470181719
20
238.4816597467
30
0.0000000000
10
119.3337464181
20
238.3459167078
30
0.0000000000
11
119.1571506067
21
238.8004534200
31
0.0000000000
11
119.3337464181
21
238.3459167078
31
0.0000000000
0
SPLINE
5
47B
100
AcDbEntity
8
0
100
AcDbSpline
62
7
6
BYLAYER
70
0
71
3
72
8
73
4
74
2
42
0.0000001000
43
0.0000001000
44
0.0000000001
40
0.0000000000
40
0.0000000000
40
0.0000000000
40
0.0000000000
40
1.0000000000
40
1.0000000000
40
1.0000000000
40
1.0000000000
10
160.5228617578
20
238.6278182785
30
0.0000000000
10
160.5211484522
20
238.5686965258
30
0.0000000000
10
160.5184714494
20
238.5095573455
30
0.0000000000
10
160.5150088406
20
238.4503985180
30
0.0000000000
11
160.5228617578
21
238.6278182785
31
0.0000000000
11
160.5150088406
21
238.4503985180
31
0.0000000000
0
SPLINE
5
47C
100
AcDbEntity
8
0
100
AcDbSpline
62
7
6
BYLAYER
70
0
71
3
72
8
73
4
74
2
42
0.0000001000
43
0.0000001000
44
0.0000000001
40
0.0000000000
40
0.0000000000
40
0.0000000000
40
0.0000000000
40
1.0000000000
40
1.0000000000
40
1.0000000000
40
1.0000000000
10
124.4874005577
20
256.2129031456
30
0.0000000000
10
124.4954123244
20
256.1379792702
30
0.0000000000
10
124.5007903961
20
256.0628368758
30
0.0000000000
10
124.5039085025
20
255.9876229818
30
0.0000000000
11
124.4874005577
21
256.2129031456
31
0.0000000000
11
124.5039085025
21
255.9876229818
31
0.0000000000
0
SPLINE
5
47D
100
AcDbEntity
8
0
100
AcDbSpline
62
7
6
BYLAYER
70
0
71
3
72
8
73
4
74
2
42
0.0000001000
43
0.0000001000
44
0.0000000001
40
0.0000000000
40
0.0000000000
40
0.0000000000
40
0.0000000000
40
1.0000000000
40
1.0000000000
40
1.0000000000
40
1.0000000000
10
124.5039085025
20
255.9876229818
30
0.0000000000
10
124.5068021863
20
255.9178225318
30
0.0000000000
10
124.5077495150
20
255.8479605040
30
0.0000000000
10
124.5070491903
20
255.7781544035
30
0.0000000000
11
124.5039085025
21
255.9876229818
31
0.0000000000
11
124.5070491903
21
255.7781544035
31
0.0000000000
0
SPLINE
5
47E
100
AcDbEntity
8
0
100
AcDbSpline
62
7
6
BYLAYER
70
0
71
3
72
8
73
4
74
2
42
0.0000001000
43
0.0000001000
44
0.0000000001
40
0.0000000000
40
0.0000000000
40
0.0000000000
40
0.0000000000
40
1.0000000000
40
1.0000000000
40
1.0000000000
40
1.0000000000
10
124.5070491903
20
255.7781544035
30
0.0000000000
10
124.5062506560
20
255.6985590736
30
0.0000000000
10
124.5033099500
20
255.6190364567
30
0.0000000000
10
124.4986698857
20
255.5397607488
30
0.0000000000
11
124.5070491903
21
255.7781544035
31
0.0000000000
11
124.4986698857
21
255.5397607488
31
0.0000000000
0
SPLINE
5
47F
100
AcDbEntity
8
0
100
AcDbSpline
62
7
6
BYLAYER
70
0
71
3
72
12
73
8
74
6
42
0.0000001000
43
0.0000001000
44
0.0000000001
40
0.0000000000
40
0.0000000000
40
0.0000000000
40
0.0000000000
40
0.1770516389
40
0.3790750206
40
0.5934972876
40
0.8053118319
40
1.0000000000
40
1.0000000000
40
1.0000000000
40
1.0000000000
10
136.9552425262
20
252.7665907798
30
0.0000000000
10
136.6048576238
20
252.5586200910
30
0.0000000000
10
135.9231720265
20
251.9975535089
30
0.0000000000
10
135.0591611419
20
250.9318858117
30
0.0000000000
10
134.3450554224
20
249.6667948596
30
0.0000000000
10
133.8484451438
20
248.3208803406
30
0.0000000000
10
133.6814267496
20
247.3926441221
30
0.0000000000
10
133.6552471586
20
246.9453646309
30
0.0000000000
11
136.9552425262
21
252.7665907798
31
0.0000000000
11
135.9964003748
21
252.0084257491
31
0.0000000000
11
135.1084900106
21
250.9327772479
31
0.0000000000
11
134.3784262866
21
249.6449372460
31
0.0000000000
11
133.8776729266
21
248.2709684955
31
0.0000000000
11
133.6552471586
21
246.9453646309
31
0.0000000000
0
SPLINE
5
480
100
AcDbEntity
8
0
100
AcDbSpline
62
7
6
BYLAYER
70
0
71
3
72
11
73
7
74
5
42
0.0000001000
43
0.0000001000
44
0.0000000001
40
0.0000000000
40
0.0000000000
40
0.0000000000
40
0.0000000000
40
0.2189429277
40
0.4696518340
40
0.7363065608
40
1.0000000000
40
1.0000000000
40
1.0000000000
40
1.0000000000
10
35.4663579128
20
172.6335720727
30
0.0000000000
10
35.0845469898
20
172.3999665171
30
0.0000000000
10
34.3427126726
20
171.7725221323
30
0.0000000000
10
33.4037821907
20
170.5876916753
30
0.0000000000
10
32.6272019715
20
169.1840480905
30
0.0000000000
10
32.2561800699
20
168.1608878699
30
0.0000000000
10
32.1182855729
20
167.6384992562
30
0.0000000000
11
35.4663579128
21
172.6335720727
31
0.0000000000
11
34.4239526014
21
171.7870784844
31
0.0000000000
11
33.4582455201
21
170.5905162773
31
0.0000000000
11
32.6637668067
21
169.1610132974
31
0.0000000000
11
32.1182855729
21
167.6384992562
31
0.0000000000
0
SPLINE
5
481
100
AcDbEntity
8
0
100
AcDbSpline
62
7
6
BYLAYER
70
0
71
3
72
8
73
4
74
2
42
0.0000001000
43
0.0000001000
44
0.0000000001
40
0.0000000000
40
0.0000000000
40
0.0000000000
40
0.0000000000
40
1.0000000000
40
1.0000000000
40
1.0000000000
40
1.0000000000
10
32.1182855729
20
167.6384992562
30
0.0000000000
10
32.0054123304
20
167.2108991857
30
0.0000000000
10
31.9237490629
20
166.7741432867
30
0.0000000000
10
31.8867775169
20
166.3342923372
30
0.0000000000
11
32.1182855729
21
167.6384992562
31
0.0000000000
11
31.8867775169
21
166.3342923372
31
0.0000000000
0
SPLINE
5
482
100
AcDbEntity
8
0
100
AcDbSpline
62
7
6
BYLAYER
70
0
71
3
72
8
73
4
74
2
42
0.0000001000
43
0.0000001000
44
0.0000000001
40
0.0000000000
40
0.0000000000
40
0.0000000000
40
0.0000000000
40
1.0000000000
40
1.0000000000
40
1.0000000000
40
1.0000000000
10
31.8867775169
20
166.3342923372
30
0.0000000000
10
31.8822342214
20
166.2802406929
30
0.0000000000
10
31.8783658172
20
166.2261423102
30
0.0000000000
10
31.8751973225
20
166.1720084361
30
0.0000000000
11
31.8867775169
21
166.3342923372
31
0.0000000000
11
31.8751973225
21
166.1720084361
31
0.0000000000
0
SPLINE
5
483
100
AcDbEntity
8
0
100
AcDbSpline
62
7
6
BYLAYER
70
0
71
3
72
8
73
4
74
2
42
0.0000001000
43
0.0000001000
44
0.0000000001
40
0.0000000000
40
0.0000000000
40
0.0000000000
40
0.0000000000
40
1.0000000000
40
1.0000000000
40
1.0000000000
40
1.0000000000
10
47.2596052724
20
183.3012055710
30
0.0000000000
10
47.2361675716
20
182.9007713983
30
0.0000000000
10
47.1654216816
20
182.5027361570
30
0.0000000000
10
47.0628195460
20
182.1140463356
30
0.0000000000
11
47.2596052724
21
183.3012055710
31
0.0000000000
11
47.0628195460
21
182.1140463356
31
0.0000000000
0
SPLINE
5
484
100
AcDbEntity
8
0
100
AcDbSpline
62
7
6
BYLAYER
70
0
71
3
72
11
73
7
74
5
42
0.0000001000
43
0.0000001000
44
0.0000000001
40
0.0000000000
40
0.0000000000
40
0.0000000000
40
0.0000000000
40
0.2636934392
40
0.5303481660
40
0.7810570723
40
1.0000000000
40
1.0000000000
40
1.0000000000
40
1.0000000000
10
47.0628195460
20
182.1140463356
30
0.0000000000
10
46.9511906674
20
181.6911603150
30
0.0000000000
10
46.6508396042
20
180.8628877555
30
0.0000000000
10
46.0221794267
20
179.7266048535
30
0.0000000000
10
45.2620928462
20
178.7674563884
30
0.0000000000
10
44.6615603037
20
178.2595252197
30
0.0000000000
10
44.3524752708
20
178.0704159604
30
0.0000000000
11
47.0628195460
21
182.1140463356
31
0.0000000000
11
46.6212394996
21
180.8815349690
31
0.0000000000
11
45.9780900649
21
179.7243182709
31
0.0000000000
11
45.1963271896
21
178.7556726748
31
0.0000000000
11
44.3524752708
21
178.0704159604
31
0.0000000000
0
SPLINE
5
485
100
AcDbEntity
8
0
100
AcDbSpline
62
7
6
BYLAYER
70
0
71
3
72
8
73
4
74
2
42
0.0000001000
43
0.0000001000
44
0.0000000001
40
0.0000000000
40
0.0000000000
40
0.0000000000
40
0.0000000000
40
1.0000000000
40
1.0000000000
40
1.0000000000
40
1.0000000000
10
124.4582775870
20
256.2097778160
30
0.0000000000
10
124.4798785177
20
256.2221052872
30
0.0000000000
10
124.5016503564
20
256.2342716698
30
0.0000000000
10
124.5235868246
20
256.2462453926
30
0.0000000000
11
124.4582775870
21
256.2097778160
31
0.0000000000
11
124.5235868246
21
256.2462453926
31
0.0000000000
0
SPLINE
5
486
100
AcDbEntity
8
0
100
AcDbSpline
62
7
6
BYLAYER
70
0
71
3
72
9
73
5
74
3
42
0.0000001000
43
0.0000001000
44
0.0000000001
40
0.0000000000
40
0.0000000000
40
0.0000000000
40
0.0000000000
40
0.6018754127
40
1.0000000000
40
1.0000000000
40
1.0000000000
40
1.0000000000
10
124.5235868246
20
256.2462453926
30
0.0000000000
10
124.8277662957
20
256.4122776215
30
0.0000000000
10
125.3857453004
20
256.6265882361
30
0.0000000000
10
125.9848946214
20
256.5062778434
30
0.0000000000
10
126.1918902472
20
256.4044668176
30
0.0000000000
11
124.5235868246
21
256.2462453926
31
0.0000000000
11
125.5143480955
21
256.5490363982
31
0.0000000000
11
126.1918902472
21
256.4044668176
31
0.0000000000
0
SPLINE
5
487
100
AcDbEntity
8
0
100
AcDbSpline
62
7
6
BYLAYER
70
0
71
3
72
8
73
4
74
2
42
0.0000001000
43
0.0000001000
44
0.0000000001
40
0.0000000000
40
0.0000000000
40
0.0000000000
40
0.0000000000
40
1.0000000000
40
1.0000000000
40
1.0000000000
40
1.0000000000
10
161.1309875999
20
239.0981751592
30
0.0000000000
10
161.1567049053
20
239.1173268018
30
0.0000000000
10
161.1827727983
20
239.1363520746
30
0.0000000000
10
161.2091871685
20
239.1551218622
30
0.0000000000
11
161.1309875999
21
239.0981751592
31
0.0000000000
11
161.2091871685
21
239.1551218622
31
0.0000000000
0
SPLINE
5
488
100
AcDbEntity
8
0
100
AcDbSpline
62
7
6
BYLAYER
70
0
71
3
72
8
73
4
74
2
42
0.0000001000
43
0.0000001000
44
0.0000000001
40
0.0000000000
40
0.0000000000
40
0.0000000000
40
0.0000000000
40
1.0000000000
40
1.0000000000
40
1.0000000000
40
1.0000000000
10
161.2091871685
20
239.1551218622
30
0.0000000000
10
161.4546752564
20
239.3295632444
30
0.0000000000
10
161.7300897875
20
239.4819374748
30
0.0000000000
10
162.0321313413
20
239.5085993299
30
0.0000000000
11
161.2091871685
21
239.1551218622
31
0.0000000000
11
162.0321313413
21
239.5085993299
31
0.0000000000
0
SPLINE
5
489
100
AcDbEntity
8
0
100
AcDbSpline
62
7
6
BYLAYER
70
0
71
3
72
8
73
4
74
2
42
0.0000001000
43
0.0000001000
44
0.0000000001
40
0.0000000000
40
0.0000000000
40
0.0000000000
40
0.0000000000
40
1.0000000000
40
1.0000000000
40
1.0000000000
40
1.0000000000
10
162.0321313413
20
239.5085993299
30
0.0000000000
10
162.1983613424
20
239.5232728082
30
0.0000000000
10
162.3726564113
20
239.4998692224
30
0.0000000000
10
162.5293773227
20
239.4400960486
30
0.0000000000
11
162.0321313413
21
239.5085993299
31
0.0000000000
11
162.5293773227
21
239.4400960486
31
0.0000000000
0
SPLINE
5
48A
100
AcDbEntity
8
0
100
AcDbSpline
62
7
6
BYLAYER
70
0
71
3
72
11
73
7
74
5
42
0.0000001000
43
0.0000001000
44
0.0000000001
40
0.0000000000
40
0.0000000000
40
0.0000000000
40
0.0000000000
40
0.2503733917
40
0.5216128738
40
0.7812706253
40
1.0000000000
40
1.0000000000
40
1.0000000000
40
1.0000000000
10
160.1126562119
20
231.5761857602
30
0.0000000000
10
160.0828817809
20
231.0674882672
30
0.0000000000
10
159.8837054902
20
230.0153072426
30
0.0000000000
10
159.3147265245
20
228.5226302386
30
0.0000000000
10
158.5322372408
20
227.2056351496
30
0.0000000000
10
157.8636502784
20
226.4770929887
30
0.0000000000
10
157.5066116647
20
226.2112068158
30
0.0000000000
11
160.1126562119
21
231.5761857602
31
0.0000000000
11
159.8500399583
21
230.0702078027
31
0.0000000000
11
159.2625613967
21
228.5218030609
31
0.0000000000
11
158.4396588126
21
227.1667021206
31
0.0000000000
11
157.5066116647
21
226.2112068158
31
0.0000000000
0
SPLINE
5
48B
100
AcDbEntity
8
0
100
AcDbSpline
62
7
6
BYLAYER
70
0
71
3
72
11
73
7
74
5
42
0.0000001000
43
0.0000001000
44
0.0000000001
40
0.0000000000
40
0.0000000000
40
0.0000000000
40
0.0000000000
40
0.2458921065
40
0.5131245209
40
0.7732505041
40
1.0000000000
40
1.0000000000
40
1.0000000000
40
1.0000000000
10
124.0963172570
20
248.6655479909
30
0.0000000000
10
124.0667044377
20
248.1596116405
30
0.0000000000
10
123.8427097671
20
247.1124728159
30
0.0000000000
10
123.1826837178
20
245.6506673385
30
0.0000000000
10
122.2662866476
20
244.3832052991
30
0.0000000000
10
121.4913299247
20
243.7181776505
30
0.0000000000
10
121.0854295577
20
243.4865336911
30
0.0000000000
11
124.0963172570
21
248.6655479909
31
0.0000000000
11
123.8028841534
21
247.1737257491
31
0.0000000000
11
123.1276466279
21
245.6656330750
31
0.0000000000
11
122.1734034726
21
244.3708634074
31
0.0000000000
11
121.0854295577
21
243.4865336911
31
0.0000000000
0
SPLINE
5
48C
100
AcDbEntity
8
0
100
AcDbSpline
62
7
6
BYLAYER
70
0
71
3
72
12
73
8
74
6
42
0.0000001000
43
0.0000001000
44
0.0000000001
40
0.0000000000
40
0.0000000000
40
0.0000000000
40
0.0000000000
40
0.1762300266
40
0.3780289049
40
0.5926627827
40
0.8049130814
40
1.0000000000
40
1.0000000000
40
1.0000000000
40
1.0000000000
10
50.5309391324
20
189.5264748099
30
0.0000000000
10
50.1854911545
20
189.3151174025
30
0.0000000000
10
49.5143077246
20
188.7474296257
30
0.0000000000
10
48.6647991935
20
187.6754401647
30
0.0000000000
10
47.9621789951
20
186.4054769213
30
0.0000000000
10
47.4730831218
20
185.0567062977
30
0.0000000000
10
47.3079889139
20
184.1278422617
30
0.0000000000
10
47.2817938365
20
183.6802981863
30
0.0000000000
11
50.5309391324
21
189.5264748099
31
0.0000000000
11
49.5878105173
21
188.7605996585
31
0.0000000000
11
48.7140755391
21
187.6779957570
31
0.0000000000
11
47.9952614650
21
186.3846359180
31
0.0000000000
11
47.5017308249
21
185.0071232141
31
0.0000000000
11
47.2817938365
21
183.6802981863
31
0.0000000000
0
SPLINE
5
48D
100
AcDbEntity
8
0
100
AcDbSpline
62
7
6
BYLAYER
70
0
71
3
72
10
73
6
74
4
42
0.0000001000
43
0.0000001000
44
0.0000000001
40
0.0000000000
40
0.0000000000
40
0.0000000000
40
0.0000000000
40
0.4356246011
40
0.8048007883
40
1.0000000000
40
1.0000000000
40
1.0000000000
40
1.0000000000
10
129.3097423282
20
234.4780514980
30
0.0000000000
10
128.9136271361
20
234.2429376309
30
0.0000000000
10
128.2230637019
20
233.7244221398
30
0.0000000000
10
127.6240459970
20
232.8154852086
30
0.0000000000
10
127.5066285288
20
232.2181580147
30
0.0000000000
10
127.4940695024
20
232.0099759322
30
0.0000000000
11
129.3097423282
21
234.4780514980
31
0.0000000000
11
128.2271272816
21
233.6192053861
31
0.0000000000
11
127.6142458853
21
232.6212605696
31
0.0000000000
11
127.4940695024
21
232.0099759322
31
0.0000000000
0
SPLINE
5
48E
100
AcDbEntity
8
0
100
AcDbSpline
62
7
6
BYLAYER
70
0
71
3
72
10
73
6
74
4
42
0.0000001000
43
0.0000001000
44
0.0000000001
40
0.0000000000
40
0.0000000000
40
0.0000000000
40
0.0000000000
40
0.3349089500
40
0.6682430730
40
1.0000000000
40
1.0000000000
40
1.0000000000
40
1.0000000000
10
124.7267668745
20
221.9862344376
30
0.0000000000
10
124.6982301153
20
221.9701283880
30
0.0000000000
10
124.6414055816
20
221.9377880945
30
0.0000000000
10
124.5567228251
20
221.8887775714
30
0.0000000000
10
124.5006407647
20
221.8557700764
30
0.0000000000
10
124.4727276374
20
221.8392022612
30
0.0000000000
11
124.7267668745
21
221.9862344376
31
0.0000000000
11
124.6413309104
21
221.9376087325
31
0.0000000000
11
124.5566494691
21
221.8885970256
31
0.0000000000
11
124.4727276374
21
221.8392022612
31
0.0000000000
0
SPLINE
5
48F
100
AcDbEntity
8
0
100
AcDbSpline
62
7
6
BYLAYER
70
0
71
3
72
9
73
5
74
3
42
0.0000001000
43
0.0000001000
44
0.0000000001
40
0.0000000000
40
0.0000000000
40
0.0000000000
40
0.0000000000
40
0.5624960075
40
1.0000000000
40
1.0000000000
40
1.0000000000
40
1.0000000000
10
117.4140209829
20
241.3912913899
30
0.0000000000
10
116.9519515575
20
241.1275922166
30
0.0000000000
10
116.1707208600
20
240.5407593104
30
0.0000000000
10
115.7792351395
20
239.6125848454
30
0.0000000000
10
115.7533044253
20
239.1970179691
30
0.0000000000
11
117.4140209829
21
241.3912913899
31
0.0000000000
11
116.1963892570
21
240.3594088135
31
0.0000000000
11
115.7533044253
21
239.1970179691
31
0.0000000000
0
SPLINE
5
490
100
AcDbEntity
8
0
100
AcDbSpline
62
7
6
BYLAYER
70
0
71
3
72
10
73
6
74
4
42
0.0000001000
43
0.0000001000
44
0.0000000001
40
0.0000000000
40
0.0000000000
40
0.0000000000
40
0.0000000000
40
0.3216634566
40
0.6551108910
40
1.0000000000
40
1.0000000000
40
1.0000000000
40
1.0000000000
10
100.9823461714
20
211.7205110216
30
0.0000000000
10
100.9053170369
20
211.6747904382
30
0.0000000000
10
100.7456241597
20
211.5863428372
30
0.0000000000
10
100.4949332051
20
211.4648211801
30
0.0000000000
10
100.3209044857
20
211.3911180504
30
0.0000000000
10
100.2316125791
20
211.3557433413
30
0.0000000000
11
100.9823461714
21
211.7205110216
31
0.0000000000
11
100.7474027453
21
211.5900644034
31
0.0000000000
11
100.4968408068
21
211.4683209541
31
0.0000000000
11
100.2316125791
21
211.3557433413
31
0.0000000000
0
SPLINE
5
491
100
AcDbEntity
8
0
100
AcDbSpline
62
7
6
BYLAYER
70
0
71
3
72
10
73
6
74
4
42
0.0000001000
43
0.0000001000
44
0.0000000001
40
0.0000000000
40
0.0000000000
40
0.0000000000
40
0.0000000000
40
0.3458464046
40
0.6793059252
40
1.0000000000
40
1.0000000000
40
1.0000000000
40
1.0000000000
10
61.8654697614
20
196.1562567117
30
0.0000000000
10
61.5575425940
20
196.0342654319
30
0.0000000000
10
60.9585956894
20
195.7793823182
30
0.0000000000
10
60.0988566503
20
195.3564258744
30
0.0000000000
10
59.5536459066
20
195.0468889795
30
0.0000000000
10
59.2916675383
20
194.8866012595
30
0.0000000000
11
61.8654697614
21
196.1562567117
31
0.0000000000
11
60.9515416722
21
195.7663277917
31
0.0000000000
11
60.0923487277
21
195.3424883076
31
0.0000000000
11
59.2916675383
21
194.8866012595
31
0.0000000000
0
SPLINE
5
492
100
AcDbEntity
8
0
100
AcDbSpline
62
7
6
BYLAYER
70
0
71
3
72
9
73
5
74
3
42
0.0000001000
43
0.0000001000
44
0.0000000001
40
0.0000000000
40
0.0000000000
40
0.0000000000
40
0.0000000000
40
0.7310227437
40
1.0000000000
40
1.0000000000
40
1.0000000000
40
1.0000000000
10
133.6278673749
20
227.0581623445
30
0.0000000000
10
133.8110143142
20
226.7721583593
30
0.0000000000
10
133.9984323170
20
226.3264790086
30
0.0000000000
10
134.0137592505
20
225.8554428603
30
0.0000000000
10
134.0060455413
20
225.7293780011
30
0.0000000000
11
133.6278673749
21
227.0581623445
31
0.0000000000
11
133.9930634812
21
226.1070043489
31
0.0000000000
11
134.0060455413
21
225.7293780011
31
0.0000000000
0
SPLINE
5
493
100
AcDbEntity
8
0
100
AcDbSpline
62
7
6
BYLAYER
70
0
71
3
72
10
73
6
74
4
42
0.0000001000
43
0.0000001000
44
0.0000000001
40
0.0000000000
40
0.0000000000
40
0.0000000000
40
0.0000000000
40
0.2900860976
40
0.6334389830
40
1.0000000000
40
1.0000000000
40
1.0000000000
40
1.0000000000
10
154.5268527646
20
223.9921843914
30
0.0000000000
10
154.2626739653
20
223.7954507967
30
0.0000000000
10
153.5923774476
20
223.4937596873
30
0.0000000000
10
152.4668350493
20
223.3008692165
30
0.0000000000
10
151.6542189612
20
223.3275085446
30
0.0000000000
10
151.2417492292
20
223.3832589002
30
0.0000000000
11
154.5268527646
21
223.9921843914
31
0.0000000000
11
153.6397956516
21
223.5567758641
31
0.0000000000
11
152.4897806252
21
223.3436095339
31
0.0000000000
11
151.2417492292
21
223.3832589002
31
0.0000000000
0
SPLINE
5
494
100
AcDbEntity
8
0
100
AcDbSpline
62
7
6
BYLAYER
70
0
71
3
72
10
73
6
74
4
42
0.0000001000
43
0.0000001000
44
0.0000000001
40
0.0000000000
40
0.0000000000
40
0.0000000000
40
0.0000000000
40
0.3783475077
40
0.7378773825
40
1.0000000000
40
1.0000000000
40
1.0000000000
40
1.0000000000
10
140.5807494322
20
224.8242240992
30
0.0000000000
10
139.8173802999
20
224.9274028230
30
0.0000000000
10
138.3057816098
20
224.9902449696
30
0.0000000000
10
136.2805213958
20
224.6990837659
30
0.0000000000
10
135.0751250343
20
224.2638797909
30
0.0000000000
10
134.6016122774
20
224.0170138493
30
0.0000000000
11
140.5807494322
21
224.8242240992
31
0.0000000000
11
138.2717556661
21
224.9188407969
31
0.0000000000
11
136.1011785779
21
224.5856958980
31
0.0000000000
11
134.6016122774
21
224.0170138493
31
0.0000000000
0
SPLINE
5
495
100
AcDbEntity
8
0
100
AcDbSpline
62
7
6
BYLAYER
70
0
71
3
72
8
73
4
74
2
42
0.0000001000
43
0.0000001000
44
0.0000000001
40
0.0000000000
40
0.0000000000
40
0.0000000000
40
0.0000000000
40
1.0000000000
40
1.0000000000
40
1.0000000000
40
1.0000000000
10
134.6016122774
20
224.0170138493
30
0.0000000000
10
134.5088239176
20
223.9686386250
30
0.0000000000
10
134.4173698629
20
223.9178304118
30
0.0000000000
10
134.3274398571
20
223.8644525262
30
0.0000000000
11
134.6016122774
21
224.0170138493
31
0.0000000000
11
134.3274398571
21
223.8644525262
31
0.0000000000
0
SPLINE
5
496
100
AcDbEntity
8
0
100
AcDbSpline
62
7
6
BYLAYER
70
0
71
3
72
12
73
8
74
6
42
0.0000001000
43
0.0000001000
44
0.0000000001
40
0.0000000000
40
0.0000000000
40
0.0000000000
40
0.0000000000
40
0.1946881681
40
0.4065027124
40
0.6209249794
40
0.8229483611
40
1.0000000000
40
1.0000000000
40
1.0000000000
40
1.0000000000
10
133.2652215099
20
240.2817588816
30
0.0000000000
10
133.2417976653
20
239.8815614421
30
0.0000000000
10
133.0923601547
20
239.0510342993
30
0.0000000000
10
132.6480246423
20
237.8467949929
30
0.0000000000
10
132.0090879459
20
236.7148715094
30
0.0000000000
10
131.2360255755
20
235.7613793592
30
0.0000000000
10
130.6260963568
20
235.2593724174
30
0.0000000000
10
130.3125940757
20
235.0732933800
30
0.0000000000
11
133.2652215099
21
240.2817588816
31
0.0000000000
11
133.0662089806
21
239.0956922659
31
0.0000000000
11
132.6181665006
21
237.8663518050
31
0.0000000000
11
131.9649515897
21
236.7140739085
31
0.0000000000
11
131.1705054744
21
235.7516515654
31
0.0000000000
11
130.3125940757
21
235.0732933800
31
0.0000000000
0
SPLINE
5
497
100
AcDbEntity
8
0
100
AcDbSpline
62
7
6
BYLAYER
70
0
71
3
72
8
73
4
74
2
42
0.0000001000
43
0.0000001000
44
0.0000000001
40
0.0000000000
40
0.0000000000
40
0.0000000000
40
0.0000000000
40
1.0000000000
40
1.0000000000
40
1.0000000000
40
1.0000000000
10
139.5468176607
20
251.4783785581
30
0.0000000000
10
139.5067959015
20
251.4546236737
30
0.0000000000
10
139.4671915759
20
251.4301631918
30
0.0000000000
10
139.4279992100
20
251.4050388298
30
0.0000000000
11
139.5468176607
21
251.4783785581
31
0.0000000000
11
139.4279992100
21
251.4050388298
31
0.0000000000
0
SPLINE
5
498
100
AcDbEntity
8
0
100
AcDbSpline
62
7
6
BYLAYER
70
0
71
3
72
12
73
8
74
6
42
0.0000001000
43
0.0000001000
44
0.0000000001
40
0.0000000000
40
0.0000000000
40
0.0000000000
40
0.0000000000
40
0.1629733650
40
0.3729125766
40
0.5957364955
40
0.8158505142
40
1.0000000000
40
1.0000000000
40
1.0000000000
40
1.0000000000
10
139.4279992100
20
251.4050388298
30
0.0000000000
10
139.1240678965
20
251.2102029181
30
0.0000000000
10
138.4853062519
20
250.6730289833
30
0.0000000000
10
137.6507362765
20
249.6436735900
30
0.0000000000
10
136.9366305570
20
248.3785826379
30
0.0000000000
10
136.4540023079
20
247.0705622530
30
0.0000000000
10
136.2876599160
20
246.1841844467
30
0.0000000000
10
136.2551636844
20
245.7775717943
30
0.0000000000
11
139.4279992100
21
251.4050388298
31
0.0000000000
11
138.5879755093
21
250.7202135274
31
0.0000000000
11
137.7000651452
21
249.6445650262
31
0.0000000000
11
136.9700014211
21
248.3567250243
31
0.0000000000
11
136.4692480612
21
246.9827562739
31
0.0000000000
11
136.2551636844
21
245.7775717943
31
0.0000000000
0
SPLINE
5
499
100
AcDbEntity
8
0
100
AcDbSpline
62
7
6
BYLAYER
70
0
71
3
72
8
73
4
74
2
42
0.0000001000
43
0.0000001000
44
0.0000000001
40
0.0000000000
40
0.0000000000
40
0.0000000000
40
0.0000000000
40
1.0000000000
40
1.0000000000
40
1.0000000000
40
1.0000000000
10
136.2551636844
20
245.7775717943
30
0.0000000000
10
136.2519577986
20
245.7374577967
30
0.0000000000
10
136.2491730999
20
245.6973160494
30
0.0000000000
10
136.2468222931
20
245.6571524093
30
0.0000000000
11
136.2551636844
21
245.7775717943
31
0.0000000000
11
136.2468222931
21
245.6571524093
31
0.0000000000
0
SPLINE
5
49A
100
AcDbEntity
8
0
100
AcDbSpline
62
7
6
BYLAYER
70
0
71
3
72
8
73
4
74
2
42
0.0000001000
43
0.0000001000
44
0.0000000001
40
0.0000000000
40
0.0000000000
40
0.0000000000
40
0.0000000000
40
1.0000000000
40
1.0000000000
40
1.0000000000
40
1.0000000000
10
127.0309126596
20
225.5649834657
30
0.0000000000
10
127.0055363805
20
225.1652183570
30
0.0000000000
10
126.8470424242
20
224.7734219989
30
0.0000000000
10
126.6165369632
20
224.4418237148
30
0.0000000000
11
127.0309126596
21
225.5649834657
31
0.0000000000
11
126.6165369632
21
224.4418237148
31
0.0000000000
0
SPLINE
5
49B
100
AcDbEntity
8
0
100
AcDbSpline
62
7
6
BYLAYER
70
0
71
3
72
8
73
4
74
2
42
0.0000001000
43
0.0000001000
44
0.0000000001
40
0.0000000000
40
0.0000000000
40
0.0000000000
40
0.0000000000
40
1.0000000000
40
1.0000000000
40
1.0000000000
40
1.0000000000
10
126.6165369632
20
224.4418237148
30
0.0000000000
10
126.3166254408
20
224.0103799400
30
0.0000000000
10
125.8948077305
20
223.6808437386
30
0.0000000000
10
125.4495328666
20
223.4165511863
30
0.0000000000
11
126.6165369632
21
224.4418237148
31
0.0000000000
11
125.4495328666
21
223.4165511863
31
0.0000000000
0
SPLINE
5
49C
100
AcDbEntity
8
0
100
AcDbSpline
62
7
6
BYLAYER
70
0
71
3
72
8
73
4
74
2
42
0.0000001000
43
0.0000001000
44
0.0000000001
40
0.0000000000
40
0.0000000000
40
0.0000000000
40
0.0000000000
40
1.0000000000
40
1.0000000000
40
1.0000000000
40
1.0000000000
10
127.4940695024
20
232.0099759322
30
0.0000000000
10
127.4848367426
20
231.8569310132
30
0.0000000000
10
127.4907644688
20
231.7030289979
30
0.0000000000
10
127.5125107573
20
231.5516485413
30
0.0000000000
11
127.4940695024
21
232.0099759322
31
0.0000000000
11
127.5125107573
21
231.5516485413
31
0.0000000000
0
SPLINE
5
49D
100
AcDbEntity
8
0
100
AcDbSpline
62
7
6
BYLAYER
70
0
71
3
72
8
73
4
74
2
42
0.0000001000
43
0.0000001000
44
0.0000000001
40
0.0000000000
40
0.0000000000
40
0.0000000000
40
0.0000000000
40
1.0000000000
40
1.0000000000
40
1.0000000000
40
1.0000000000
10
127.5125107573
20
231.5516485413
30
0.0000000000
10
127.5673136267
20
231.1701543211
30
0.0000000000
10
127.7225788417
20
230.8046743060
30
0.0000000000
10
127.9287961770
20
230.4826433732
30
0.0000000000
11
127.5125107573
21
231.5516485413
31
0.0000000000
11
127.9287961770
21
230.4826433732
31
0.0000000000
0
SPLINE
5
49E
100
AcDbEntity
8
0
100
AcDbSpline
62
7
6
BYLAYER
70
0
71
3
72
8
73
4
74
2
42
0.0000001000
43
0.0000001000
44
0.0000000001
40
0.0000000000
40
0.0000000000
40
0.0000000000
40
0.0000000000
40
1.0000000000
40
1.0000000000
40
1.0000000000
40
1.0000000000
10
45.1830402292
20
167.9274695769
30
0.0000000000
10
45.1427734628
20
167.9028329314
30
0.0000000000
10
45.1029068964
20
167.8775412090
30
0.0000000000
10
45.0634347623
20
167.8516307899
30
0.0000000000
11
45.1830402292
21
167.9274695769
31
0.0000000000
11
45.0634347623
21
167.8516307899
31
0.0000000000
0
SPLINE
5
49F
100
AcDbEntity
8
0
100
AcDbSpline
62
7
6
BYLAYER
70
0
71
3
72
12
73
8
74
6
42
0.0000001000
43
0.0000001000
44
0.0000000001
40
0.0000000000
40
0.0000000000
40
0.0000000000
40
0.0000000000
40
0.1632775199
40
0.3722873564
40
0.5945908304
40
0.8144255520
40
1.0000000000
40
1.0000000000
40
1.0000000000
40
1.0000000000
10
45.0634347623
20
167.8516307899
30
0.0000000000
10
44.7286307055
20
167.6318576871
30
0.0000000000
10
44.0299504949
20
167.0292638149
30
0.0000000000
10
43.1204645072
20
165.8815891795
30
0.0000000000
10
42.3438842880
20
164.4779455947
30
0.0000000000
10
41.8171369021
20
163.0253440928
30
0.0000000000
10
41.6353525916
20
162.0407058336
30
0.0000000000
10
41.6001217215
20
161.5869014779
30
0.0000000000
11
45.0634347623
21
167.8516307899
31
0.0000000000
11
44.1406349178
21
167.0809759885
31
0.0000000000
11
43.1749278366
21
165.8844137815
31
0.0000000000
11
42.3804491231
21
164.4549108016
31
0.0000000000
11
41.8349678893
21
162.9323967604
31
0.0000000000
11
41.6001217215
21
161.5869014779
31
0.0000000000
0
SPLINE
5
4A0
100
AcDbEntity
8
0
100
AcDbSpline
62
7
6
BYLAYER
70
0
71
3
72
8
73
4
74
2
42
0.0000001000
43
0.0000001000
44
0.0000000001
40
0.0000000000
40
0.0000000000
40
0.0000000000
40
0.0000000000
40
1.0000000000
40
1.0000000000
40
1.0000000000
40
1.0000000000
10
41.6001217215
20
161.5869014779
30
0.0000000000
10
41.5969923513
20
161.5465924593
30
0.0000000000
10
41.5942415362
20
161.5062590605
30
0.0000000000
10
41.5918796390
20
161.4659059403
30
0.0000000000
11
41.6001217215
21
161.5869014779
31
0.0000000000
11
41.5918796390
21
161.4659059403
31
0.0000000000
0
SPLINE
5
4A1
100
AcDbEntity
8
0
100
AcDbSpline
62
7
6
BYLAYER
70
0
71
3
72
8
73
4
74
2
42
0.0000001000
43
0.0000001000
44
0.0000000001
40
0.0000000000
40
0.0000000000
40
0.0000000000
40
0.0000000000
40
1.0000000000
40
1.0000000000
40
1.0000000000
40
1.0000000000
10
126.1918902472
20
256.4044668176
30
0.0000000000
10
126.2574008763
20
256.3722453428
30
0.0000000000
10
126.3197523639
20
256.3346239062
30
0.0000000000
10
126.3777380359
20
256.2915748026
30
0.0000000000
11
126.1918902472
21
256.4044668176
31
0.0000000000
11
126.3777380359
21
256.2915748026
31
0.0000000000
0
SPLINE
5
4A2
100
AcDbEntity
8
0
100
AcDbSpline
62
7
6
BYLAYER
70
0
71
3
72
9
73
5
74
3
42
0.0000001000
43
0.0000001000
44
0.0000000001
40
0.0000000000
40
0.0000000000
40
0.0000000000
40
0.0000000000
40
0.4376870104
40
1.0000000000
40
1.0000000000
40
1.0000000000
40
1.0000000000
10
126.3777380359
20
256.2915748026
30
0.0000000000
10
126.6393657712
20
256.0973399318
30
0.0000000000
10
127.0340548690
20
255.4011140038
30
0.0000000000
10
127.0745013089
20
254.6459403098
30
0.0000000000
10
127.0500479648
20
254.2281538264
30
0.0000000000
11
126.3777380359
21
256.2915748026
31
0.0000000000
11
126.9170041164
21
255.4765892231
31
0.0000000000
11
127.0500479648
21
254.2281538264
31
0.0000000000
0
SPLINE
5
4A3
100
AcDbEntity
8
0
100
AcDbSpline
62
7
6
BYLAYER
70
0
71
3
72
8
73
4
74
2
42
0.0000001000
43
0.0000001000
44
0.0000000001
40
0.0000000000
40
0.0000000000
40
0.0000000000
40
0.0000000000
40
1.0000000000
40
1.0000000000
40
1.0000000000
40
1.0000000000
10
130.4265238099
20
226.5821683812
30
0.0000000000
10
130.4617035424
20
226.5272313797
30
0.0000000000
10
130.4932859125
20
226.4687324397
30
0.0000000000
10
130.5200985340
20
226.4078457203
30
0.0000000000
11
130.4265238099
21
226.5821683812
31
0.0000000000
11
130.5200985340
21
226.4078457203
31
0.0000000000
0
SPLINE
5
4A4
100
AcDbEntity
8
0
100
AcDbSpline
62
7
6
BYLAYER
70
0
71
3
72
9
73
5
74
3
42
0.0000001000
43
0.0000001000
44
0.0000000001
40
0.0000000000
40
0.0000000000
40
0.0000000000
40
0.0000000000
40
0.9425079855
40
1.0000000000
40
1.0000000000
40
1.0000000000
40
1.0000000000
10
130.5200985340
20
226.4078457203
30
0.0000000000
10
130.5828765378
20
226.2652879811
30
0.0000000000
10
130.6217413517
20
226.1001461780
30
0.0000000000
10
130.6142316295
20
225.9372343195
30
0.0000000000
10
130.6136499469
20
225.9278781550
30
0.0000000000
11
130.5200985340
21
226.4078457203
31
0.0000000000
11
130.6149418444
21
225.9559739520
31
0.0000000000
11
130.6136499469
21
225.9278781550
31
0.0000000000
0
SPLINE
5
4A5
100
AcDbEntity
8
0
100
AcDbSpline
62
7
6
BYLAYER
70
0
71
3
72
8
73
4
74
2
42
0.0000001000
43
0.0000001000
44
0.0000000001
40
0.0000000000
40
0.0000000000
40
0.0000000000
40
0.0000000000
40
1.0000000000
40
1.0000000000
40
1.0000000000
40
1.0000000000
10
134.0060455413
20
225.7293780011
30
0.0000000000
10
133.9940859619
20
225.5339230430
30
0.0000000000
10
133.9536738146
20
225.3399900792
30
0.0000000000
10
133.8870984781
20
225.1567761399
30
0.0000000000
11
134.0060455413
21
225.7293780011
31
0.0000000000
11
133.8870984781
21
225.1567761399
31
0.0000000000
0
SPLINE
5
4A6
100
AcDbEntity
8
0
100
AcDbSpline
62
7
6
BYLAYER
70
0
71
3
72
8
73
4
74
2
42
0.0000001000
43
0.0000001000
44
0.0000000001
40
0.0000000000
40
0.0000000000
40
0.0000000000
40
0.0000000000
40
1.0000000000
40
1.0000000000
40
1.0000000000
40
1.0000000000
10
133.8870984781
20
225.1567761399
30
0.0000000000
10
133.7668138339
20
224.8257553041
30
0.0000000000
10
133.5611239893
20
224.5297248673
30
0.0000000000
10
133.3174534322
20
224.2745632663
30
0.0000000000
11
133.8870984781
21
225.1567761399
31
0.0000000000
11
133.3174534322
21
224.2745632663
31
0.0000000000
0
SPLINE
5
4A7
100
AcDbEntity
8
0
100
AcDbSpline
62
7
6
BYLAYER
70
0
71
3
72
8
73
4
74
2
42
0.0000001000
43
0.0000001000
44
0.0000000001
40
0.0000000000
40
0.0000000000
40
0.0000000000
40
0.0000000000
40
1.0000000000
40
1.0000000000
40
1.0000000000
40
1.0000000000
10
133.3174534322
20
224.2745632663
30
0.0000000000
10
133.0284180689
20
223.9718975404
30
0.0000000000
10
132.6859436274
20
223.7267344985
30
0.0000000000
10
132.3243449463
20
223.5226494348
30
0.0000000000
11
133.3174534322
21
224.2745632663
31
0.0000000000
11
132.3243449463
21
223.5226494348
31
0.0000000000
0
SPLINE
5
4A8
100
AcDbEntity
8
0
100
AcDbSpline
62
7
6
BYLAYER
70
0
71
3
72
8
73
4
74
2
42
0.0000001000
43
0.0000001000
44
0.0000000001
40
0.0000000000
40
0.0000000000
40
0.0000000000
40
0.0000000000
40
1.0000000000
40
1.0000000000
40
1.0000000000
40
1.0000000000
10
119.9653990621
20
240.0796844676
30
0.0000000000
10
119.7378126286
20
239.9498027852
30
0.0000000000
10
119.5213724511
20
239.7872205687
30
0.0000000000
10
119.3656700030
20
239.5714437956
30
0.0000000000
11
119.9653990621
21
240.0796844676
31
0.0000000000
11
119.3656700030
21
239.5714437956
31
0.0000000000
0
SPLINE
5
4A9
100
AcDbEntity
8
0
100
AcDbSpline
62
7
6
BYLAYER
70
0
71
3
72
8
73
4
74
2
42
0.0000001000
43
0.0000001000
44
0.0000000001
40
0.0000000000
40
0.0000000000
40
0.0000000000
40
0.0000000000
40
1.0000000000
40
1.0000000000
40
1.0000000000
40
1.0000000000
10
119.3656700030
20
239.5714437956
30
0.0000000000
10
119.2445661342
20
239.4036146938
30
0.0000000000
10
119.1602060347
20
239.2036051248
30
0.0000000000
10
119.1474341904
20
238.9989229319
30
0.0000000000
11
119.3656700030
21
239.5714437956
31
0.0000000000
11
119.1474341904
21
238.9989229319
31
0.0000000000
0
SPLINE
5
4AA
100
AcDbEntity
8
0
100
AcDbSpline
62
7
6
BYLAYER
70
0
71
3
72
8
73
4
74
2
42
0.0000001000
43
0.0000001000
44
0.0000000001
40
0.0000000000
40
0.0000000000
40
0.0000000000
40
0.0000000000
40
1.0000000000
40
1.0000000000
40
1.0000000000
40
1.0000000000
10
123.4505955870
20
226.4158245465
30
0.0000000000
10
123.4857409362
20
226.3608166718
30
0.0000000000
10
123.5173013684
20
226.3022968874
30
0.0000000000
10
123.5440789536
20
226.2414122687
30
0.0000000000
11
123.4505955870
21
226.4158245465
31
0.0000000000
11
123.5440789536
21
226.2414122687
31
0.0000000000
0
SPLINE
5
4AB
100
AcDbEntity
8
0
100
AcDbSpline
62
7
6
BYLAYER
70
0
71
3
72
9
73
5
74
3
42
0.0000001000
43
0.0000001000
44
0.0000000001
40
0.0000000000
40
0.0000000000
40
0.0000000000
40
0.0000000000
40
0.9163466353
40
1.0000000000
40
1.0000000000
40
1.0000000000
40
1.0000000000
10
123.5440789536
20
226.2414122687
30
0.0000000000
10
123.6048503343
20
226.1032354194
30
0.0000000000
10
123.6442862697
20
225.9391522099
30
0.0000000000
10
123.6377086403
20
225.7765315523
30
0.0000000000
10
123.6368462868
20
225.7629464710
30
0.0000000000
11
123.5440789536
21
226.2414122687
31
0.0000000000
11
123.6384871243
21
225.8037493174
31
0.0000000000
11
123.6368462868
21
225.7629464710
31
0.0000000000
0
SPLINE
5
4AC
100
AcDbEntity
8
0
100
AcDbSpline
62
7
6
BYLAYER
70
0
71
3
72
9
73
5
74
3
42
0.0000001000
43
0.0000001000
44
0.0000000001
40
0.0000000000
40
0.0000000000
40
0.0000000000
40
0.0000000000
40
0.5091173090
40
1.0000000000
40
1.0000000000
40
1.0000000000
40
1.0000000000
10
69.8100259571
20
190.5759652160
30
0.0000000000
10
69.7141142164
20
190.5379679321
30
0.0000000000
10
69.5275569838
20
190.4585781098
30
0.0000000000
10
69.3456473011
20
190.3690859861
30
0.0000000000
10
69.2577423564
20
190.3224963688
30
0.0000000000
11
69.8100259571
21
190.5759652160
31
0.0000000000
11
69.5253598309
21
190.4545119458
31
0.0000000000
11
69.2577423564
21
190.3224963688
31
0.0000000000
0
SPLINE
5
4AD
100
AcDbEntity
8
0
100
AcDbSpline
62
7
6
BYLAYER
70
0
71
3
72
8
73
4
74
2
42
0.0000001000
43
0.0000001000
44
0.0000000001
40
0.0000000000
40
0.0000000000
40
0.0000000000
40
0.0000000000
40
1.0000000000
40
1.0000000000
40
1.0000000000
40
1.0000000000
10
69.2577423564
20
190.3224963688
30
0.0000000000
10
69.1732025752
20
190.2776902881
30
0.0000000000
10
69.0899496744
20
190.2304244469
30
0.0000000000
10
69.0083498548
20
190.1804987637
30
0.0000000000
11
69.2577423564
21
190.3224963688
31
0.0000000000
11
69.0083498548
21
190.1804987637
31
0.0000000000
0
SPLINE
5
4AE
100
AcDbEntity
8
0
100
AcDbSpline
62
7
6
BYLAYER
70
0
71
3
72
8
73
4
74
2
42
0.0000001000
43
0.0000001000
44
0.0000000001
40
0.0000000000
40
0.0000000000
40
0.0000000000
40
0.0000000000
40
1.0000000000
40
1.0000000000
40
1.0000000000
40
1.0000000000
10
110.5864187288
20
206.9465480824
30
0.0000000000
10
110.3391146657
20
206.7997609463
30
0.0000000000
10
110.0873767194
20
206.6603332033
30
0.0000000000
10
109.8321266767
20
206.5277457820
30
0.0000000000
11
110.5864187288
21
206.9465480824
31
0.0000000000
11
109.8321266767
21
206.5277457820
31
0.0000000000
0
SPLINE
5
4AF
100
AcDbEntity
8
0
100
AcDbSpline
62
7
6
BYLAYER
70
0
71
3
72
8
73
4
74
2
42
0.0000001000
43
0.0000001000
44
0.0000000001
40
0.0000000000
40
0.0000000000
40
0.0000000000
40
0.0000000000
40
1.0000000000
40
1.0000000000
40
1.0000000000
40
1.0000000000
10
109.8321266767
20
206.5277457820
30
0.0000000000
10
109.5675256779
20
206.3903010875
30
0.0000000000
10
109.2991505413
20
206.2602070785
30
0.0000000000
10
109.0276909795
20
206.1368852340
30
0.0000000000
11
109.8321266767
21
206.5277457820
31
0.0000000000
11
109.0276909795
21
206.1368852340
31
0.0000000000
0
SPLINE
5
4B0
100
AcDbEntity
8
0
100
AcDbSpline
62
7
6
BYLAYER
70
0
71
3
72
8
73
4
74
2
42
0.0000001000
43
0.0000001000
44
0.0000000001
40
0.0000000000
40
0.0000000000
40
0.0000000000
40
0.0000000000
40
1.0000000000
40
1.0000000000
40
1.0000000000
40
1.0000000000
10
109.0276909795
20
206.1368852340
30
0.0000000000
10
108.7469167503
20
206.0093318128
30
0.0000000000
10
108.4628427908
20
205.8890232800
30
0.0000000000
10
108.1761687748
20
205.7754518455
30
0.0000000000
11
109.0276909795
21
206.1368852340
31
0.0000000000
11
108.1761687748
21
205.7754518455
31
0.0000000000
0
SPLINE
5
4B1
100
AcDbEntity
8
0
100
AcDbSpline
62
7
6
BYLAYER
70
0
71
3
72
10
73
6
74
4
42
0.0000001000
43
0.0000001000
44
0.0000000001
40
0.0000000000
40
0.0000000000
40
0.0000000000
40
0.0000000000
40
0.3349089500
40
0.6682430730
40
1.0000000000
40
1.0000000000
40
1.0000000000
40
1.0000000000
10
127.2666214459
20
220.6680875214
30
0.0000000000
10
127.2438945658
20
220.6552605477
30
0.0000000000
10
127.1986390988
20
220.6295045056
30
0.0000000000
10
127.1311971430
20
220.5904721728
30
0.0000000000
10
127.0865329871
20
220.5641847666
30
0.0000000000
10
127.0643027720
20
220.5509900396
30
0.0000000000
11
127.2666214459
21
220.6680875214
31
0.0000000000
11
127.1985796301
21
220.6293616604
31
0.0000000000
11
127.1311387218
21
220.5903283848
31
0.0000000000
11
127.0643027720
21
220.5509900396
31
0.0000000000
0
SPLINE
5
4B2
100
AcDbEntity
8
0
100
AcDbSpline
62
7
6
BYLAYER
70
0
71
3
72
8
73
4
74
2
42
0.0000001000
43
0.0000001000
44
0.0000000001
40
0.0000000000
40
0.0000000000
40
0.0000000000
40
0.0000000000
40
1.0000000000
40
1.0000000000
40
1.0000000000
40
1.0000000000
10
162.5293773227
20
239.4400960486
30
0.0000000000
10
162.6141376344
20
239.4077685640
30
0.0000000000
10
162.6937574421
20
239.3648028446
30
0.0000000000
10
162.7641807106
20
239.3114690070
30
0.0000000000
11
162.5293773227
21
239.4400960486
31
0.0000000000
11
162.7641807106
21
239.3114690070
31
0.0000000000
0
SPLINE
5
4B3
100
AcDbEntity
8
0
100
AcDbSpline
62
7
6
BYLAYER
70
0
71
3
72
9
73
5
74
3
42
0.0000001000
43
0.0000001000
44
0.0000000001
40
0.0000000000
40
0.0000000000
40
0.0000000000
40
0.0000000000
40
0.4389186262
40
1.0000000000
40
1.0000000000
40
1.0000000000
40
1.0000000000
10
162.7641807106
20
239.3114690070
30
0.0000000000
10
163.0014748475
20
239.1317584194
30
0.0000000000
10
163.3042151772
20
238.4541197329
30
0.0000000000
10
163.3394035883
20
237.7759285326
30
0.0000000000
10
163.3226476390
20
237.3946392841
30
0.0000000000
11
162.7641807106
21
239.3114690070
31
0.0000000000
11
163.2156878272
21
238.5367954952
31
0.0000000000
11
163.3226476390
21
237.3946392841
31
0.0000000000
0
SPLINE
5
4B4
100
AcDbEntity
8
0
100
AcDbSpline
62
7
6
BYLAYER
70
0
71
3
72
8
73
4
74
2
42
0.0000001000
43
0.0000001000
44
0.0000000001
40
0.0000000000
40
0.0000000000
40
0.0000000000
40
0.0000000000
40
1.0000000000
40
1.0000000000
40
1.0000000000
40
1.0000000000
10
163.3226476390
20
237.3946392841
30
0.0000000000
10
163.3212983917
20
237.3639365492
30
0.0000000000
10
163.3197124805
20
237.3332288294
30
0.0000000000
10
163.3179148256
20
237.3025158142
30
0.0000000000
11
163.3226476390
21
237.3946392841
31
0.0000000000
11
163.3179148256
21
237.3025158142
31
0.0000000000
0
SPLINE
5
4B5
100
AcDbEntity
8
0
100
AcDbSpline
62
7
6
BYLAYER
70
0
71
3
72
8
73
4
74
2
42
0.0000001000
43
0.0000001000
44
0.0000000001
40
0.0000000000
40
0.0000000000
40
0.0000000000
40
0.0000000000
40
1.0000000000
40
1.0000000000
40
1.0000000000
40
1.0000000000
10
131.9013174627
20
233.1898392763
30
0.0000000000
10
131.6153685078
20
233.0201144945
30
0.0000000000
10
131.3444683816
20
232.8084647203
30
0.0000000000
10
131.1519803763
20
232.5313154055
30
0.0000000000
11
131.9013174627
21
233.1898392763
31
0.0000000000
11
131.1519803763
21
232.5313154055
31
0.0000000000
0
SPLINE
5
4B6
100
AcDbEntity
8
0
100
AcDbSpline
62
7
6
BYLAYER
70
0
71
3
72
8
73
4
74
2
42
0.0000001000
43
0.0000001000
44
0.0000000001
40
0.0000000000
40
0.0000000000
40
0.0000000000
40
0.0000000000
40
1.0000000000
40
1.0000000000
40
1.0000000000
40
1.0000000000
10
131.1519803763
20
232.5313154055
30
0.0000000000
10
131.0042522229
20
232.3186125078
30
0.0000000000
10
130.9027092235
20
232.0673300343
30
0.0000000000
10
130.8864102760
20
231.8109786820
30
0.0000000000
11
131.1519803763
21
232.5313154055
31
0.0000000000
11
130.8864102760
21
231.8109786820
31
0.0000000000
0
SPLINE
5
4B7
100
AcDbEntity
8
0
100
AcDbSpline
62
7
6
BYLAYER
70
0
71
3
72
9
73
5
74
3
42
0.0000001000
43
0.0000001000
44
0.0000000001
40
0.0000000000
40
0.0000000000
40
0.0000000000
40
0.0000000000
40
0.3166729502
40
1.0000000000
40
1.0000000000
40
1.0000000000
40
1.0000000000
10
115.7533044253
20
239.1970179691
30
0.0000000000
10
115.7520291062
20
239.1765796431
30
0.0000000000
10
115.7491120606
20
239.1119663781
30
0.0000000000
10
115.7497847580
20
239.0471905389
30
0.0000000000
10
115.7518335961
20
239.0029381556
30
0.0000000000
11
115.7533044253
21
239.1970179691
31
0.0000000000
11
115.7505415930
21
239.1356407933
31
0.0000000000
11
115.7518335961
21
239.0029381556
31
0.0000000000
0
SPLINE
5
4B8
100
AcDbEntity
8
0
100
AcDbSpline
62
7
6
BYLAYER
70
0
71
3
72
8
73
4
74
2
42
0.0000001000
43
0.0000001000
44
0.0000000001
40
0.0000000000
40
0.0000000000
40
0.0000000000
40
0.0000000000
40
1.0000000000
40
1.0000000000
40
1.0000000000
40
1.0000000000
10
115.7518335961
20
239.0029381556
30
0.0000000000
10
115.7703219492
20
238.6036124610
30
0.0000000000
10
115.9182150951
20
238.2051580460
30
0.0000000000
10
116.1315747058
20
237.8712174533
30
0.0000000000
11
115.7518335961
21
239.0029381556
31
0.0000000000
11
116.1315747058
21
237.8712174533
31
0.0000000000
0
SPLINE
5
4B9
100
AcDbEntity
8
0
100
AcDbSpline
62
7
6
BYLAYER
70
0
71
3
72
11
73
7
74
5
42
0.0000001000
43
0.0000001000
44
0.0000000001
40
0.0000000000
40
0.0000000000
40
0.0000000000
40
0.0000000000
40
0.2503733917
40
0.5216128738
40
0.7812706253
40
1.0000000000
40
1.0000000000
40
1.0000000000
40
1.0000000000
10
162.9155621969
20
230.4283030564
30
0.0000000000
10
162.8857877659
20
229.9196055634
30
0.0000000000
10
162.6866114752
20
228.8674245388
30
0.0000000000
10
162.1176325095
20
227.3747475348
30
0.0000000000
10
161.3351432258
20
226.0577524458
30
0.0000000000
10
160.6665562634
20
225.3292102849
30
0.0000000000
10
160.3095176497
20
225.0633241120
30
0.0000000000
11
162.9155621969
21
230.4283030564
31
0.0000000000
11
162.6529459433
21
228.9223250988
31
0.0000000000
11
162.0654673817
21
227.3739203571
31
0.0000000000
11
161.2425647976
21
226.0188194168
31
0.0000000000
11
160.3095176497
21
225.0633241120
31
0.0000000000
0
SPLINE
5
4BA
100
AcDbEntity
8
0
100
AcDbSpline
62
7
6
BYLAYER
70
0
71
3
72
12
73
8
74
6
42
0.0000001000
43
0.0000001000
44
0.0000000001
40
0.0000000000
40
0.0000000000
40
0.0000000000
40
0.0000000000
40
0.1946881681
40
0.4065027124
40
0.6209249794
40
0.8229483611
40
1.0000000000
40
1.0000000000
40
1.0000000000
40
1.0000000000
10
135.8567966445
20
238.9935466600
30
0.0000000000
10
135.8333727998
20
238.5933492205
30
0.0000000000
10
135.6839352892
20
237.7628220776
30
0.0000000000
10
135.2395997768
20
236.5585827712
30
0.0000000000
10
134.6006630804
20
235.4266592877
30
0.0000000000
10
133.8276007100
20
234.4731671375
30
0.0000000000
10
133.2176714914
20
233.9711601957
30
0.0000000000
10
132.9041692103
20
233.7850811584
30
0.0000000000
11
135.8567966445
21
238.9935466600
31
0.0000000000
11
135.6577841152
21
237.8074800443
31
0.0000000000
11
135.2097416352
21
236.5781395834
31
0.0000000000
11
134.5565267242
21
235.4258616869
31
0.0000000000
11
133.7620806089
21
234.4634393437
31
0.0000000000
11
132.9041692103
21
233.7850811584
31
0.0000000000
0
SPLINE
5
4BB
100
AcDbEntity
8
0
100
AcDbSpline
62
7
6
BYLAYER
70
0
71
3
72
12
73
8
74
6
42
0.0000001000
43
0.0000001000
44
0.0000000001
40
0.0000000000
40
0.0000000000
40
0.0000000000
40
0.0000000000
40
0.1950869186
40
0.4073372173
40
0.6219710951
40
0.8237699734
40
1.0000000000
40
1.0000000000
40
1.0000000000
40
1.0000000000
10
56.9762875889
20
178.5951030752
30
0.0000000000
10
56.9528498881
20
178.1946689025
30
0.0000000000
10
56.8051340178
20
177.3635800281
30
0.0000000000
10
56.3675219207
20
176.1567852597
30
0.0000000000
10
55.7388617432
20
175.0205023577
30
0.0000000000
10
54.9787751627
20
174.0613538926
30
0.0000000000
10
54.3782426201
20
173.5534227239
30
0.0000000000
10
54.0691575873
20
173.3643134646
30
0.0000000000
11
56.9762875889
21
178.5951030752
31
0.0000000000
11
56.7795018624
21
177.4079438398
31
0.0000000000
11
56.3379218160
21
176.1754324731
31
0.0000000000
11
55.6947723813
21
175.0182157751
31
0.0000000000
11
54.9130095060
21
174.0495701790
31
0.0000000000
11
54.0691575873
21
173.3643134646
31
0.0000000000
0
SPLINE
5
4BC
100
AcDbEntity
8
0
100
AcDbSpline
62
7
6
BYLAYER
70
0
71
3
72
8
73
4
74
2
42
0.0000001000
43
0.0000001000
44
0.0000000001
40
0.0000000000
40
0.0000000000
40
0.0000000000
40
0.0000000000
40
1.0000000000
40
1.0000000000
40
1.0000000000
40
1.0000000000
10
139.9990032898
20
223.0489636166
30
0.0000000000
10
139.6230155082
20
223.0997829880
30
0.0000000000
10
139.2412626274
20
223.1156537153
30
0.0000000000
10
138.8617377035
20
223.0955658707
30
0.0000000000
11
139.9990032898
21
223.0489636166
31
0.0000000000
11
138.8617377035
21
223.0955658707
31
0.0000000000
0
SPLINE
5
4BD
100
AcDbEntity
8
0
100
AcDbSpline
62
7
6
BYLAYER
70
0
71
3
72
9
73
5
74
3
42
0.0000001000
43
0.0000001000
44
0.0000000001
40
0.0000000000
40
0.0000000000
40
0.0000000000
40
0.0000000000
40
0.5342059322
40
1.0000000000
40
1.0000000000
40
1.0000000000
40
1.0000000000
10
138.8617377035
20
223.0955658707
30
0.0000000000
10
138.5010889729
20
223.0764771226
30
0.0000000000
10
137.8297432207
20
222.9799612103
30
0.0000000000
10
137.1893471294
20
222.7366957366
30
0.0000000000
10
136.9190149917
20
222.5762403045
30
0.0000000000
11
138.8617377035
21
223.0955658707
31
0.0000000000
11
137.7926474959
21
222.9314795772
31
0.0000000000
11
136.9190149917
21
222.5762403045
31
0.0000000000
0
SPLINE
5
4BE
100
AcDbEntity
8
0
100
AcDbSpline
62
7
6
BYLAYER
70
0
71
3
72
8
73
4
74
2
42
0.0000001000
43
0.0000001000
44
0.0000000001
40
0.0000000000
40
0.0000000000
40
0.0000000000
40
0.0000000000
40
1.0000000000
40
1.0000000000
40
1.0000000000
40
1.0000000000
10
157.3297587496
20
222.8443016876
30
0.0000000000
10
157.3001567802
20
222.8222571410
30
0.0000000000
10
157.2702808682
20
222.8005797020
30
0.0000000000
10
157.2401448918
20
222.7792614951
30
0.0000000000
11
157.3297587496
21
222.8443016876
31
0.0000000000
11
157.2401448918
21
222.7792614951
31
0.0000000000
0
SPLINE
5
4BF
100
AcDbEntity
8
0
100
AcDbSpline
62
7
6
BYLAYER
70
0
71
3
72
8
73
4
74
2
42
0.0000001000
43
0.0000001000
44
0.0000000001
40
0.0000000000
40
0.0000000000
40
0.0000000000
40
0.0000000000
40
1.0000000000
40
1.0000000000
40
1.0000000000
40
1.0000000000
10
157.2401448918
20
222.7792614951
30
0.0000000000
10
156.8708960534
20
222.5180546563
30
0.0000000000
10
156.4626037188
20
222.3107793639
30
0.0000000000
10
156.0407969925
20
222.1429486870
30
0.0000000000
11
157.2401448918
21
222.7792614951
31
0.0000000000
11
156.0407969925
21
222.1429486870
31
0.0000000000
0
SPLINE
5
4C0
100
AcDbEntity
8
0
100
AcDbSpline
62
7
6
BYLAYER
70
0
71
3
72
9
73
5
74
3
42
0.0000001000
43
0.0000001000
44
0.0000000001
40
0.0000000000
40
0.0000000000
40
0.0000000000
40
0.0000000000
40
0.4779813494
40
1.0000000000
40
1.0000000000
40
1.0000000000
40
1.0000000000
10
156.0407969925
20
222.1429486870
30
0.0000000000
10
155.5134208569
20
221.9331134988
30
0.0000000000
10
154.3658827697
20
221.6231109204
30
0.0000000000
10
153.1832520519
20
221.5108558550
30
0.0000000000
10
152.5649640096
20
221.4986696609
30
0.0000000000
11
156.0407969925
21
222.1429486870
31
0.0000000000
11
154.4083997712
21
221.6819412143
31
0.0000000000
11
152.5649640096
21
221.4986696609
31
0.0000000000
0
SPLINE
5
4C1
100
AcDbEntity
8
0
100
AcDbSpline
62
7
6
BYLAYER
70
0
71
3
72
8
73
4
74
2
42
0.0000001000
43
0.0000001000
44
0.0000000001
40
0.0000000000
40
0.0000000000
40
0.0000000000
40
0.0000000000
40
1.0000000000
40
1.0000000000
40
1.0000000000
40
1.0000000000
10
152.5649640096
20
221.4986696609
30
0.0000000000
10
151.9281285738
20
221.4861179057
30
0.0000000000
10
151.2903035866
20
221.5228055556
30
0.0000000000
10
150.6600030868
20
221.6079984176
30
0.0000000000
11
152.5649640096
21
221.4986696609
31
0.0000000000
11
150.6600030868
21
221.6079984176
31
0.0000000000
0
SPLINE
5
4C2
100
AcDbEntity
8
0
100
AcDbSpline
62
7
6
BYLAYER
70
0
71
3
72
11
73
7
74
5
42
0.0000001000
43
0.0000001000
44
0.0000000001
40
0.0000000000
40
0.0000000000
40
0.0000000000
40
0.0000000000
40
0.2458921065
40
0.5131245209
40
0.7732505041
40
1.0000000000
40
1.0000000000
40
1.0000000000
40
1.0000000000
10
126.6476953362
20
247.3539410686
30
0.0000000000
10
126.6180825168
20
246.8480047182
30
0.0000000000
10
126.3940878463
20
245.8008658936
30
0.0000000000
10
125.7340617970
20
244.3390604161
30
0.0000000000
10
124.8176647268
20
243.0715983768
30
0.0000000000
10
124.0427080038
20
242.4065707282
30
0.0000000000
10
123.6368076368
20
242.1749267687
30
0.0000000000
11
126.6476953362
21
247.3539410686
31
0.0000000000
11
126.3542622326
21
245.8621188268
31
0.0000000000
11
125.6790247070
21
244.3540261527
31
0.0000000000
11
124.7247815517
21
243.0592564851
31
0.0000000000
11
123.6368076368
21
242.1749267687
31
0.0000000000
0
SPLINE
5
4C3
100
AcDbEntity
8
0
100
AcDbSpline
62
7
6
BYLAYER
70
0
71
3
72
8
73
4
74
2
42
0.0000001000
43
0.0000001000
44
0.0000000001
40
0.0000000000
40
0.0000000000
40
0.0000000000
40
0.0000000000
40
1.0000000000
40
1.0000000000
40
1.0000000000
40
1.0000000000
10
60.2476214489
20
184.8203723141
30
0.0000000000
10
60.2073407206
20
184.7957271262
30
0.0000000000
10
60.1675026255
20
184.7703574038
30
0.0000000000
10
60.1281001101
20
184.7443076354
30
0.0000000000
11
60.2476214489
21
184.8203723141
31
0.0000000000
11
60.1281001101
21
184.7443076354
31
0.0000000000
0
SPLINE
5
4C4
100
AcDbEntity
8
0
100
AcDbSpline
62
7
6
BYLAYER
70
0
71
3
72
12
73
8
74
6
42
0.0000001000
43
0.0000001000
44
0.0000000001
40
0.0000000000
40
0.0000000000
40
0.0000000000
40
0.0000000000
40
0.1618543476
40
0.3716555351
40
0.5948006923
40
0.8154677500
40
1.0000000000
40
1.0000000000
40
1.0000000000
40
1.0000000000
10
60.1281001101
20
184.7443076354
30
0.0000000000
10
59.8295862121
20
184.5469542986
30
0.0000000000
10
59.2015353376
20
184.0041584252
30
0.0000000000
10
58.3814815099
20
182.9693376688
30
0.0000000000
10
57.6788613116
20
181.6993744254
30
0.0000000000
10
57.2036000725
20
180.3887553161
30
0.0000000000
10
57.0392218391
20
179.5018913137
30
0.0000000000
10
57.0068404051
20
179.0952046901
30
0.0000000000
11
60.1281001101
21
184.7443076354
31
0.0000000000
11
59.3044928338
21
184.0544971627
31
0.0000000000
11
58.4307578556
21
182.9718932611
31
0.0000000000
11
57.7119437815
21
181.6785334222
31
0.0000000000
11
57.2184131414
21
180.3010207182
31
0.0000000000
11
57.0068404051
21
179.0952046901
31
0.0000000000
0
SPLINE
5
4C5
100
AcDbEntity
8
0
100
AcDbSpline
62
7
6
BYLAYER
70
0
71
3
72
8
73
4
74
2
42
0.0000001000
43
0.0000001000
44
0.0000000001
40
0.0000000000
40
0.0000000000
40
0.0000000000
40
0.0000000000
40
1.0000000000
40
1.0000000000
40
1.0000000000
40
1.0000000000
10
57.0068404051
20
179.0952046901
30
0.0000000000
10
57.0036307610
20
179.0548939578
30
0.0000000000
10
57.0008384550
20
179.0145557266
30
0.0000000000
10
56.9984761530
20
178.9741956905
30
0.0000000000
11
57.0068404051
21
179.0952046901
31
0.0000000000
11
56.9984761530
21
178.9741956905
31
0.0000000000
0
SPLINE
5
4C6
100
AcDbEntity
8
0
100
AcDbSpline
62
7
6
BYLAYER
70
0
71
3
72
8
73
4
74
2
42
0.0000001000
43
0.0000001000
44
0.0000000001
40
0.0000000000
40
0.0000000000
40
0.0000000000
40
0.0000000000
40
1.0000000000
40
1.0000000000
40
1.0000000000
40
1.0000000000
10
127.5001837773
20
231.3410415328
30
0.0000000000
10
127.5459387404
20
231.0225316776
30
0.0000000000
10
127.6617219317
20
230.7151846756
30
0.0000000000
10
127.8187196108
20
230.4349669543
30
0.0000000000
11
127.5001837773
21
231.3410415328
31
0.0000000000
11
127.8187196108
21
230.4349669543
31
0.0000000000
0
SPLINE
5
4C7
100
AcDbEntity
8
0
100
AcDbSpline
62
7
6
BYLAYER
70
0
71
3
72
8
73
4
74
2
42
0.0000001000
43
0.0000001000
44
0.0000000001
40
0.0000000000
40
0.0000000000
40
0.0000000000
40
0.0000000000
40
1.0000000000
40
1.0000000000
40
1.0000000000
40
1.0000000000
10
127.8187196108
20
230.4349669543
30
0.0000000000
10
127.8497654292
20
230.3795547434
30
0.0000000000
10
127.8824228937
20
230.3252033925
30
0.0000000000
10
127.9164691970
20
230.2720363647
30
0.0000000000
11
127.8187196108
21
230.4349669543
31
0.0000000000
11
127.9164691970
21
230.2720363647
31
0.0000000000
0
SPLINE
5
4C8
100
AcDbEntity
8
0
100
AcDbSpline
62
7
6
BYLAYER
70
0
71
3
72
8
73
4
74
2
42
0.0000001000
43
0.0000001000
44
0.0000000001
40
0.0000000000
40
0.0000000000
40
0.0000000000
40
0.0000000000
40
1.0000000000
40
1.0000000000
40
1.0000000000
40
1.0000000000
10
133.8747714981
20
224.9461691313
30
0.0000000000
10
133.7984406698
20
224.7361082815
30
0.0000000000
10
133.6877173300
20
224.5401379987
30
0.0000000000
10
133.5547206246
20
224.3597604948
30
0.0000000000
11
133.8747714981
21
224.9461691313
31
0.0000000000
11
133.5547206246
21
224.3597604948
31
0.0000000000
0
SPLINE
5
4C9
100
AcDbEntity
8
0
100
AcDbSpline
62
7
6
BYLAYER
70
0
71
3
72
8
73
4
74
2
42
0.0000001000
43
0.0000001000
44
0.0000000001
40
0.0000000000
40
0.0000000000
40
0.0000000000
40
0.0000000000
40
1.0000000000
40
1.0000000000
40
1.0000000000
40
1.0000000000
10
133.5547206246
20
224.3597604948
30
0.0000000000
10
133.4781367222
20
224.2558931614
30
0.0000000000
10
133.3941673341
20
224.1571961398
30
0.0000000000
10
133.3051264521
20
224.0639562578
30
0.0000000000
11
133.5547206246
21
224.3597604948
31
0.0000000000
11
133.3051264521
21
224.0639562578
31
0.0000000000
0
SPLINE
5
4CA
100
AcDbEntity
8
0
100
AcDbSpline
62
7
6
BYLAYER
70
0
71
3
72
8
73
4
74
2
42
0.0000001000
43
0.0000001000
44
0.0000000001
40
0.0000000000
40
0.0000000000
40
0.0000000000
40
0.0000000000
40
1.0000000000
40
1.0000000000
40
1.0000000000
40
1.0000000000
10
133.3051264521
20
224.0639562578
30
0.0000000000
10
133.0476567688
20
223.7943447898
30
0.0000000000
10
132.7477828544
20
223.5703620487
30
0.0000000000
10
132.4297600459
20
223.3803982820
30
0.0000000000
11
133.3051264521
21
224.0639562578
31
0.0000000000
11
132.4297600459
21
223.3803982820
31
0.0000000000
0
SPLINE
5
4CB
100
AcDbEntity
8
0
100
AcDbSpline
62
7
6
BYLAYER
70
0
71
3
72
8
73
4
74
2
42
0.0000001000
43
0.0000001000
44
0.0000000001
40
0.0000000000
40
0.0000000000
40
0.0000000000
40
0.0000000000
40
1.0000000000
40
1.0000000000
40
1.0000000000
40
1.0000000000
10
132.4297600459
20
223.3803982820
30
0.0000000000
10
132.3907705770
20
223.3571088004
30
0.0000000000
10
132.3515083183
20
223.3343306464
30
0.0000000000
10
132.3120179662
20
223.3120424263
30
0.0000000000
11
132.4297600459
21
223.3803982820
31
0.0000000000
11
132.3120179662
21
223.3120424263
31
0.0000000000
0
SPLINE
5
4CC
100
AcDbEntity
8
0
100
AcDbSpline
62
7
6
BYLAYER
70
0
71
3
72
8
73
4
74
2
42
0.0000001000
43
0.0000001000
44
0.0000000001
40
0.0000000000
40
0.0000000000
40
0.0000000000
40
0.0000000000
40
1.0000000000
40
1.0000000000
40
1.0000000000
40
1.0000000000
10
116.0206124913
20
237.8283980124
30
0.0000000000
10
116.0515756895
20
237.7709447578
30
0.0000000000
10
116.0845457998
20
237.7149242939
30
0.0000000000
10
116.1192477257
20
237.6606104448
30
0.0000000000
11
116.0206124913
21
237.8283980124
31
0.0000000000
11
116.1192477257
21
237.6606104448
31
0.0000000000
0
SPLINE
5
4CD
100
AcDbEntity
8
0
100
AcDbSpline
62
7
6
BYLAYER
70
0
71
3
72
8
73
4
74
2
42
0.0000001000
43
0.0000001000
44
0.0000000001
40
0.0000000000
40
0.0000000000
40
0.0000000000
40
0.0000000000
40
1.0000000000
40
1.0000000000
40
1.0000000000
40
1.0000000000
10
127.0185856796
20
225.3543764572
30
0.0000000000
10
126.9932094004
20
224.9546113485
30
0.0000000000
10
126.8347154441
20
224.5628149904
30
0.0000000000
10
126.6042099831
20
224.2312167063
30
0.0000000000
11
127.0185856796
21
225.3543764572
31
0.0000000000
11
126.6042099831
21
224.2312167063
31
0.0000000000
0
SPLINE
5
4CE
100
AcDbEntity
8
0
100
AcDbSpline
62
7
6
BYLAYER
70
0
71
3
72
8
73
4
74
2
42
0.0000001000
43
0.0000001000
44
0.0000000001
40
0.0000000000
40
0.0000000000
40
0.0000000000
40
0.0000000000
40
1.0000000000
40
1.0000000000
40
1.0000000000
40
1.0000000000
10
126.6042099831
20
224.2312167063
30
0.0000000000
10
126.3325050748
20
223.8403501255
30
0.0000000000
10
125.9607461757
20
223.5331237570
30
0.0000000000
10
125.5621355404
20
223.2822759625
30
0.0000000000
11
126.6042099831
21
224.2312167063
31
0.0000000000
11
125.5621355404
21
223.2822759625
31
0.0000000000
0
SPLINE
5
4CF
100
AcDbEntity
8
0
100
AcDbSpline
62
7
6
BYLAYER
70
0
71
3
72
8
73
4
74
2
42
0.0000001000
43
0.0000001000
44
0.0000000001
40
0.0000000000
40
0.0000000000
40
0.0000000000
40
0.0000000000
40
1.0000000000
40
1.0000000000
40
1.0000000000
40
1.0000000000
10
125.5621355404
20
223.2822759625
30
0.0000000000
10
125.5207544096
20
223.2562345966
30
0.0000000000
10
125.4790838916
20
223.2308008353
30
0.0000000000
10
125.4372058866
20
223.2059441777
30
0.0000000000
11
125.5621355404
21
223.2822759625
31
0.0000000000
11
125.4372058866
21
223.2059441777
31
0.0000000000
0
SPLINE
5
4D0
100
AcDbEntity
8
0
100
AcDbSpline
62
7
6
BYLAYER
70
0
71
3
72
9
73
5
74
3
42
0.0000001000
43
0.0000001000
44
0.0000000001
40
0.0000000000
40
0.0000000000
40
0.0000000000
40
0.0000000000
40
0.2288569553
40
1.0000000000
40
1.0000000000
40
1.0000000000
40
1.0000000000
10
162.6239625217
20
239.6708160506
30
0.0000000000
10
162.7137087342
20
239.6365869493
30
0.0000000000
10
163.0820756279
20
239.4378028894
30
0.0000000000
10
163.2645252334
20
239.0294168936
30
0.0000000000
10
163.3506442324
20
238.7143801705
30
0.0000000000
11
162.6239625217
21
239.6708160506
31
0.0000000000
11
162.8725778736
21
239.5346227124
31
0.0000000000
11
163.3506442324
21
238.7143801705
31
0.0000000000
0
SPLINE
5
4D1
100
AcDbEntity
8
0
100
AcDbSpline
62
7
6
BYLAYER
70
0
71
3
72
8
73
4
74
2
42
0.0000001000
43
0.0000001000
44
0.0000000001
40
0.0000000000
40
0.0000000000
40
0.0000000000
40
0.0000000000
40
1.0000000000
40
1.0000000000
40
1.0000000000
40
1.0000000000
10
163.3506442324
20
238.7143801705
30
0.0000000000
10
163.4695971283
20
238.2792319338
30
0.0000000000
10
163.4844258024
20
237.8438686731
30
0.0000000000
10
163.4588845836
20
237.4074958024
30
0.0000000000
11
163.3506442324
21
238.7143801705
31
0.0000000000
11
163.4588845836
21
237.4074958024
31
0.0000000000
0
SPLINE
5
4D2
100
AcDbEntity
8
0
100
AcDbSpline
62
7
6
BYLAYER
70
0
71
3
72
9
73
5
74
3
42
0.0000001000
43
0.0000001000
44
0.0000000001
40
0.0000000000
40
0.0000000000
40
0.0000000000
40
0.0000000000
40
0.1814244042
40
1.0000000000
40
1.0000000000
40
1.0000000000
40
1.0000000000
10
126.3061944426
20
256.6265261203
30
0.0000000000
10
126.3755586381
20
256.5924092646
30
0.0000000000
10
126.7394524726
20
256.3728441934
30
0.0000000000
10
126.9629041293
20
255.9786786642
30
0.0000000000
10
127.0739620688
20
255.6440674909
30
0.0000000000
11
126.3061944426
21
256.6265261203
31
0.0000000000
11
126.5029744541
21
256.5069933985
31
0.0000000000
11
127.0739620688
21
255.6440674909
31
0.0000000000
0
SPLINE
5
4D3
100
AcDbEntity
8
0
100
AcDbSpline
62
7
6
BYLAYER
70
0
71
3
72
8
73
4
74
2
42
0.0000001000
43
0.0000001000
44
0.0000000001
40
0.0000000000
40
0.0000000000
40
0.0000000000
40
0.0000000000
40
1.0000000000
40
1.0000000000
40
1.0000000000
40
1.0000000000
10
127.0739620688
20
255.6440674909
30
0.0000000000
10
127.2166423871
20
255.2141799118
30
0.0000000000
10
127.2407238020
20
254.7645568767
30
0.0000000000
10
127.2148320259
20
254.3221947179
30
0.0000000000
11
127.0739620688
21
255.6440674909
31
0.0000000000
11
127.2148320259
21
254.3221947179
31
0.0000000000
0
SPLINE
5
4D4
100
AcDbEntity
8
0
100
AcDbSpline
62
7
6
BYLAYER
70
0
71
3
72
11
73
7
74
5
42
0.0000001000
43
0.0000001000
44
0.0000000001
40
0.0000000000
40
0.0000000000
40
0.0000000000
40
0.0000000000
40
0.2198547592
40
0.4707183052
40
0.7369782288
40
1.0000000000
40
1.0000000000
40
1.0000000000
40
1.0000000000
10
139.5344906807
20
251.2677715496
30
0.0000000000
10
139.2025470890
20
251.0707466865
30
0.0000000000
10
138.5567396810
20
250.5392099246
30
0.0000000000
10
137.7382030535
20
249.5296300009
30
0.0000000000
10
137.0616818455
20
248.3311227831
30
0.0000000000
10
136.7387235600
20
247.4558403650
30
0.0000000000
10
136.6188984285
20
247.0087609645
30
0.0000000000
11
139.5344906807
21
251.2677715496
31
0.0000000000
11
138.6261139057
21
250.5495099416
31
0.0000000000
11
137.7849356659
21
249.5304745194
31
0.0000000000
11
137.0932963484
21
248.3104155702
31
0.0000000000
11
136.6188984285
21
247.0087609645
31
0.0000000000
0
SPLINE
5
4D5
100
AcDbEntity
8
0
100
AcDbSpline
62
7
6
BYLAYER
70
0
71
3
72
8
73
4
74
2
42
0.0000001000
43
0.0000001000
44
0.0000000001
40
0.0000000000
40
0.0000000000
40
0.0000000000
40
0.0000000000
40
1.0000000000
40
1.0000000000
40
1.0000000000
40
1.0000000000
10
136.6188984285
20
247.0087609645
30
0.0000000000
10
136.5087618209
20
246.5978304039
30
0.0000000000
10
136.4329809977
20
246.1766641897
30
0.0000000000
10
136.4081792798
20
245.7529257244
30
0.0000000000
11
136.6188984285
21
247.0087609645
31
0.0000000000
11
136.4081792798
21
245.7529257244
31
0.0000000000
0
SPLINE
5
4D6
100
AcDbEntity
8
0
100
AcDbSpline
62
7
6
BYLAYER
70
0
71
3
72
8
73
4
74
2
42
0.0000001000
43
0.0000001000
44
0.0000000001
40
0.0000000000
40
0.0000000000
40
0.0000000000
40
0.0000000000
40
1.0000000000
40
1.0000000000
40
1.0000000000
40
1.0000000000
10
57.1349682560
20
178.6921895732
30
0.0000000000
10
57.1326057216
20
178.6518255664
30
0.0000000000
10
57.1297892048
20
178.6114845805
30
0.0000000000
10
57.1265328220
20
178.5711729615
30
0.0000000000
11
57.1349682560
21
178.6921895732
31
0.0000000000
11
57.1265328220
21
178.5711729615
31
0.0000000000
0
SPLINE
5
4D7
100
AcDbEntity
8
0
100
AcDbSpline
62
7
6
BYLAYER
70
0
71
3
72
12
73
8
74
6
42
0.0000001000
43
0.0000001000
44
0.0000000001
40
0.0000000000
40
0.0000000000
40
0.0000000000
40
0.0000000000
40
0.1839205486
40
0.4050762281
40
0.6287154944
40
0.8389812435
40
1.0000000000
40
1.0000000000
40
1.0000000000
40
1.0000000000
10
57.1265328220
20
178.5711729615
30
0.0000000000
10
57.0955837086
20
178.1880457444
30
0.0000000000
10
56.9399108326
20
177.3500687264
30
0.0000000000
10
56.4903928426
20
176.1104412979
30
0.0000000000
10
55.8247526547
20
174.9073182252
30
0.0000000000
10
55.0494156200
20
173.9289253082
30
0.0000000000
10
54.4566773945
20
173.4160317859
30
0.0000000000
10
54.1763022981
20
173.2299022902
30
0.0000000000
11
57.1265328220
21
178.5711729615
31
0.0000000000
11
56.9266068986
21
177.4351974416
31
0.0000000000
11
56.4590515553
21
176.1301854063
31
0.0000000000
11
55.7780698009
21
174.9048971378
31
0.0000000000
11
54.9503208742
21
173.8792723889
31
0.0000000000
11
54.1763022981
21
173.2299022902
31
0.0000000000
0
SPLINE
5
4D8
100
AcDbEntity
8
0
100
AcDbSpline
62
7
6
BYLAYER
70
0
71
3
72
8
73
4
74
2
42
0.0000001000
43
0.0000001000
44
0.0000000001
40
0.0000000000
40
0.0000000000
40
0.0000000000
40
0.0000000000
40
1.0000000000
40
1.0000000000
40
1.0000000000
40
1.0000000000
10
54.1763022981
20
173.2299022902
30
0.0000000000
10
54.1369405672
20
173.2037716559
30
0.0000000000
10
54.0971192915
20
173.1783565117
30
0.0000000000
10
54.0568306072
20
173.1537064561
30
0.0000000000
11
54.1763022981
21
173.2299022902
31
0.0000000000
11
54.0568306072
21
173.1537064561
31
0.0000000000
0
SPLINE
5
4D9
100
AcDbEntity
8
0
100
AcDbSpline
62
7
6
BYLAYER
70
0
71
3
72
9
73
5
74
3
42
0.0000001000
43
0.0000001000
44
0.0000000001
40
0.0000000000
40
0.0000000000
40
0.0000000000
40
0.0000000000
40
0.6184372816
40
1.0000000000
40
1.0000000000
40
1.0000000000
40
1.0000000000
10
121.9192264880
20
257.7319917468
30
0.0000000000
10
122.2592440638
20
257.9260369460
30
0.0000000000
10
122.8737150490
20
258.1788497268
30
0.0000000000
10
123.5356445244
20
258.0459329523
30
0.0000000000
10
123.7548163634
20
257.9381330427
30
0.0000000000
11
121.9192264880
21
257.7319917468
31
0.0000000000
11
123.0374187910
21
258.0912067162
31
0.0000000000
11
123.7548163634
21
257.9381330427
31
0.0000000000
0
SPLINE
5
4DA
100
AcDbEntity
8
0
100
AcDbSpline
62
7
6
BYLAYER
70
0
71
3
72
11
73
7
74
5
42
0.0000001000
43
0.0000001000
44
0.0000000001
40
0.0000000000
40
0.0000000000
40
0.0000000000
40
0.0000000000
40
0.2189429277
40
0.4696518340
40
0.7363065608
40
1.0000000000
40
1.0000000000
40
1.0000000000
40
1.0000000000
10
45.1707132492
20
167.7168625684
30
0.0000000000
10
44.8070837988
20
167.4943810869
30
0.0000000000
10
44.1005749252
20
166.8968150060
30
0.0000000000
10
43.2063554187
20
165.7684050471
30
0.0000000000
10
42.4667552099
20
164.4316016330
30
0.0000000000
10
42.1134010179
20
163.4571633276
30
0.0000000000
10
41.9820729255
20
162.9596503622
30
0.0000000000
11
45.1707132492
21
167.7168625684
31
0.0000000000
11
44.1779462859
21
166.9106781985
31
0.0000000000
11
43.2582252562
21
165.7710951442
31
0.0000000000
11
42.5015788624
21
164.4096637348
31
0.0000000000
11
41.9820729255
21
162.9596503622
31
0.0000000000
0
SPLINE
5
4DB
100
AcDbEntity
8
0
100
AcDbSpline
62
7
6
BYLAYER
70
0
71
3
72
8
73
4
74
2
42
0.0000001000
43
0.0000001000
44
0.0000000001
40
0.0000000000
40
0.0000000000
40
0.0000000000
40
0.0000000000
40
1.0000000000
40
1.0000000000
40
1.0000000000
40
1.0000000000
10
41.9820729255
20
162.9596503622
30
0.0000000000
10
41.8613645306
20
162.5023682195
30
0.0000000000
10
41.7781340718
20
162.0340914650
30
0.0000000000
10
41.7505603061
20
161.5629924383
30
0.0000000000
11
41.9820729255
21
162.9596503622
31
0.0000000000
11
41.7505603061
21
161.5629924383
31
0.0000000000
0
SPLINE
5
4DC
100
AcDbEntity
8
0
100
AcDbSpline
62
7
6
BYLAYER
70
0
71
3
72
9
73
5
74
3
42
0.0000001000
43
0.0000001000
44
0.0000000001
40
0.0000000000
40
0.0000000000
40
0.0000000000
40
0.0000000000
40
0.6680518911
40
1.0000000000
40
1.0000000000
40
1.0000000000
40
1.0000000000
10
158.3404085950
20
240.4566648715
30
0.0000000000
10
158.6207078343
20
240.6654033361
30
0.0000000000
10
159.0991632268
20
240.9566390246
30
0.0000000000
10
159.6551167482
20
240.8819879972
30
0.0000000000
10
159.8210565367
20
240.8186987544
30
0.0000000000
11
158.3404085950
21
240.4566648715
31
0.0000000000
11
159.2945607918
21
240.8912316405
31
0.0000000000
11
159.8210565367
21
240.8186987544
31
0.0000000000
0
SPLINE
5
4DD
100
AcDbEntity
8
0
100
AcDbSpline
62
7
6
BYLAYER
70
0
71
3
72
8
73
4
74
2
42
0.0000001000
43
0.0000001000
44
0.0000000001
40
0.0000000000
40
0.0000000000
40
0.0000000000
40
0.0000000000
40
1.0000000000
40
1.0000000000
40
1.0000000000
40
1.0000000000
10
119.9530720820
20
239.8690774591
30
0.0000000000
10
119.7254856486
20
239.7391957767
30
0.0000000000
10
119.5090454711
20
239.5766135602
30
0.0000000000
10
119.3533430230
20
239.3608367871
30
0.0000000000
11
119.9530720820
21
239.8690774591
31
0.0000000000
11
119.3533430230
21
239.3608367871
31
0.0000000000
0
SPLINE
5
4DE
100
AcDbEntity
8
0
100
AcDbSpline
62
7
6
BYLAYER
70
0
71
3
72
9
73
5
74
3
42
0.0000001000
43
0.0000001000
44
0.0000000001
40
0.0000000000
40
0.0000000000
40
0.0000000000
40
0.0000000000
40
0.5091173090
40
1.0000000000
40
1.0000000000
40
1.0000000000
40
1.0000000000
10
69.7976989770
20
190.3653582075
30
0.0000000000
10
69.7017872364
20
190.3273609236
30
0.0000000000
10
69.5152300038
20
190.2479711013
30
0.0000000000
10
69.3333203211
20
190.1584789776
30
0.0000000000
10
69.2454153764
20
190.1118893603
30
0.0000000000
11
69.7976989770
21
190.3653582075
31
0.0000000000
11
69.5130328509
21
190.2439049373
31
0.0000000000
11
69.2454153764
21
190.1118893603
31
0.0000000000
0
SPLINE
5
4DF
100
AcDbEntity
8
0
100
AcDbSpline
62
7
6
BYLAYER
70
0
71
3
72
8
73
4
74
2
42
0.0000001000
43
0.0000001000
44
0.0000000001
40
0.0000000000
40
0.0000000000
40
0.0000000000
40
0.0000000000
40
1.0000000000
40
1.0000000000
40
1.0000000000
40
1.0000000000
10
69.2454153764
20
190.1118893603
30
0.0000000000
10
69.1947285872
20
190.0850253640
30
0.0000000000
10
69.1445043979
20
190.0572771482
30
0.0000000000
10
69.0948217346
20
190.0286015898
30
0.0000000000
11
69.2454153764
21
190.1118893603
31
0.0000000000
11
69.0948217346
21
190.0286015898
31
0.0000000000
0
SPLINE
5
4E0
100
AcDbEntity
8
0
100
AcDbSpline
62
7
6
BYLAYER
70
0
71
3
72
8
73
4
74
2
42
0.0000001000
43
0.0000001000
44
0.0000000001
40
0.0000000000
40
0.0000000000
40
0.0000000000
40
0.0000000000
40
1.0000000000
40
1.0000000000
40
1.0000000000
40
1.0000000000
10
69.0948217346
20
190.0286015898
30
0.0000000000
10
69.0616393840
20
190.0094495885
30
0.0000000000
10
69.0286985927
20
189.9898839261
30
0.0000000000
10
68.9960228748
20
189.9698917552
30
0.0000000000
11
69.0948217346
21
190.0286015898
31
0.0000000000
11
68.9960228748
21
189.9698917552
31
0.0000000000
0
SPLINE
5
4E1
100
AcDbEntity
8
0
100
AcDbSpline
62
7
6
BYLAYER
70
0
71
3
72
8
73
4
74
2
42
0.0000001000
43
0.0000001000
44
0.0000000001
40
0.0000000000
40
0.0000000000
40
0.0000000000
40
0.0000000000
40
1.0000000000
40
1.0000000000
40
1.0000000000
40
1.0000000000
10
110.5740917488
20
206.7359410739
30
0.0000000000
10
110.3267876857
20
206.5891539378
30
0.0000000000
10
110.0750497394
20
206.4497261948
30
0.0000000000
10
109.8197996967
20
206.3171387734
30
0.0000000000
11
110.5740917488
21
206.7359410739
31
0.0000000000
11
109.8197996967
21
206.3171387734
31
0.0000000000
0
SPLINE
5
4E2
100
AcDbEntity
8
0
100
AcDbSpline
62
7
6
BYLAYER
70
0
71
3
72
8
73
4
74
2
42
0.0000001000
43
0.0000001000
44
0.0000000001
40
0.0000000000
40
0.0000000000
40
0.0000000000
40
0.0000000000
40
1.0000000000
40
1.0000000000
40
1.0000000000
40
1.0000000000
10
109.8197996967
20
206.3171387734
30
0.0000000000
10
109.5551986978
20
206.1796940790
30
0.0000000000
10
109.2868235613
20
206.0496000700
30
0.0000000000
10
109.0153639995
20
205.9262782255
30
0.0000000000
11
109.8197996967
21
206.3171387734
31
0.0000000000
11
109.0153639995
21
205.9262782255
31
0.0000000000
0
SPLINE
5
4E3
100
AcDbEntity
8
0
100
AcDbSpline
62
7
6
BYLAYER
70
0
71
3
72
8
73
4
74
2
42
0.0000001000
43
0.0000001000
44
0.0000000001
40
0.0000000000
40
0.0000000000
40
0.0000000000
40
0.0000000000
40
1.0000000000
40
1.0000000000
40
1.0000000000
40
1.0000000000
10
109.0153639995
20
205.9262782255
30
0.0000000000
10
108.7630041434
20
205.8116332201
30
0.0000000000
10
108.5079786288
20
205.7028409348
30
0.0000000000
10
108.2507954803
20
205.5995326695
30
0.0000000000
11
109.0153639995
21
205.9262782255
31
0.0000000000
11
108.2507954803
21
205.5995326695
31
0.0000000000
0
SPLINE
5
4E4
100
AcDbEntity
8
0
100
AcDbSpline
62
7
6
BYLAYER
70
0
71
3
72
8
73
4
74
2
42
0.0000001000
43
0.0000001000
44
0.0000000001
40
0.0000000000
40
0.0000000000
40
0.0000000000
40
0.0000000000
40
1.0000000000
40
1.0000000000
40
1.0000000000
40
1.0000000000
10
108.2507954803
20
205.5995326695
30
0.0000000000
10
108.2218380303
20
205.5879007101
30
0.0000000000
10
108.1928532267
20
205.5763382747
30
0.0000000000
10
108.1638417947
20
205.5648448370
30
0.0000000000
11
108.2507954803
21
205.5995326695
31
0.0000000000
11
108.1638417947
21
205.5648448370
31
0.0000000000
0
SPLINE
5
4E5
100
AcDbEntity
8
0
100
AcDbSpline
62
7
6
BYLAYER
70
0
71
3
72
8
73
4
74
2
42
0.0000001000
43
0.0000001000
44
0.0000000001
40
0.0000000000
40
0.0000000000
40
0.0000000000
40
0.0000000000
40
1.0000000000
40
1.0000000000
40
1.0000000000
40
1.0000000000
10
131.8889904827
20
232.9792322678
30
0.0000000000
10
131.6030415278
20
232.8095074859
30
0.0000000000
10
131.3321414015
20
232.5978577118
30
0.0000000000
10
131.1396533963
20
232.3207083970
30
0.0000000000
11
131.8889904827
21
232.9792322678
31
0.0000000000
11
131.1396533963
21
232.3207083970
31
0.0000000000
0
SPLINE
5
4E6
100
AcDbEntity
8
0
100
AcDbSpline
62
7
6
BYLAYER
70
0
71
3
72
8
73
4
74
2
42
0.0000001000
43
0.0000001000
44
0.0000000001
40
0.0000000000
40
0.0000000000
40
0.0000000000
40
0.0000000000
40
1.0000000000
40
1.0000000000
40
1.0000000000
40
1.0000000000
10
163.0565319550
20
230.5332830446
30
0.0000000000
10
163.0540569749
20
230.4909978988
30
0.0000000000
10
163.0511524030
20
230.4487365864
30
0.0000000000
10
163.0478306356
20
230.4065037992
30
0.0000000000
11
163.0565319550
21
230.5332830446
31
0.0000000000
11
163.0478306356
21
230.4065037992
31
0.0000000000
0
SPLINE
5
4E7
100
AcDbEntity
8
0
100
AcDbSpline
62
7
6
BYLAYER
70
0
71
3
72
11
73
7
74
5
42
0.0000001000
43
0.0000001000
44
0.0000000001
40
0.0000000000
40
0.0000000000
40
0.0000000000
40
0.0000000000
40
0.2413715714
40
0.5251363527
40
0.7967845823
40
1.0000000000
40
1.0000000000
40
1.0000000000
40
1.0000000000
10
163.0478306356
20
230.4065037992
30
0.0000000000
10
163.0088403048
20
229.9107826461
30
0.0000000000
10
162.7989566179
20
228.8408249962
30
0.0000000000
10
162.2116652271
20
227.3001066100
30
0.0000000000
10
161.4102076943
20
225.9511863670
30
0.0000000000
10
160.7472243780
20
225.2135142291
30
0.0000000000
10
160.4221206695
20
224.9498668052
30
0.0000000000
11
163.0478306356
21
230.4065037992
31
0.0000000000
11
162.7784676864
21
228.9387181484
31
0.0000000000
11
162.1564315624
21
227.2992307748
31
0.0000000000
11
161.2851229439
21
225.8644180144
31
0.0000000000
11
160.4221206695
21
224.9498668052
31
0.0000000000
0
SPLINE
5
4E8
100
AcDbEntity
8
0
100
AcDbSpline
62
7
6
BYLAYER
70
0
71
3
72
8
73
4
74
2
42
0.0000001000
43
0.0000001000
44
0.0000000001
40
0.0000000000
40
0.0000000000
40
0.0000000000
40
0.0000000000
40
1.0000000000
40
1.0000000000
40
1.0000000000
40
1.0000000000
10
160.4221206695
20
224.9498668052
30
0.0000000000
10
160.3811427219
20
224.9166351624
30
0.0000000000
10
160.3395072931
20
224.8842302357
30
0.0000000000
10
160.2971906696
20
224.8527171035
30
0.0000000000
11
160.4221206695
21
224.9498668052
31
0.0000000000
11
160.2971906696
21
224.8527171035
31
0.0000000000
0
SPLINE
5
4E9
100
AcDbEntity
8
0
100
AcDbSpline
62
7
6
BYLAYER
70
0
71
3
72
8
73
4
74
2
42
0.0000001000
43
0.0000001000
44
0.0000000001
40
0.0000000000
40
0.0000000000
40
0.0000000000
40
0.0000000000
40
1.0000000000
40
1.0000000000
40
1.0000000000
40
1.0000000000
10
139.9866763098
20
222.8383566081
30
0.0000000000
10
139.6106885282
20
222.8891759795
30
0.0000000000
10
139.2289356474
20
222.9050467067
30
0.0000000000
10
138.8494107235
20
222.8849588622
30
0.0000000000
11
139.9866763098
21
222.8383566081
31
0.0000000000
11
138.8494107235
21
222.8849588622
31
0.0000000000
0
SPLINE
5
4EA
100
AcDbEntity
8
0
100
AcDbSpline
62
7
6
BYLAYER
70
0
71
3
72
9
73
5
74
3
42
0.0000001000
43
0.0000001000
44
0.0000000001
40
0.0000000000
40
0.0000000000
40
0.0000000000
40
0.0000000000
40
0.5590969370
40
1.0000000000
40
1.0000000000
40
1.0000000000
40
1.0000000000
10
138.8494107235
20
222.8849588622
30
0.0000000000
10
138.4887619929
20
222.8658701141
30
0.0000000000
10
137.8473045645
20
222.7736510917
30
0.0000000000
10
137.2341023816
20
222.5474582315
30
0.0000000000
10
136.9849497718
20
222.4103630310
30
0.0000000000
11
138.8494107235
21
222.8849588622
31
0.0000000000
11
137.7803205159
21
222.7208725687
31
0.0000000000
11
136.9849497718
21
222.4103630310
31
0.0000000000
0
SPLINE
5
4EB
100
AcDbEntity
8
0
100
AcDbSpline
62
7
6
BYLAYER
70
0
71
3
72
8
73
4
74
2
42
0.0000001000
43
0.0000001000
44
0.0000000001
40
0.0000000000
40
0.0000000000
40
0.0000000000
40
0.0000000000
40
1.0000000000
40
1.0000000000
40
1.0000000000
40
1.0000000000
10
136.9849497718
20
222.4103630310
30
0.0000000000
10
136.9586194572
20
222.3958748836
30
0.0000000000
10
136.9325260204
20
222.3809694262
30
0.0000000000
10
136.9066880116
20
222.3656332960
30
0.0000000000
11
136.9849497718
21
222.4103630310
31
0.0000000000
11
136.9066880116
21
222.3656332960
31
0.0000000000
0
SPLINE
5
4EC
100
AcDbEntity
8
0
100
AcDbSpline
62
7
6
BYLAYER
70
0
71
3
72
8
73
4
74
2
42
0.0000001000
43
0.0000001000
44
0.0000000001
40
0.0000000000
40
0.0000000000
40
0.0000000000
40
0.0000000000
40
1.0000000000
40
1.0000000000
40
1.0000000000
40
1.0000000000
10
157.3174317695
20
222.6336946791
30
0.0000000000
10
156.9251240217
20
222.3415436296
30
0.0000000000
10
156.4847021891
20
222.1138697345
30
0.0000000000
10
156.0284700125
20
221.9323416785
30
0.0000000000
11
157.3174317695
21
222.6336946791
31
0.0000000000
11
156.0284700125
21
221.9323416785
31
0.0000000000
0
SPLINE
5
4ED
100
AcDbEntity
8
0
100
AcDbSpline
62
7
6
BYLAYER
70
0
71
3
72
9
73
5
74
3
42
0.0000001000
43
0.0000001000
44
0.0000000001
40
0.0000000000
40
0.0000000000
40
0.0000000000
40
0.0000000000
40
0.4779813494
40
1.0000000000
40
1.0000000000
40
1.0000000000
40
1.0000000000
10
156.0284700125
20
221.9323416785
30
0.0000000000
10
155.5010938769
20
221.7225064903
30
0.0000000000
10
154.3535557897
20
221.4125039118
30
0.0000000000
10
153.1709250718
20
221.3002488465
30
0.0000000000
10
152.5526370296
20
221.2880626524
30
0.0000000000
11
156.0284700125
21
221.9323416785
31
0.0000000000
11
154.3960727912
21
221.4713342058
31
0.0000000000
11
152.5526370296
21
221.2880626524
31
0.0000000000
0
SPLINE
5
4EE
100
AcDbEntity
8
0
100
AcDbSpline
62
7
6
BYLAYER
70
0
71
3
72
8
73
4
74
2
42
0.0000001000
43
0.0000001000
44
0.0000000001
40
0.0000000000
40
0.0000000000
40
0.0000000000
40
0.0000000000
40
1.0000000000
40
1.0000000000
40
1.0000000000
40
1.0000000000
10
152.5526370296
20
221.2880626524
30
0.0000000000
10
151.9158015938
20
221.2755108972
30
0.0000000000
10
151.2779766066
20
221.3121985470
30
0.0000000000
10
150.6476761068
20
221.3973914091
30
0.0000000000
11
152.5526370296
21
221.2880626524
31
0.0000000000
11
150.6476761068
21
221.3973914091
31
0.0000000000
0
SPLINE
5
4EF
100
AcDbEntity
8
0
100
AcDbSpline
62
7
6
BYLAYER
70
0
71
3
72
8
73
4
74
2
42
0.0000001000
43
0.0000001000
44
0.0000000001
40
0.0000000000
40
0.0000000000
40
0.0000000000
40
0.0000000000
40
1.0000000000
40
1.0000000000
40
1.0000000000
40
1.0000000000
10
126.8124793973
20
247.4479819601
30
0.0000000000
10
126.8100780883
20
247.4069554891
30
0.0000000000
10
126.8071940731
20
247.3659547390
30
0.0000000000
10
126.8038409471
20
247.3249861600
30
0.0000000000
11
126.8124793973
21
247.4479819601
31
0.0000000000
11
126.8038409471
21
247.3249861600
31
0.0000000000
0
SPLINE
5
4F0
100
AcDbEntity
8
0
100
AcDbSpline
62
7
6
BYLAYER
70
0
71
3
72
11
73
7
74
5
42
0.0000001000
43
0.0000001000
44
0.0000000001
40
0.0000000000
40
0.0000000000
40
0.0000000000
40
0.0000000000
40
0.2366220690
40
0.5151078025
40
0.7861878487
40
1.0000000000
40
1.0000000000
40
1.0000000000
40
1.0000000000
10
126.8038409471
20
247.3249861600
30
0.0000000000
10
126.7634111081
20
246.8310133427
30
0.0000000000
10
126.5269340481
20
245.7658545529
30
0.0000000000
10
125.8451027087
20
244.2557553869
30
0.0000000000
10
124.9025631791
20
242.9521359044
30
0.0000000000
10
124.1266056603
20
242.2723211541
30
0.0000000000
10
123.7458830010
20
242.0365436130
30
0.0000000000
11
126.8038409471
21
247.3249861600
31
0.0000000000
11
126.5017855229
21
245.8684054687
31
0.0000000000
11
125.7868281429
21
244.2716014609
31
0.0000000000
11
124.7764530373
21
242.9006688716
31
0.0000000000
11
123.7458830010
21
242.0365436130
31
0.0000000000
0
SPLINE
5
4F1
100
AcDbEntity
8
0
100
AcDbSpline
62
7
6
BYLAYER
70
0
71
3
72
8
73
4
74
2
42
0.0000001000
43
0.0000001000
44
0.0000000001
40
0.0000000000
40
0.0000000000
40
0.0000000000
40
0.0000000000
40
1.0000000000
40
1.0000000000
40
1.0000000000
40
1.0000000000
10
123.7458830010
20
242.0365436130
30
0.0000000000
10
123.7058436820
20
242.0117476836
30
0.0000000000
10
123.6653778235
20
241.9876594327
30
0.0000000000
10
123.6244806568
20
241.9643197602
30
0.0000000000
11
123.7458830010
21
242.0365436130
31
0.0000000000
11
123.6244806568
21
241.9643197602
31
0.0000000000
0
SPLINE
5
4F2
100
AcDbEntity
8
0
100
AcDbSpline
62
7
6
BYLAYER
70
0
71
3
72
8
73
4
74
2
42
0.0000001000
43
0.0000001000
44
0.0000000001
40
0.0000000000
40
0.0000000000
40
0.0000000000
40
0.0000000000
40
1.0000000000
40
1.0000000000
40
1.0000000000
40
1.0000000000
10
136.0181536311
20
239.0893199751
30
0.0000000000
10
136.0158025853
20
239.0491522506
30
0.0000000000
10
136.0129934493
20
239.0090076400
30
0.0000000000
10
136.0097403830
20
238.9688926709
30
0.0000000000
11
136.0181536311
21
239.0893199751
31
0.0000000000
11
136.0097403830
21
238.9688926709
31
0.0000000000
0
SPLINE
5
4F3
100
AcDbEntity
8
0
100
AcDbSpline
62
7
6
BYLAYER
70
0
71
3
72
12
73
8
74
6
42
0.0000001000
43
0.0000001000
44
0.0000000001
40
0.0000000000
40
0.0000000000
40
0.0000000000
40
0.0000000000
40
0.1835389362
40
0.4041345371
40
0.6274459672
40
0.8378444997
40
1.0000000000
40
1.0000000000
40
1.0000000000
40
1.0000000000
10
136.0097403830
20
238.9688926709
30
0.0000000000
10
135.9786761129
20
238.5858257030
30
0.0000000000
10
135.8211405096
20
237.7483018415
30
0.0000000000
10
135.3646510654
20
236.5111229164
30
0.0000000000
10
134.6881298574
20
235.3126156986
30
0.0000000000
10
133.8990398867
20
234.3393551678
30
0.0000000000
10
133.2961442027
20
233.8317347006
30
0.0000000000
10
133.0106146608
20
233.6479414715
30
0.0000000000
11
136.0097403830
21
238.9688926709
31
0.0000000000
11
135.8074344825
21
237.8334847349
31
0.0000000000
11
135.3330365625
21
236.5318301293
31
0.0000000000
11
134.6413972450
21
235.3117711800
31
0.0000000000
11
133.8002190053
21
234.2927357578
31
0.0000000000
11
133.0106146608
21
233.6479414715
31
0.0000000000
0
SPLINE
5
4F4
100
AcDbEntity
8
0
100
AcDbSpline
62
7
6
BYLAYER
70
0
71
3
72
8
73
4
74
2
42
0.0000001000
43
0.0000001000
44
0.0000000001
40
0.0000000000
40
0.0000000000
40
0.0000000000
40
0.0000000000
40
1.0000000000
40
1.0000000000
40
1.0000000000
40
1.0000000000
10
133.0106146608
20
233.6479414715
30
0.0000000000
10
132.9714605786
20
233.6227382819
30
0.0000000000
10
132.9318718027
20
233.5982336717
30
0.0000000000
10
132.8918422302
20
233.5744741499
30
0.0000000000
11
133.0106146608
21
233.6479414715
31
0.0000000000
11
132.8918422302
21
233.5744741499
31
0.0000000000
0
SPLINE
5
4F5
100
AcDbEntity
8
0
100
AcDbSpline
62
7
6
BYLAYER
70
0
71
3
72
11
73
7
74
5
42
0.0000001000
43
0.0000001000
44
0.0000000001
40
0.0000000000
40
0.0000000000
40
0.0000000000
40
0.0000000000
40
0.2189429277
40
0.4696518340
40
0.7363065608
40
1.0000000000
40
1.0000000000
40
1.0000000000
40
1.0000000000
10
60.2352944689
20
184.6097653056
30
0.0000000000
10
59.9080279635
20
184.4095319722
30
0.0000000000
10
59.2721699773
20
183.8717224995
30
0.0000000000
10
58.4673724214
20
182.8561535364
30
0.0000000000
10
57.8017322335
20
181.6530304637
30
0.0000000000
10
57.4837134607
20
180.7760359889
30
0.0000000000
10
57.3655181775
20
180.3282743200
30
0.0000000000
11
60.2352944689
21
184.6097653056
31
0.0000000000
11
59.3418042019
21
183.8841993727
31
0.0000000000
11
58.5140552752
21
182.8585746238
31
0.0000000000
11
57.8330735208
21
181.6332863553
31
0.0000000000
11
57.3655181775
21
180.3282743200
31
0.0000000000
0
SPLINE
5
4F6
100
AcDbEntity
8
0
100
AcDbSpline
62
7
6
BYLAYER
70
0
71
3
72
8
73
4
74
2
42
0.0000001000
43
0.0000001000
44
0.0000000001
40
0.0000000000
40
0.0000000000
40
0.0000000000
40
0.0000000000
40
1.0000000000
40
1.0000000000
40
1.0000000000
40
1.0000000000
10
57.3655181775
20
180.3282743200
30
0.0000000000
10
57.2568806221
20
179.9167203916
30
0.0000000000
10
57.1819732092
20
179.4952713125
30
0.0000000000
10
57.1571568201
20
179.0712821885
30
0.0000000000
11
57.3655181775
21
180.3282743200
31
0.0000000000
11
57.1571568201
21
179.0712821885
31
0.0000000000
0
SPLINE
5
4F7
100
AcDbEntity
8
0
100
AcDbSpline
62
7
6
BYLAYER
70
0
71
3
72
9
73
5
74
3
42
0.0000001000
43
0.0000001000
44
0.0000000001
40
0.0000000000
40
0.0000000000
40
0.0000000000
40
0.0000000000
40
0.6680518911
40
1.0000000000
40
1.0000000000
40
1.0000000000
40
1.0000000000
10
161.1433145799
20
239.3087821677
30
0.0000000000
10
161.4236138193
20
239.5175206323
30
0.0000000000
10
161.9020692118
20
239.8087563208
30
0.0000000000
10
162.4580227332
20
239.7341052934
30
0.0000000000
10
162.6239625217
20
239.6708160506
30
0.0000000000
11
161.1433145799
21
239.3087821677
31
0.0000000000
11
162.0974667767
21
239.7433489367
31
0.0000000000
11
162.6239625217
21
239.6708160506
31
0.0000000000
0
SPLINE
5
4F8
100
AcDbEntity
8
0
100
AcDbSpline
62
7
6
BYLAYER
70
0
71
3
72
9
73
5
74
3
42
0.0000001000
43
0.0000001000
44
0.0000000001
40
0.0000000000
40
0.0000000000
40
0.0000000000
40
0.0000000000
40
0.6184372816
40
1.0000000000
40
1.0000000000
40
1.0000000000
40
1.0000000000
10
124.4706045671
20
256.4203848245
30
0.0000000000
10
124.8106221429
20
256.6144300236
30
0.0000000000
10
125.4250931281
20
256.8672428044
30
0.0000000000
10
126.0870226035
20
256.7343260300
30
0.0000000000
10
126.3061944426
20
256.6265261203
30
0.0000000000
11
124.4706045671
21
256.4203848245
31
0.0000000000
11
125.5887968701
21
256.7795997939
31
0.0000000000
11
126.3061944426
21
256.6265261203
31
0.0000000000
0
ENDSEC
0
SECTION
2
OBJECTS
0
DICTIONARY
5
4F9
100
AcDbDictionary
3
ACAD_GROUP
350
4FA
3
ACAD_MLINESTYLE
350
4FB
0
DICTIONARY
5
4FA
102
{ACAD_REACTORS
330
4F9
102
}
100
AcDbDictionary
0
DICTIONARY
5
4FB
102
{ACAD_REACTORS
330
4F9
102
}
100
AcDbDictionary
3
STANDARD
350
4FC
0
MLINESTYLE
5
4FC
102
{ACAD_REACTORS
330
4FB
102
}
100
AcDbMlineStyle
2
STANDARD
70
0
3

62
256
51
90.0
52
90.0
71
2
49
0.5
62
256
6
BYLAYER
49
-0.5
62
256
6
BYLAYER
0
ENDSEC
0
EOF
