999
DXF file: td-1002-971.dxf
999
Pro/ENGINEER 2003060 by Parametric Technology Corporation
0
SECTION
2
HEADER
9
$ACADVER
1
AC1014
9
$HANDSEED
5
       4CA
9
$EXTMAX
10
420.0000000000
20
297.0000000000
9
$EXTMIN
10
0.0000000000
20
0.0000000000
9
$LIMMIN
10
0.0000000000
20
0.0000000000
9
$LIMMAX
10
420.0000000000
20
297.0000000000
9
$VIEWCTR
10
210.0000000000
20
148.5000000000
9
$VIEWSIZE
40
297.0000000000
9
$CLAYER
8
0
9
$LTSCALE
40
23.1000000000
9
$CELTYPE
6
BYLAYER
9
$DIMSCALE
40
1
9
$DIMASZ
40
5.0000000000
9
$DIMEXO
40
2.6250000000
9
$DIMDLI
40
15.9600000000
9
$DIMEXE
40
7.5600000000
9
$DIMCEN
40
3.7800000000
9
$DIMLFAC
40
1.0000000000
9
$DIMTXT
40
4.0000000000
9
$DIMTOL
70
1
9
$DIMLIM
70
0
9
$DIMTFAC
40
1.0000000000
9
$DIMTP
40
0.0100000000
9
$DIMTM
40
0.0100000000
0
ENDSEC
0
SECTION
2
CLASSES
0
ENDSEC
0
SECTION
2
TABLES
0
TABLE
2
VPORT
5
8
100
AcDbSymbolTable
70
2
0
VPORT
5
1F4
100
AcDbSymbolTableRecord
100
AcDbViewportTableRecord
2
*ACTIVE
70
0
10
0.0
20
0.0
11
1.0
21
1.0
12
210.0000000000
22
148.5000000000
13
0.0
23
0.0
14
1.0
24
1.0
15
0.0
25
0.0
16
0.0
26
0.0
36
1.0
17
0.0
27
0.0
37
0.0
40
297.0000000000
41
1.4141414141
42
50.0
43
0.0
44
0.0
50
0.0
51
0.0
71
0
72
100
73
1
74
1
75
0
76
0
77
0
78
0
0
ENDTAB
0
TABLE
2
LTYPE
5
5
100
AcDbSymbolTable
70
6
0
LTYPE
5
14
100
AcDbSymbolTableRecord
100
AcDbLinetypeTableRecord
2
BYBLOCK
70
0
3

72
65
73
0
40
0.0
0
LTYPE
5
15
100
AcDbSymbolTableRecord
100
AcDbLinetypeTableRecord
2
BYLAYER
70
0
3

72
65
73
0
40
0.0
0
LTYPE
5
16
100
AcDbSymbolTableRecord
100
AcDbLinetypeTableRecord
2
CONTINUOUS
70
64
3
Solid line
72
65
73
0
40
0
0
LTYPE
5
1F5
100
AcDbSymbolTableRecord
100
AcDbLinetypeTableRecord
2
CENTER
70
64
3
____ _ ____ _ ____ _ ____ _ ____ _ ____ _ ____
72
65
73
4
40
0.6
49
0.375
74
0
49
-0.075
74
0
49
0.075
74
0
49
-0.075
74
0
0
LTYPE
5
1F6
100
AcDbSymbolTableRecord
100
AcDbLinetypeTableRecord
2
HIDDEN
70
64
3
- - - - - - - - - - - - - - - - - - - -
72
65
73
2
40
0.2
49
0.1
74
0
49
-0.1
74
0
0
LTYPE
5
1F7
100
AcDbSymbolTableRecord
100
AcDbLinetypeTableRecord
2
PHANTOM
70
64
3
_____ _ _ _____ _ _ _____ _ _ _____
72
65
73
6
40
0.8
49
0.45
74
0
49
-0.05
74
0
49
0.1
74
0
49
-0.05
74
0
49
0.1
74
0
49
-0.05
74
0
0
LTYPE
5
1F8
100
AcDbSymbolTableRecord
100
AcDbLinetypeTableRecord
2
DOT
70
64
3
. . . . . . . . . . . . . . . . . . . .
72
65
73
2
40
0.2
49
0.1
74
0
49
-0.1
74
0
0
LTYPE
5
1F9
100
AcDbSymbolTableRecord
100
AcDbLinetypeTableRecord
2
DASHED
70
64
3
- - - - - - - - - - - - - - - - - - - -
72
65
73
2
40
0.2
49
0.1
74
0
49
-0.1
74
0
0
ENDTAB
0
TABLE
2
LAYER
5
2
100
AcDbSymbolTable
70
36
0
LAYER
5
10
100
AcDbSymbolTableRecord
100
AcDbLayerTableRecord
2
0
70
0
62
7
6
CONTINUOUS
0
LAYER
5
1FA
100
AcDbSymbolTableRecord
100
AcDbLayerTableRecord
2
DEFAULT_1
70
0
62
7
6
CENTER
0
LAYER
5
1FB
100
AcDbSymbolTableRecord
100
AcDbLayerTableRecord
2
DEFAULT_2
70
0
62
7
6
HIDDEN
0
LAYER
5
1FC
100
AcDbSymbolTableRecord
100
AcDbLayerTableRecord
2
DEFAULT_3
70
0
62
7
6
PHANTOM
0
LAYER
5
1FD
100
AcDbSymbolTableRecord
100
AcDbLayerTableRecord
2
AXIS
70
0
62
7
6
CONTINUOUS
0
LAYER
5
1FE
100
AcDbSymbolTableRecord
100
AcDbLayerTableRecord
2
CSYS
70
0
62
7
6
CONTINUOUS
0
LAYER
5
1FF
100
AcDbSymbolTableRecord
100
AcDbLayerTableRecord
2
CURVES
70
0
62
7
6
CONTINUOUS
0
LAYER
5
200
100
AcDbSymbolTableRecord
100
AcDbLayerTableRecord
2
DTMS
70
0
62
7
6
CONTINUOUS
0
LAYER
5
201
100
AcDbSymbolTableRecord
100
AcDbLayerTableRecord
2
GEOM
70
0
62
7
6
CONTINUOUS
0
LAYER
5
202
100
AcDbSymbolTableRecord
100
AcDbLayerTableRecord
2
PLANES
70
0
62
7
6
CONTINUOUS
0
LAYER
5
203
100
AcDbSymbolTableRecord
100
AcDbLayerTableRecord
2
POINTS
70
0
62
7
6
CONTINUOUS
0
LAYER
5
204
100
AcDbSymbolTableRecord
100
AcDbLayerTableRecord
2
SKELETON
70
0
62
7
6
CONTINUOUS
0
ENDTAB
0
TABLE
2
STYLE
5
3
100
AcDbSymbolTable
70
1
0
STYLE
5
11
100
AcDbSymbolTableRecord
100
AcDbTextStyleTableRecord
2
STANDARD
70
0
40
0.0
41
0.8000000000
50
0.0
71
0
42
0.2
3
txt
4

0
STYLE
5
205
100
AcDbSymbolTableRecord
100
AcDbTextStyleTableRecord
2
TEXTSTYLE_1
70
0
40
0.0
41
0.8000000000
50
0.0
71
0
42
0.2
3
txt
4

0
STYLE
5
206
100
AcDbSymbolTableRecord
100
AcDbTextStyleTableRecord
2
TEXTSTYLE_2
70
0
40
0.0
41
0.8000000000
50
0.0
71
0
42
0.2
3
cgtime.ttf
4

0
ENDTAB
0
TABLE
2
VIEW
5
6
100
AcDbSymbolTable
70
0
0
ENDTAB
0
TABLE
2
UCS
5
7
100
AcDbSymbolTable
70
0
0
ENDTAB
0
TABLE
2
APPID
5
9
100
AcDbSymbolTable
70
1
0
APPID
5
207
100
AcDbSymbolTableRecord
100
AcDbRegAppTableRecord
2
ACAD
70
0
0
ENDTAB
0
TABLE
2
DIMSTYLE
5
A
100
AcDbSymbolTable
70
1
0
DIMSTYLE
105
208
100
AcDbSymbolTableRecord
100
AcDbDimStyleTableRecord
2
STANDARD
70
0
3

4

5

6

7

40
1.0
41
5.0000000000
42
0.0625
43
0.38
44
0.18
45
0.0
46
0.0
47
0.0100000000
48
0.0100000000
140
4.0000000000
141
0.09
142
0.0
143
25.4
144
1.0000000000
145
0.0
146
1.0000000000
147
0.09
71
1
72
0
73
0
74
0
75
0
76
0
77
1
78
8
170
0
171
2
172
0
173
0
174
0
175
0
176
0
177
0
178
0
270
2
271
2
272
2
273
2
274
2
340
11
275
0
280
0
281
0
282
0
283
1
284
8
285
0
286
0
287
3
288
0
0
DIMSTYLE
105
209
100
AcDbSymbolTableRecord
100
AcDbDimStyleTableRecord
2
DIMSTYLE_1
70
0
3

4

5

6

7

40
1.0
41
5.0000000000
42
0.0625
43
0.38
44
0.18
45
0.0
46
0.0
47
0.2000000000
48
0.2000000000
140
4.0000000000
141
0.09
142
0.0
143
25.4
144
1.0000000000
145
0.0
146
1.0000000000
147
0.09
71
0
72
0
73
0
74
0
75
0
76
0
77
1
78
8
170
0
171
2
172
0
173
0
174
0
175
0
176
0
177
0
178
0
270
2
271
2
272
2
273
2
274
2
340
11
275
0
280
0
281
0
282
0
283
1
284
8
285
0
286
0
287
3
288
0
0
DIMSTYLE
105
20A
100
AcDbSymbolTableRecord
100
AcDbDimStyleTableRecord
2
DIMSTYLE_2
70
0
3

4

5

6

7

40
1.0
41
5.0000000000
42
0.0625
43
0.38
44
0.18
45
0.0
46
0.0
47
0.3000000000
48
0.3000000000
140
4.0000000000
141
0.09
142
0.0
143
25.4
144
1.0000000000
145
0.0
146
1.0000000000
147
0.09
71
0
72
0
73
0
74
0
75
0
76
0
77
1
78
8
170
0
171
2
172
0
173
0
174
0
175
0
176
0
177
0
178
0
270
2
271
2
272
2
273
2
274
2
340
11
275
0
280
0
281
0
282
0
283
1
284
8
285
0
286
0
287
3
288
0
0
DIMSTYLE
105
20B
100
AcDbSymbolTableRecord
100
AcDbDimStyleTableRecord
2
DIMSTYLE_3
70
0
3

4

5

6

7

40
1.0
41
5.0000000000
42
0.0625
43
0.38
44
0.18
45
0.0
46
0.0
47
0.5000000000
48
0.5000000000
140
4.0000000000
141
0.09
142
0.0
143
25.4
144
1.0000000000
145
0.0
146
1.0000000000
147
0.09
71
0
72
0
73
0
74
0
75
0
76
0
77
1
78
8
170
0
171
2
172
0
173
0
174
0
175
0
176
0
177
0
178
0
270
2
271
1
272
1
273
2
274
2
340
11
275
0
280
0
281
0
282
0
283
1
284
8
285
0
286
0
287
3
288
0
0
ENDTAB
0
TABLE
2
BLOCK_RECORD
5
1
100
AcDbSymbolTable
70
0
0
BLOCK_RECORD
5
1B
100
AcDbSymbolTableRecord
100
AcDbBlockTableRecord
2
*MODEL_SPACE
0
BLOCK_RECORD
5
1C
100
AcDbSymbolTableRecord
100
AcDbBlockTableRecord
2
*PAPER_SPACE
0
BLOCK_RECORD
5
20C
100
AcDbSymbolTableRecord
100
AcDbBlockTableRecord
2
COPYRIGHT_BL0
0
BLOCK_RECORD
5
20D
100
AcDbSymbolTableRecord
100
AcDbBlockTableRecord
2
MICRO_U_BL1
0
BLOCK_RECORD
5
20E
100
AcDbSymbolTableRecord
100
AcDbBlockTableRecord
2
PROJECTION_BL2
0
BLOCK_RECORD
5
20F
100
AcDbSymbolTableRecord
100
AcDbBlockTableRecord
2
SURFACE_FINISH_BL3
0
BLOCK_RECORD
5
210
100
AcDbSymbolTableRecord
100
AcDbBlockTableRecord
2
*D0
0
BLOCK_RECORD
5
211
100
AcDbSymbolTableRecord
100
AcDbBlockTableRecord
2
*D1
0
BLOCK_RECORD
5
212
100
AcDbSymbolTableRecord
100
AcDbBlockTableRecord
2
*D2
0
BLOCK_RECORD
5
213
100
AcDbSymbolTableRecord
100
AcDbBlockTableRecord
2
*D3
0
BLOCK_RECORD
5
214
100
AcDbSymbolTableRecord
100
AcDbBlockTableRecord
2
*D4
0
BLOCK_RECORD
5
215
100
AcDbSymbolTableRecord
100
AcDbBlockTableRecord
2
*D5
0
BLOCK_RECORD
5
216
100
AcDbSymbolTableRecord
100
AcDbBlockTableRecord
2
*D6
0
BLOCK_RECORD
5
217
100
AcDbSymbolTableRecord
100
AcDbBlockTableRecord
2
*D7
0
BLOCK_RECORD
5
218
100
AcDbSymbolTableRecord
100
AcDbBlockTableRecord
2
COPYRIGHT_BL4
0
BLOCK_RECORD
5
219
100
AcDbSymbolTableRecord
100
AcDbBlockTableRecord
2
MICRO_U_BL5
0
BLOCK_RECORD
5
21A
100
AcDbSymbolTableRecord
100
AcDbBlockTableRecord
2
SURFACE_FINISH_BL6
0
BLOCK_RECORD
5
21B
100
AcDbSymbolTableRecord
100
AcDbBlockTableRecord
2
PROJECTION_BL7
0
ENDTAB
0
ENDSEC
0
SECTION
2
BLOCKS
0
BLOCK
5
1E
100
AcDbEntity
8
0
100
AcDbBlockBegin
2
*MODEL_SPACE
70
0
10
0.0
20
0.0
30
0.0
3
*MODEL_SPACE
1

0
ENDBLK
5
1F
100
AcDbEntity
8
0
100
AcDbBlockEnd
0
BLOCK
5
20
100
AcDbEntity
8
0
100
AcDbBlockBegin
2
*PAPER_SPACE
70
0
10
0.0
20
0.0
30
0.0
3
*PAPER_SPACE
1

0
ENDBLK
5
21
100
AcDbEntity
8
0
100
AcDbBlockEnd
0
BLOCK
5
21C
100
AcDbEntity
8
0
100
AcDbBlockBegin
62
7
6
BYLAYER
2
COPYRIGHT_BL0
70
64
10
0.0000000000
20
0.0000000000
3
COPYRIGHT_BL0
1

0
TEXT
5
21D
100
AcDbEntity
8
0
100
AcDbText
62
7
6
BYLAYER
10
409.9593803245
20
9.9568590072
7
TEXTSTYLE_1
40
0.1000000000
1
C
41
0.8000000000
72
0
100
AcDbText
0
CIRCLE
5
21E
100
AcDbEntity
8
0
100
AcDbCircle
62
7
6
BYLAYER
10
409.9943527832
20
10.0069663115
40
0.0753936874
0
ENDBLK
5
21F
100
AcDbEntity
8
0
100
AcDbBlockEnd
0
BLOCK
5
220
100
AcDbEntity
8
0
100
AcDbBlockBegin
62
7
6
BYLAYER
2
MICRO_U_BL1
70
64
10
0.0000000000
20
0.0000000000
3
MICRO_U_BL1
1

0
TEXT
5
221
100
AcDbEntity
8
0
100
AcDbText
62
7
6
BYLAYER
10
409.9173172813
20
9.9658183152
7
STANDARD
40
0.1000000000
1
um
41
0.8000000000
72
0
100
AcDbText
0
ARC
5
222
100
AcDbEntity
8
0
100
AcDbCircle
62
7
6
BYLAYER
10
409.8795565990
20
9.9804558390
40
0.0627552936
100
AcDbArc
50
303.7730668774
51
1.5957171757
0
ENDBLK
5
223
100
AcDbEntity
8
0
100
AcDbBlockEnd
0
BLOCK
5
224
100
AcDbEntity
8
0
100
AcDbBlockBegin
62
7
6
BYLAYER
2
PROJECTION_BL2
70
64
10
0.0000000000
20
0.0000000000
3
PROJECTION_BL2
1

0
LINE
5
225
100
AcDbEntity
8
0
100
AcDbLine
62
7
6
BYLAYER
10
409.6178469936
20
9.9332236616
11
409.6178469936
21
10.0582236616
0
LINE
5
226
100
AcDbEntity
8
0
100
AcDbLine
62
7
6
BYLAYER
10
409.6178469936
20
10.0582236616
11
409.7928469936
21
10.1207236616
0
LINE
5
227
100
AcDbEntity
8
0
100
AcDbLine
62
7
6
BYLAYER
10
409.7928469936
20
10.1207236616
11
409.7928469936
21
9.8707236616
0
LINE
5
228
100
AcDbEntity
8
0
100
AcDbLine
62
7
6
BYLAYER
10
409.7928469936
20
9.8707236616
11
409.6178469936
21
9.9332236616
0
ARC
5
229
100
AcDbEntity
8
0
100
AcDbCircle
62
7
6
BYLAYER
10
409.2678469936
20
9.9957236616
40
0.0625000000
100
AcDbArc
50
180.0000000000
51
360.0000000000
0
ARC
5
22A
100
AcDbEntity
8
0
100
AcDbCircle
62
7
6
BYLAYER
10
409.2678469936
20
9.9957236616
40
0.0625000000
100
AcDbArc
50
0.0000000000
51
180.0000000000
0
ARC
5
22B
100
AcDbEntity
8
0
100
AcDbCircle
62
7
6
BYLAYER
10
409.2678469936
20
9.9957236616
40
0.1250000000
100
AcDbArc
50
180.0000000000
51
360.0000000000
0
ARC
5
22C
100
AcDbEntity
8
0
100
AcDbCircle
62
7
6
BYLAYER
10
409.2678469936
20
9.9957236616
40
0.1250000000
100
AcDbArc
50
0.0000000000
51
180.0000000000
0
LINE
5
22D
100
AcDbEntity
8
0
100
AcDbLine
62
7
6
BYLAYER
10
409.0671219936
20
9.9957236616
11
409.4456219936
21
9.9957236616
0
LINE
5
22E
100
AcDbEntity
8
0
100
AcDbLine
62
7
6
BYLAYER
10
409.5241469936
20
9.9957236616
11
409.8669219936
21
9.9957236616
0
LINE
5
22F
100
AcDbEntity
8
0
100
AcDbLine
62
7
6
BYLAYER
10
409.2678469936
20
10.1398736616
11
409.2678469936
21
9.8515736616
0
TEXT
5
230
100
AcDbEntity
8
0
100
AcDbText
62
7
6
BYLAYER
10
409.2283663134
20
9.9568432128
7
STANDARD
40
0.1000000000
1
l
41
0.8000000000
72
0
100
AcDbText
0
ENDBLK
5
231
100
AcDbEntity
8
0
100
AcDbBlockEnd
0
BLOCK
5
232
100
AcDbEntity
8
0
100
AcDbBlockBegin
62
7
6
BYLAYER
2
SURFACE_FINISH_BL3
70
64
10
0.0000000000
20
0.0000000000
3
SURFACE_FINISH_BL3
1

0
LINE
5
233
100
AcDbEntity
8
0
100
AcDbLine
62
7
6
BYLAYER
10
409.9768652881
20
9.9666906703
11
410.0571314064
21
10.1057156653
0
LINE
5
234
100
AcDbEntity
8
0
100
AcDbLine
62
7
6
BYLAYER
10
409.9768652881
20
9.9666906703
11
409.9405459599
21
10.0295975921
0
LINE
5
235
100
AcDbEntity
8
0
100
AcDbLine
62
7
6
BYLAYER
10
409.9405459599
20
10.0295975921
11
410.0131846164
21
10.0295975921
0
TEXT
5
236
100
AcDbEntity
8
0
100
AcDbText
62
7
6
BYLAYER
10
409.9369531437
20
9.9795701528
7
STANDARD
40
0.1000000000
1
-
41
0.8000000000
72
0
100
AcDbText
0
ENDBLK
5
237
100
AcDbEntity
8
0
100
AcDbBlockEnd
0
BLOCK
5
238
100
AcDbEntity
8
0
100
AcDbBlockBegin
62
7
6
BYLAYER
2
*D0
70
65
10
0.0000000000
20
0.0000000000
3
*D0
1

0
TEXT
5
239
100
AcDbEntity
8
0
100
AcDbText
62
7
6
BYLAYER
10
107.5780746992
20
165.2718022613
7
STANDARD
40
4.0000000000
1
27.8
50
90.0000000000
41
0.8000000000
72
0
100
AcDbText
0
LINE
5
23A
100
AcDbEntity
8
0
100
AcDbLine
62
7
6
BYLAYER
10
124.7798900493
20
183.0272570244
11
105.5780746992
21
183.0272570244
0
LINE
5
23B
100
AcDbEntity
8
0
100
AcDbLine
62
7
6
BYLAYER
10
124.7798900493
20
155.2272570244
11
105.5780746992
21
155.2272570244
0
LINE
5
23C
100
AcDbEntity
8
0
100
AcDbLine
62
7
6
BYLAYER
10
108.5780746992
20
183.0272570244
11
108.5780746992
21
169.1272570244
0
LINE
5
23D
100
AcDbEntity
8
0
100
AcDbLine
62
7
6
BYLAYER
10
108.5780746992
20
155.2272570244
11
108.5780746992
21
169.1272570244
0
SOLID
5
23E
100
AcDbEntity
8
0
100
AcDbTrace
62
7
6
BYLAYER
10
109.3780746992
20
178.0272570244
11
108.5780746992
21
183.0272570244
12
107.7780746992
22
178.0272570244
13
107.7780746992
23
178.0272570244
0
SOLID
5
23F
100
AcDbEntity
8
0
100
AcDbTrace
62
7
6
BYLAYER
10
107.7780746992
20
160.2272570244
11
108.5780746992
21
155.2272570244
12
109.3780746992
22
160.2272570244
13
109.3780746992
23
160.2272570244
0
ENDBLK
5
240
100
AcDbEntity
8
0
100
AcDbBlockEnd
0
BLOCK
5
241
100
AcDbEntity
8
0
100
AcDbBlockBegin
62
7
6
BYLAYER
2
*D1
70
65
10
0.0000000000
20
0.0000000000
3
*D1
1

0
TEXT
5
242
100
AcDbEntity
8
0
100
AcDbText
62
7
6
BYLAYER
10
145.1979616849
20
198.2027998849
7
STANDARD
40
4.0000000000
1
40
41
0.8000000000
72
0
100
AcDbText
0
LINE
5
243
100
AcDbEntity
8
0
100
AcDbLine
62
7
6
BYLAYER
10
166.7798900493
20
185.0272570244
11
166.7798900493
21
200.2027998849
0
LINE
5
244
100
AcDbEntity
8
0
100
AcDbLine
62
7
6
BYLAYER
10
126.7798900493
20
185.0272570244
11
126.7798900493
21
200.2027998849
0
LINE
5
245
100
AcDbEntity
8
0
100
AcDbLine
62
7
6
BYLAYER
10
166.7798900493
20
197.2027998849
11
146.7798900493
21
197.2027998849
0
LINE
5
246
100
AcDbEntity
8
0
100
AcDbLine
62
7
6
BYLAYER
10
126.7798900493
20
197.2027998849
11
146.7798900493
21
197.2027998849
0
SOLID
5
247
100
AcDbEntity
8
0
100
AcDbTrace
62
7
6
BYLAYER
10
161.7798900493
20
196.4027998849
11
166.7798900493
21
197.2027998849
12
161.7798900493
22
198.0027998849
13
161.7798900493
23
198.0027998849
0
SOLID
5
248
100
AcDbEntity
8
0
100
AcDbTrace
62
7
6
BYLAYER
10
131.7798900493
20
198.0027998849
11
126.7798900493
21
197.2027998849
12
131.7798900493
22
196.4027998849
13
131.7798900493
23
196.4027998849
0
ENDBLK
5
249
100
AcDbEntity
8
0
100
AcDbBlockEnd
0
BLOCK
5
24A
100
AcDbEntity
8
0
100
AcDbBlockBegin
62
7
6
BYLAYER
2
*D2
70
65
10
0.0000000000
20
0.0000000000
3
*D2
1

0
TEXT
5
24B
100
AcDbEntity
8
0
100
AcDbText
62
7
6
BYLAYER
10
248.1290121286
20
153.6918483155
7
STANDARD
40
4.0000000000
1
29.7%%d
50
76.1706812247
41
0.7733333333
72
0
100
AcDbText
0
LINE
5
24C
100
AcDbEntity
8
0
100
AcDbLine
62
7
6
BYLAYER
10
215.9025666914
20
167.9601551585
11
253.6787176327
21
146.4265531171
0
LINE
5
24D
100
AcDbEntity
8
0
100
AcDbLine
62
7
6
BYLAYER
10
216.4797919036
20
170.8272570244
11
260.1449167491
21
170.8272570244
0
ARC
5
24E
100
AcDbEntity
8
0
100
AcDbCircle
62
7
6
BYLAYER
10
210.8728427910
20
170.8272570244
40
46.2720739581
100
AcDbArc
50
330.3154906777
51
345.1577453389
0
ARC
5
24F
100
AcDbEntity
8
0
100
AcDbCircle
62
7
6
BYLAYER
10
210.8728427910
20
170.8272570244
40
46.2720739581
100
AcDbArc
50
345.1577453389
51
360.0000000000
0
SOLID
5
250
100
AcDbEntity
8
0
100
AcDbTrace
62
7
6
BYLAYER
10
251.0724213231
20
147.9122245298
11
252.5949593028
21
152.7414975703
12
254.0257446269
22
152.0253597649
13
254.0257446269
23
152.0253597649
0
SOLID
5
251
100
AcDbEntity
8
0
100
AcDbTrace
62
7
6
BYLAYER
10
257.1449167491
20
170.8272570244
11
257.6737394800
21
165.7913512946
12
256.0760741550
22
165.8777544727
13
256.0760741550
23
165.8777544727
0
ENDBLK
5
252
100
AcDbEntity
8
0
100
AcDbBlockEnd
0
BLOCK
5
253
100
AcDbEntity
8
0
100
AcDbBlockBegin
62
7
6
BYLAYER
2
*D3
70
65
10
0.0000000000
20
0.0000000000
3
*D3
1

0
TEXT
5
254
100
AcDbEntity
8
0
100
AcDbText
62
7
6
BYLAYER
10
291.3965171482
20
120.4610838437
7
STANDARD
40
4.0000000000
1
34%%d
50
77.1698551356
41
0.7555555556
72
0
100
AcDbText
0
LINE
5
255
100
AcDbEntity
8
0
100
AcDbLine
62
7
6
BYLAYER
10
265.6926245650
20
130.3697763305
11
297.1215726561
21
112.4542808682
0
LINE
5
256
100
AcDbEntity
8
0
100
AcDbLine
62
7
6
BYLAYER
10
268.9087810670
20
131.7362488193
11
302.0221429917
21
134.2498204306
0
ARC
5
257
100
AcDbEntity
8
0
100
AcDbCircle
62
7
6
BYLAYER
10
263.9550936920
20
131.3602239389
40
35.1765636258
100
AcDbArc
50
330.3154906777
51
347.3281892080
0
ARC
5
258
100
AcDbEntity
8
0
100
AcDbCircle
62
7
6
BYLAYER
10
263.9550936920
20
131.3602239389
40
35.1765636258
100
AcDbArc
50
347.3281892080
51
4.3408877382
0
SOLID
5
259
100
AcDbEntity
8
0
100
AcDbTrace
62
7
6
BYLAYER
10
294.5152763464
20
113.9399522808
11
295.9552978246
21
118.7944695733
12
297.3980790589
22
118.1028177028
13
297.3980790589
23
118.1028177028
0
SOLID
5
25A
100
AcDbEntity
8
0
100
AcDbTrace
62
7
6
BYLAYER
10
299.0307488730
20
134.0227494569
11
299.8542036650
21
129.0265586874
12
298.2542212824
22
129.0190503352
13
298.2542212824
23
129.0190503352
0
ENDBLK
5
25B
100
AcDbEntity
8
0
100
AcDbBlockEnd
0
BLOCK
5
25C
100
AcDbEntity
8
0
100
AcDbBlockBegin
62
7
6
BYLAYER
2
*D4
70
65
10
0.0000000000
20
0.0000000000
3
*D4
1

0
TEXT
5
25D
100
AcDbEntity
8
0
100
AcDbText
62
7
6
BYLAYER
10
346.6513199728
20
162.5251306922
7
STANDARD
40
4.0000000000
1
59.8%%d
50
-66.8833560715
41
0.7733333333
72
0
100
AcDbText
0
LINE
5
25E
100
AcDbEntity
8
0
100
AcDbLine
62
7
6
BYLAYER
10
326.7176912259
20
137.7945228319
11
337.5925503188
21
122.0118222115
0
LINE
5
25F
100
AcDbEntity
8
0
100
AcDbLine
62
7
6
BYLAYER
10
324.5521426395
20
143.9830444068
11
348.9799196174
21
145.8373099713
0
ARC
5
260
100
AcDbEntity
8
0
100
AcDbCircle
62
7
6
BYLAYER
10
322.5578798938
20
143.8316637577
40
23.4980527566
100
AcDbArc
50
304.5682654816
51
23.1166439285
0
SOLID
5
261
100
AcDbEntity
8
0
100
AcDbTrace
62
7
6
BYLAYER
10
335.8903870810
20
124.4821744763
11
339.1618046298
21
128.3471230168
12
340.2044011143
22
127.1334539636
13
340.2044011143
23
127.1334539636
0
SOLID
5
262
100
AcDbEntity
8
0
100
AcDbTrace
62
7
6
BYLAYER
10
345.9885254987
20
145.6102389976
11
346.6350291625
21
140.5880847772
12
345.0357796129
22
140.6370835328
13
345.0357796129
23
140.6370835328
0
ENDBLK
5
263
100
AcDbEntity
8
0
100
AcDbBlockEnd
0
BLOCK
5
264
100
AcDbEntity
8
0
100
AcDbBlockBegin
62
7
6
BYLAYER
2
*D5
70
65
10
0.0000000000
20
0.0000000000
3
*D5
1

0
TEXT
5
265
100
AcDbEntity
8
0
100
AcDbText
62
7
6
BYLAYER
10
345.3306144938
20
106.5763370111
7
STANDARD
40
4.0000000000
1
67.7%%d
50
78.2005727508
41
0.7733333333
72
0
100
AcDbText
0
LINE
5
266
100
AcDbEntity
8
0
100
AcDbLine
62
7
6
BYLAYER
10
328.6124211201
20
116.5529881084
11
343.7517712884
21
94.3820909424
0
LINE
5
267
100
AcDbEntity
8
0
100
AcDbLine
62
7
6
BYLAYER
10
339.0653108675
20
120.6678347065
11
355.7001718977
21
124.2060177783
0
ARC
5
268
100
AcDbEntity
8
0
100
AcDbCircle
62
7
6
BYLAYER
10
327.4845867516
20
118.2046507971
40
25.8467615302
100
AcDbArc
50
304.3271323930
51
338.1674121965
0
ARC
5
269
100
AcDbEntity
8
0
100
AcDbCircle
62
7
6
BYLAYER
10
327.4845867516
20
118.2046507971
40
25.8467615302
100
AcDbArc
50
338.1674121965
51
12.0076920000
0
SOLID
5
26A
100
AcDbEntity
8
0
100
AcDbTrace
62
7
6
BYLAYER
10
342.0600197356
20
96.8595849755
11
345.3847523472
21
100.6787672259
12
346.4104075836
22
99.4507479523
13
346.4104075836
23
99.4507479523
0
SOLID
5
26B
100
AcDbEntity
8
0
100
AcDbTrace
62
7
6
BYLAYER
10
352.7658128589
20
123.5818887604
11
354.1237765860
21
118.7037810826
12
352.5339538483
22
118.5236043280
13
352.5339538483
23
118.5236043280
0
ENDBLK
5
26C
100
AcDbEntity
8
0
100
AcDbBlockEnd
0
BLOCK
5
26D
100
AcDbEntity
8
0
100
AcDbBlockBegin
62
7
6
BYLAYER
2
*D6
70
65
10
0.0000000000
20
0.0000000000
3
*D6
1

0
TEXT
5
26E
100
AcDbEntity
8
0
100
AcDbText
62
7
6
BYLAYER
10
307.6471744864
20
132.0138034272
7
STANDARD
40
4.0000000000
1
120%%d
50
-23.9233742562
41
0.7666666667
72
0
100
AcDbText
0
LINE
5
26F
100
AcDbEntity
8
0
100
AcDbLine
62
7
6
BYLAYER
10
311.9187490309
20
135.0010527593
11
300.5449173791
21
134.1376870758
0
LINE
5
270
100
AcDbEntity
8
0
100
AcDbLine
62
7
6
BYLAYER
10
318.0158676526
20
132.0711638973
11
324.4482187887
21
122.6512750652
0
ARC
5
271
100
AcDbEntity
8
0
100
AcDbCircle
62
7
6
BYLAYER
10
315.8133288850
20
135.2966828249
40
12.3123368909
100
AcDbArc
50
184.3408877382
51
244.3340100656
0
ARC
5
272
100
AcDbEntity
8
0
100
AcDbCircle
62
7
6
BYLAYER
10
315.8133288850
20
135.2966828249
40
12.3123368909
100
AcDbArc
50
244.3340100656
51
304.3271323930
0
SOLID
5
273
100
AcDbEntity
8
0
100
AcDbTrace
62
7
6
BYLAYER
10
303.5363114977
20
134.3647580495
11
305.6814826949
21
129.7780118678
12
304.1432694115
22
129.3376712101
13
304.1432694115
23
129.3376712101
0
SOLID
5
274
100
AcDbEntity
8
0
100
AcDbTrace
62
7
6
BYLAYER
10
322.7564672360
20
125.1287690983
11
318.4521905280
21
122.4617104148
12
317.8349130209
22
123.9378433624
13
317.8349130209
23
123.9378433624
0
ENDBLK
5
275
100
AcDbEntity
8
0
100
AcDbBlockEnd
0
BLOCK
5
276
100
AcDbEntity
8
0
100
AcDbBlockBegin
62
7
6
BYLAYER
2
*D7
70
65
10
0.0000000000
20
0.0000000000
3
*D7
1

0
TEXT
5
277
100
AcDbEntity
8
0
100
AcDbText
62
7
6
BYLAYER
10
355.9813862296
20
106.5898734363
7
STANDARD
40
4.0000000000
1
63.6%%d
50
58.6378216892
41
0.7733333333
72
0
100
AcDbText
0
LINE
5
278
100
AcDbEntity
8
0
100
AcDbLine
62
7
6
BYLAYER
10
325.8562783253
20
133.0523180239
11
353.2736131471
21
93.2614955770
0
LINE
5
279
100
AcDbEntity
8
0
100
AcDbLine
62
7
6
BYLAYER
10
350.0855922967
20
138.3542406603
11
374.5290644763
21
141.8765988097
0
ARC
5
27A
100
AcDbEntity
8
0
100
AcDbCircle
62
7
6
BYLAYER
10
324.7215028335
20
134.6992195337
40
47.3220425865
100
AcDbArc
50
304.5682654816
51
336.3841327408
0
ARC
5
27B
100
AcDbEntity
8
0
100
AcDbCircle
62
7
6
BYLAYER
10
324.7215028335
20
134.6992195337
40
47.3220425865
100
AcDbArc
50
336.3841327408
51
8.2000000000
0
SOLID
5
27C
100
AcDbEntity
8
0
100
AcDbTrace
62
7
6
BYLAYER
10
351.5714499093
20
95.7318478417
11
355.0450923926
21
99.4161127478
12
356.0212178555
22
98.1483670791
13
356.0212178555
23
98.1483670791
0
SOLID
5
27D
100
AcDbEntity
8
0
100
AcDbTrace
62
7
6
BYLAYER
10
371.5597357836
20
141.4487120086
11
372.8073016522
21
136.5412096496
12
371.2138186887
22
136.3969458458
13
371.2138186887
23
136.3969458458
0
ENDBLK
5
27E
100
AcDbEntity
8
0
100
AcDbBlockEnd
0
BLOCK
5
27F
100
AcDbEntity
8
0
100
AcDbBlockBegin
62
7
6
BYLAYER
2
COPYRIGHT_BL4
70
64
10
0.0000000000
20
0.0000000000
3
COPYRIGHT_BL4
1

0
CIRCLE
5
280
100
AcDbEntity
8
0
100
AcDbCircle
62
7
6
BYLAYER
10
368.4166666667
20
59.2552477502
40
2.6387790604
0
ENDBLK
5
281
100
AcDbEntity
8
0
100
AcDbBlockEnd
0
BLOCK
5
282
100
AcDbEntity
8
0
100
AcDbBlockBegin
62
7
6
BYLAYER
2
MICRO_U_BL5
70
64
10
0.0000000000
20
0.0000000000
3
MICRO_U_BL5
1

0
ARC
5
283
100
AcDbEntity
8
0
100
AcDbCircle
62
7
6
BYLAYER
10
115.8029987548
20
24.2743672858
40
1.1407767248
100
AcDbArc
50
303.7730668774
51
1.5957171757
0
ENDBLK
5
284
100
AcDbEntity
8
0
100
AcDbBlockEnd
0
BLOCK
5
285
100
AcDbEntity
8
0
100
AcDbBlockBegin
62
7
6
BYLAYER
2
SURFACE_FINISH_BL6
70
64
10
0.0000000000
20
0.0000000000
3
SURFACE_FINISH_BL6
1

0
LINE
5
286
100
AcDbEntity
8
0
100
AcDbLine
62
7
6
BYLAYER
10
97.0309676193
20
12.0901401771
11
99.8402817594
21
16.9560150021
0
LINE
5
287
100
AcDbEntity
8
0
100
AcDbLine
62
7
6
BYLAYER
10
97.0309676193
20
12.0901401771
11
95.7597911309
21
14.2918824404
0
LINE
5
288
100
AcDbEntity
8
0
100
AcDbLine
62
7
6
BYLAYER
10
95.7597911309
20
14.2918824404
11
98.3021441078
21
14.2918824404
0
ENDBLK
5
289
100
AcDbEntity
8
0
100
AcDbBlockEnd
0
BLOCK
5
28A
100
AcDbEntity
8
0
100
AcDbBlockBegin
62
7
6
BYLAYER
2
PROJECTION_BL7
70
64
10
0.0000000000
20
0.0000000000
3
PROJECTION_BL7
1

0
LINE
5
28B
100
AcDbEntity
8
0
100
AcDbLine
62
7
6
BYLAYER
10
304.4288585399
20
278.0624994947
11
304.4288585399
21
282.4374994947
0
LINE
5
28C
100
AcDbEntity
8
0
100
AcDbLine
62
7
6
BYLAYER
10
304.4288585399
20
282.4374994947
11
310.5538585399
21
284.6249994947
0
LINE
5
28D
100
AcDbEntity
8
0
100
AcDbLine
62
7
6
BYLAYER
10
310.5538585399
20
284.6249994947
11
310.5538585399
21
275.8749994947
0
LINE
5
28E
100
AcDbEntity
8
0
100
AcDbLine
62
7
6
BYLAYER
10
310.5538585399
20
275.8749994947
11
304.4288585399
21
278.0624994947
0
ARC
5
28F
100
AcDbEntity
8
0
100
AcDbCircle
62
7
6
BYLAYER
10
292.1788585399
20
280.2499994947
40
2.1875000000
100
AcDbArc
50
180.0000000000
51
360.0000000000
0
ARC
5
290
100
AcDbEntity
8
0
100
AcDbCircle
62
7
6
BYLAYER
10
292.1788585399
20
280.2499994947
40
2.1875000000
100
AcDbArc
50
0.0000000000
51
180.0000000000
0
ARC
5
291
100
AcDbEntity
8
0
100
AcDbCircle
62
7
6
BYLAYER
10
292.1788585399
20
280.2499994947
40
4.3750000000
100
AcDbArc
50
180.0000000000
51
360.0000000000
0
ARC
5
292
100
AcDbEntity
8
0
100
AcDbCircle
62
7
6
BYLAYER
10
292.1788585399
20
280.2499994947
40
4.3750000000
100
AcDbArc
50
0.0000000000
51
180.0000000000
0
LINE
5
293
100
AcDbEntity
8
0
100
AcDbLine
62
7
6
BYLAYER
10
285.1534835399
20
280.2499994947
11
298.4009835399
21
280.2499994947
0
LINE
5
294
100
AcDbEntity
8
0
100
AcDbLine
62
7
6
BYLAYER
10
301.1493585399
20
280.2499994947
11
313.1464835399
21
280.2499994947
0
LINE
5
295
100
AcDbEntity
8
0
100
AcDbLine
62
7
6
BYLAYER
10
292.1788585399
20
285.2952494947
11
292.1788585399
21
275.2047494947
0
ENDBLK
5
296
100
AcDbEntity
8
0
100
AcDbBlockEnd
0
ENDSEC
0
SECTION
2
ENTITIES
0
INSERT
5
297
100
AcDbEntity
8
0
100
AcDbBlockReference
62
7
6
BYLAYER
2
COPYRIGHT_BL0
10
0.0000000000
20
0.0000000000
0
INSERT
5
298
100
AcDbEntity
8
0
100
AcDbBlockReference
62
7
6
BYLAYER
2
MICRO_U_BL1
10
0.0000000000
20
0.0000000000
0
INSERT
5
299
100
AcDbEntity
8
0
100
AcDbBlockReference
62
7
6
BYLAYER
2
PROJECTION_BL2
10
0.0000000000
20
0.0000000000
0
INSERT
5
29A
100
AcDbEntity
8
0
100
AcDbBlockReference
62
7
6
BYLAYER
2
SURFACE_FINISH_BL3
10
0.0000000000
20
0.0000000000
0
DIMENSION
5
29B
100
AcDbEntity
8
0
100
AcDbDimension
62
7
6
BYLAYER
2
*D0
10
108.5780746992
20
155.2272570244
11
105.5780746992
21
171.6718022613
70
160
3
DIMSTYLE_1
100
AcDbAlignedDimension
13
124.7798900493
23
183.0272570244
14
124.7798900493
24
155.2272570244
50
270.000000
100
AcDbRotatedDimension
0
DIMENSION
5
29C
100
AcDbEntity
8
0
100
AcDbDimension
62
7
6
BYLAYER
2
*D1
10
126.7798900493
20
197.2027998849
11
148.3979616849
21
200.2027998849
70
160
3
DIMSTYLE_2
100
AcDbAlignedDimension
13
166.7798900493
23
185.0272570244
14
126.7798900493
24
185.0272570244
50
180.000000
100
AcDbRotatedDimension
0
DIMENSION
5
29D
100
AcDbEntity
8
0
100
AcDbDimension
62
7
6
BYLAYER
2
*D2
10
216.4797919036
20
170.8272570244
11
248.0354894291
21
161.6790692308
70
162
3
DIMSTYLE_3
100
AcDb2LineAngularDimension
13
215.9025666914
23
167.9601551585
14
253.6787176327
24
146.4265531171
15
260.1449167491
25
170.8272570244
16
255.6010369157
26
158.9742625195
0
DIMENSION
5
29E
100
AcDbEntity
8
0
100
AcDbDimension
62
7
6
BYLAYER
2
*D3
10
268.9087810670
20
131.7362488193
11
290.4531307231
21
125.3253549262
70
162
3
DIMSTYLE_3
100
AcDb2LineAngularDimension
13
265.6926245650
23
130.3697763305
14
297.1215726561
24
112.4542808682
15
302.0221429917
25
134.2498204306
16
298.2748472997
26
123.6436741388
0
DIMENSION
5
29F
100
AcDbEntity
8
0
100
AcDbDimension
62
7
6
BYLAYER
2
*D4
10
324.5521426395
20
143.9830444068
11
351.5268748706
21
156.1979347190
70
162
3
DIMSTYLE_3
100
AcDb2LineAngularDimension
13
326.7176912259
23
137.7945228319
14
337.5925503188
24
122.0118222115
15
348.9799196174
25
145.8373099713
16
343.7588498812
26
133.6986802415
0
DIMENSION
5
2A0
100
AcDbEntity
8
0
100
AcDbDimension
62
7
6
BYLAYER
2
*D5
10
339.0653108675
20
120.6678347065
11
344.9542360904
21
114.5552331592
70
162
3
DIMSTYLE_3
100
AcDb2LineAngularDimension
13
328.6124211201
23
116.5529881084
14
343.7517712884
24
94.3820909424
15
355.7001718977
25
124.2060177783
16
351.4774752474
26
108.5923470551
0
DIMENSION
5
2A1
100
AcDbEntity
8
0
100
AcDbDimension
62
7
6
BYLAYER
2
*D6
10
318.0158676526
20
132.0711638973
11
314.0646136174
21
131.3548248400
70
162
3
DIMSTYLE_3
100
AcDb2LineAngularDimension
13
311.9187490309
23
135.0010527593
14
300.5449173791
24
134.1376870758
15
324.4482187887
25
122.6512750652
16
310.4805585571
26
124.1991515524
0
DIMENSION
5
2A2
100
AcDbEntity
8
0
100
AcDbDimension
62
7
6
BYLAYER
2
*D7
10
350.0855922967
20
138.3542406603
11
358.2983801628
21
114.2342166755
70
162
3
DIMSTYLE_3
100
AcDb2LineAngularDimension
13
325.8562783253
23
133.0523180239
14
353.2736131471
24
93.2614955770
15
374.5290644763
25
141.8765988097
16
368.0804106402
26
115.7418771999
0
LINE
5
2A3
100
AcDbEntity
8
0
100
AcDbLine
62
7
6
BYLAYER
10
209.0000000000
20
82.0000000000
11
410.0000000000
21
82.0000000000
0
LINE
5
2A4
100
AcDbEntity
8
0
100
AcDbLine
62
7
6
BYLAYER
10
209.0000000000
20
82.0000000000
11
209.0000000000
21
10.0000000000
0
LINE
5
2A5
100
AcDbEntity
8
0
100
AcDbLine
62
7
6
BYLAYER
10
209.0000000000
20
73.0000000000
11
410.0000000000
21
73.0000000000
0
LINE
5
2A6
100
AcDbEntity
8
0
100
AcDbLine
62
7
6
BYLAYER
10
209.0000000000
20
64.0000000000
11
410.0000000000
21
64.0000000000
0
LINE
5
2A7
100
AcDbEntity
8
0
100
AcDbLine
62
7
6
BYLAYER
10
209.0000000000
20
55.0000000000
11
410.0000000000
21
55.0000000000
0
LINE
5
2A8
100
AcDbEntity
8
0
100
AcDbLine
62
7
6
BYLAYER
10
209.0000000000
20
46.0000000000
11
410.0000000000
21
46.0000000000
0
LINE
5
2A9
100
AcDbEntity
8
0
100
AcDbLine
62
7
6
BYLAYER
10
209.0000000000
20
21.0000000000
11
410.0000000000
21
21.0000000000
0
LINE
5
2AA
100
AcDbEntity
8
0
100
AcDbLine
62
7
6
BYLAYER
10
209.0000000000
20
10.0000000000
11
410.0000000000
21
10.0000000000
0
LINE
5
2AB
100
AcDbEntity
8
0
100
AcDbLine
62
7
6
BYLAYER
10
224.0000000000
20
82.0000000000
11
224.0000000000
21
64.0000000000
0
LINE
5
2AC
100
AcDbEntity
8
0
100
AcDbLine
62
7
6
BYLAYER
10
224.0000000000
20
21.0000000000
11
224.0000000000
21
10.0000000000
0
LINE
5
2AD
100
AcDbEntity
8
0
100
AcDbLine
62
7
6
BYLAYER
10
253.5000000000
20
82.0000000000
11
253.5000000000
21
64.0000000000
0
LINE
5
2AE
100
AcDbEntity
8
0
100
AcDbLine
62
7
6
BYLAYER
10
283.0000000000
20
82.0000000000
11
283.0000000000
21
64.0000000000
0
LINE
5
2AF
100
AcDbEntity
8
0
100
AcDbLine
62
7
6
BYLAYER
10
315.5000000000
20
82.0000000000
11
315.5000000000
21
64.0000000000
0
LINE
5
2B0
100
AcDbEntity
8
0
100
AcDbLine
62
7
6
BYLAYER
10
344.0000000000
20
21.0000000000
11
344.0000000000
21
10.0000000000
0
LINE
5
2B1
100
AcDbEntity
8
0
100
AcDbLine
62
7
6
BYLAYER
10
348.0000000000
20
82.0000000000
11
348.0000000000
21
64.0000000000
0
LINE
5
2B2
100
AcDbEntity
8
0
100
AcDbLine
62
7
6
BYLAYER
10
365.0000000000
20
64.0000000000
11
365.0000000000
21
55.0000000000
0
LINE
5
2B3
100
AcDbEntity
8
0
100
AcDbLine
62
7
6
BYLAYER
10
380.5000000000
20
82.0000000000
11
380.5000000000
21
64.0000000000
0
LINE
5
2B4
100
AcDbEntity
8
0
100
AcDbLine
62
7
6
BYLAYER
10
410.0000000000
20
82.0000000000
11
410.0000000000
21
10.0000000000
0
TEXT
5
2B5
100
AcDbEntity
8
0
100
AcDbText
62
7
6
BYLAYER
10
215.3000000000
20
76.0000000000
7
STANDARD
40
3.0000000000
1
D
41
0.8000000000
72
1
11
216.5000000000
21
76.0000000000
100
AcDbText
0
TEXT
5
2B6
100
AcDbEntity
8
0
100
AcDbText
62
7
6
BYLAYER
10
227.9500000000
20
76.0000000000
7
STANDARD
40
3.0000000000
1
29/MAY/03
41
0.8000000000
72
1
11
238.7500000000
21
76.0000000000
100
AcDbText
0
TEXT
5
2B7
100
AcDbEntity
8
0
100
AcDbText
62
7
6
BYLAYER
10
259.8500000000
20
76.0000000000
7
STANDARD
40
3.0000000000
1
------
41
0.8000000000
72
1
11
267.0500000000
21
76.0000000000
100
AcDbText
0
TEXT
5
2B8
100
AcDbEntity
8
0
100
AcDbText
62
7
6
BYLAYER
10
274.2500000000
20
76.0000000000
7
STANDARD
40
3.0000000000
1
.
41
0.8000000000
72
1
11
275.4500000000
21
76.0000000000
100
AcDbText
0
TEXT
5
2B9
100
AcDbEntity
8
0
100
AcDbText
62
7
6
BYLAYER
10
289.6500000000
20
76.0000000000
7
STANDARD
40
3.0000000000
1
J NOVISS
41
0.8000000000
72
1
11
299.2500000000
21
76.0000000000
100
AcDbText
0
TEXT
5
2BA
100
AcDbEntity
8
0
100
AcDbText
62
7
6
BYLAYER
10
329.3500000000
20
76.0000000000
7
STANDARD
40
3.0000000000
1
IW
41
0.8000000000
72
1
11
331.7500000000
21
76.0000000000
100
AcDbText
0
TEXT
5
2BB
100
AcDbEntity
8
0
100
AcDbText
62
7
6
BYLAYER
10
361.8500000000
20
76.0000000000
7
STANDARD
40
3.0000000000
1
DG
41
0.8000000000
72
1
11
364.2500000000
21
76.0000000000
100
AcDbText
0
TEXT
5
2BC
100
AcDbEntity
8
0
100
AcDbText
62
7
6
BYLAYER
10
391.6500000000
20
76.0000000000
7
STANDARD
40
3.0000000000
1
REL
41
0.8000000000
72
1
11
395.2500000000
21
76.0000000000
100
AcDbText
0
TEXT
5
2BD
100
AcDbEntity
8
0
100
AcDbText
62
7
6
BYLAYER
10
210.5000000000
20
67.0000000000
7
STANDARD
40
3.0000000000
1
ISSUE
41
0.8000000000
72
1
11
216.5000000000
21
67.0000000000
100
AcDbText
0
TEXT
5
2BE
100
AcDbEntity
8
0
100
AcDbText
62
7
6
BYLAYER
10
227.9500000000
20
67.0000000000
7
STANDARD
40
3.0000000000
1
DATE APPD
41
0.8000000000
72
1
11
238.7500000000
21
67.0000000000
100
AcDbText
0
TEXT
5
2BF
100
AcDbEntity
8
0
100
AcDbText
62
7
6
BYLAYER
10
258.6500000000
20
67.0000000000
7
STANDARD
40
3.0000000000
1
MOD. No.
41
0.8000000000
72
1
11
268.2500000000
21
67.0000000000
100
AcDbText
0
TEXT
5
2C0
100
AcDbEntity
8
0
100
AcDbText
62
7
6
BYLAYER
10
290.8500000000
20
67.0000000000
7
STANDARD
40
3.0000000000
1
DRN. BY
41
0.8000000000
72
1
11
299.2500000000
21
67.0000000000
100
AcDbText
0
TEXT
5
2C1
100
AcDbEntity
8
0
100
AcDbText
62
7
6
BYLAYER
10
322.1500000000
20
67.0000000000
7
STANDARD
40
3.0000000000
1
CHKD BY.
41
0.8000000000
72
1
11
331.7500000000
21
67.0000000000
100
AcDbText
0
TEXT
5
2C2
100
AcDbEntity
8
0
100
AcDbText
62
7
6
BYLAYER
10
354.6500000000
20
67.0000000000
7
STANDARD
40
3.0000000000
1
APPD BY.
41
0.8000000000
72
1
11
364.2500000000
21
67.0000000000
100
AcDbText
0
TEXT
5
2C3
100
AcDbEntity
8
0
100
AcDbText
62
7
6
BYLAYER
10
388.0500000000
20
67.0000000000
7
STANDARD
40
3.0000000000
1
STATUS
41
0.8000000000
72
1
11
395.2500000000
21
67.0000000000
100
AcDbText
0
TEXT
5
2C4
100
AcDbEntity
8
0
100
AcDbText
62
7
6
BYLAYER
10
210.4000000000
20
57.5000000000
7
STANDARD
40
4.0000000000
1
USED ON
41
0.8000000000
72
0
100
AcDbText
0
TEXT
5
2C5
100
AcDbEntity
8
0
100
AcDbText
62
7
6
BYLAYER
10
254.9000000000
20
57.5000000000
7
STANDARD
40
4.0000000000
1
 
41
0.8000000000
72
0
100
AcDbText
0
INSERT
5
2C6
100
AcDbEntity
8
0
100
AcDbBlockReference
62
7
6
BYLAYER
2
COPYRIGHT_BL4
10
0.0000000000
20
0.0000000000
0
TEXT
5
2C7
100
AcDbEntity
8
0
100
AcDbText
62
7
6
BYLAYER
10
371.0554457271
20
57.3835313102
7
TEXTSTYLE_1
40
5.0000000000
1
 CLRC
41
0.7800000000
72
1
11
380.8054457271
21
57.3835313102
100
AcDbText
0
TEXT
5
2C8
100
AcDbEntity
8
0
100
AcDbText
62
7
6
BYLAYER
10
390.5554457271
20
57.3835313102
7
TEXTSTYLE_1
40
5.0000000000
1
 
41
0.8000000000
72
1
11
392.5554457271
21
57.3835313102
100
AcDbText
0
TEXT
5
2C9
100
AcDbEntity
8
0
100
AcDbText
62
7
6
BYLAYER
10
394.5554457271
20
57.3835313102
7
TEXTSTYLE_1
40
5.0000000000
1
2002
41
0.7333333333
72
1
11
401.8887790604
21
57.3835313102
100
AcDbText
0
TEXT
5
2CA
100
AcDbEntity
8
0
100
AcDbText
62
7
6
BYLAYER
10
367.1926306113
20
57.5014920980
7
TEXTSTYLE_1
40
3.5000000000
1
C
41
0.8000000000
72
0
100
AcDbText
0
TEXT
5
2CB
100
AcDbEntity
8
0
100
AcDbText
62
7
6
BYLAYER
10
210.4000000000
20
48.5000000000
7
TEXTSTYLE_1
40
3.0000000000
1
CENTRAL LABORATORY OF THE RESEARCH COUNCILS
41
0.7620155039
72
0
100
AcDbText
0
TEXT
5
2CC
100
AcDbEntity
8
0
100
AcDbText
62
7
6
BYLAYER
10
308.7000000000
20
48.5000000000
7
STANDARD
40
4.0000000000
1
 
41
0.8000000000
72
0
100
AcDbText
0
TEXT
5
2CD
100
AcDbEntity
8
0
100
AcDbText
62
7
6
BYLAYER
10
311.9000000000
20
48.5000000000
7
STANDARD
40
2.0000000000
1
RUTHERFORD APPLETON LABORATORY, CHILTON, OXON OX110QX
41
0.8000000000
72
0
100
AcDbText
0
TEXT
5
2CE
100
AcDbEntity
8
0
100
AcDbText
62
7
6
BYLAYER
10
210.4000000000
20
41.5000000000
7
STANDARD
40
3.0000000000
1
TITLE
41
0.8000000000
72
0
100
AcDbText
0
TEXT
5
2CF
100
AcDbEntity
8
0
100
AcDbText
62
7
6
BYLAYER
10
269.7500000000
20
36.5000000000
7
TEXTSTYLE_1
40
6.0000000000
1
POWER TAPE W10
41
0.9464285714
72
1
11
309.5000000000
21
36.5000000000
100
AcDbText
0
TEXT
5
2D0
100
AcDbEntity
8
0
100
AcDbText
62
7
6
BYLAYER
10
270.2500000000
20
27.5000000000
7
TEXTSTYLE_1
40
6.0000000000
1
WHEELS 2,3,4,5,6
41
0.8177083333
72
1
11
309.5000000000
21
27.5000000000
100
AcDbText
0
TEXT
5
2D1
100
AcDbEntity
8
0
100
AcDbText
62
7
6
BYLAYER
10
210.4000000000
20
24.2500000000
7
STANDARD
40
4.0000000000
1
ATLAS_ID
41
0.8000000000
72
0
100
AcDbText
0
TEXT
5
2D2
100
AcDbEntity
8
0
100
AcDbText
62
7
6
BYLAYER
10
389.4000000000
20
24.2500000000
7
STANDARD
40
4.0000000000
1
TDL008
41
0.8000000000
72
2
11
408.6000000000
21
24.2500000000
100
AcDbText
0
TEXT
5
2D3
100
AcDbEntity
8
0
100
AcDbText
62
7
6
BYLAYER
10
211.1333333333
20
12.0000000000
7
TEXTSTYLE_1
40
7.0000000000
1
A3
41
0.7666666667
72
1
11
216.5000000000
21
12.0000000000
100
AcDbText
0
TEXT
5
2D4
100
AcDbEntity
8
0
100
AcDbText
62
7
6
BYLAYER
10
225.4000000000
20
12.0000000000
7
TEXTSTYLE_1
40
5.0000000000
1
 
41
1.0000000000
72
0
100
AcDbText
0
TEXT
5
2D5
100
AcDbEntity
8
0
100
AcDbText
62
7
6
BYLAYER
10
230.4000000000
20
12.0000000000
7
TEXTSTYLE_1
40
7.0000000000
1
TD-1002-971
41
0.7537878788
72
0
100
AcDbText
0
TEXT
5
2D6
100
AcDbEntity
8
0
100
AcDbText
62
7
6
BYLAYER
10
345.4000000000
20
16.7500000000
7
STANDARD
40
2.5000000000
1
SHEET
41
0.8000000000
72
0
100
AcDbText
0
TEXT
5
2D7
100
AcDbEntity
8
0
100
AcDbText
62
7
6
BYLAYER
10
366.7666666667
20
12.0000000000
7
STANDARD
40
3.0000000000
1
 
41
0.8000000000
72
1
11
367.9666666667
21
12.0000000000
100
AcDbText
0
TEXT
5
2D8
100
AcDbEntity
8
0
100
AcDbText
62
7
6
BYLAYER
10
369.1666666667
20
12.0000000000
7
TEXTSTYLE_1
40
7.0000000000
1
1
41
0.3333333333
72
1
11
370.3333333333
21
12.0000000000
100
AcDbText
0
TEXT
5
2D9
100
AcDbEntity
8
0
100
AcDbText
62
7
6
BYLAYER
10
371.5000000000
20
12.0000000000
7
STANDARD
40
4.0000000000
1
 OF 
41
0.8000000000
72
1
11
377.9000000000
21
12.0000000000
100
AcDbText
0
TEXT
5
2DA
100
AcDbEntity
8
0
100
AcDbText
62
7
6
BYLAYER
10
384.3000000000
20
12.0000000000
7
TEXTSTYLE_1
40
7.0000000000
1
1
41
0.3333333333
72
1
11
385.4666666667
21
12.0000000000
100
AcDbText
0
TEXT
5
2DB
100
AcDbEntity
8
0
100
AcDbText
62
7
6
BYLAYER
10
386.6333333333
20
12.0000000000
7
STANDARD
40
4.0000000000
1
     
41
0.8000000000
72
1
11
394.6333333333
21
12.0000000000
100
AcDbText
0
TEXT
5
2DC
100
AcDbEntity
8
0
100
AcDbText
62
7
6
BYLAYER
10
402.6333333333
20
12.0000000000
7
TEXTSTYLE_1
40
7.0000000000
1
D
41
0.8000000000
72
1
11
405.4333333333
21
12.0000000000
100
AcDbText
0
LINE
5
2DD
100
AcDbEntity
8
0
100
AcDbLine
62
7
6
BYLAYER
10
20.0371621622
20
45.9172297297
11
209.0371621622
21
45.9172297297
0
LINE
5
2DE
100
AcDbEntity
8
0
100
AcDbLine
62
7
6
BYLAYER
10
20.0371621622
20
45.9172297297
11
20.0371621622
21
9.9172297297
0
LINE
5
2DF
100
AcDbEntity
8
0
100
AcDbLine
62
7
6
BYLAYER
10
20.0371621622
20
27.9172297297
11
209.0371621622
21
27.9172297297
0
LINE
5
2E0
100
AcDbEntity
8
0
100
AcDbLine
62
7
6
BYLAYER
10
20.0371621622
20
9.9172297297
11
209.0371621622
21
9.9172297297
0
LINE
5
2E1
100
AcDbEntity
8
0
100
AcDbLine
62
7
6
BYLAYER
10
83.0371621622
20
45.9172297297
11
83.0371621622
21
9.9172297297
0
LINE
5
2E2
100
AcDbEntity
8
0
100
AcDbLine
62
7
6
BYLAYER
10
146.0371621622
20
45.9172297297
11
146.0371621622
21
9.9172297297
0
LINE
5
2E3
100
AcDbEntity
8
0
100
AcDbLine
62
7
6
BYLAYER
10
209.0371621622
20
45.9172297297
11
209.0371621622
21
9.9172297297
0
TEXT
5
2E4
100
AcDbEntity
8
0
100
AcDbText
62
7
6
BYLAYER
10
21.4371621622
20
41.6672297297
7
STANDARD
40
2.5000000000
1
TOLERANCES UNLESS STATED
41
0.8000000000
72
0
100
AcDbText
0
TEXT
5
2E5
100
AcDbEntity
8
0
100
AcDbText
62
7
6
BYLAYER
10
84.4371621622
20
41.6672297297
7
STANDARD
40
2.5000000000
1
FINISH
41
0.8000000000
72
0
100
AcDbText
0
TEXT
5
2E6
100
AcDbEntity
8
0
100
AcDbText
62
7
6
BYLAYER
10
147.4371621622
20
41.6672297297
7
STANDARD
40
2.5000000000
1
ORIGINAL SCALE
41
0.8000000000
72
0
100
AcDbText
0
TEXT
5
2E7
100
AcDbEntity
8
0
100
AcDbText
62
7
6
BYLAYER
10
44.9871621622
20
34.1672297297
7
STANDARD
40
3.0000000000
1
%%p
41
1.1666666667
72
1
11
46.7371621622
21
34.1672297297
100
AcDbText
0
TEXT
5
2E8
100
AcDbEntity
8
0
100
AcDbText
62
7
6
BYLAYER
10
48.4871621622
20
34.1672297297
7
STANDARD
40
3.0000000000
1
 
41
0.8000000000
72
1
11
49.6871621622
21
34.1672297297
100
AcDbText
0
TEXT
5
2E9
100
AcDbEntity
8
0
100
AcDbText
62
7
6
BYLAYER
10
50.8871621622
20
34.1672297297
7
STANDARD
40
3.0000000000
1
 mm
41
0.8000000000
72
1
11
54.4871621622
21
34.1672297297
100
AcDbText
0
TEXT
5
2EA
100
AcDbEntity
8
0
100
AcDbText
62
7
6
BYLAYER
10
46.3871621622
20
29.6672297297
7
STANDARD
40
3.0000000000
1
%%p
41
1.1666666667
72
1
11
48.1371621622
21
29.6672297297
100
AcDbText
0
TEXT
5
2EB
100
AcDbEntity
8
0
100
AcDbText
62
7
6
BYLAYER
10
49.8871621622
20
29.6672297297
7
STANDARD
40
3.0000000000
1
 
41
0.8000000000
72
1
11
51.0871621622
21
29.6672297297
100
AcDbText
0
TEXT
5
2EC
100
AcDbEntity
8
0
100
AcDbText
62
7
6
BYLAYER
10
52.2871621622
20
29.6672297297
7
STANDARD
40
3.0000000000
1
 %%d
41
0.7333333333
72
1
11
54.4871621622
21
29.6672297297
100
AcDbText
0
TEXT
5
2ED
100
AcDbEntity
8
0
100
AcDbText
62
7
6
BYLAYER
10
102.5371621622
20
34.1672297297
7
STANDARD
40
3.0000000000
1
SEE NOTE 3
41
0.8000000000
72
1
11
114.5371621622
21
34.1672297297
100
AcDbText
0
TEXT
5
2EE
100
AcDbEntity
8
0
100
AcDbText
62
7
6
BYLAYER
10
95.3371621622
20
29.6672297297
7
STANDARD
40
3.0000000000
1
REMOVE ALL BURRS
41
0.8000000000
72
1
11
114.5371621622
21
29.6672297297
100
AcDbText
0
TEXT
5
2EF
100
AcDbEntity
8
0
100
AcDbText
62
7
6
BYLAYER
10
173.9371621622
20
34.1672297297
7
STANDARD
40
3.0000000000
1
1:1
41
0.8000000000
72
1
11
177.5371621622
21
34.1672297297
100
AcDbText
0
TEXT
5
2F0
100
AcDbEntity
8
0
100
AcDbText
62
7
6
BYLAYER
10
163.1371621622
20
29.6672297297
7
STANDARD
40
3.0000000000
1
DO NOT SCALE
41
0.8000000000
72
1
11
177.5371621622
21
29.6672297297
100
AcDbText
0
TEXT
5
2F1
100
AcDbEntity
8
0
100
AcDbText
62
7
6
BYLAYER
10
21.4371621622
20
23.6672297297
7
STANDARD
40
2.5000000000
1
MATERIAL 
41
0.8000000000
72
0
100
AcDbText
0
TEXT
5
2F2
100
AcDbEntity
8
0
100
AcDbText
62
7
6
BYLAYER
10
39.4371621622
20
23.6672297297
7
STANDARD
40
2.5000000000
1
& SPEC.
41
0.8000000000
72
0
100
AcDbText
0
INSERT
5
2F3
100
AcDbEntity
8
0
100
AcDbBlockReference
62
7
6
BYLAYER
2
MICRO_U_BL5
10
0.0000000000
20
0.0000000000
0
TEXT
5
2F4
100
AcDbEntity
8
0
100
AcDbText
62
7
6
BYLAYER
10
84.4371621622
20
24.0083581219
7
STANDARD
40
2.5000000000
1
SURFACE TEXTURE 
41
0.8000000000
72
0
100
AcDbText
0
TEXT
5
2F5
100
AcDbEntity
8
0
100
AcDbText
62
7
6
BYLAYER
10
116.4894190556
20
24.0082838118
7
STANDARD
40
1.8178175258
1
um
41
0.8000000000
72
0
100
AcDbText
0
TEXT
5
2F6
100
AcDbEntity
8
0
100
AcDbText
62
7
6
BYLAYER
10
43.1371621622
20
16.1672297297
7
STANDARD
40
3.0000000000
1
-------
41
0.8000000000
72
1
11
51.5371621622
21
16.1672297297
100
AcDbText
0
TEXT
5
2F7
100
AcDbEntity
8
0
100
AcDbText
62
7
6
BYLAYER
10
39.5371621622
20
11.6672297297
7
STANDARD
40
3.0000000000
1
SEE NOTE 3
41
0.8000000000
72
1
11
51.5371621622
21
11.6672297297
100
AcDbText
0
INSERT
5
2F8
100
AcDbEntity
8
0
100
AcDbBlockReference
62
7
6
BYLAYER
2
SURFACE_FINISH_BL6
10
0.0000000000
20
0.0000000000
0
TEXT
5
2F9
100
AcDbEntity
8
0
100
AcDbText
62
7
6
BYLAYER
10
102.5371621622
20
18.5810150021
7
STANDARD
40
3.0000000000
1
SEE NOTE 3
41
0.8000000000
72
1
11
114.5371621622
21
18.5810150021
100
AcDbText
0
TEXT
5
2FA
100
AcDbEntity
8
0
100
AcDbText
62
7
6
BYLAYER
10
99.8402817594
20
11.6672297297
7
STANDARD
40
3.0000000000
1
 UNLESS STATED
41
0.8000000000
72
1
11
116.6402817594
21
11.6672297297
100
AcDbText
0
TEXT
5
2FB
100
AcDbEntity
8
0
100
AcDbText
62
7
6
BYLAYER
10
95.6340425649
20
12.5409220665
7
STANDARD
40
3.5000000000
1
-
41
0.8000000000
72
0
100
AcDbText
0
LINE
5
2FC
100
AcDbEntity
8
0
100
AcDbLine
62
7
6
BYLAYER
10
10.0000000000
20
10.0000000000
11
10.0000000000
21
116.2000000000
0
LINE
5
2FD
100
AcDbEntity
8
0
100
AcDbLine
62
7
6
BYLAYER
10
10.0000000000
20
10.0000000000
11
20.0000000000
21
10.0000000000
0
LINE
5
2FE
100
AcDbEntity
8
0
100
AcDbLine
62
7
6
BYLAYER
10
20.0000000000
20
10.0000000000
11
20.0000000000
21
116.2000000000
0
LINE
5
2FF
100
AcDbEntity
8
0
100
AcDbLine
62
7
6
BYLAYER
10
10.0000000000
20
25.0000000000
11
20.0000000000
21
25.0000000000
0
LINE
5
300
100
AcDbEntity
8
0
100
AcDbLine
62
7
6
BYLAYER
10
10.0000000000
20
78.2000000000
11
20.0000000000
21
78.2000000000
0
LINE
5
301
100
AcDbEntity
8
0
100
AcDbLine
62
7
6
BYLAYER
10
10.0000000000
20
106.2000000000
11
20.0000000000
21
106.2000000000
0
LINE
5
302
100
AcDbEntity
8
0
100
AcDbLine
62
7
6
BYLAYER
10
10.0000000000
20
116.2000000000
11
20.0000000000
21
116.2000000000
0
TEXT
5
303
100
AcDbEntity
8
0
100
AcDbText
62
7
6
BYLAYER
10
17.5000000000
20
12.5000000000
7
STANDARD
40
5.0000000000
1
A3
50
90.0000000000
41
1.0000000000
72
1
11
17.5000000000
21
17.5000000000
100
AcDbText
0
TEXT
5
304
100
AcDbEntity
8
0
100
AcDbText
62
7
6
BYLAYER
10
17.5000000000
20
26.4000000000
7
TEXTSTYLE_1
40
5.0000000000
1
 
50
90.0000000000
41
1.0000000000
72
0
100
AcDbText
0
TEXT
5
305
100
AcDbEntity
8
0
100
AcDbText
62
7
6
BYLAYER
10
17.5000000000
20
31.4000000000
7
TEXTSTYLE_1
40
5.0000000000
1
TD-1002-971
50
90.0000000000
41
0.7537878788
72
0
100
AcDbText
0
TEXT
5
306
100
AcDbEntity
8
0
100
AcDbText
62
7
6
BYLAYER
10
16.5000000000
20
79.6000000000
7
TEXTSTYLE_1
40
3.0000000000
1
Sheet 
50
90.0000000000
41
0.6666666667
72
0
100
AcDbText
0
TEXT
5
307
100
AcDbEntity
8
0
100
AcDbText
62
7
6
BYLAYER
10
16.5000000000
20
91.6000000000
7
TEXTSTYLE_1
40
3.0000000000
1
1
50
90.0000000000
41
0.3333333333
72
0
100
AcDbText
0
TEXT
5
308
100
AcDbEntity
8
0
100
AcDbText
62
7
6
BYLAYER
10
16.5000000000
20
92.6000000000
7
TEXTSTYLE_1
40
3.0000000000
1
 OF 
50
90.0000000000
41
0.7833333333
72
0
100
AcDbText
0
TEXT
5
309
100
AcDbEntity
8
0
100
AcDbText
62
7
6
BYLAYER
10
16.5000000000
20
102.0000000000
7
TEXTSTYLE_1
40
3.0000000000
1
1
50
90.0000000000
41
0.3333333333
72
0
100
AcDbText
0
TEXT
5
30A
100
AcDbEntity
8
0
100
AcDbText
62
7
6
BYLAYER
10
17.5000000000
20
109.2000000000
7
TEXTSTYLE_1
40
5.0000000000
1
D
50
90.0000000000
41
0.8000000000
72
1
11
17.5000000000
21
111.2000000000
100
AcDbText
0
LINE
5
30B
100
AcDbEntity
8
0
100
AcDbLine
62
7
6
BYLAYER
10
10.0000000000
20
287.0000000000
11
116.2000000000
21
287.0000000000
0
LINE
5
30C
100
AcDbEntity
8
0
100
AcDbLine
62
7
6
BYLAYER
10
10.0000000000
20
287.0000000000
11
10.0000000000
21
277.0000000000
0
LINE
5
30D
100
AcDbEntity
8
0
100
AcDbLine
62
7
6
BYLAYER
10
10.0000000000
20
277.0000000000
11
116.2000000000
21
277.0000000000
0
LINE
5
30E
100
AcDbEntity
8
0
100
AcDbLine
62
7
6
BYLAYER
10
25.0000000000
20
287.0000000000
11
25.0000000000
21
277.0000000000
0
LINE
5
30F
100
AcDbEntity
8
0
100
AcDbLine
62
7
6
BYLAYER
10
78.2000000000
20
287.0000000000
11
78.2000000000
21
277.0000000000
0
LINE
5
310
100
AcDbEntity
8
0
100
AcDbLine
62
7
6
BYLAYER
10
106.2000000000
20
287.0000000000
11
106.2000000000
21
277.0000000000
0
LINE
5
311
100
AcDbEntity
8
0
100
AcDbLine
62
7
6
BYLAYER
10
116.2000000000
20
287.0000000000
11
116.2000000000
21
277.0000000000
0
TEXT
5
312
100
AcDbEntity
8
0
100
AcDbText
62
7
6
BYLAYER
10
12.5000000000
20
279.5000000000
7
STANDARD
40
5.0000000000
1
A3
41
1.0000000000
72
1
11
17.5000000000
21
279.5000000000
100
AcDbText
0
TEXT
5
313
100
AcDbEntity
8
0
100
AcDbText
62
7
6
BYLAYER
10
26.4000000000
20
279.5000000000
7
TEXTSTYLE_1
40
5.0000000000
1
 
41
1.0000000000
72
0
100
AcDbText
0
TEXT
5
314
100
AcDbEntity
8
0
100
AcDbText
62
7
6
BYLAYER
10
31.4000000000
20
279.5000000000
7
TEXTSTYLE_1
40
5.0000000000
1
TD-1002-971
41
0.7537878788
72
0
100
AcDbText
0
TEXT
5
315
100
AcDbEntity
8
0
100
AcDbText
62
7
6
BYLAYER
10
79.6000000000
20
280.5000000000
7
TEXTSTYLE_1
40
3.0000000000
1
Sheet 
41
0.6666666667
72
0
100
AcDbText
0
TEXT
5
316
100
AcDbEntity
8
0
100
AcDbText
62
7
6
BYLAYER
10
91.6000000000
20
280.5000000000
7
TEXTSTYLE_1
40
3.0000000000
1
1
41
0.3333333333
72
0
100
AcDbText
0
TEXT
5
317
100
AcDbEntity
8
0
100
AcDbText
62
7
6
BYLAYER
10
92.6000000000
20
280.5000000000
7
TEXTSTYLE_1
40
3.0000000000
1
 OF 
41
0.7833333333
72
0
100
AcDbText
0
TEXT
5
318
100
AcDbEntity
8
0
100
AcDbText
62
7
6
BYLAYER
10
102.0000000000
20
280.5000000000
7
TEXTSTYLE_1
40
3.0000000000
1
1
41
0.3333333333
72
0
100
AcDbText
0
TEXT
5
319
100
AcDbEntity
8
0
100
AcDbText
62
7
6
BYLAYER
10
109.2000000000
20
279.5000000000
7
TEXTSTYLE_1
40
5.0000000000
1
D
41
0.8000000000
72
1
11
111.2000000000
21
279.5000000000
100
AcDbText
0
LINE
5
31A
100
AcDbEntity
8
0
100
AcDbLine
62
7
6
BYLAYER
10
331.0000000000
20
287.0000000000
11
410.0000000000
21
287.0000000000
0
LINE
5
31B
100
AcDbEntity
8
0
100
AcDbLine
62
7
6
BYLAYER
10
331.0000000000
20
287.0000000000
11
331.0000000000
21
277.0000000000
0
LINE
5
31C
100
AcDbEntity
8
0
100
AcDbLine
62
7
6
BYLAYER
10
331.0000000000
20
277.0000000000
11
410.0000000000
21
277.0000000000
0
LINE
5
31D
100
AcDbEntity
8
0
100
AcDbLine
62
7
6
BYLAYER
10
410.0000000000
20
287.0000000000
11
410.0000000000
21
277.0000000000
0
TEXT
5
31E
100
AcDbEntity
8
0
100
AcDbText
62
7
6
BYLAYER
10
336.5000000000
20
280.7500000000
7
STANDARD
40
2.5000000000
1
THIS DRAWING CONFORMS TO B.S. 8888
41
0.8000000000
72
1
11
370.5000000000
21
280.7500000000
100
AcDbText
0
LINE
5
31F
100
AcDbEntity
8
0
100
AcDbLine
62
7
6
BYLAYER
10
236.4999835399
20
286.9999994947
11
330.9999835399
21
286.9999994947
0
LINE
5
320
100
AcDbEntity
8
0
100
AcDbLine
62
7
6
BYLAYER
10
236.4999835399
20
286.9999994947
11
236.4999835399
21
273.4999994947
0
LINE
5
321
100
AcDbEntity
8
0
100
AcDbLine
62
7
6
BYLAYER
10
236.4999835399
20
273.4999994947
11
330.9999835399
21
273.4999994947
0
LINE
5
322
100
AcDbEntity
8
0
100
AcDbLine
62
7
6
BYLAYER
10
330.9999835399
20
286.9999994947
11
330.9999835399
21
273.4999994947
0
INSERT
5
323
100
AcDbEntity
8
0
100
AcDbBlockReference
62
7
6
BYLAYER
2
PROJECTION_BL7
10
0.0000000000
20
0.0000000000
0
TEXT
5
324
100
AcDbEntity
8
0
100
AcDbText
62
7
6
BYLAYER
10
254.3534835399
20
278.9781218886
7
STANDARD
40
3.5000000000
1
PROJECTION 
41
0.8000000000
72
1
11
269.7534835399
21
278.9781218886
100
AcDbText
0
TEXT
5
325
100
AcDbEntity
8
0
100
AcDbText
62
7
6
BYLAYER
10
290.7970347322
20
278.8891837883
7
STANDARD
40
3.5000000000
1
l
41
0.8000000000
72
0
100
AcDbText
0
LINE
5
326
100
AcDbEntity
8
0
100
AcDbLine
62
7
6
BYLAYER
10
159.0509538372
20
70.9185125895
11
209.0509538372
21
70.9185125895
0
LINE
5
327
100
AcDbEntity
8
0
100
AcDbLine
62
7
6
BYLAYER
10
159.0509538372
20
70.9185125895
11
159.0509538372
21
45.9185125895
0
LINE
5
328
100
AcDbEntity
8
0
100
AcDbLine
62
7
6
BYLAYER
10
159.0509538372
20
45.9185125895
11
209.0509538372
21
45.9185125895
0
LINE
5
329
100
AcDbEntity
8
0
100
AcDbLine
62
7
6
BYLAYER
10
209.0509538372
20
70.9185125895
11
209.0509538372
21
45.9185125895
0
SOLID
5
32A
100
AcDbEntity
8
0
100
AcDbTrace
62
7
6
BYLAYER
10
311.8610933917
20
118.3985906609
11
310.1995086339
21
113.6153766690
12
308.7900358006
22
114.3725994448
13
308.7900358006
23
114.3725994448
0
POLYLINE
5
32B
100
AcDbEntity
8
0
100
AcDb2dPolyline
62
7
6
BYLAYER
66
1
70
0
0
VERTEX
5
32C
100
AcDbEntity
8
0
100
AcDbVertex
62
7
6
BYLAYER
100
AcDb2dVertex
10
296.7044421387
20
109.8463751221
0
VERTEX
5
32D
100
AcDbEntity
8
0
100
AcDbVertex
62
7
6
BYLAYER
100
AcDb2dVertex
10
295.7044555664
20
110.1797167969
0
VERTEX
5
32E
100
AcDbEntity
8
0
100
AcDbVertex
62
7
6
BYLAYER
100
AcDb2dVertex
10
294.7044433594
20
109.8463751221
0
VERTEX
5
32F
100
AcDbEntity
8
0
100
AcDbVertex
62
7
6
BYLAYER
100
AcDb2dVertex
10
294.0377856445
20
109.1797045898
0
VERTEX
5
330
100
AcDbEntity
8
0
100
AcDbVertex
62
7
6
BYLAYER
100
AcDb2dVertex
10
293.7044567871
20
108.1797052002
0
VERTEX
5
331
100
AcDbEntity
8
0
100
AcDbVertex
62
7
6
BYLAYER
100
AcDb2dVertex
10
294.0377856445
20
107.1797058105
0
VERTEX
5
332
100
AcDbEntity
8
0
100
AcDbVertex
62
7
6
BYLAYER
100
AcDb2dVertex
10
294.7044433594
20
106.5130480957
0
VERTEX
5
333
100
AcDbEntity
8
0
100
AcDbVertex
62
7
6
BYLAYER
100
AcDb2dVertex
10
295.7044555664
20
106.1797064209
0
VERTEX
5
334
100
AcDbEntity
8
0
100
AcDbVertex
62
7
6
BYLAYER
100
AcDb2dVertex
10
296.7044421387
20
106.5130480957
0
SEQEND
5
335
100
AcDbEntity
8
0
0
POLYLINE
5
336
100
AcDbEntity
8
0
100
AcDb2dPolyline
62
7
6
BYLAYER
66
1
70
0
0
VERTEX
5
337
100
AcDbEntity
8
0
100
AcDbVertex
62
7
6
BYLAYER
100
AcDb2dVertex
10
295.3711267090
20
111.3463806152
0
VERTEX
5
338
100
AcDbEntity
8
0
100
AcDbVertex
62
7
6
BYLAYER
100
AcDb2dVertex
10
295.3711267090
20
105.1797070312
0
VERTEX
5
339
100
AcDbEntity
8
0
100
AcDbVertex
62
7
6
BYLAYER
100
AcDb2dVertex
10
298.0377832031
20
105.1797070312
0
SEQEND
5
33A
100
AcDbEntity
8
0
0
TEXT
5
33B
100
AcDbEntity
8
0
100
AcDbText
62
7
6
BYLAYER
10
277.7044532111
20
106.1797108668
7
STANDARD
40
4.0000000000
1
PIPE 
41
0.8000000000
72
0
100
AcDbText
0
TEXT
5
33C
100
AcDbEntity
8
0
100
AcDbText
62
7
6
BYLAYER
10
228.7810873508
20
241.4281281590
7
STANDARD
40
3.5000000000
1
NOTES -
41
0.8000000000
72
0
100
AcDbText
0
TEXT
5
33D
100
AcDbEntity
8
0
100
AcDbText
62
7
6
BYLAYER
10
228.7810873508
20
236.1781281590
7
STANDARD
40
3.5000000000
1
 
41
0.8000000000
72
0
100
AcDbText
0
TEXT
5
33E
100
AcDbEntity
8
0
100
AcDbText
62
7
6
BYLAYER
10
228.7810873508
20
230.9281281590
7
STANDARD
40
3.5000000000
1
1 - ALL OUTER MODULE TAPE ENDS SET FOR HIGH MODULES
41
0.8000000000
72
0
100
AcDbText
0
TEXT
5
33F
100
AcDbEntity
8
0
100
AcDbText
62
7
6
BYLAYER
10
228.7810873508
20
225.6781281590
7
STANDARD
40
3.5000000000
1
2 - TAPE DESIGN SET TO ZERO MODULE ROTATION
41
0.8000000000
72
0
100
AcDbText
0
TEXT
5
340
100
AcDbEntity
8
0
100
AcDbText
62
7
6
BYLAYER
10
228.7810873508
20
220.4281281590
7
STANDARD
40
3.5000000000
1
3 - FOR TAPE SPECIFICATIONS REFER TO DOCUMENT ATL-IS-ER-0034
41
0.8000000000
72
0
100
AcDbText
0
TEXT
5
341
100
AcDbEntity
8
0
100
AcDbText
62
7
6
BYLAYER
10
228.7810873508
20
215.1781281590
7
STANDARD
40
3.5000000000
1
4 - ALL TWISTED PAIR WIRES TO LIE ONE WIRE DEEP 4mm EITHER SIDE
41
0.8000000000
72
0
100
AcDbText
0
TEXT
5
342
100
AcDbEntity
8
0
100
AcDbText
62
7
6
BYLAYER
10
228.7810873508
20
209.9281281590
7
STANDARD
40
3.5000000000
1
    OF PIPE CENTER LINES 
41
0.8000000000
72
0
100
AcDbText
0
TEXT
5
343
100
AcDbEntity
8
0
100
AcDbText
62
7
6
BYLAYER
10
228.7810873508
20
204.6781281590
7
STANDARD
40
3.5000000000
1
5 - ANY CUTS  BETWEEN TAPE LEGS MUST NOT BE SHORTENED
41
0.8000000000
72
0
100
AcDbText
0
TEXT
5
344
100
AcDbEntity
8
0
100
AcDbText
62
7
6
BYLAYER
10
228.7810873508
20
199.4281281590
7
STANDARD
40
3.5000000000
1
6 - TAPE ENDS TO INCLUDE TEXT AS SHOWN ON 3D-VIEW
41
0.8000000000
72
0
100
AcDbText
0
TEXT
5
345
100
AcDbEntity
8
0
100
AcDbText
62
7
6
BYLAYER
10
228.7810873508
20
194.1781281590
7
STANDARD
40
3.5000000000
1
7 - TEXT 'TD-1002-971 (W10)' TO BE LOCATED VISIBLY ON TAPE
41
0.8000000000
72
0
100
AcDbText
0
TEXT
5
346
100
AcDbEntity
8
0
100
AcDbText
62
7
6
BYLAYER
10
228.7810873508
20
188.9281281590
7
STANDARD
40
3.5000000000
1
8 - FOR CONNECTOR POSITIONS REFER TO DRAWING TD-1010-345
41
0.8000000000
72
0
100
AcDbText
0
CIRCLE
5
347
100
AcDbEntity
8
0
100
AcDbCircle
62
7
6
BYLAYER
10
180.2229437938
20
262.2777177604
40
0.8000000000
0
TEXT
5
348
100
AcDbEntity
8
0
100
AcDbText
62
7
6
BYLAYER
10
192.0925383366
20
267.3739461673
7
TEXTSTYLE_2
40
4.0000000000
1
I8
41
0.6070038911
72
0
100
AcDbText
0
CIRCLE
5
349
100
AcDbEntity
8
0
100
AcDbCircle
62
7
6
BYLAYER
10
174.2282303803
20
249.1001008655
40
0.8000000000
0
TEXT
5
34A
100
AcDbEntity
8
0
100
AcDbText
62
7
6
BYLAYER
10
150.2118727986
20
251.9382988193
7
TEXTSTYLE_2
40
4.0000000000
1
010
41
0.7276264591
72
0
100
AcDbText
0
CIRCLE
5
34B
100
AcDbEntity
8
0
100
AcDbCircle
62
7
6
BYLAYER
10
68.3294268819
20
201.5714939418
40
0.8000000000
0
TEXT
5
34C
100
AcDbEntity
8
0
100
AcDbText
62
7
6
BYLAYER
10
82.2508975635
20
201.6393790129
7
TEXTSTYLE_2
40
4.0000000000
1
M9
41
1.0233463035
72
0
100
AcDbText
0
TEXT
5
34D
100
AcDbEntity
8
0
100
AcDbText
62
7
6
BYLAYER
10
150.0716010546
20
218.0645074603
7
STANDARD
40
4.0000000000
1
3D-VIEW
41
0.8000000000
72
0
100
AcDbText
0
TEXT
5
34E
100
AcDbEntity
8
0
100
AcDbText
62
7
6
BYLAYER
10
205.8386303471
20
115.7996895600
7
STANDARD
40
4.0000000000
1
DEVELOPED VIEW
41
0.8000000000
72
0
100
AcDbText
0
LINE
5
34F
100
AcDbEntity
8
0
100
AcDbLine
62
7
6
BYLAYER
10
0.0000000000
20
297.0000000000
11
0.0000000000
21
0.0000000000
0
LINE
5
350
100
AcDbEntity
8
0
100
AcDbLine
62
7
6
BYLAYER
10
10.0000000000
20
10.0000000000
11
10.0000000000
21
287.0000000000
0
LINE
5
351
100
AcDbEntity
8
0
100
AcDbLine
62
7
6
BYLAYER
10
10.0010000000
20
106.2230000000
11
10.0010000000
21
276.9990000000
0
LINE
5
352
100
AcDbEntity
8
0
100
AcDbLine
62
7
6
BYLAYER
10
0.0000000000
20
0.0000000000
11
420.0000000000
21
0.0000000000
0
LINE
5
353
100
AcDbEntity
8
0
100
AcDbLine
62
7
6
BYLAYER
10
160.0381492713
20
3.8460928114
11
260.0381492713
21
3.8460928114
0
LINE
5
354
100
AcDbEntity
8
0
100
AcDbLine
62
7
6
BYLAYER
10
160.0381492713
20
3.8460928114
11
160.0381492713
21
8.8460928114
0
LINE
5
355
100
AcDbEntity
8
0
100
AcDbLine
62
7
6
BYLAYER
10
306.3711198778
20
108.1797108668
11
299.3711198778
21
108.1797108668
0
LINE
5
356
100
AcDbEntity
8
0
100
AcDbLine
62
7
6
BYLAYER
10
260.0381492713
20
3.8460928114
11
260.0381492713
21
8.8460928114
0
LINE
5
357
100
AcDbEntity
8
0
100
AcDbLine
62
7
6
BYLAYER
10
311.8610933917
20
118.3985906609
11
306.3711198778
21
108.1797108668
0
LINE
5
358
100
AcDbEntity
8
DEFAULT_1
100
AcDbLine
62
7
6
BYLAYER
10
336.9385494383
20
137.4571224500
11
335.7462458079
21
145.7049121110
0
LINE
5
359
100
AcDbEntity
8
0
100
AcDbLine
62
7
6
BYLAYER
10
106.2230000000
20
286.9990000000
11
237.9920000000
21
286.9990000000
0
LINE
5
35A
100
AcDbEntity
8
0
100
AcDbLine
62
7
6
BYLAYER
10
10.0000000000
20
287.0000000000
11
410.0000000000
21
287.0000000000
0
LINE
5
35B
100
AcDbEntity
8
0
100
AcDbLine
62
7
6
BYLAYER
10
0.0000000000
20
297.0000000000
11
420.0000000000
21
297.0000000000
0
LINE
5
35C
100
AcDbEntity
8
0
100
AcDbLine
62
7
6
BYLAYER
10
401.4430414976
20
21.0017763982
11
401.4430414976
21
10.0350776605
0
LINE
5
35D
100
AcDbEntity
8
0
100
AcDbLine
62
7
6
BYLAYER
10
410.0000000000
20
287.0000000000
11
410.0000000000
21
10.0000000000
0
LINE
5
35E
100
AcDbEntity
8
0
100
AcDbLine
62
7
6
BYLAYER
10
420.0000000000
20
297.0000000000
11
420.0000000000
21
0.0000000000
0
LINE
5
35F
100
AcDbEntity
8
0
100
AcDbLine
62
7
6
BYLAYER
10
25.2172987953
20
193.1360957640
11
24.6616673164
21
158.7571065955
0
LINE
5
360
100
AcDbEntity
8
0
100
AcDbLine
62
7
6
BYLAYER
10
43.2514494845
20
191.7911065023
11
43.2549221813
21
192.0059751846
0
LINE
5
361
100
AcDbEntity
8
0
100
AcDbLine
62
7
6
BYLAYER
10
44.8182894980
20
182.8283895885
11
44.2626580190
21
148.4494004201
0
LINE
5
362
100
AcDbEntity
8
0
100
AcDbLine
62
7
6
BYLAYER
10
44.9955395109
20
182.9163614554
11
44.4399080320
21
148.5373722870
0
LINE
5
363
100
AcDbEntity
8
0
100
AcDbLine
62
7
6
BYLAYER
10
50.6188869635
20
205.4336990788
11
50.6126361093
21
205.0469354506
0
LINE
5
364
100
AcDbEntity
8
0
100
AcDbLine
62
7
6
BYLAYER
10
53.1774502114
20
196.7175310500
11
53.1809229081
21
196.9323997323
0
LINE
5
365
100
AcDbEntity
8
0
100
AcDbLine
62
7
6
BYLAYER
10
57.3286158483
20
199.1656284851
11
57.2571780884
21
200.3715033193
0
LINE
5
366
100
AcDbEntity
8
0
100
AcDbLine
62
7
6
BYLAYER
10
57.5482594532
20
199.1973807725
11
57.4768216933
21
200.4032556066
0
LINE
5
367
100
AcDbEntity
8
0
100
AcDbLine
62
7
6
BYLAYER
10
56.2594598275
20
202.4674526973
11
56.2532089734
21
202.0806890692
0
LINE
5
368
100
AcDbEntity
8
0
100
AcDbLine
62
7
6
BYLAYER
10
56.4367098405
20
202.5554245643
11
56.4304589864
21
202.1686609361
0
LINE
5
369
100
AcDbEntity
8
0
100
AcDbLine
62
7
6
BYLAYER
10
58.9890816023
20
200.7730594813
11
58.9925542991
21
200.9879281636
0
LINE
5
36A
100
AcDbEntity
8
0
100
AcDbLine
62
7
6
BYLAYER
10
59.6897186155
20
208.0065544503
11
59.6931913123
21
208.2214231326
0
LINE
5
36B
100
AcDbEntity
8
0
100
AcDbLine
62
7
6
BYLAYER
10
61.8802497834
20
195.3099810969
11
61.8837224801
21
195.5248497792
0
LINE
5
36C
100
AcDbEntity
8
0
100
AcDbLine
62
7
6
BYLAYER
10
61.9772193658
20
195.3649210581
11
61.9806920626
21
195.5797897404
0
LINE
5
36D
100
AcDbEntity
8
0
100
AcDbLine
62
7
6
BYLAYER
10
62.4406358925
20
209.3718763735
11
62.4441085892
21
209.5867450558
0
LINE
5
36E
100
AcDbEntity
8
0
100
AcDbLine
62
7
6
BYLAYER
10
65.2355897383
20
210.1631802775
11
65.2390624350
21
210.3780489599
0
LINE
5
36F
100
AcDbEntity
8
0
100
AcDbLine
62
7
6
BYLAYER
10
70.1632100627
20
195.5260537709
11
70.1666827594
21
195.7409224532
0
LINE
5
370
100
AcDbEntity
8
0
100
AcDbLine
62
7
6
BYLAYER
10
79.1667137073
20
200.6271600032
11
79.1701864041
21
200.8420286856
0
LINE
5
371
100
AcDbEntity
8
0
100
AcDbLine
62
7
6
BYLAYER
10
59.4700607558
20
196.7946082863
11
58.9890816023
21
200.7730594813
0
LINE
5
372
100
AcDbEntity
8
0
100
AcDbLine
62
7
6
BYLAYER
10
58.9890816023
20
200.7730594813
11
58.9925542991
21
200.9879281636
0
LINE
5
373
100
AcDbEntity
8
0
100
AcDbLine
62
7
6
BYLAYER
10
122.0848013810
20
217.3546134968
11
122.0882740777
21
217.5694821791
0
LINE
5
374
100
AcDbEntity
8
0
100
AcDbLine
62
7
6
BYLAYER
10
126.8890690246
20
218.8416419538
11
126.8925417214
21
219.0565106361
0
LINE
5
375
100
AcDbEntity
8
0
100
AcDbLine
62
7
6
BYLAYER
10
157.6956143653
20
236.7026074861
11
157.6990870620
21
236.9174761684
0
LINE
5
376
100
AcDbEntity
8
0
100
AcDbLine
62
7
6
BYLAYER
10
157.9492771748
20
240.4459957449
11
157.9527498715
21
240.6608644272
0
LINE
5
377
100
AcDbEntity
8
0
100
AcDbLine
62
7
6
BYLAYER
10
160.5826522607
20
240.8857519647
11
160.5861249575
21
241.1006206470
0
LINE
5
378
100
AcDbEntity
8
0
100
AcDbLine
62
7
6
BYLAYER
10
160.8128799497
20
237.2194095127
11
160.8163526464
21
237.4342781950
0
LINE
5
379
100
AcDbEntity
8
0
100
AcDbLine
62
7
6
BYLAYER
10
24.6616673164
20
158.7571065955
11
44.2626580190
21
148.4494004201
0
LINE
5
37A
100
AcDbEntity
8
0
100
AcDbLine
62
7
6
BYLAYER
10
161.5928444410
20
240.7771515784
11
161.5963171378
21
240.9920202607
0
LINE
5
37B
100
AcDbEntity
8
0
100
AcDbLine
62
7
6
BYLAYER
10
165.9631766124
20
247.8933633045
11
165.9666493092
21
248.1082319868
0
LINE
5
37C
100
AcDbEntity
8
0
100
AcDbLine
62
7
6
BYLAYER
10
168.1773677816
20
242.0055148105
11
168.1808404783
21
242.2203834928
0
LINE
5
37D
100
AcDbEntity
8
0
100
AcDbLine
62
7
6
BYLAYER
10
170.0044552436
20
252.3636298084
11
169.9857303254
21
251.2050493745
0
LINE
5
37E
100
AcDbEntity
8
0
100
AcDbLine
62
7
6
BYLAYER
10
170.0638657989
20
243.2643790504
11
170.0673384957
21
243.4792477327
0
LINE
5
37F
100
AcDbEntity
8
0
100
AcDbLine
62
7
6
BYLAYER
10
174.8556429314
20
235.6784606952
11
174.8591156281
21
235.8933293775
0
LINE
5
380
100
AcDbEntity
8
0
100
AcDbLine
62
7
6
BYLAYER
10
175.6391617117
20
257.0597198831
11
175.6426344085
21
257.2745885654
0
LINE
5
381
100
AcDbEntity
8
0
100
AcDbLine
62
7
6
BYLAYER
10
176.4933151277
20
257.8422496641
11
176.4898424310
21
257.6273809818
0
LINE
5
382
100
AcDbEntity
8
0
100
AcDbLine
62
7
6
BYLAYER
10
178.5203803730
20
243.5514592771
11
178.5238530697
21
243.7663279594
0
LINE
5
383
100
AcDbEntity
8
0
100
AcDbLine
62
7
6
BYLAYER
10
181.7235408277
20
237.0869956344
11
181.7270135244
21
237.3018643167
0
LINE
5
384
100
AcDbEntity
8
0
100
AcDbLine
62
7
6
BYLAYER
10
184.2194686514
20
247.9427705254
11
184.1877878424
21
245.9825608734
0
LINE
5
385
100
AcDbEntity
8
0
100
AcDbLine
62
7
6
BYLAYER
10
184.6143291276
20
258.3316144281
11
184.6108564309
21
258.1167457458
0
LINE
5
386
100
AcDbEntity
8
0
100
AcDbLine
62
7
6
BYLAYER
10
184.8860375553
20
254.0887087947
11
184.8825648586
21
253.8738401124
0
LINE
5
387
100
AcDbEntity
8
0
100
AcDbLine
62
7
6
BYLAYER
10
184.6476716509
20
239.3401224414
11
184.6511443476
21
239.5549911237
0
LINE
5
388
100
AcDbEntity
8
0
100
AcDbLine
62
7
6
BYLAYER
10
185.9022031459
20
249.2393657969
11
185.9056758426
21
249.4542344792
0
LINE
5
389
100
AcDbEntity
8
0
100
AcDbLine
62
7
6
BYLAYER
10
187.1474361832
20
252.0117097509
11
187.0340873615
21
244.9983959605
0
LINE
5
38A
100
AcDbEntity
8
0
100
AcDbLine
62
7
6
BYLAYER
10
187.2841366049
20
252.1170413531
11
187.1707877832
21
245.1037275628
0
LINE
5
38B
100
AcDbEntity
8
0
100
AcDbLine
62
7
6
BYLAYER
10
180.6755946544
20
262.9373443202
11
185.0925383366
21
269.3739461673
0
LINE
5
38C
100
AcDbEntity
8
0
100
AcDbLine
62
7
6
BYLAYER
10
190.0250192148
20
261.9421797197
11
190.0215465180
21
261.7273110374
0
LINE
5
38D
100
AcDbEntity
8
0
100
AcDbLine
62
7
6
BYLAYER
10
165.9666493092
20
248.1082319868
11
173.3484720821
21
253.7961385066
0
LINE
5
38E
100
AcDbEntity
8
0
100
AcDbLine
62
7
6
BYLAYER
10
181.3753739867
20
254.5609621208
11
182.0397380363
21
255.0728737075
0
LINE
5
38F
100
AcDbEntity
8
0
100
AcDbLine
62
7
6
BYLAYER
10
184.2216735058
20
253.5767972079
11
184.8860375553
21
254.0887087947
0
LINE
5
390
100
AcDbEntity
8
0
100
AcDbLine
62
7
6
BYLAYER
10
184.3242644654
20
253.4436536199
11
184.8825648586
21
253.8738401124
0
LINE
5
391
100
AcDbEntity
8
0
100
AcDbLine
62
7
6
BYLAYER
10
187.2841366049
20
252.1170413531
11
187.1474361832
21
252.0117097509
0
LINE
5
392
100
AcDbEntity
8
0
100
AcDbLine
62
7
6
BYLAYER
10
185.9056758426
20
249.4542344792
11
178.5238530697
21
243.7663279594
0
LINE
5
393
100
AcDbEntity
8
0
100
AcDbLine
62
7
6
BYLAYER
10
185.9022031459
20
249.2393657969
11
178.5203803730
21
243.5514592771
0
LINE
5
394
100
AcDbEntity
8
0
100
AcDbLine
62
7
6
BYLAYER
10
187.1707877832
20
245.1037275628
11
187.0340873615
21
244.9983959605
0
LINE
5
395
100
AcDbEntity
8
0
100
AcDbLine
62
7
6
BYLAYER
10
181.8048448286
20
240.5391560366
11
178.8807140053
21
238.2860292296
0
LINE
5
396
100
AcDbEntity
8
0
100
AcDbLine
62
7
6
BYLAYER
10
178.0402136133
20
266.6941900114
11
172.6295235262
21
263.0836247198
0
LINE
5
397
100
AcDbEntity
8
0
100
AcDbLine
62
7
6
BYLAYER
10
173.7767591914
20
258.9193719969
11
172.9260784722
21
258.3517108982
0
LINE
5
398
100
AcDbEntity
8
0
100
AcDbLine
62
7
6
BYLAYER
10
176.4933151277
20
257.8422496641
11
175.6426344085
21
257.2745885654
0
LINE
5
399
100
AcDbEntity
8
0
100
AcDbLine
62
7
6
BYLAYER
10
176.4898424310
20
257.6273809818
11
175.6391617117
21
257.0597198831
0
LINE
5
39A
100
AcDbEntity
8
0
100
AcDbLine
62
7
6
BYLAYER
10
184.6143291276
20
258.3316144281
11
190.0250192148
21
261.9421797197
0
LINE
5
39B
100
AcDbEntity
8
0
100
AcDbLine
62
7
6
BYLAYER
10
184.6108564309
20
258.1167457458
11
190.0215465180
21
261.7273110374
0
LINE
5
39C
100
AcDbEntity
8
0
100
AcDbLine
62
7
6
BYLAYER
10
167.3507825593
20
244.5563700655
11
165.4642845420
21
243.2975058256
0
LINE
5
39D
100
AcDbEntity
8
0
100
AcDbLine
62
7
6
BYLAYER
10
170.0673384957
20
243.4792477327
11
168.1808404783
21
242.2203834928
0
LINE
5
39E
100
AcDbEntity
8
0
100
AcDbLine
62
7
6
BYLAYER
10
170.0638657989
20
243.2643790504
11
168.1773677816
21
242.0055148105
0
LINE
5
39F
100
AcDbEntity
8
0
100
AcDbLine
62
7
6
BYLAYER
10
155.3799240922
20
241.8273455705
11
120.8388340053
21
221.8011721496
0
LINE
5
3A0
100
AcDbEntity
8
0
100
AcDbLine
62
7
6
BYLAYER
10
58.9925542991
20
200.9879281636
11
67.9298557111
21
206.0515262619
0
LINE
5
3A1
100
AcDbEntity
8
0
100
AcDbLine
62
7
6
BYLAYER
10
59.4990860048
20
196.7981173251
11
59.3359141897
21
196.7056692298
0
LINE
5
3A2
100
AcDbEntity
8
0
100
AcDbLine
62
7
6
BYLAYER
10
61.9806920626
20
195.5797897404
11
61.8837224801
21
195.5248497792
0
LINE
5
3A3
100
AcDbEntity
8
0
100
AcDbLine
62
7
6
BYLAYER
10
61.9772193658
20
195.3649210581
11
61.8802497834
21
195.3099810969
0
LINE
5
3A4
100
AcDbEntity
8
0
100
AcDbLine
62
7
6
BYLAYER
10
79.1701864041
20
200.8420286856
11
70.1666827594
21
195.7409224532
0
LINE
5
3A5
100
AcDbEntity
8
0
100
AcDbLine
62
7
6
BYLAYER
10
79.1667137073
20
200.6271600032
11
70.1632100627
21
195.5260537709
0
LINE
5
3A6
100
AcDbEntity
8
0
100
AcDbLine
62
7
6
BYLAYER
10
56.8035357252
20
212.5529914373
11
54.0526184482
21
211.1876695141
0
LINE
5
3A7
100
AcDbEntity
8
0
100
AcDbLine
62
7
6
BYLAYER
10
25.3945488083
20
193.2240676309
11
25.2172987953
21
193.1360957640
0
LINE
5
3A8
100
AcDbEntity
8
0
100
AcDbLine
62
7
6
BYLAYER
10
44.2970206472
20
201.6042377831
11
34.3710199204
21
196.6778132354
0
LINE
5
3A9
100
AcDbEntity
8
0
100
AcDbLine
62
7
6
BYLAYER
10
62.4441085892
20
209.5867450558
11
59.6931913123
21
208.2214231326
0
LINE
5
3AA
100
AcDbEntity
8
0
100
AcDbLine
62
7
6
BYLAYER
10
62.4406358925
20
209.3718763735
11
59.6897186155
21
208.0065544503
0
LINE
5
3AB
100
AcDbEntity
8
0
100
AcDbLine
62
7
6
BYLAYER
10
56.4367098405
20
202.5554245643
11
56.2594598275
21
202.4674526973
0
LINE
5
3AC
100
AcDbEntity
8
0
100
AcDbLine
62
7
6
BYLAYER
10
56.4304589864
20
202.1686609361
11
56.2532089734
21
202.0806890692
0
LINE
5
3AD
100
AcDbEntity
8
0
100
AcDbLine
62
7
6
BYLAYER
10
25.2172987953
20
193.1360957640
11
30.5758430162
21
190.3181617016
0
LINE
5
3AE
100
AcDbEntity
8
0
100
AcDbLine
62
7
6
BYLAYER
10
30.5758430162
20
190.3181617016
11
39.4597452771
21
185.6463236509
0
LINE
5
3AF
100
AcDbEntity
8
0
100
AcDbLine
62
7
6
BYLAYER
10
39.4597452771
20
185.6463236509
11
44.8182894980
21
182.8283895885
0
LINE
5
3B0
100
AcDbEntity
8
0
100
AcDbLine
62
7
6
BYLAYER
10
25.3945488083
20
193.2240676309
11
30.6504820711
21
190.4600942903
0
LINE
5
3B1
100
AcDbEntity
8
0
100
AcDbLine
62
7
6
BYLAYER
10
39.6369952901
20
185.7342955178
11
44.9955395109
21
182.9163614554
0
LINE
5
3B2
100
AcDbEntity
8
0
100
AcDbLine
62
7
6
BYLAYER
10
34.3710199204
20
196.6778132354
11
43.2549221813
21
192.0059751846
0
LINE
5
3B3
100
AcDbEntity
8
0
100
AcDbLine
62
7
6
BYLAYER
10
44.2970206472
20
201.6042377831
11
46.6942641145
21
200.3435830710
0
LINE
5
3B4
100
AcDbEntity
8
0
100
AcDbLine
62
7
6
BYLAYER
10
46.6942641145
20
200.3435830710
11
47.5403500441
21
199.8986461138
0
LINE
5
3B5
100
AcDbEntity
8
0
100
AcDbLine
62
7
6
BYLAYER
10
47.5403500441
20
199.8986461138
11
53.1809229081
21
196.9323997323
0
LINE
5
3B6
100
AcDbEntity
8
0
100
AcDbLine
62
7
6
BYLAYER
10
50.6126361093
20
205.0469354506
11
56.2532089734
21
202.0806890692
0
LINE
5
3B7
100
AcDbEntity
8
0
100
AcDbLine
62
7
6
BYLAYER
10
50.6188869635
20
205.4336990788
11
56.2594598275
21
202.4674526973
0
LINE
5
3B8
100
AcDbEntity
8
0
100
AcDbLine
62
7
6
BYLAYER
10
58.7074053229
20
195.6361329423
11
57.2720927250
21
196.4795888447
0
LINE
5
3B9
100
AcDbEntity
8
0
100
AcDbLine
62
7
6
BYLAYER
10
172.6295235262
20
263.0836247198
11
173.7767591914
21
258.9193719969
0
LINE
5
3BA
100
AcDbEntity
8
0
100
AcDbLine
62
7
6
BYLAYER
10
184.6511443476
20
239.5549911237
11
181.7270135244
21
237.3018643167
0
LINE
5
3BB
100
AcDbEntity
8
0
100
AcDbLine
62
7
6
BYLAYER
10
184.6476716509
20
239.3401224414
11
181.7235408277
21
237.0869956344
0
LINE
5
3BC
100
AcDbEntity
8
0
100
AcDbLine
62
7
6
BYLAYER
10
157.9527498715
20
240.6608644272
11
154.2182051253
21
238.4956565387
0
LINE
5
3BD
100
AcDbEntity
8
0
100
AcDbLine
62
7
6
BYLAYER
10
157.9492771748
20
240.4459957449
11
154.4242279799
21
238.4022488245
0
LINE
5
3BE
100
AcDbEntity
8
0
100
AcDbLine
62
7
6
BYLAYER
10
157.6990870620
20
236.9174761684
11
126.8925417214
21
219.0565106361
0
LINE
5
3BF
100
AcDbEntity
8
0
100
AcDbLine
62
7
6
BYLAYER
10
157.6956143653
20
236.7026074861
11
126.8890690246
21
218.8416419538
0
LINE
5
3C0
100
AcDbEntity
8
0
100
AcDbLine
62
7
6
BYLAYER
10
53.1809229081
20
196.9323997323
11
43.2549221813
21
192.0059751846
0
LINE
5
3C1
100
AcDbEntity
8
0
100
AcDbLine
62
7
6
BYLAYER
10
53.1774502114
20
196.7175310500
11
43.2514494845
21
191.7911065023
0
LINE
5
3C2
100
AcDbEntity
8
0
100
AcDbLine
62
7
6
BYLAYER
10
39.6369952901
20
185.7342955178
11
39.4597452771
21
185.6463236509
0
LINE
5
3C3
100
AcDbEntity
8
0
100
AcDbLine
62
7
6
BYLAYER
10
44.9955395109
20
182.9163614554
11
44.8182894980
21
182.8283895885
0
LINE
5
3C4
100
AcDbEntity
8
0
100
AcDbLine
62
7
6
BYLAYER
10
59.3359141897
20
196.7056692298
11
61.8837224801
21
195.5248497792
0
LINE
5
3C5
100
AcDbEntity
8
0
100
AcDbLine
62
7
6
BYLAYER
10
67.9298557111
20
206.0515262619
11
79.1701864041
21
200.8420286856
0
LINE
5
3C6
100
AcDbEntity
8
0
100
AcDbLine
62
7
6
BYLAYER
10
54.0526184482
20
211.1876695141
11
59.6931913123
21
208.2214231326
0
LINE
5
3C7
100
AcDbEntity
8
0
100
AcDbLine
62
7
6
BYLAYER
10
184.2216735058
20
253.5767972079
11
185.9056758426
21
249.4542344792
0
LINE
5
3C8
100
AcDbEntity
8
0
100
AcDbLine
62
7
6
BYLAYER
10
44.4399080320
20
148.5373722870
11
44.2626580190
21
148.4494004201
0
LINE
5
3C9
100
AcDbEntity
8
0
100
AcDbLine
62
7
6
BYLAYER
10
69.0959482113
20
201.8005027878
11
75.2508975635
21
203.6393790129
0
LINE
5
3CA
100
AcDbEntity
8
0
100
AcDbLine
62
7
6
BYLAYER
10
55.7169307742
20
199.5534665393
11
57.3286158483
21
199.1656284851
0
LINE
5
3CB
100
AcDbEntity
8
0
100
AcDbLine
62
7
6
BYLAYER
10
56.1740413074
20
200.6321508045
11
57.2571780884
21
200.3715033193
0
LINE
5
3CC
100
AcDbEntity
8
0
100
AcDbLine
62
7
6
BYLAYER
10
154.2182051253
20
238.4956565387
11
155.1262612827
21
238.0839573116
0
LINE
5
3CD
100
AcDbEntity
8
0
100
AcDbLine
62
7
6
BYLAYER
10
173.5374023932
20
249.5035320150
11
165.9433903084
21
253.9382988193
0
LINE
5
3CE
100
AcDbEntity
8
0
100
AcDbLine
62
7
6
BYLAYER
10
70.1632100627
20
195.5260537709
11
61.9772193658
21
195.3649210581
0
LINE
5
3CF
100
AcDbEntity
8
0
100
AcDbLine
62
7
6
BYLAYER
10
70.1666827594
20
195.7409224532
11
61.9806920626
21
195.5797897404
0
LINE
5
3D0
100
AcDbEntity
8
0
100
AcDbLine
62
7
6
BYLAYER
10
181.8048448286
20
240.5391560366
11
184.6511443476
21
239.5549911237
0
LINE
5
3D1
100
AcDbEntity
8
0
100
AcDbLine
62
7
6
BYLAYER
10
178.5203803730
20
243.5514592771
11
165.9631766124
21
247.8933633045
0
LINE
5
3D2
100
AcDbEntity
8
0
100
AcDbLine
62
7
6
BYLAYER
10
165.9666493092
20
248.1082319868
11
178.5238530697
21
243.7663279594
0
LINE
5
3D3
100
AcDbEntity
8
0
100
AcDbLine
62
7
6
BYLAYER
10
184.1877878424
20
245.9825608734
11
187.0340873615
21
244.9983959605
0
LINE
5
3D4
100
AcDbEntity
8
0
100
AcDbLine
62
7
6
BYLAYER
10
184.4849306284
20
252.9323242294
11
187.1474361832
21
252.0117097509
0
LINE
5
3D5
100
AcDbEntity
8
0
100
AcDbLine
62
7
6
BYLAYER
10
182.0397380363
20
255.0728737075
11
184.8860375553
21
254.0887087947
0
LINE
5
3D6
100
AcDbEntity
8
0
100
AcDbLine
62
7
6
BYLAYER
10
186.2940685708
20
254.4740142494
11
183.4477690517
21
255.4581791623
0
LINE
5
3D7
100
AcDbEntity
8
0
100
AcDbLine
62
7
6
BYLAYER
10
167.3507825593
20
244.5563700655
11
170.0673384957
21
243.4792477327
0
LINE
5
3D8
100
AcDbEntity
8
0
100
AcDbLine
62
7
6
BYLAYER
10
170.0044552436
20
252.3636298084
11
170.9848505547
21
251.9749002150
0
LINE
5
3D9
100
AcDbEntity
8
0
100
AcDbLine
62
7
6
BYLAYER
10
172.9260784722
20
258.3517108982
11
175.6426344085
21
257.2745885654
0
LINE
5
3DA
100
AcDbEntity
8
0
100
AcDbLine
62
7
6
BYLAYER
10
190.0250192148
20
261.9421797197
11
178.0402136133
21
266.6941900114
0
LINE
5
3DB
100
AcDbEntity
8
0
100
AcDbLine
62
7
6
BYLAYER
10
75.2508975635
20
203.6393790129
11
82.2508975635
21
203.6393790129
0
LINE
5
3DC
100
AcDbEntity
8
0
100
AcDbLine
62
7
6
BYLAYER
10
161.5928444410
20
240.7771515784
11
160.5826522607
21
240.8857519647
0
LINE
5
3DD
100
AcDbEntity
8
0
100
AcDbLine
62
7
6
BYLAYER
10
161.5963171378
20
240.9920202607
11
160.5861249575
21
241.1006206470
0
LINE
5
3DE
100
AcDbEntity
8
0
100
AcDbLine
62
7
6
BYLAYER
10
162.2211611056
20
242.6924910993
11
161.2109689253
21
242.8010914856
0
LINE
5
3DF
100
AcDbEntity
8
0
100
AcDbLine
62
7
6
BYLAYER
10
174.8556429314
20
235.6784606952
11
160.8128799497
21
237.2194095127
0
LINE
5
3E0
100
AcDbEntity
8
0
100
AcDbLine
62
7
6
BYLAYER
10
174.8591156281
20
235.8933293775
11
160.8163526464
21
237.4342781950
0
LINE
5
3E1
100
AcDbEntity
8
0
100
AcDbLine
62
7
6
BYLAYER
10
175.4980180266
20
237.5922732147
11
161.4552550449
21
239.1332220323
0
LINE
5
3E2
100
AcDbEntity
8
0
100
AcDbLine
62
7
6
BYLAYER
10
57.3286158483
20
199.1656284851
11
57.5482594532
21
199.1973807725
0
LINE
5
3E3
100
AcDbEntity
8
0
100
AcDbLine
62
7
6
BYLAYER
10
57.2571780884
20
200.3715033193
11
57.4768216933
21
200.4032556066
0
LINE
5
3E4
100
AcDbEntity
8
0
100
AcDbLine
62
7
6
BYLAYER
10
122.0848013810
20
217.3546134968
11
65.2355897383
21
210.1631802775
0
LINE
5
3E5
100
AcDbEntity
8
0
100
AcDbLine
62
7
6
BYLAYER
10
122.0882740777
20
217.5694821791
11
65.2390624350
21
210.3780489599
0
LINE
5
3E6
100
AcDbEntity
8
0
100
AcDbLine
62
7
6
BYLAYER
10
119.9968489543
20
221.5405589149
11
63.1476373116
21
214.3491256956
0
LINE
5
3E7
100
AcDbEntity
8
0
100
AcDbLine
62
7
6
BYLAYER
10
165.9433903084
20
253.9382988193
11
158.9433903084
21
253.9382988193
0
LINE
5
3E8
100
AcDbEntity
8
0
100
AcDbLine
62
7
6
BYLAYER
10
173.3484720821
20
253.7961385066
11
181.3753739867
21
254.5609621208
0
LINE
5
3E9
100
AcDbEntity
8
0
100
AcDbLine
62
7
6
BYLAYER
10
176.4898424310
20
257.6273809818
11
184.6108564309
21
258.1167457458
0
LINE
5
3EA
100
AcDbEntity
8
0
100
AcDbLine
62
7
6
BYLAYER
10
176.4933151277
20
257.8422496641
11
184.6143291276
21
258.3316144281
0
LINE
5
3EB
100
AcDbEntity
8
0
100
AcDbLine
62
7
6
BYLAYER
10
185.0925383366
20
269.3739461673
11
192.0925383366
21
269.3739461673
0
LINE
5
3EC
100
AcDbEntity
8
0
100
AcDbLine
62
7
6
BYLAYER
10
126.7798900493
20
183.0272570244
11
126.7798900493
21
155.2272570244
0
LINE
5
3ED
100
AcDbEntity
8
0
100
AcDbLine
62
7
6
BYLAYER
10
206.8118917923
20
173.5571544159
11
205.3874497894
21
170.4789706259
0
LINE
5
3EE
100
AcDbEntity
8
0
100
AcDbLine
62
7
6
BYLAYER
10
207.9231479589
20
173.0459240662
11
206.4987059560
21
169.9677402761
0
LINE
5
3EF
100
AcDbEntity
8
0
100
AcDbLine
62
7
6
BYLAYER
10
214.8747594943
20
171.9995752002
11
219.9790957263
21
178.4014975345
0
LINE
5
3F0
100
AcDbEntity
8
0
100
AcDbLine
62
7
6
BYLAYER
10
166.7798900493
20
183.0272570244
11
166.7798900493
21
175.4272570244
0
LINE
5
3F1
100
AcDbEntity
8
0
100
AcDbLine
62
7
6
BYLAYER
10
166.7798900493
20
175.4272570244
11
166.7798900493
21
162.8272570244
0
LINE
5
3F2
100
AcDbEntity
8
0
100
AcDbLine
62
7
6
BYLAYER
10
166.7798900493
20
162.8272570244
11
166.7798900493
21
155.2272570244
0
LINE
5
3F3
100
AcDbEntity
8
0
100
AcDbLine
62
7
6
BYLAYER
10
174.7588716833
20
175.4272570244
11
174.7588716833
21
162.8272570244
0
LINE
5
3F4
100
AcDbEntity
8
0
100
AcDbLine
62
7
6
BYLAYER
10
188.7588716833
20
175.4272570244
11
188.7588716833
21
172.0272570244
0
LINE
5
3F5
100
AcDbEntity
8
0
100
AcDbLine
62
7
6
BYLAYER
10
188.7588716833
20
172.0272570244
11
188.7588716833
21
170.8272570244
0
LINE
5
3F6
100
AcDbEntity
8
0
100
AcDbLine
62
7
6
BYLAYER
10
188.7588716833
20
170.8272570244
11
188.7588716833
21
162.8272570244
0
LINE
5
3F7
100
AcDbEntity
8
0
100
AcDbLine
62
7
6
BYLAYER
10
195.5597560722
20
170.8272570244
11
195.5597560722
21
162.8272570244
0
LINE
5
3F8
100
AcDbEntity
8
0
100
AcDbLine
62
7
6
BYLAYER
10
196.0097560722
20
170.8272570244
11
196.0097560722
21
162.8272570244
0
LINE
5
3F9
100
AcDbEntity
8
0
100
AcDbLine
62
7
6
BYLAYER
10
198.2054189797
20
175.4413980117
11
198.2054189797
21
172.0513564165
0
LINE
5
3FA
100
AcDbEntity
8
0
100
AcDbLine
62
7
6
BYLAYER
10
203.2033395428
20
170.8272570244
11
203.2033395428
21
162.8272570244
0
LINE
5
3FB
100
AcDbEntity
8
0
100
AcDbLine
62
7
6
BYLAYER
10
205.3874497894
20
170.4598504362
11
205.3874497894
21
170.4789706259
0
LINE
5
3FC
100
AcDbEntity
8
0
100
AcDbLine
62
7
6
BYLAYER
10
206.4987059560
20
169.9486200864
11
206.4987059560
21
169.9677402761
0
LINE
5
3FD
100
AcDbEntity
8
0
100
AcDbLine
62
7
6
BYLAYER
10
215.0157159672
20
168.5844243883
11
215.0157159672
21
168.6035445780
0
LINE
5
3FE
100
AcDbEntity
8
0
100
AcDbLine
62
7
6
BYLAYER
10
215.1612445382
20
168.6009979656
11
215.1612445382
21
168.6201181553
0
LINE
5
3FF
100
AcDbEntity
8
0
100
AcDbLine
62
7
6
BYLAYER
10
221.5819728171
20
163.5116120415
11
221.5819728171
21
163.5307322312
0
LINE
5
400
100
AcDbEntity
8
0
100
AcDbLine
62
7
6
BYLAYER
10
235.0941174160
20
165.0504478328
11
235.0941174160
21
165.0695680225
0
LINE
5
401
100
AcDbEntity
8
0
100
AcDbLine
62
7
6
BYLAYER
10
214.6298769189
20
171.9716866538
11
215.0157159672
21
168.6035445780
0
LINE
5
402
100
AcDbEntity
8
0
100
AcDbLine
62
7
6
BYLAYER
10
354.4429233136
20
148.2771718947
11
349.5294689898
21
141.7092219399
0
LINE
5
403
100
AcDbEntity
8
0
100
AcDbLine
62
7
6
BYLAYER
10
233.3918863208
20
179.9290183568
11
235.0941174160
21
165.0695680225
0
LINE
5
404
100
AcDbEntity
8
0
100
AcDbLine
62
7
6
BYLAYER
10
363.3421997108
20
135.2372552257
11
358.8757550036
21
128.3575116493
0
LINE
5
405
100
AcDbEntity
8
0
100
AcDbLine
62
7
6
BYLAYER
10
313.5648362837
20
139.7392377237
11
313.6556646731
21
138.5426800762
0
LINE
5
406
100
AcDbEntity
8
0
100
AcDbLine
62
7
6
BYLAYER
10
336.4017252879
20
123.5773556053
11
337.1090715082
21
120.2517486946
0
LINE
5
407
100
AcDbEntity
8
0
100
AcDbLine
62
7
6
BYLAYER
10
331.4566817135
20
139.1048935091
11
331.9416200881
21
135.7396543240
0
LINE
5
408
100
AcDbEntity
8
0
100
AcDbLine
62
7
6
BYLAYER
10
338.1880354308
20
140.0748963977
11
338.6729738054
21
136.7096572126
0
LINE
5
409
100
AcDbEntity
8
0
100
AcDbLine
62
7
6
BYLAYER
10
341.0088976889
20
140.4813888588
11
341.4938360635
21
137.1161496737
0
LINE
5
40A
100
AcDbEntity
8
0
100
AcDbLine
62
7
6
BYLAYER
10
348.1289356231
20
141.5074019987
11
348.6138739977
21
138.1421628136
0
LINE
5
40B
100
AcDbEntity
8
0
100
AcDbLine
62
7
6
BYLAYER
10
343.0538041475
20
124.9922320368
11
343.7611503678
21
121.6666251261
0
LINE
5
40C
100
AcDbEntity
8
0
100
AcDbLine
62
7
6
BYLAYER
10
351.0352607333
20
126.6898629655
11
351.7426069535
21
123.3642560548
0
LINE
5
40D
100
AcDbEntity
8
0
100
AcDbLine
62
7
6
BYLAYER
10
357.6873395929
20
128.1047393970
11
358.3946858132
21
124.7791324863
0
LINE
5
40E
100
AcDbEntity
8
0
100
AcDbLine
62
7
6
BYLAYER
10
365.4903433974
20
134.7141888344
11
363.3509093918
21
149.5608322980
0
LINE
5
40F
100
AcDbEntity
8
0
100
AcDbLine
62
7
6
BYLAYER
10
221.5819728171
20
163.5116120415
11
215.1612445382
21
168.6009979656
0
LINE
5
410
100
AcDbEntity
8
0
100
AcDbLine
62
7
6
BYLAYER
10
322.3630165340
20
138.1220945211
11
321.7798561513
21
138.9684361294
0
LINE
5
411
100
AcDbEntity
8
0
100
AcDbLine
62
7
6
BYLAYER
10
325.1627491008
20
140.0512128573
11
324.5795887180
21
140.8975544656
0
LINE
5
412
100
AcDbEntity
8
0
100
AcDbLine
62
7
6
BYLAYER
10
324.9514237480
20
121.9143540428
11
316.8880332841
21
133.7228265860
0
LINE
5
413
100
AcDbEntity
8
0
100
AcDbLine
62
7
6
BYLAYER
10
327.7592503188
20
123.8316724692
11
319.6958598549
21
135.6401450124
0
LINE
5
414
100
AcDbEntity
8
0
100
AcDbLine
62
7
6
BYLAYER
10
379.6674604753
20
123.3740406120
11
376.5468153857
21
138.0458358063
0
LINE
5
415
100
AcDbEntity
8
0
100
AcDbLine
62
7
6
BYLAYER
10
206.4987059560
20
169.9486200864
11
205.3874497894
21
170.4598504362
0
LINE
5
416
100
AcDbEntity
8
0
100
AcDbLine
62
7
6
BYLAYER
10
261.3766512721
20
132.8300177525
11
210.2032453846
21
162.0004792746
0
LINE
5
417
100
AcDbEntity
8
0
100
AcDbLine
62
7
6
BYLAYER
10
265.3384417058
20
139.7801412449
11
223.3528042676
21
163.7132838632
0
LINE
5
418
100
AcDbEntity
8
0
100
AcDbLine
62
7
6
BYLAYER
10
216.1416955345
20
167.8238441470
11
214.9646316804
21
168.4948078101
0
LINE
5
419
100
AcDbEntity
8
0
100
AcDbLine
62
7
6
BYLAYER
10
207.9231479589
20
173.0459240662
11
206.8118917923
21
173.5571544159
0
LINE
5
41A
100
AcDbEntity
8
0
100
AcDbLine
62
7
6
BYLAYER
10
359.5831012239
20
125.0319047386
11
366.4628448003
21
120.5654600314
0
LINE
5
41B
100
AcDbEntity
8
0
100
AcDbLine
62
7
6
BYLAYER
10
350.0144073644
20
138.3439827548
11
356.5823573192
21
133.4305284311
0
LINE
5
41C
100
AcDbEntity
8
0
100
AcDbLine
62
7
6
BYLAYER
10
366.4628448003
20
120.5654600314
11
379.6674604753
21
123.3740406120
0
LINE
5
41D
100
AcDbEntity
8
0
100
AcDbLine
62
7
6
BYLAYER
10
359.5831012239
20
125.0319047386
11
331.8783818951
21
119.1391973238
0
LINE
5
41E
100
AcDbEntity
8
0
100
AcDbLine
62
7
6
BYLAYER
10
358.8757550036
20
128.3575116493
11
331.1710356748
21
122.4648042345
0
LINE
5
41F
100
AcDbEntity
8
0
100
AcDbLine
62
7
6
BYLAYER
10
376.5468153857
20
138.0458358063
11
363.3421997108
21
135.2372552257
0
LINE
5
420
100
AcDbEntity
8
0
100
AcDbLine
62
7
6
BYLAYER
10
356.5823573192
20
133.4305284311
11
365.4903433974
21
134.7141888344
0
LINE
5
421
100
AcDbEntity
8
0
100
AcDbLine
62
7
6
BYLAYER
10
350.0144073644
20
138.3439827548
11
328.8357504478
21
135.2920916718
0
LINE
5
422
100
AcDbEntity
8
0
100
AcDbLine
62
7
6
BYLAYER
10
349.5294689898
20
141.7092219399
11
328.3508120732
21
138.6573308569
0
LINE
5
423
100
AcDbEntity
8
0
100
AcDbLine
62
7
6
BYLAYER
10
313.9130117767
20
135.1524334084
11
266.9145183213
21
131.5848681702
0
LINE
5
424
100
AcDbEntity
8
0
100
AcDbLine
62
7
6
BYLAYER
10
319.2622611288
20
140.1717182849
11
313.5648362837
21
139.7392377237
0
LINE
5
425
100
AcDbEntity
8
0
100
AcDbLine
62
7
6
BYLAYER
10
319.0049140252
20
143.5619649526
11
266.3089957247
21
139.5619191531
0
LINE
5
426
100
AcDbEntity
8
0
100
AcDbLine
62
7
6
BYLAYER
10
363.3509093918
20
149.5608322980
11
354.4429233136
21
148.2771718947
0
LINE
5
427
100
AcDbEntity
8
0
100
AcDbLine
62
7
6
BYLAYER
10
166.7798900493
20
155.2272570244
11
126.7798900493
21
155.2272570244
0
LINE
5
428
100
AcDbEntity
8
0
100
AcDbLine
62
7
6
BYLAYER
10
207.0833354180
20
162.8272570244
11
166.7798900493
21
162.8272570244
0
LINE
5
429
100
AcDbEntity
8
0
100
AcDbLine
62
7
6
BYLAYER
10
207.0833354180
20
170.8272570244
11
188.7588716833
21
170.8272570244
0
LINE
5
42A
100
AcDbEntity
8
0
100
AcDbLine
62
7
6
BYLAYER
10
189.7587120456
20
175.4272570393
11
188.7588716833
21
175.4272570244
0
LINE
5
42B
100
AcDbEntity
8
0
100
AcDbLine
62
7
6
BYLAYER
10
188.7588716833
20
175.4272570244
11
166.7798900493
21
175.4272570244
0
LINE
5
42C
100
AcDbEntity
8
0
100
AcDbLine
62
7
6
BYLAYER
10
235.0941174160
20
165.0504478328
11
221.5819728171
21
163.5116120415
0
LINE
5
42D
100
AcDbEntity
8
0
100
AcDbLine
62
7
6
BYLAYER
10
215.1612445382
20
168.6009979656
11
215.0157159672
21
168.5844243883
0
LINE
5
42E
100
AcDbEntity
8
0
100
AcDbLine
62
7
6
BYLAYER
10
214.8747594943
20
171.9995752002
11
214.6298769189
21
171.9716866538
0
LINE
5
42F
100
AcDbEntity
8
0
100
AcDbLine
62
7
6
BYLAYER
10
219.9790957263
20
178.4014975345
11
233.3918863208
21
179.9290183568
0
LINE
5
430
100
AcDbEntity
8
0
100
AcDbLine
62
7
6
BYLAYER
10
166.7798900493
20
183.0272570244
11
126.7798900493
21
183.0272570244
0
ARC
5
431
100
AcDbEntity
8
DEFAULT_1
100
AcDbCircle
62
7
6
BYLAYER
10
316.5504798725
20
134.5098153097
40
20.6000000000
100
AcDbArc
50
283.1536920000
51
8.2257161552
0
ARC
5
432
100
AcDbEntity
8
0
100
AcDbCircle
62
7
6
BYLAYER
10
266.1803221730
20
141.2570424870
40
1.7000000000
100
AcDbArc
50
240.3154906777
51
274.3408877382
0
ARC
5
433
100
AcDbEntity
8
0
100
AcDbCircle
62
7
6
BYLAYER
10
207.0833354180
20
156.5272570244
40
14.3000000000
100
AcDbArc
50
60.3154906777
51
90.0000000000
0
ARC
5
434
100
AcDbEntity
8
0
100
AcDbCircle
62
7
6
BYLAYER
10
330.4844937551
20
125.6925991772
40
3.3000000000
100
AcDbArc
50
214.3271323930
51
282.0076920000
0
ARC
5
435
100
AcDbEntity
8
0
100
AcDbCircle
62
7
6
BYLAYER
10
207.0833354180
20
156.5272570244
40
6.3000000000
100
AcDbArc
50
60.3154906777
51
90.0000000000
0
ARC
5
436
100
AcDbEntity
8
0
100
AcDbCircle
62
7
6
BYLAYER
10
314.1627898477
20
131.8618998780
40
6.7000000000
100
AcDbArc
50
34.3271323930
51
94.3408877382
0
ARC
5
437
100
AcDbEntity
8
0
100
AcDbCircle
62
7
6
BYLAYER
10
266.1803221730
20
141.2570424870
40
9.7000000000
100
AcDbArc
50
240.3154906777
51
274.3408877382
0
ARC
5
438
100
AcDbEntity
8
0
100
AcDbCircle
62
7
6
BYLAYER
10
327.8801365920
20
141.9235924189
40
3.3000000000
100
AcDbArc
50
214.5682654816
51
278.2000000000
0
ARC
5
439
100
AcDbEntity
8
0
100
AcDbCircle
62
7
6
BYLAYER
10
319.4741940375
20
137.3797504408
40
6.2000000000
100
AcDbArc
50
34.5682654816
51
94.3408877382
0
ARC
5
43A
100
AcDbEntity
8
0
100
AcDbCircle
62
7
6
BYLAYER
10
314.1627898477
20
131.8618998780
40
3.3000000000
100
AcDbArc
50
34.3271323930
51
94.3408877382
0
ARC
5
43B
100
AcDbEntity
8
0
100
AcDbCircle
62
7
6
BYLAYER
10
330.4844937551
20
125.6925991772
40
6.7000000000
100
AcDbArc
50
214.3271323930
51
282.0076920000
0
ARC
5
43C
100
AcDbEntity
8
0
100
AcDbCircle
62
7
6
BYLAYER
10
327.8801365920
20
141.9235924189
40
6.7000000000
100
AcDbArc
50
214.5682654816
51
278.2000000000
0
ARC
5
43D
100
AcDbEntity
8
0
100
AcDbCircle
62
7
6
BYLAYER
10
319.4741940375
20
137.3797504408
40
2.8000000000
100
AcDbArc
50
34.5682654816
51
94.3408877382
0
SPLINE
5
43E
100
AcDbEntity
8
0
100
AcDbSpline
62
7
6
BYLAYER
70
0
71
3
72
9
73
5
74
3
42
0.0000001000
43
0.0000001000
44
0.0000000001
40
0.0000000000
40
0.0000000000
40
0.0000000000
40
0.0000000000
40
0.4173235209
40
1.0000000000
40
1.0000000000
40
1.0000000000
40
1.0000000000
10
59.4133001879
20
195.5117495015
30
0.0000000000
10
59.2742599591
20
195.5933423109
30
0.0000000000
10
58.9587832537
20
195.8192020618
30
0.0000000000
10
58.6929589163
20
196.1015955807
30
0.0000000000
10
58.5541987028
20
196.2786328837
30
0.0000000000
11
59.4133001879
21
195.5117495015
31
0.0000000000
11
59.0195956631
21
195.7917013439
31
0.0000000000
11
58.5541987028
21
196.2786328837
31
0.0000000000
0
SPLINE
5
43F
100
AcDbEntity
8
0
100
AcDbSpline
62
7
6
BYLAYER
70
0
71
3
72
10
73
6
74
4
42
0.0000001000
43
0.0000001000
44
0.0000000001
40
0.0000000000
40
0.0000000000
40
0.0000000000
40
0.0000000000
40
0.1182345799
40
0.7389306133
40
1.0000000000
40
1.0000000000
40
1.0000000000
40
1.0000000000
10
58.5541987028
20
196.2786328837
30
0.0000000000
10
58.5179965687
20
196.3248213985
30
0.0000000000
10
58.2986055415
20
196.6188003698
30
0.0000000000
10
58.0590509828
20
197.0553041972
30
0.0000000000
10
57.9008302333
20
197.4642362360
30
0.0000000000
10
57.8584604044
20
197.5869791597
30
0.0000000000
11
58.5541987028
21
196.2786328837
31
0.0000000000
11
58.4488730173
21
196.4196305775
31
0.0000000000
11
57.9991678159
21
197.2241936864
31
0.0000000000
11
57.8584604044
21
197.5869791597
31
0.0000000000
0
SPLINE
5
440
100
AcDbEntity
8
0
100
AcDbSpline
62
7
6
BYLAYER
70
0
71
3
72
8
73
4
74
2
42
0.0000001000
43
0.0000001000
44
0.0000000001
40
0.0000000000
40
0.0000000000
40
0.0000000000
40
0.0000000000
40
1.0000000000
40
1.0000000000
40
1.0000000000
40
1.0000000000
10
57.8584604044
20
197.5869791597
30
0.0000000000
10
57.6796200065
20
198.1050693637
30
0.0000000000
10
57.5805165763
20
198.6528780734
30
0.0000000000
10
57.5482594532
20
199.1973807725
30
0.0000000000
11
57.8584604044
21
197.5869791597
31
0.0000000000
11
57.5482594532
21
199.1973807725
31
0.0000000000
0
SPLINE
5
441
100
AcDbEntity
8
0
100
AcDbSpline
62
7
6
BYLAYER
70
0
71
3
72
8
73
4
74
2
42
0.0000001000
43
0.0000001000
44
0.0000000001
40
0.0000000000
40
0.0000000000
40
0.0000000000
40
0.0000000000
40
1.0000000000
40
1.0000000000
40
1.0000000000
40
1.0000000000
10
57.4768216933
20
200.4032556066
30
0.0000000000
10
57.4628987463
20
200.6382760135
30
0.0000000000
10
57.4332980259
20
200.8737449742
30
0.0000000000
10
57.3877029112
20
201.1063807550
30
0.0000000000
11
57.4768216933
21
200.4032556066
31
0.0000000000
11
57.3877029112
21
201.1063807550
31
0.0000000000
0
SPLINE
5
442
100
AcDbEntity
8
0
100
AcDbSpline
62
7
6
BYLAYER
70
0
71
3
72
8
73
4
74
2
42
0.0000001000
43
0.0000001000
44
0.0000000001
40
0.0000000000
40
0.0000000000
40
0.0000000000
40
0.0000000000
40
1.0000000000
40
1.0000000000
40
1.0000000000
40
1.0000000000
10
57.3877029112
20
201.1063807550
30
0.0000000000
10
57.3384059608
20
201.3579040734
30
0.0000000000
10
57.2704120382
20
201.6061154885
30
0.0000000000
10
57.1833209729
20
201.8468672887
30
0.0000000000
11
57.3877029112
21
201.1063807550
31
0.0000000000
11
57.1833209729
21
201.8468672887
31
0.0000000000
0
SPLINE
5
443
100
AcDbEntity
8
0
100
AcDbSpline
62
7
6
BYLAYER
70
0
71
3
72
10
73
6
74
4
42
0.0000001000
43
0.0000001000
44
0.0000000001
40
0.0000000000
40
0.0000000000
40
0.0000000000
40
0.0000000000
40
0.2547468307
40
0.8671082614
40
1.0000000000
40
1.0000000000
40
1.0000000000
40
1.0000000000
10
57.1833209729
20
201.8468672887
30
0.0000000000
10
57.1433901091
20
201.9572509122
30
0.0000000000
10
56.9938084827
20
202.3276374601
30
0.0000000000
10
56.7671461532
20
202.7284945134
30
0.0000000000
10
56.5584897781
20
203.0001009803
30
0.0000000000
10
56.5200013390
20
203.0475037487
30
0.0000000000
11
57.1833209729
21
201.8468672887
31
0.0000000000
11
57.0514461134
21
202.1729139466
31
0.0000000000
11
56.6316404984
21
202.9023737978
31
0.0000000000
11
56.5200013390
21
203.0475037487
31
0.0000000000
0
SPLINE
5
444
100
AcDbEntity
8
0
100
AcDbSpline
62
7
6
BYLAYER
70
0
71
3
72
8
73
4
74
2
42
0.0000001000
43
0.0000001000
44
0.0000000001
40
0.0000000000
40
0.0000000000
40
0.0000000000
40
0.0000000000
40
1.0000000000
40
1.0000000000
40
1.0000000000
40
1.0000000000
10
184.8825648586
20
253.8738401124
30
0.0000000000
10
185.1400563439
20
254.0722446993
30
0.0000000000
10
185.4404334553
20
254.2549284222
30
0.0000000000
10
185.7686055547
20
254.2811828315
30
0.0000000000
11
184.8825648586
21
253.8738401124
31
0.0000000000
11
185.7686055547
21
254.2811828315
31
0.0000000000
0
SPLINE
5
445
100
AcDbEntity
8
0
100
AcDbSpline
62
7
6
BYLAYER
70
0
71
3
72
8
73
4
74
2
42
0.0000001000
43
0.0000001000
44
0.0000000001
40
0.0000000000
40
0.0000000000
40
0.0000000000
40
0.0000000000
40
1.0000000000
40
1.0000000000
40
1.0000000000
40
1.0000000000
10
185.7686055547
20
254.2811828315
30
0.0000000000
10
185.9153078825
20
254.2929193044
30
0.0000000000
10
186.0675646108
20
254.2733957870
30
0.0000000000
10
186.2092296661
20
254.2260600621
30
0.0000000000
11
185.7686055547
21
254.2811828315
31
0.0000000000
11
186.2092296661
21
254.2260600621
31
0.0000000000
0
SPLINE
5
446
100
AcDbEntity
8
0
100
AcDbSpline
62
7
6
BYLAYER
70
0
71
3
72
11
73
7
74
5
42
0.0000001000
43
0.0000001000
44
0.0000000001
40
0.0000000000
40
0.0000000000
40
0.0000000000
40
0.0000000000
40
0.2254505989
40
0.4758784012
40
0.7405631368
40
1.0000000000
40
1.0000000000
40
1.0000000000
40
1.0000000000
10
34.3710199204
20
196.6778132354
30
0.0000000000
10
33.9527937895
20
196.4702412701
30
0.0000000000
10
33.1388353996
20
195.8907800465
30
0.0000000000
10
32.1120950065
20
194.7391765760
30
0.0000000000
10
31.2871681896
20
193.3517761371
30
0.0000000000
10
30.9120946181
20
192.3269863125
30
0.0000000000
10
30.7809176167
20
191.8043711174
30
0.0000000000
11
34.3710199204
21
196.6778132354
31
0.0000000000
11
33.2161634510
21
195.8851597858
31
0.0000000000
11
32.1709900894
21
194.7325899285
31
0.0000000000
11
31.3282847769
21
193.3204522948
31
0.0000000000
11
30.7809176167
21
191.8043711174
31
0.0000000000
0
SPLINE
5
447
100
AcDbEntity
8
0
100
AcDbSpline
62
7
6
BYLAYER
70
0
71
3
72
8
73
4
74
2
42
0.0000001000
43
0.0000001000
44
0.0000000001
40
0.0000000000
40
0.0000000000
40
0.0000000000
40
0.0000000000
40
1.0000000000
40
1.0000000000
40
1.0000000000
40
1.0000000000
10
30.7809176167
20
191.8043711174
30
0.0000000000
10
30.6726399759
20
191.3729880262
30
0.0000000000
10
30.6014829780
20
190.9311459035
30
0.0000000000
10
30.5811263410
20
190.4879153504
30
0.0000000000
11
30.7809176167
21
191.8043711174
31
0.0000000000
11
30.5811263410
21
190.4879153504
31
0.0000000000
0
SPLINE
5
448
100
AcDbEntity
8
0
100
AcDbSpline
62
7
6
BYLAYER
70
0
71
3
72
8
73
4
74
2
42
0.0000001000
43
0.0000001000
44
0.0000000001
40
0.0000000000
40
0.0000000000
40
0.0000000000
40
0.0000000000
40
1.0000000000
40
1.0000000000
40
1.0000000000
40
1.0000000000
10
30.5811263410
20
190.4879153504
30
0.0000000000
10
30.5785282829
20
190.4313471310
30
0.0000000000
10
30.5767576952
20
190.3747562958
30
0.0000000000
10
30.5758430162
20
190.3181617016
30
0.0000000000
11
30.5811263410
21
190.4879153504
31
0.0000000000
11
30.5758430162
21
190.3181617016
31
0.0000000000
0
SPLINE
5
449
100
AcDbEntity
8
0
100
AcDbSpline
62
7
6
BYLAYER
70
0
71
3
72
11
73
7
74
5
42
0.0000001000
43
0.0000001000
44
0.0000000001
40
0.0000000000
40
0.0000000000
40
0.0000000000
40
0.0000000000
40
0.2207333144
40
0.4788097859
40
0.7482955822
40
1.0000000000
40
1.0000000000
40
1.0000000000
40
1.0000000000
10
172.9260784722
20
258.3517108982
30
0.0000000000
10
172.5061178435
20
258.0714702552
30
0.0000000000
10
171.7204778317
20
257.2794583275
30
0.0000000000
10
170.8233970687
20
255.8106947825
30
0.0000000000
10
170.2004940269
20
254.1295307733
30
0.0000000000
10
170.0137587441
20
252.9392720383
30
0.0000000000
10
170.0044552436
20
252.3636298084
30
0.0000000000
11
172.9260784722
21
258.3517108982
31
0.0000000000
11
171.8267272774
21
257.3098171037
31
0.0000000000
11
170.8875091989
21
255.8085270777
31
0.0000000000
11
170.2477376736
21
254.0735621017
31
0.0000000000
11
170.0044552436
21
252.3636298084
31
0.0000000000
0
SPLINE
5
44A
100
AcDbEntity
8
0
100
AcDbSpline
62
7
6
BYLAYER
70
0
71
3
72
8
73
4
74
2
42
0.0000001000
43
0.0000001000
44
0.0000000001
40
0.0000000000
40
0.0000000000
40
0.0000000000
40
0.0000000000
40
1.0000000000
40
1.0000000000
40
1.0000000000
40
1.0000000000
10
50.5409676259
20
204.6033609235
30
0.0000000000
10
49.9293747680
20
204.3037030476
30
0.0000000000
10
49.3148595262
20
204.0100423584
30
0.0000000000
10
48.6994004756
20
203.7183152271
30
0.0000000000
11
50.5409676259
21
204.6033609235
31
0.0000000000
11
48.6994004756
21
203.7183152271
31
0.0000000000
0
SPLINE
5
44B
100
AcDbEntity
8
0
100
AcDbSpline
62
7
6
BYLAYER
70
0
71
3
72
9
73
5
74
3
42
0.0000001000
43
0.0000001000
44
0.0000000001
40
0.0000000000
40
0.0000000000
40
0.0000000000
40
0.0000000000
40
0.8375617320
40
1.0000000000
40
1.0000000000
40
1.0000000000
40
1.0000000000
10
48.6994004756
20
203.7183152271
30
0.0000000000
10
47.4670419102
20
203.1341781856
30
0.0000000000
10
45.9911594831
20
202.4460083762
30
0.0000000000
10
44.5325257970
20
201.7223850999
30
0.0000000000
10
44.2961192934
20
201.6037876719
30
0.0000000000
11
48.6994004756
21
203.7183152271
31
0.0000000000
11
45.0068567850
21
201.9565378414
31
0.0000000000
11
44.2961192934
21
201.6037876719
31
0.0000000000
0
SPLINE
5
44C
100
AcDbEntity
8
0
100
AcDbSpline
62
7
6
BYLAYER
70
0
71
3
72
8
73
4
74
2
42
0.0000001000
43
0.0000001000
44
0.0000000001
40
0.0000000000
40
0.0000000000
40
0.0000000000
40
0.0000000000
40
1.0000000000
40
1.0000000000
40
1.0000000000
40
1.0000000000
10
50.6126361093
20
205.0469354506
30
0.0000000000
10
50.6043682737
20
204.5353736635
30
0.0000000000
10
50.5105861716
20
204.0243962729
30
0.0000000000
10
50.3599835325
20
203.5329866245
30
0.0000000000
11
50.6126361093
21
205.0469354506
31
0.0000000000
11
50.3599835325
21
203.5329866245
31
0.0000000000
0
SPLINE
5
44D
100
AcDbEntity
8
0
100
AcDbSpline
62
7
6
BYLAYER
70
0
71
3
72
9
73
5
74
3
42
0.0000001000
43
0.0000001000
44
0.0000000001
40
0.0000000000
40
0.0000000000
40
0.0000000000
40
0.0000000000
40
0.6793209439
40
1.0000000000
40
1.0000000000
40
1.0000000000
40
1.0000000000
10
50.3599835325
20
203.5329866245
30
0.0000000000
10
50.1980979799
20
203.0047613361
30
0.0000000000
10
49.8631475806
20
202.2604655029
30
0.0000000000
10
49.4096876205
20
201.5865538908
30
0.0000000000
10
49.2516781666
20
201.3798994665
30
0.0000000000
11
50.3599835325
21
203.5329866245
31
0.0000000000
11
49.6883309071
21
202.0260105356
31
0.0000000000
11
49.2516781666
21
201.3798994665
31
0.0000000000
0
SPLINE
5
44E
100
AcDbEntity
8
0
100
AcDbSpline
62
7
6
BYLAYER
70
0
71
3
72
8
73
4
74
2
42
0.0000001000
43
0.0000001000
44
0.0000000001
40
0.0000000000
40
0.0000000000
40
0.0000000000
40
0.0000000000
40
1.0000000000
40
1.0000000000
40
1.0000000000
40
1.0000000000
10
49.2516781666
20
201.3798994665
30
0.0000000000
10
49.0822835308
20
201.1583548053
30
0.0000000000
10
48.8984142260
20
200.9476766723
30
0.0000000000
10
48.6995682847
20
200.7505965953
30
0.0000000000
11
49.2516781666
21
201.3798994665
31
0.0000000000
11
48.6995682847
21
200.7505965953
31
0.0000000000
0
SPLINE
5
44F
100
AcDbEntity
8
0
100
AcDbSpline
62
7
6
BYLAYER
70
0
71
3
72
8
73
4
74
2
42
0.0000001000
43
0.0000001000
44
0.0000000001
40
0.0000000000
40
0.0000000000
40
0.0000000000
40
0.0000000000
40
1.0000000000
40
1.0000000000
40
1.0000000000
40
1.0000000000
10
48.6995682847
20
200.7505965953
30
0.0000000000
10
48.3569607743
20
200.4110316333
30
0.0000000000
10
47.9698927391
20
200.1118346612
30
0.0000000000
10
47.5403500441
20
199.8986461138
30
0.0000000000
11
48.6995682847
21
200.7505965953
31
0.0000000000
11
47.5403500441
21
199.8986461138
31
0.0000000000
0
SPLINE
5
450
100
AcDbEntity
8
0
100
AcDbSpline
62
7
6
BYLAYER
70
0
71
3
72
11
73
7
74
5
42
0.0000001000
43
0.0000001000
44
0.0000000001
40
0.0000000000
40
0.0000000000
40
0.0000000000
40
0.0000000000
40
0.2543678710
40
0.5261403483
40
0.7839202214
40
1.0000000000
40
1.0000000000
40
1.0000000000
40
1.0000000000
10
184.1877878424
20
245.9825608734
30
0.0000000000
10
184.1794415898
20
245.4661471360
30
0.0000000000
10
184.0262498360
20
244.3995435522
30
0.0000000000
10
183.5203392156
20
242.8821183174
30
0.0000000000
10
182.7936406224
20
241.5466107864
30
0.0000000000
10
182.1523818751
20
240.8069433154
30
0.0000000000
10
181.8048448286
20
240.5391560366
30
0.0000000000
11
184.1877878424
21
245.9825608734
31
0.0000000000
11
183.9877592230
21
244.4460831403
31
0.0000000000
11
183.4653865453
21
242.8751986297
31
0.0000000000
11
182.6998990333
21
241.5041981078
31
0.0000000000
11
181.8048448286
21
240.5391560366
31
0.0000000000
0
SPLINE
5
451
100
AcDbEntity
8
0
100
AcDbSpline
62
7
6
BYLAYER
70
0
71
3
72
10
73
6
74
4
42
0.0000001000
43
0.0000001000
44
0.0000000001
40
0.0000000000
40
0.0000000000
40
0.0000000000
40
0.0000000000
40
0.3580845515
40
0.7007025070
40
1.0000000000
40
1.0000000000
40
1.0000000000
40
1.0000000000
10
161.2109689253
20
242.8010914856
30
0.0000000000
10
160.5000140871
20
242.8775224574
30
0.0000000000
10
159.0919878934
20
242.9020033083
30
0.0000000000
10
157.1111543497
20
242.5882426667
30
0.0000000000
10
155.8969690393
20
242.1271169949
30
0.0000000000
10
155.3799240922
20
241.8273455705
30
0.0000000000
11
161.2109689253
21
242.8010914856
31
0.0000000000
11
159.0661450800
21
242.8387338959
31
0.0000000000
11
157.0416795094
21
242.5006615373
31
0.0000000000
11
155.3799240922
21
241.8273455705
31
0.0000000000
0
SPLINE
5
452
100
AcDbEntity
8
0
100
AcDbSpline
62
7
6
BYLAYER
70
0
71
3
72
10
73
6
74
4
42
0.0000001000
43
0.0000001000
44
0.0000000001
40
0.0000000000
40
0.0000000000
40
0.0000000000
40
0.0000000000
40
0.2938984674
40
0.6375587403
40
1.0000000000
40
1.0000000000
40
1.0000000000
40
1.0000000000
10
165.4642845420
20
243.2975058256
30
0.0000000000
10
165.1911918542
20
243.1152704796
30
0.0000000000
10
164.5237322276
20
242.8338964791
30
0.0000000000
10
163.4182718766
20
242.6398068675
30
0.0000000000
10
162.6237232902
20
242.6492137808
30
0.0000000000
10
162.2211611056
20
242.6924910993
30
0.0000000000
11
165.4642845420
21
243.2975058256
31
0.0000000000
11
164.5678939393
21
242.8893539853
31
0.0000000000
11
163.4357216443
21
242.6781437355
31
0.0000000000
11
162.2211611056
21
242.6924910993
31
0.0000000000
0
SPLINE
5
453
100
AcDbEntity
8
0
100
AcDbSpline
62
7
6
BYLAYER
70
0
71
3
72
11
73
7
74
5
42
0.0000001000
43
0.0000001000
44
0.0000000001
40
0.0000000000
40
0.0000000000
40
0.0000000000
40
0.0000000000
40
0.2686224336
40
0.5330576048
40
0.7803800387
40
1.0000000000
40
1.0000000000
40
1.0000000000
40
1.0000000000
10
161.4552550449
20
239.1332220323
30
0.0000000000
10
160.8761170324
20
239.1967723490
30
0.0000000000
10
159.7169536951
20
239.2444016178
30
0.0000000000
10
158.0262005785
20
239.0906568135
30
0.0000000000
10
156.4774875143
20
238.7233301629
30
0.0000000000
10
155.5383438700
20
238.3228738408
30
0.0000000000
10
155.1262612827
20
238.0839573116
30
0.0000000000
11
161.4552550449
21
239.1332220323
31
0.0000000000
11
159.7089283350
21
239.2060117581
31
0.0000000000
11
157.9958263532
21
239.0455795683
31
0.0000000000
11
156.4327473974
21
238.6628636361
31
0.0000000000
11
155.1262612827
21
238.0839573116
31
0.0000000000
0
SPLINE
5
454
100
AcDbEntity
8
0
100
AcDbSpline
62
7
6
BYLAYER
70
0
71
3
72
10
73
6
74
4
42
0.0000001000
43
0.0000001000
44
0.0000000001
40
0.0000000000
40
0.0000000000
40
0.0000000000
40
0.0000000000
40
0.2882844154
40
0.6330618133
40
1.0000000000
40
1.0000000000
40
1.0000000000
40
1.0000000000
10
178.8807140053
20
238.2860292296
30
0.0000000000
10
178.6129297136
20
238.0796937396
30
0.0000000000
10
177.9249245706
20
237.7599128220
30
0.0000000000
10
176.7673695961
20
237.5385459590
30
0.0000000000
10
175.9257414188
20
237.5453380171
30
0.0000000000
10
175.4980180266
20
237.5922732147
30
0.0000000000
11
178.8807140053
21
238.2860292296
31
0.0000000000
11
177.9770305724
21
237.8257020579
31
0.0000000000
11
176.7888498350
21
237.5820184580
31
0.0000000000
11
175.4980180266
21
237.5922732147
31
0.0000000000
0
SPLINE
5
455
100
AcDbEntity
8
0
100
AcDbSpline
62
7
6
BYLAYER
70
0
71
3
72
10
73
6
74
4
42
0.0000001000
43
0.0000001000
44
0.0000000001
40
0.0000000000
40
0.0000000000
40
0.0000000000
40
0.0000000000
40
0.3551743832
40
0.6904972566
40
1.0000000000
40
1.0000000000
40
1.0000000000
40
1.0000000000
10
63.1476373116
20
214.3491256956
30
0.0000000000
10
62.3700837306
20
214.2507650589
30
0.0000000000
10
60.8658299012
20
213.9907719007
30
0.0000000000
10
58.7368645532
20
213.3965571900
30
0.0000000000
10
57.4153001709
20
212.8566194004
30
0.0000000000
10
56.8035357252
20
212.5529914373
30
0.0000000000
11
63.1476373116
21
214.3491256956
31
0.0000000000
11
60.8316343191
21
213.9435278467
31
0.0000000000
11
58.6957527031
21
213.3388196638
31
0.0000000000
11
56.8035357252
21
212.5529914373
31
0.0000000000
0
SPLINE
5
456
100
AcDbEntity
8
0
100
AcDbSpline
62
7
6
BYLAYER
70
0
71
3
72
10
73
6
74
4
42
0.0000001000
43
0.0000001000
44
0.0000000001
40
0.0000000000
40
0.0000000000
40
0.0000000000
40
0.0000000000
40
0.3040904872
40
0.6399194601
40
1.0000000000
40
1.0000000000
40
1.0000000000
40
1.0000000000
10
120.8388340053
20
221.8011721496
30
0.0000000000
10
120.7611059528
20
221.7561071139
30
0.0000000000
10
120.5886464351
20
221.6763336812
30
0.0000000000
10
120.3052902918
20
221.5903003260
30
0.0000000000
10
120.1023978528
20
221.5539108653
30
0.0000000000
10
119.9968489543
20
221.5405589149
30
0.0000000000
11
120.8388340053
21
221.8011721496
31
0.0000000000
11
120.5951980235
21
221.6858722071
31
0.0000000000
11
120.3108341975
21
221.5978552329
31
0.0000000000
11
119.9968489543
21
221.5405589149
31
0.0000000000
0
SPLINE
5
457
100
AcDbEntity
8
0
100
AcDbSpline
62
7
6
BYLAYER
70
0
71
3
72
11
73
7
74
5
42
0.0000001000
43
0.0000001000
44
0.0000000001
40
0.0000000000
40
0.0000000000
40
0.0000000000
40
0.0000000000
40
0.2306515206
40
0.4893897611
40
0.7539131027
40
1.0000000000
40
1.0000000000
40
1.0000000000
40
1.0000000000
10
54.0526184482
20
211.1876695141
30
0.0000000000
10
53.5725413185
20
210.9493999610
30
0.0000000000
10
52.6546515172
20
210.2398868413
30
0.0000000000
10
51.5852487791
20
208.8339701946
30
0.0000000000
10
50.8456106639
20
207.1904147060
30
0.0000000000
10
50.6281274857
20
206.0054446056
30
0.0000000000
10
50.6188869635
20
205.4336990788
30
0.0000000000
11
54.0526184482
21
211.1876695141
31
0.0000000000
11
52.7570215910
21
210.2354895641
31
0.0000000000
11
51.6519339543
21
208.8100269250
31
0.0000000000
11
50.9012633729
21
207.1257595315
31
0.0000000000
11
50.6188869635
21
205.4336990788
31
0.0000000000
0
SPLINE
5
458
100
AcDbEntity
8
0
100
AcDbSpline
62
7
6
BYLAYER
70
0
71
3
72
9
73
5
74
3
42
0.0000001000
43
0.0000001000
44
0.0000000001
40
0.0000000000
40
0.0000000000
40
0.0000000000
40
0.0000000000
40
0.5314736728
40
1.0000000000
40
1.0000000000
40
1.0000000000
40
1.0000000000
10
169.1539407108
20
246.7894444109
30
0.0000000000
10
168.9265279514
20
246.3296731988
30
0.0000000000
10
168.4181922202
20
245.5043767635
30
0.0000000000
10
167.7265368060
20
244.8071116935
30
0.0000000000
10
167.3507825593
20
244.5563700655
30
0.0000000000
11
169.1539407108
21
246.7894444109
31
0.0000000000
11
168.3344125757
21
245.4885908290
31
0.0000000000
11
167.3507825593
21
244.5563700655
31
0.0000000000
0
SPLINE
5
459
100
AcDbEntity
8
0
100
AcDbSpline
62
7
6
BYLAYER
70
0
71
3
72
9
73
5
74
3
42
0.0000001000
43
0.0000001000
44
0.0000000001
40
0.0000000000
40
0.0000000000
40
0.0000000000
40
0.0000000000
40
0.6721180650
40
1.0000000000
40
1.0000000000
40
1.0000000000
40
1.0000000000
10
59.3359141897
20
196.7056692298
30
0.0000000000
10
59.1575000500
20
196.6045853056
30
0.0000000000
10
58.8687561619
20
196.4903984069
30
0.0000000000
10
58.5643294629
20
196.4478260294
30
0.0000000000
10
58.4640745486
20
196.4418197373
30
0.0000000000
11
59.3359141897
21
196.7056692298
31
0.0000000000
11
58.7622754881
21
196.4834424875
31
0.0000000000
11
58.4640745486
21
196.4418197373
31
0.0000000000
0
SPLINE
5
45A
100
AcDbEntity
8
0
100
AcDbSpline
62
7
6
BYLAYER
70
0
71
3
72
8
73
4
74
2
42
0.0000001000
43
0.0000001000
44
0.0000000001
40
0.0000000000
40
0.0000000000
40
0.0000000000
40
0.0000000000
40
1.0000000000
40
1.0000000000
40
1.0000000000
40
1.0000000000
10
160.8163526464
20
237.4342781950
30
0.0000000000
10
160.4365253862
20
237.4759576258
30
0.0000000000
10
160.0520040564
20
237.4833016205
30
0.0000000000
10
159.6702453971
20
237.4564474616
30
0.0000000000
11
160.8163526464
21
237.4342781950
31
0.0000000000
11
159.6702453971
21
237.4564474616
31
0.0000000000
0
SPLINE
5
45B
100
AcDbEntity
8
0
100
AcDbSpline
62
7
6
BYLAYER
70
0
71
3
72
9
73
5
74
3
42
0.0000001000
43
0.0000001000
44
0.0000000001
40
0.0000000000
40
0.0000000000
40
0.0000000000
40
0.0000000000
40
0.5337865480
40
1.0000000000
40
1.0000000000
40
1.0000000000
40
1.0000000000
10
159.6702453971
20
237.4564474616
30
0.0000000000
10
159.3047747464
20
237.4307390548
30
0.0000000000
10
158.6248424865
20
237.3238599363
30
0.0000000000
10
157.9754880411
20
237.0777274496
30
0.0000000000
10
157.6990870620
20
236.9174761684
30
0.0000000000
11
159.6702453971
21
237.4564474616
31
0.0000000000
11
158.5876098366
21
237.2769605887
31
0.0000000000
11
157.6990870620
21
236.9174761684
31
0.0000000000
0
SPLINE
5
45C
100
AcDbEntity
8
0
100
AcDbSpline
62
7
6
BYLAYER
70
0
71
3
72
8
73
4
74
2
42
0.0000001000
43
0.0000001000
44
0.0000000001
40
0.0000000000
40
0.0000000000
40
0.0000000000
40
0.0000000000
40
1.0000000000
40
1.0000000000
40
1.0000000000
40
1.0000000000
10
181.7270135244
20
237.3018643167
30
0.0000000000
10
181.6985661009
20
237.2799447596
30
0.0000000000
10
181.6698552142
20
237.2583685225
30
0.0000000000
10
181.6408937313
20
237.2371279189
30
0.0000000000
11
181.7270135244
21
237.3018643167
31
0.0000000000
11
181.6408937313
21
237.2371279189
31
0.0000000000
0
SPLINE
5
45D
100
AcDbEntity
8
0
100
AcDbSpline
62
7
6
BYLAYER
70
0
71
3
72
8
73
4
74
2
42
0.0000001000
43
0.0000001000
44
0.0000000001
40
0.0000000000
40
0.0000000000
40
0.0000000000
40
0.0000000000
40
1.0000000000
40
1.0000000000
40
1.0000000000
40
1.0000000000
10
181.6408937313
20
237.2371279189
30
0.0000000000
10
181.2659484030
20
236.9621397523
30
0.0000000000
10
180.8490011837
20
236.7434063885
30
0.0000000000
10
180.4179721352
20
236.5642488522
30
0.0000000000
11
181.6408937313
21
237.2371279189
31
0.0000000000
11
180.4179721352
21
236.5642488522
31
0.0000000000
0
SPLINE
5
45E
100
AcDbEntity
8
0
100
AcDbSpline
62
7
6
BYLAYER
70
0
71
3
72
9
73
5
74
3
42
0.0000001000
43
0.0000001000
44
0.0000000001
40
0.0000000000
40
0.0000000000
40
0.0000000000
40
0.0000000000
40
0.4774168526
40
1.0000000000
40
1.0000000000
40
1.0000000000
40
1.0000000000
10
180.4179721352
20
236.5642488522
30
0.0000000000
10
179.8754035978
20
236.3387298465
30
0.0000000000
10
178.6921998789
20
235.9977059705
30
0.0000000000
10
177.4696022380
20
235.8553951860
30
0.0000000000
10
176.8286460749
20
235.8281151413
30
0.0000000000
11
180.4179721352
21
236.5642488522
31
0.0000000000
11
178.7366618742
21
236.0584008046
31
0.0000000000
11
176.8286460749
21
235.8281151413
31
0.0000000000
0
SPLINE
5
45F
100
AcDbEntity
8
0
100
AcDbSpline
62
7
6
BYLAYER
70
0
71
3
72
8
73
4
74
2
42
0.0000001000
43
0.0000001000
44
0.0000000001
40
0.0000000000
40
0.0000000000
40
0.0000000000
40
0.0000000000
40
1.0000000000
40
1.0000000000
40
1.0000000000
40
1.0000000000
10
176.8286460749
20
235.8281151413
30
0.0000000000
10
176.1714323258
20
235.8001431497
30
0.0000000000
10
175.5120661648
20
235.8216794209
30
0.0000000000
10
174.8591156281
20
235.8933293775
30
0.0000000000
11
176.8286460749
21
235.8281151413
31
0.0000000000
11
174.8591156281
21
235.8933293775
31
0.0000000000
0
SPLINE
5
460
100
AcDbEntity
8
0
100
AcDbSpline
62
7
6
BYLAYER
70
0
71
3
72
8
73
4
74
2
42
0.0000001000
43
0.0000001000
44
0.0000000001
40
0.0000000000
40
0.0000000000
40
0.0000000000
40
0.0000000000
40
1.0000000000
40
1.0000000000
40
1.0000000000
40
1.0000000000
10
160.5861249575
20
241.1006206470
30
0.0000000000
10
160.2650485789
20
241.1351378601
30
0.0000000000
10
159.9400892646
20
241.1407878121
30
0.0000000000
10
159.6174948338
20
241.1176204452
30
0.0000000000
11
160.5861249575
21
241.1006206470
31
0.0000000000
11
159.6174948338
21
241.1176204452
31
0.0000000000
0
SPLINE
5
461
100
AcDbEntity
8
0
100
AcDbSpline
62
7
6
BYLAYER
70
0
71
3
72
8
73
4
74
2
42
0.0000001000
43
0.0000001000
44
0.0000000001
40
0.0000000000
40
0.0000000000
40
0.0000000000
40
0.0000000000
40
1.0000000000
40
1.0000000000
40
1.0000000000
40
1.0000000000
10
159.6174948338
20
241.1176204452
30
0.0000000000
10
159.3088340890
20
241.0954537366
30
0.0000000000
10
159.0023383488
20
241.0469053361
30
0.0000000000
10
158.7032200599
20
240.9649426058
30
0.0000000000
11
159.6174948338
21
241.1176204452
31
0.0000000000
11
158.7032200599
21
240.9649426058
31
0.0000000000
0
SPLINE
5
462
100
AcDbEntity
8
0
100
AcDbSpline
62
7
6
BYLAYER
70
0
71
3
72
8
73
4
74
2
42
0.0000001000
43
0.0000001000
44
0.0000000001
40
0.0000000000
40
0.0000000000
40
0.0000000000
40
0.0000000000
40
1.0000000000
40
1.0000000000
40
1.0000000000
40
1.0000000000
10
158.7032200599
20
240.9649426058
30
0.0000000000
10
158.4419221551
20
240.8933432068
30
0.0000000000
10
158.1862540412
20
240.7962450705
30
0.0000000000
10
157.9527498715
20
240.6608644272
30
0.0000000000
11
158.7032200599
21
240.9649426058
31
0.0000000000
11
157.9527498715
21
240.6608644272
31
0.0000000000
0
SPLINE
5
463
100
AcDbEntity
8
0
100
AcDbSpline
62
7
6
BYLAYER
70
0
71
3
72
8
73
4
74
2
42
0.0000001000
43
0.0000001000
44
0.0000000001
40
0.0000000000
40
0.0000000000
40
0.0000000000
40
0.0000000000
40
1.0000000000
40
1.0000000000
40
1.0000000000
40
1.0000000000
10
168.1808404783
20
242.2203834928
30
0.0000000000
10
168.1534579901
20
242.2021110987
30
0.0000000000
10
168.1258983574
20
242.1841031190
30
0.0000000000
10
168.0981693993
20
242.1663542888
30
0.0000000000
11
168.1808404783
21
242.2203834928
31
0.0000000000
11
168.0981693993
21
242.1663542888
31
0.0000000000
0
SPLINE
5
464
100
AcDbEntity
8
0
100
AcDbSpline
62
7
6
BYLAYER
70
0
71
3
72
8
73
4
74
2
42
0.0000001000
43
0.0000001000
44
0.0000000001
40
0.0000000000
40
0.0000000000
40
0.0000000000
40
0.0000000000
40
1.0000000000
40
1.0000000000
40
1.0000000000
40
1.0000000000
10
168.0981693993
20
242.1663542888
30
0.0000000000
10
167.7148510047
20
241.9209987635
30
0.0000000000
10
167.2991751735
20
241.7251657464
30
0.0000000000
10
166.8717977627
20
241.5649471658
30
0.0000000000
11
168.0981693993
21
242.1663542888
31
0.0000000000
11
166.8717977627
21
241.5649471658
31
0.0000000000
0
SPLINE
5
465
100
AcDbEntity
8
0
100
AcDbSpline
62
7
6
BYLAYER
70
0
71
3
72
9
73
5
74
3
42
0.0000001000
43
0.0000001000
44
0.0000000001
40
0.0000000000
40
0.0000000000
40
0.0000000000
40
0.0000000000
40
0.4803993508
40
1.0000000000
40
1.0000000000
40
1.0000000000
40
1.0000000000
10
166.8717977627
20
241.5649471658
30
0.0000000000
10
166.3464279627
20
241.3679924332
30
0.0000000000
10
165.2160088213
20
241.0700402444
30
0.0000000000
10
164.0538547229
20
240.9478659864
30
0.0000000000
10
163.4484327340
20
240.9263078121
30
0.0000000000
11
166.8717977627
21
241.5649471658
31
0.0000000000
11
165.2529988138
21
241.1222870095
31
0.0000000000
11
163.4484327340
21
240.9263078121
31
0.0000000000
0
SPLINE
5
466
100
AcDbEntity
8
0
100
AcDbSpline
62
7
6
BYLAYER
70
0
71
3
72
8
73
4
74
2
42
0.0000001000
43
0.0000001000
44
0.0000000001
40
0.0000000000
40
0.0000000000
40
0.0000000000
40
0.0000000000
40
1.0000000000
40
1.0000000000
40
1.0000000000
40
1.0000000000
10
163.4484327340
20
240.9263078121
30
0.0000000000
10
162.8303017161
20
240.9042970882
30
0.0000000000
10
162.2105382977
20
240.9259886119
30
0.0000000000
10
161.5963171378
20
240.9920202607
30
0.0000000000
11
163.4484327340
21
240.9263078121
31
0.0000000000
11
161.5963171378
21
240.9920202607
31
0.0000000000
0
SPLINE
5
467
100
AcDbEntity
8
0
100
AcDbSpline
62
7
6
BYLAYER
70
0
71
3
72
8
73
4
74
2
42
0.0000001000
43
0.0000001000
44
0.0000000001
40
0.0000000000
40
0.0000000000
40
0.0000000000
40
0.0000000000
40
1.0000000000
40
1.0000000000
40
1.0000000000
40
1.0000000000
10
59.6931913123
20
208.2214231326
30
0.0000000000
10
59.6547487413
20
208.2023435022
30
0.0000000000
10
59.6166105652
20
208.1826474919
30
0.0000000000
10
59.5787779237
20
208.1623612930
30
0.0000000000
11
59.6931913123
21
208.2214231326
31
0.0000000000
11
59.5787779237
21
208.1623612930
31
0.0000000000
0
SPLINE
5
468
100
AcDbEntity
8
0
100
AcDbSpline
62
7
6
BYLAYER
70
0
71
3
72
11
73
7
74
5
42
0.0000001000
43
0.0000001000
44
0.0000000001
40
0.0000000000
40
0.0000000000
40
0.0000000000
40
0.0000000000
40
0.2198702998
40
0.4879838936
40
0.7620922110
40
1.0000000000
40
1.0000000000
40
1.0000000000
40
1.0000000000
10
59.5787779237
20
208.1623612930
30
0.0000000000
10
59.1441503346
20
207.9293101141
30
0.0000000000
10
58.2690258026
20
207.2391978532
30
0.0000000000
10
57.2258216432
20
205.8677238132
30
0.0000000000
10
56.5020446363
20
204.2594134142
30
0.0000000000
10
56.2830398998
20
203.1156746111
30
0.0000000000
10
56.2625974122
20
202.5824308897
30
0.0000000000
11
59.5787779237
21
208.1623612930
31
0.0000000000
11
58.3975944551
21
207.2692431827
31
0.0000000000
11
57.2925068183
21
205.8437805435
31
0.0000000000
11
56.5418362370
21
204.1595131501
31
0.0000000000
11
56.2625974122
21
202.5824308897
31
0.0000000000
0
SPLINE
5
469
100
AcDbEntity
8
0
100
AcDbSpline
62
7
6
BYLAYER
70
0
71
3
72
8
73
4
74
2
42
0.0000001000
43
0.0000001000
44
0.0000000001
40
0.0000000000
40
0.0000000000
40
0.0000000000
40
0.0000000000
40
1.0000000000
40
1.0000000000
40
1.0000000000
40
1.0000000000
10
56.2625974122
20
202.5824308897
30
0.0000000000
10
56.2611284161
20
202.5441120235
30
0.0000000000
10
56.2600793333
20
202.5057838283
30
0.0000000000
10
56.2594598275
20
202.4674526973
30
0.0000000000
11
56.2625974122
21
202.5824308897
31
0.0000000000
11
56.2594598275
21
202.4674526973
31
0.0000000000
0
SPLINE
5
46A
100
AcDbEntity
8
0
100
AcDbSpline
62
7
6
BYLAYER
70
0
71
3
72
11
73
7
74
5
42
0.0000001000
43
0.0000001000
44
0.0000000001
40
0.0000000000
40
0.0000000000
40
0.0000000000
40
0.0000000000
40
0.2543678710
40
0.5261403483
40
0.7839202214
40
1.0000000000
40
1.0000000000
40
1.0000000000
40
1.0000000000
10
187.0340873615
20
244.9983959605
30
0.0000000000
10
187.0257411089
20
244.4819822231
30
0.0000000000
10
186.8725493550
20
243.4153786393
30
0.0000000000
10
186.3666387347
20
241.8979534045
30
0.0000000000
10
185.6399401415
20
240.5624458736
30
0.0000000000
10
184.9986813942
20
239.8227784025
30
0.0000000000
10
184.6511443476
20
239.5549911237
30
0.0000000000
11
187.0340873615
21
244.9983959605
31
0.0000000000
11
186.8340587421
21
243.4619182274
31
0.0000000000
11
186.3116860644
21
241.8910337168
31
0.0000000000
11
185.5461985524
21
240.5200331950
31
0.0000000000
11
184.6511443476
21
239.5549911237
31
0.0000000000
0
SPLINE
5
46B
100
AcDbEntity
8
0
100
AcDbSpline
62
7
6
BYLAYER
70
0
71
3
72
9
73
5
74
3
42
0.0000001000
43
0.0000001000
44
0.0000000001
40
0.0000000000
40
0.0000000000
40
0.0000000000
40
0.0000000000
40
0.6355465649
40
1.0000000000
40
1.0000000000
40
1.0000000000
40
1.0000000000
10
61.8837224801
20
195.5248497792
30
0.0000000000
10
61.6557624653
20
195.3956946971
30
0.0000000000
10
61.2673597307
20
195.2385752034
30
0.0000000000
10
60.8549071873
20
195.1827441161
30
0.0000000000
10
60.7041620898
20
195.1770026291
30
0.0000000000
11
61.8837224801
21
195.5248497792
31
0.0000000000
11
61.1523522326
21
195.2368935441
31
0.0000000000
11
60.7041620898
21
195.1770026291
31
0.0000000000
0
SPLINE
5
46C
100
AcDbEntity
8
0
100
AcDbSpline
62
7
6
BYLAYER
70
0
71
3
72
10
73
6
74
4
42
0.0000001000
43
0.0000001000
44
0.0000000001
40
0.0000000000
40
0.0000000000
40
0.0000000000
40
0.0000000000
40
0.2205180263
40
0.7753652139
40
1.0000000000
40
1.0000000000
40
1.0000000000
40
1.0000000000
10
60.7041620898
20
195.1770026291
30
0.0000000000
10
60.6048464764
20
195.1732199568
30
0.0000000000
10
60.2549928757
20
195.1822118462
30
0.0000000000
10
59.8134640525
20
195.3001543254
30
0.0000000000
10
59.5005643557
20
195.4605403754
30
0.0000000000
10
59.4133001879
20
195.5117495015
30
0.0000000000
11
60.7041620898
21
195.1770026291
31
0.0000000000
11
60.4064532503
21
195.1850042589
31
0.0000000000
11
59.6835066658
21
195.3737837299
31
0.0000000000
11
59.4133001879
21
195.5117495015
31
0.0000000000
0
SPLINE
5
46D
100
AcDbEntity
8
0
100
AcDbSpline
62
7
6
BYLAYER
70
0
71
3
72
10
73
6
74
4
42
0.0000001000
43
0.0000001000
44
0.0000000001
40
0.0000000000
40
0.0000000000
40
0.0000000000
40
0.0000000000
40
0.0276440475
40
0.5517398381
40
1.0000000000
40
1.0000000000
40
1.0000000000
40
1.0000000000
10
171.9276076246
20
245.8301069744
30
0.0000000000
10
171.9156383027
20
245.8049202102
30
0.0000000000
10
171.6742253246
20
245.3034238133
30
0.0000000000
10
171.1460338056
20
244.4386316117
30
0.0000000000
10
170.4430927423
20
243.7299893607
30
0.0000000000
10
170.0673384957
20
243.4792477327
30
0.0000000000
11
171.9276076246
21
245.8301069744
31
0.0000000000
11
171.8913215297
21
245.7547279931
31
0.0000000000
11
171.0509685121
21
244.4114684962
31
0.0000000000
11
170.0673384957
21
243.4792477327
31
0.0000000000
0
SPLINE
5
46E
100
AcDbEntity
8
0
100
AcDbSpline
62
7
6
BYLAYER
70
0
71
3
72
8
73
4
74
2
42
0.0000001000
43
0.0000001000
44
0.0000000001
40
0.0000000000
40
0.0000000000
40
0.0000000000
40
0.0000000000
40
1.0000000000
40
1.0000000000
40
1.0000000000
40
1.0000000000
10
175.6426344085
20
257.2745885654
30
0.0000000000
10
175.6012990120
20
257.2470053652
30
0.0000000000
10
175.5605233528
20
257.2185998593
30
0.0000000000
10
175.5202952245
20
257.1894230324
30
0.0000000000
11
175.6426344085
21
257.2745885654
31
0.0000000000
11
175.5202952245
21
257.1894230324
31
0.0000000000
0
SPLINE
5
46F
100
AcDbEntity
8
0
100
AcDbSpline
62
7
6
BYLAYER
70
0
71
3
72
9
73
5
74
3
42
0.0000001000
43
0.0000001000
44
0.0000000001
40
0.0000000000
40
0.0000000000
40
0.0000000000
40
0.0000000000
40
0.4353846586
40
1.0000000000
40
1.0000000000
40
1.0000000000
40
1.0000000000
10
175.5202952245
20
257.1894230324
30
0.0000000000
10
175.1518123813
20
256.9221682389
30
0.0000000000
10
174.4109878435
20
256.1596917803
30
0.0000000000
10
173.8630212277
20
255.2625224034
30
0.0000000000
10
173.6040651352
20
254.7314047449
30
0.0000000000
11
175.5202952245
21
257.1894230324
31
0.0000000000
11
174.5432832137
21
256.2326947709
31
0.0000000000
11
173.6040651352
21
254.7314047449
31
0.0000000000
0
SPLINE
5
470
100
AcDbEntity
8
0
100
AcDbSpline
62
7
6
BYLAYER
70
0
71
3
72
8
73
4
74
2
42
0.0000001000
43
0.0000001000
44
0.0000000001
40
0.0000000000
40
0.0000000000
40
0.0000000000
40
0.0000000000
40
1.0000000000
40
1.0000000000
40
1.0000000000
40
1.0000000000
10
173.6040651352
20
254.7314047449
30
0.0000000000
10
173.4431600275
20
254.4013891691
30
0.0000000000
10
173.3017270334
20
254.0618904511
30
0.0000000000
10
173.1811283336
20
253.7148415892
30
0.0000000000
11
173.6040651352
21
254.7314047449
31
0.0000000000
11
173.1811283336
21
253.7148415892
31
0.0000000000
0
SPLINE
5
471
100
AcDbEntity
8
0
100
AcDbSpline
62
7
6
BYLAYER
70
0
71
3
72
8
73
4
74
2
42
0.0000001000
43
0.0000001000
44
0.0000000001
40
0.0000000000
40
0.0000000000
40
0.0000000000
40
0.0000000000
40
1.0000000000
40
1.0000000000
40
1.0000000000
40
1.0000000000
10
186.2092296661
20
254.2260600621
30
0.0000000000
10
186.3176023329
20
254.1898486002
30
0.0000000000
10
186.4197766138
20
254.1373610698
30
0.0000000000
10
186.5085241782
20
254.0701409861
30
0.0000000000
11
186.2092296661
21
254.2260600621
31
0.0000000000
11
186.5085241782
21
254.0701409861
31
0.0000000000
0
SPLINE
5
472
100
AcDbEntity
8
0
100
AcDbSpline
62
7
6
BYLAYER
70
0
71
3
72
9
73
5
74
3
42
0.0000001000
43
0.0000001000
44
0.0000000001
40
0.0000000000
40
0.0000000000
40
0.0000000000
40
0.0000000000
40
0.4399572634
40
1.0000000000
40
1.0000000000
40
1.0000000000
40
1.0000000000
10
186.5085241782
20
254.0701409861
30
0.0000000000
10
186.7563081510
20
253.8824619271
30
0.0000000000
10
187.0816091123
20
253.1948407829
30
0.0000000000
10
187.1491573972
20
252.4936914358
30
0.0000000000
10
187.1482500846
20
252.0989527286
30
0.0000000000
11
186.5085241782
21
254.0701409861
31
0.0000000000
11
186.9926539674
21
253.2747955421
31
0.0000000000
11
187.1482500846
21
252.0989527286
31
0.0000000000
0
SPLINE
5
473
100
AcDbEntity
8
0
100
AcDbSpline
62
7
6
BYLAYER
70
0
71
3
72
8
73
4
74
2
42
0.0000001000
43
0.0000001000
44
0.0000000001
40
0.0000000000
40
0.0000000000
40
0.0000000000
40
0.0000000000
40
1.0000000000
40
1.0000000000
40
1.0000000000
40
1.0000000000
10
187.1482500846
20
252.0989527286
30
0.0000000000
10
187.1481832666
20
252.0698826460
30
0.0000000000
10
187.1479063604
20
252.0408013635
30
0.0000000000
10
187.1474361832
20
252.0117097509
30
0.0000000000
11
187.1482500846
21
252.0989527286
31
0.0000000000
11
187.1474361832
21
252.0117097509
31
0.0000000000
0
SPLINE
5
474
100
AcDbEntity
8
0
100
AcDbSpline
62
7
6
BYLAYER
70
0
71
3
72
11
73
7
74
5
42
0.0000001000
43
0.0000001000
44
0.0000000001
40
0.0000000000
40
0.0000000000
40
0.0000000000
40
0.0000000000
40
0.2460868973
40
0.5106102389
40
0.7693484794
40
1.0000000000
40
1.0000000000
40
1.0000000000
40
1.0000000000
10
56.2532089734
20
202.0806890692
30
0.0000000000
10
56.2449411378
20
201.5691272820
30
0.0000000000
10
56.0503509257
20
200.5088908764
30
0.0000000000
10
55.3885694542
20
199.0383412287
30
0.0000000000
10
54.4317354254
20
197.7804158080
30
0.0000000000
10
53.6104656031
20
197.1455882798
30
0.0000000000
10
53.1809229081
20
196.9323997323
30
0.0000000000
11
56.2532089734
21
202.0806890692
31
0.0000000000
11
56.0005563966
21
200.5667402431
31
0.0000000000
11
55.3289037711
21
199.0597641542
31
0.0000000000
11
54.3401411488
21
197.7843502139
31
0.0000000000
11
53.1809229081
21
196.9323997323
31
0.0000000000
0
SPLINE
5
475
100
AcDbEntity
8
0
100
AcDbSpline
62
7
6
BYLAYER
70
0
71
3
72
8
73
4
74
2
42
0.0000001000
43
0.0000001000
44
0.0000000001
40
0.0000000000
40
0.0000000000
40
0.0000000000
40
0.0000000000
40
1.0000000000
40
1.0000000000
40
1.0000000000
40
1.0000000000
10
49.4955098126
20
201.7755783749
30
0.0000000000
10
49.2851393526
20
201.6650599933
30
0.0000000000
10
49.0746500688
20
201.5547745288
30
0.0000000000
10
48.8639374236
20
201.4449276978
30
0.0000000000
11
49.4955098126
21
201.7755783749
31
0.0000000000
11
48.8639374236
21
201.4449276978
31
0.0000000000
0
SPLINE
5
476
100
AcDbEntity
8
0
100
AcDbSpline
62
7
6
BYLAYER
70
0
71
3
72
9
73
5
74
3
42
0.0000001000
43
0.0000001000
44
0.0000000001
40
0.0000000000
40
0.0000000000
40
0.0000000000
40
0.0000000000
40
0.8736491744
40
1.0000000000
40
1.0000000000
40
1.0000000000
40
1.0000000000
10
48.8639374236
20
201.4449276978
30
0.0000000000
10
48.3783800647
20
201.1918012796
30
0.0000000000
10
47.8212417569
20
200.9047326793
30
0.0000000000
10
47.2608736102
20
200.6240136325
30
0.0000000000
10
47.1900160519
20
200.5886535052
30
0.0000000000
11
48.8639374236
21
201.4449276978
31
0.0000000000
11
47.4024280033
21
200.6950531668
31
0.0000000000
11
47.1900160519
21
200.5886535052
31
0.0000000000
0
SPLINE
5
477
100
AcDbEntity
8
0
100
AcDbSpline
62
7
6
BYLAYER
70
0
71
3
72
8
73
4
74
2
42
0.0000001000
43
0.0000001000
44
0.0000000001
40
0.0000000000
40
0.0000000000
40
0.0000000000
40
0.0000000000
40
1.0000000000
40
1.0000000000
40
1.0000000000
40
1.0000000000
10
47.1900160519
20
200.5886535052
30
0.0000000000
10
47.0253731244
20
200.5064915592
30
0.0000000000
10
46.8604355177
20
200.4249178675
30
0.0000000000
10
46.6951653785
20
200.3440276263
30
0.0000000000
11
47.1900160519
21
200.5886535052
31
0.0000000000
11
46.6951653785
21
200.3440276263
31
0.0000000000
0
SPLINE
5
478
100
AcDbEntity
8
0
100
AcDbSpline
62
7
6
BYLAYER
70
0
71
3
72
8
73
4
74
2
42
0.0000001000
43
0.0000001000
44
0.0000000001
40
0.0000000000
40
0.0000000000
40
0.0000000000
40
0.0000000000
40
1.0000000000
40
1.0000000000
40
1.0000000000
40
1.0000000000
10
65.2390624350
20
210.3780489599
30
0.0000000000
10
64.8965038643
20
210.3347152528
30
0.0000000000
10
64.5556208864
20
210.2757975088
30
0.0000000000
10
64.2187254523
20
210.1993589985
30
0.0000000000
11
65.2390624350
21
210.3780489599
31
0.0000000000
11
64.2187254523
21
210.1993589985
31
0.0000000000
0
SPLINE
5
479
100
AcDbEntity
8
0
100
AcDbSpline
62
7
6
BYLAYER
70
0
71
3
72
8
73
4
74
2
42
0.0000001000
43
0.0000001000
44
0.0000000001
40
0.0000000000
40
0.0000000000
40
0.0000000000
40
0.0000000000
40
1.0000000000
40
1.0000000000
40
1.0000000000
40
1.0000000000
10
64.2187254523
20
210.1993589985
30
0.0000000000
10
63.9006598757
20
210.1271928115
30
0.0000000000
10
63.5861485540
20
210.0394096758
30
0.0000000000
10
63.2777426425
20
209.9329490997
30
0.0000000000
11
64.2187254523
21
210.1993589985
31
0.0000000000
11
63.2777426425
21
209.9329490997
31
0.0000000000
0
SPLINE
5
47A
100
AcDbEntity
8
0
100
AcDbSpline
62
7
6
BYLAYER
70
0
71
3
72
8
73
4
74
2
42
0.0000001000
43
0.0000001000
44
0.0000000001
40
0.0000000000
40
0.0000000000
40
0.0000000000
40
0.0000000000
40
1.0000000000
40
1.0000000000
40
1.0000000000
40
1.0000000000
10
63.2777426425
20
209.9329490997
30
0.0000000000
10
62.9930842333
20
209.8346860733
30
0.0000000000
10
62.7136271912
20
209.7205112214
30
0.0000000000
10
62.4441085892
20
209.5867450558
30
0.0000000000
11
63.2777426425
21
209.9329490997
31
0.0000000000
11
62.4441085892
21
209.5867450558
31
0.0000000000
0
SPLINE
5
47B
100
AcDbEntity
8
0
100
AcDbSpline
62
7
6
BYLAYER
70
0
71
3
72
8
73
4
74
2
42
0.0000001000
43
0.0000001000
44
0.0000000001
40
0.0000000000
40
0.0000000000
40
0.0000000000
40
0.0000000000
40
1.0000000000
40
1.0000000000
40
1.0000000000
40
1.0000000000
10
126.8925417214
20
219.0565106361
30
0.0000000000
10
126.8652034847
20
219.0406605206
30
0.0000000000
10
126.8377736512
20
219.0249655615
30
0.0000000000
10
126.8102551915
20
219.0094236544
30
0.0000000000
11
126.8925417214
21
219.0565106361
31
0.0000000000
11
126.8102551915
21
219.0094236544
31
0.0000000000
0
SPLINE
5
47C
100
AcDbEntity
8
0
100
AcDbSpline
62
7
6
BYLAYER
70
0
71
3
72
8
73
4
74
2
42
0.0000001000
43
0.0000001000
44
0.0000000001
40
0.0000000000
40
0.0000000000
40
0.0000000000
40
0.0000000000
40
1.0000000000
40
1.0000000000
40
1.0000000000
40
1.0000000000
10
126.8102551915
20
219.0094236544
30
0.0000000000
10
126.3913427769
20
218.7728298229
30
0.0000000000
10
125.9518922637
20
218.5717040481
30
0.0000000000
10
125.5023834725
20
218.3986227292
30
0.0000000000
11
126.8102551915
21
219.0094236544
31
0.0000000000
11
125.5023834725
21
218.3986227292
31
0.0000000000
0
SPLINE
5
47D
100
AcDbEntity
8
0
100
AcDbSpline
62
7
6
BYLAYER
70
0
71
3
72
8
73
4
74
2
42
0.0000001000
43
0.0000001000
44
0.0000000001
40
0.0000000000
40
0.0000000000
40
0.0000000000
40
0.0000000000
40
1.0000000000
40
1.0000000000
40
1.0000000000
40
1.0000000000
10
125.5023834725
20
218.3986227292
30
0.0000000000
10
124.9733483478
20
218.1949201566
30
0.0000000000
10
124.4303811332
20
218.0300629889
30
0.0000000000
10
123.8798369360
20
217.8964082292
30
0.0000000000
11
125.5023834725
21
218.3986227292
31
0.0000000000
11
123.8798369360
21
217.8964082292
31
0.0000000000
0
SPLINE
5
47E
100
AcDbEntity
8
0
100
AcDbSpline
62
7
6
BYLAYER
70
0
71
3
72
8
73
4
74
2
42
0.0000001000
43
0.0000001000
44
0.0000000001
40
0.0000000000
40
0.0000000000
40
0.0000000000
40
0.0000000000
40
1.0000000000
40
1.0000000000
40
1.0000000000
40
1.0000000000
10
123.8798369360
20
217.8964082292
30
0.0000000000
10
123.2895357179
20
217.7531017192
30
0.0000000000
10
122.6905236751
20
217.6456668374
30
0.0000000000
10
122.0882740777
20
217.5694821791
30
0.0000000000
11
123.8798369360
21
217.8964082292
31
0.0000000000
11
122.0882740777
21
217.5694821791
31
0.0000000000
0
SPLINE
5
47F
100
AcDbEntity
8
0
100
AcDbSpline
62
7
6
BYLAYER
70
0
71
3
72
8
73
4
74
2
42
0.0000001000
43
0.0000001000
44
0.0000000001
40
0.0000000000
40
0.0000000000
40
0.0000000000
40
0.0000000000
40
1.0000000000
40
1.0000000000
40
1.0000000000
40
1.0000000000
10
43.2549221813
20
192.0059751846
30
0.0000000000
10
43.2180002246
20
191.9876502581
30
0.0000000000
10
43.1813324059
20
191.9688035262
30
0.0000000000
10
43.1449200999
20
191.9494562615
30
0.0000000000
11
43.2549221813
21
192.0059751846
31
0.0000000000
11
43.1449200999
21
191.9494562615
31
0.0000000000
0
SPLINE
5
480
100
AcDbEntity
8
0
100
AcDbSpline
62
7
6
BYLAYER
70
0
71
3
72
12
73
8
74
6
42
0.0000001000
43
0.0000001000
44
0.0000000001
40
0.0000000000
40
0.0000000000
40
0.0000000000
40
0.0000000000
40
0.1707569058
40
0.3787979524
40
0.5986828411
40
0.8142080985
40
1.0000000000
40
1.0000000000
40
1.0000000000
40
1.0000000000
10
43.1449200999
20
191.9494562615
30
0.0000000000
10
42.7688792420
20
191.7496512283
30
0.0000000000
10
41.9951430992
20
191.1879916282
30
0.0000000000
10
40.9959972674
20
190.0673385253
30
0.0000000000
10
40.1710704505
20
188.6799380864
30
0.0000000000
10
39.6359509254
20
187.2178648134
30
0.0000000000
10
39.4791461417
20
186.2200927987
30
0.0000000000
10
39.4626209402
20
185.7570934339
30
0.0000000000
11
43.1449200999
21
191.9494562615
31
0.0000000000
11
42.1000657119
21
191.2133217351
31
0.0000000000
11
41.0548923503
21
190.0607518778
31
0.0000000000
11
40.2121870378
21
188.6486142441
31
0.0000000000
11
39.6648198776
21
187.1325330666
31
0.0000000000
11
39.4626209402
21
185.7570934339
31
0.0000000000
0
SPLINE
5
481
100
AcDbEntity
8
0
100
AcDbSpline
62
7
6
BYLAYER
70
0
71
3
72
8
73
4
74
2
42
0.0000001000
43
0.0000001000
44
0.0000000001
40
0.0000000000
40
0.0000000000
40
0.0000000000
40
0.0000000000
40
1.0000000000
40
1.0000000000
40
1.0000000000
40
1.0000000000
10
39.4626209402
20
185.7570934339
30
0.0000000000
10
39.4613032706
20
185.7201752651
30
0.0000000000
10
39.4603420831
20
185.6832502582
30
0.0000000000
10
39.4597452771
20
185.6463236509
30
0.0000000000
11
39.4626209402
21
185.7570934339
31
0.0000000000
11
39.4597452771
21
185.6463236509
31
0.0000000000
0
SPLINE
5
482
100
AcDbEntity
8
0
100
AcDbSpline
62
7
6
BYLAYER
70
0
71
3
72
9
73
5
74
3
42
0.0000001000
43
0.0000001000
44
0.0000000001
40
0.0000000000
40
0.0000000000
40
0.0000000000
40
0.0000000000
40
0.4173040712
40
1.0000000000
40
1.0000000000
40
1.0000000000
40
1.0000000000
10
57.2731140594
20
196.4813590902
30
0.0000000000
10
57.1566979192
20
196.5485584501
30
0.0000000000
10
56.8926237459
20
196.7355994961
30
0.0000000000
10
56.6723965147
20
196.9724501788
30
0.0000000000
10
56.5576443823
20
197.1208160039
30
0.0000000000
11
57.2731140594
21
196.4813590902
31
0.0000000000
11
56.9439350883
21
196.7133384140
31
0.0000000000
11
56.5576443823
21
197.1208160039
31
0.0000000000
0
SPLINE
5
483
100
AcDbEntity
8
0
100
AcDbSpline
62
7
6
BYLAYER
70
0
71
3
72
10
73
6
74
4
42
0.0000001000
43
0.0000001000
44
0.0000000001
40
0.0000000000
40
0.0000000000
40
0.0000000000
40
0.0000000000
40
0.0556603448
40
0.3515317577
40
1.0000000000
40
1.0000000000
40
1.0000000000
40
1.0000000000
10
56.5576443823
20
197.1208160039
30
0.0000000000
10
56.5280324331
20
197.1591020138
30
0.0000000000
10
56.3467219211
20
197.4052578637
30
0.0000000000
10
55.9309456234
20
198.1709413582
30
0.0000000000
10
55.7501770663
20
198.9922665931
30
0.0000000000
10
55.7169307742
20
199.5534665393
30
0.0000000000
11
56.5576443823
21
197.1208160039
31
0.0000000000
11
56.4714975275
21
197.2376297534
31
0.0000000000
11
56.0983444627
21
197.9106093155
31
0.0000000000
11
55.7169307742
21
199.5534665393
31
0.0000000000
0
SPLINE
5
484
100
AcDbEntity
8
0
100
AcDbSpline
62
7
6
BYLAYER
70
0
71
3
72
9
73
5
74
3
42
0.0000001000
43
0.0000001000
44
0.0000000001
40
0.0000000000
40
0.0000000000
40
0.0000000000
40
0.0000000000
40
0.2637124746
40
1.0000000000
40
1.0000000000
40
1.0000000000
40
1.0000000000
10
186.2907414691
20
254.4616475650
30
0.0000000000
10
186.4054889987
20
254.4233060171
30
0.0000000000
10
186.8157256888
20
254.2125650108
30
0.0000000000
10
187.0215382986
20
253.7775183336
30
0.0000000000
10
187.1202495529
20
253.4544263085
30
0.0000000000
11
186.2907414691
21
254.4616475650
31
0.0000000000
11
186.6076415409
21
254.2965567786
31
0.0000000000
11
187.1202495529
21
253.4544263085
31
0.0000000000
0
SPLINE
5
485
100
AcDbEntity
8
0
100
AcDbSpline
62
7
6
BYLAYER
70
0
71
3
72
8
73
4
74
2
42
0.0000001000
43
0.0000001000
44
0.0000000001
40
0.0000000000
40
0.0000000000
40
0.0000000000
40
0.0000000000
40
1.0000000000
40
1.0000000000
40
1.0000000000
40
1.0000000000
10
187.1202495529
20
253.4544263085
30
0.0000000000
10
187.2551575183
20
253.0128587478
30
0.0000000000
10
187.2913944687
20
252.5661124184
30
0.0000000000
10
187.2841366049
20
252.1170413531
30
0.0000000000
11
187.1202495529
21
253.4544263085
31
0.0000000000
11
187.2841366049
21
252.1170413531
31
0.0000000000
0
SPLINE
5
486
100
AcDbEntity
8
0
100
AcDbSpline
62
7
6
BYLAYER
70
0
71
3
72
9
73
5
74
3
42
0.0000001000
43
0.0000001000
44
0.0000000001
40
0.0000000000
40
0.0000000000
40
0.0000000000
40
0.0000000000
40
0.6355465649
40
1.0000000000
40
1.0000000000
40
1.0000000000
40
1.0000000000
10
61.8802497834
20
195.3099810969
30
0.0000000000
10
61.6409234340
20
195.1743862017
30
0.0000000000
10
61.2331545160
20
195.0094325590
30
0.0000000000
10
60.8001366396
20
194.9508176729
30
0.0000000000
10
60.6418752274
20
194.9447899091
30
0.0000000000
11
61.8802497834
21
195.3099810969
31
0.0000000000
11
61.1124126188
21
195.0076670503
31
0.0000000000
11
60.6418752274
21
194.9447899091
31
0.0000000000
0
SPLINE
5
487
100
AcDbEntity
8
0
100
AcDbSpline
62
7
6
BYLAYER
70
0
71
3
72
10
73
6
74
4
42
0.0000001000
43
0.0000001000
44
0.0000000001
40
0.0000000000
40
0.0000000000
40
0.0000000000
40
0.0000000000
40
0.2205180263
40
0.7753652139
40
1.0000000000
40
1.0000000000
40
1.0000000000
40
1.0000000000
10
60.6418752274
20
194.9447899091
30
0.0000000000
10
60.5376076294
20
194.9408186286
30
0.0000000000
10
60.1703099471
20
194.9502588634
30
0.0000000000
10
59.7067660160
20
195.0740820831
30
0.0000000000
10
59.3782647995
20
195.2424651562
30
0.0000000000
10
59.2866495452
20
195.2962276251
30
0.0000000000
11
60.6418752274
21
194.9447899091
31
0.0000000000
11
60.3293223009
21
194.9531905089
31
0.0000000000
11
59.5703288124
21
195.1513827299
31
0.0000000000
11
59.2866495452
21
195.2962276251
31
0.0000000000
0
SPLINE
5
488
100
AcDbEntity
8
0
100
AcDbSpline
62
7
6
BYLAYER
70
0
71
3
72
9
73
5
74
3
42
0.0000001000
43
0.0000001000
44
0.0000000001
40
0.0000000000
40
0.0000000000
40
0.0000000000
40
0.0000000000
40
0.6910713246
40
1.0000000000
40
1.0000000000
40
1.0000000000
40
1.0000000000
10
182.0397380363
20
255.0728737075
30
0.0000000000
10
182.3123760795
20
255.2829491525
30
0.0000000000
10
182.7725982619
20
255.5628476484
30
0.0000000000
10
183.2944436562
20
255.4959326572
30
0.0000000000
10
183.4444419501
20
255.4458124778
30
0.0000000000
11
182.0397380363
21
255.0728737075
31
0.0000000000
11
182.9778987733
21
255.5041777631
31
0.0000000000
11
183.4444419501
21
255.4458124778
31
0.0000000000
0
SPLINE
5
489
100
AcDbEntity
8
0
100
AcDbSpline
62
7
6
BYLAYER
70
0
71
3
72
10
73
6
74
4
42
0.0000001000
43
0.0000001000
44
0.0000000001
40
0.0000000000
40
0.0000000000
40
0.0000000000
40
0.0000000000
40
0.3059391324
40
0.6491328501
40
1.0000000000
40
1.0000000000
40
1.0000000000
40
1.0000000000
10
43.2514494845
20
191.7911065023
30
0.0000000000
10
42.7461051375
20
191.5402964465
30
0.0000000000
10
41.7799053466
20
190.7934405310
30
0.0000000000
10
40.6542182539
20
189.3135282713
30
0.0000000000
10
40.1246872071
20
188.1368532996
30
0.0000000000
10
39.9342336158
20
187.5154117838
30
0.0000000000
11
43.2514494845
21
191.7911065023
31
0.0000000000
11
41.8876633191
21
190.7888118181
31
0.0000000000
11
40.7244131751
21
189.2883248296
31
0.0000000000
11
39.9342336158
21
187.5154117838
31
0.0000000000
0
SPLINE
5
48A
100
AcDbEntity
8
0
100
AcDbSpline
62
7
6
BYLAYER
70
0
71
3
72
8
73
4
74
2
42
0.0000001000
43
0.0000001000
44
0.0000000001
40
0.0000000000
40
0.0000000000
40
0.0000000000
40
0.0000000000
40
1.0000000000
40
1.0000000000
40
1.0000000000
40
1.0000000000
10
39.9342336158
20
187.5154117838
30
0.0000000000
10
39.7570540403
20
186.9372827857
30
0.0000000000
10
39.6467221556
20
186.3361329144
30
0.0000000000
10
39.6369952901
20
185.7342955178
30
0.0000000000
11
39.9342336158
21
187.5154117838
31
0.0000000000
11
39.6369952901
21
185.7342955178
31
0.0000000000
0
SPLINE
5
48B
100
AcDbEntity
8
0
100
AcDbSpline
62
7
6
BYLAYER
70
0
71
3
72
9
73
5
74
3
42
0.0000001000
43
0.0000001000
44
0.0000000001
40
0.0000000000
40
0.0000000000
40
0.0000000000
40
0.0000000000
40
0.4610041835
40
1.0000000000
40
1.0000000000
40
1.0000000000
40
1.0000000000
10
175.6391617117
20
257.0597198831
30
0.0000000000
10
175.2413042741
20
256.7942287476
30
0.0000000000
10
174.4970137366
20
256.0439016583
30
0.0000000000
10
173.9532123826
20
255.1535519402
30
0.0000000000
10
173.7078855581
20
254.6503878427
30
0.0000000000
11
175.6391617117
21
257.0597198831
31
0.0000000000
11
174.5976711062
21
256.0726626041
31
0.0000000000
11
173.7078855581
21
254.6503878427
31
0.0000000000
0
SPLINE
5
48C
100
AcDbEntity
8
0
100
AcDbSpline
62
7
6
BYLAYER
70
0
71
3
72
8
73
4
74
2
42
0.0000001000
43
0.0000001000
44
0.0000000001
40
0.0000000000
40
0.0000000000
40
0.0000000000
40
0.0000000000
40
1.0000000000
40
1.0000000000
40
1.0000000000
40
1.0000000000
10
173.7078855581
20
254.6503878427
30
0.0000000000
10
173.5753451611
20
254.3785481474
30
0.0000000000
10
173.4567508092
20
254.0999165687
30
0.0000000000
10
173.3529507686
20
253.8156968360
30
0.0000000000
11
173.7078855581
21
254.6503878427
31
0.0000000000
11
173.3529507686
21
253.8156968360
31
0.0000000000
0
SPLINE
5
48D
100
AcDbEntity
8
0
100
AcDbSpline
62
7
6
BYLAYER
70
0
71
3
72
8
73
4
74
2
42
0.0000001000
43
0.0000001000
44
0.0000000001
40
0.0000000000
40
0.0000000000
40
0.0000000000
40
0.0000000000
40
1.0000000000
40
1.0000000000
40
1.0000000000
40
1.0000000000
10
65.2355897383
20
210.1631802775
30
0.0000000000
10
64.8930311676
20
210.1198465705
30
0.0000000000
10
64.5521481896
20
210.0609288265
30
0.0000000000
10
64.2152527556
20
209.9844903162
30
0.0000000000
11
65.2355897383
21
210.1631802775
31
0.0000000000
11
64.2152527556
21
209.9844903162
31
0.0000000000
0
SPLINE
5
48E
100
AcDbEntity
8
0
100
AcDbSpline
62
7
6
BYLAYER
70
0
71
3
72
8
73
4
74
2
42
0.0000001000
43
0.0000001000
44
0.0000000001
40
0.0000000000
40
0.0000000000
40
0.0000000000
40
0.0000000000
40
1.0000000000
40
1.0000000000
40
1.0000000000
40
1.0000000000
10
64.2152527556
20
209.9844903162
30
0.0000000000
10
63.8971871790
20
209.9123241292
30
0.0000000000
10
63.5826758572
20
209.8245409935
30
0.0000000000
10
63.2742699457
20
209.7180804174
30
0.0000000000
11
64.2152527556
21
209.9844903162
31
0.0000000000
11
63.2742699457
21
209.7180804174
31
0.0000000000
0
SPLINE
5
48F
100
AcDbEntity
8
0
100
AcDbSpline
62
7
6
BYLAYER
70
0
71
3
72
8
73
4
74
2
42
0.0000001000
43
0.0000001000
44
0.0000000001
40
0.0000000000
40
0.0000000000
40
0.0000000000
40
0.0000000000
40
1.0000000000
40
1.0000000000
40
1.0000000000
40
1.0000000000
10
63.2742699457
20
209.7180804174
30
0.0000000000
10
63.0165717013
20
209.6291239398
30
0.0000000000
10
62.7631362315
20
209.5271269427
30
0.0000000000
10
62.5174781083
20
209.4093595073
30
0.0000000000
11
63.2742699457
21
209.7180804174
31
0.0000000000
11
62.5174781083
21
209.4093595073
31
0.0000000000
0
SPLINE
5
490
100
AcDbEntity
8
0
100
AcDbSpline
62
7
6
BYLAYER
70
0
71
3
72
8
73
4
74
2
42
0.0000001000
43
0.0000001000
44
0.0000000001
40
0.0000000000
40
0.0000000000
40
0.0000000000
40
0.0000000000
40
1.0000000000
40
1.0000000000
40
1.0000000000
40
1.0000000000
10
62.5174781083
20
209.4093595073
30
0.0000000000
10
62.4917775705
20
209.3970387814
30
0.0000000000
10
62.4661621571
20
209.3845454454
30
0.0000000000
10
62.4406358925
20
209.3718763735
30
0.0000000000
11
62.5174781083
21
209.4093595073
31
0.0000000000
11
62.4406358925
21
209.3718763735
31
0.0000000000
0
SPLINE
5
491
100
AcDbEntity
8
0
100
AcDbSpline
62
7
6
BYLAYER
70
0
71
3
72
8
73
4
74
2
42
0.0000001000
43
0.0000001000
44
0.0000000001
40
0.0000000000
40
0.0000000000
40
0.0000000000
40
0.0000000000
40
1.0000000000
40
1.0000000000
40
1.0000000000
40
1.0000000000
10
126.8890690246
20
218.8416419538
30
0.0000000000
10
126.4455619015
20
218.5845061617
30
0.0000000000
10
125.9779479101
20
218.3682051203
30
0.0000000000
10
125.4989107758
20
218.1837540469
30
0.0000000000
11
126.8890690246
21
218.8416419538
31
0.0000000000
11
125.4989107758
21
218.1837540469
31
0.0000000000
0
SPLINE
5
492
100
AcDbEntity
8
0
100
AcDbSpline
62
7
6
BYLAYER
70
0
71
3
72
8
73
4
74
2
42
0.0000001000
43
0.0000001000
44
0.0000000001
40
0.0000000000
40
0.0000000000
40
0.0000000000
40
0.0000000000
40
1.0000000000
40
1.0000000000
40
1.0000000000
40
1.0000000000
10
125.4989107758
20
218.1837540469
30
0.0000000000
10
124.9698756511
20
217.9800514743
30
0.0000000000
10
124.4269084365
20
217.8151943066
30
0.0000000000
10
123.8763642393
20
217.6815395469
30
0.0000000000
11
125.4989107758
21
218.1837540469
31
0.0000000000
11
123.8763642393
21
217.6815395469
31
0.0000000000
0
SPLINE
5
493
100
AcDbEntity
8
0
100
AcDbSpline
62
7
6
BYLAYER
70
0
71
3
72
8
73
4
74
2
42
0.0000001000
43
0.0000001000
44
0.0000000001
40
0.0000000000
40
0.0000000000
40
0.0000000000
40
0.0000000000
40
1.0000000000
40
1.0000000000
40
1.0000000000
40
1.0000000000
10
123.8763642393
20
217.6815395469
30
0.0000000000
10
123.2860630212
20
217.5382330369
30
0.0000000000
10
122.6870509784
20
217.4307981551
30
0.0000000000
10
122.0848013810
20
217.3546134968
30
0.0000000000
11
123.8763642393
21
217.6815395469
31
0.0000000000
11
122.0848013810
21
217.3546134968
31
0.0000000000
0
SPLINE
5
494
100
AcDbEntity
8
0
100
AcDbSpline
62
7
6
BYLAYER
70
0
71
3
72
8
73
4
74
2
42
0.0000001000
43
0.0000001000
44
0.0000000001
40
0.0000000000
40
0.0000000000
40
0.0000000000
40
0.0000000000
40
1.0000000000
40
1.0000000000
40
1.0000000000
40
1.0000000000
10
160.8128799497
20
237.2194095127
30
0.0000000000
10
160.4330526894
20
237.2610889435
30
0.0000000000
10
160.0485313597
20
237.2684329382
30
0.0000000000
10
159.6667727004
20
237.2415787793
30
0.0000000000
11
160.8128799497
21
237.2194095127
31
0.0000000000
11
159.6667727004
21
237.2415787793
31
0.0000000000
0
SPLINE
5
495
100
AcDbEntity
8
0
100
AcDbSpline
62
7
6
BYLAYER
70
0
71
3
72
9
73
5
74
3
42
0.0000001000
43
0.0000001000
44
0.0000000001
40
0.0000000000
40
0.0000000000
40
0.0000000000
40
0.0000000000
40
0.5337865480
40
1.0000000000
40
1.0000000000
40
1.0000000000
40
1.0000000000
10
159.6667727004
20
237.2415787793
30
0.0000000000
10
159.3013020496
20
237.2158703725
30
0.0000000000
10
158.6213697898
20
237.1089912540
30
0.0000000000
10
157.9720153444
20
236.8628587673
30
0.0000000000
10
157.6956143653
20
236.7026074861
30
0.0000000000
11
159.6667727004
21
237.2415787793
31
0.0000000000
11
158.5841371399
21
237.0620919064
31
0.0000000000
11
157.6956143653
21
236.7026074861
31
0.0000000000
0
SPLINE
5
496
100
AcDbEntity
8
0
100
AcDbSpline
62
7
6
BYLAYER
70
0
71
3
72
8
73
4
74
2
42
0.0000001000
43
0.0000001000
44
0.0000000001
40
0.0000000000
40
0.0000000000
40
0.0000000000
40
0.0000000000
40
1.0000000000
40
1.0000000000
40
1.0000000000
40
1.0000000000
10
181.7235408277
20
237.0869956344
30
0.0000000000
10
181.3268032658
20
236.7812979451
30
0.0000000000
10
180.8788219820
20
236.5423761716
30
0.0000000000
10
180.4144994384
20
236.3493801699
30
0.0000000000
11
181.7235408277
21
237.0869956344
31
0.0000000000
11
180.4144994384
21
236.3493801699
31
0.0000000000
0
SPLINE
5
497
100
AcDbEntity
8
0
100
AcDbSpline
62
7
6
BYLAYER
70
0
71
3
72
9
73
5
74
3
42
0.0000001000
43
0.0000001000
44
0.0000000001
40
0.0000000000
40
0.0000000000
40
0.0000000000
40
0.0000000000
40
0.4774168526
40
1.0000000000
40
1.0000000000
40
1.0000000000
40
1.0000000000
10
180.4144994384
20
236.3493801699
30
0.0000000000
10
179.8719309011
20
236.1238611642
30
0.0000000000
10
178.6887271822
20
235.7828372882
30
0.0000000000
10
177.4661295412
20
235.6405265037
30
0.0000000000
10
176.8251733781
20
235.6132464590
30
0.0000000000
11
180.4144994384
21
236.3493801699
31
0.0000000000
11
178.7331891774
21
235.8435321223
31
0.0000000000
11
176.8251733781
21
235.6132464590
31
0.0000000000
0
SPLINE
5
498
100
AcDbEntity
8
0
100
AcDbSpline
62
7
6
BYLAYER
70
0
71
3
72
8
73
4
74
2
42
0.0000001000
43
0.0000001000
44
0.0000000001
40
0.0000000000
40
0.0000000000
40
0.0000000000
40
0.0000000000
40
1.0000000000
40
1.0000000000
40
1.0000000000
40
1.0000000000
10
176.8251733781
20
235.6132464590
30
0.0000000000
10
176.1679596290
20
235.5852744674
30
0.0000000000
10
175.5085934681
20
235.6068107386
30
0.0000000000
10
174.8556429314
20
235.6784606952
30
0.0000000000
11
176.8251733781
21
235.6132464590
31
0.0000000000
11
174.8556429314
21
235.6784606952
31
0.0000000000
0
SPLINE
5
499
100
AcDbEntity
8
0
100
AcDbSpline
62
7
6
BYLAYER
70
0
71
3
72
8
73
4
74
2
42
0.0000001000
43
0.0000001000
44
0.0000000001
40
0.0000000000
40
0.0000000000
40
0.0000000000
40
0.0000000000
40
1.0000000000
40
1.0000000000
40
1.0000000000
40
1.0000000000
10
160.5826522607
20
240.8857519647
30
0.0000000000
10
160.2615758822
20
240.9202691778
30
0.0000000000
10
159.9366165679
20
240.9259191298
30
0.0000000000
10
159.6140221371
20
240.9027517629
30
0.0000000000
11
160.5826522607
21
240.8857519647
31
0.0000000000
11
159.6140221371
21
240.9027517629
31
0.0000000000
0
SPLINE
5
49A
100
AcDbEntity
8
0
100
AcDbSpline
62
7
6
BYLAYER
70
0
71
3
72
8
73
4
74
2
42
0.0000001000
43
0.0000001000
44
0.0000000001
40
0.0000000000
40
0.0000000000
40
0.0000000000
40
0.0000000000
40
1.0000000000
40
1.0000000000
40
1.0000000000
40
1.0000000000
10
159.6140221371
20
240.9027517629
30
0.0000000000
10
159.3053613923
20
240.8805850543
30
0.0000000000
10
158.9988656521
20
240.8320366538
30
0.0000000000
10
158.6997473632
20
240.7500739235
30
0.0000000000
11
159.6140221371
21
240.9027517629
31
0.0000000000
11
158.6997473632
21
240.7500739235
31
0.0000000000
0
SPLINE
5
49B
100
AcDbEntity
8
0
100
AcDbSpline
62
7
6
BYLAYER
70
0
71
3
72
8
73
4
74
2
42
0.0000001000
43
0.0000001000
44
0.0000000001
40
0.0000000000
40
0.0000000000
40
0.0000000000
40
0.0000000000
40
1.0000000000
40
1.0000000000
40
1.0000000000
40
1.0000000000
10
158.6997473632
20
240.7500739235
30
0.0000000000
10
158.4384494583
20
240.6784745245
30
0.0000000000
10
158.1827813444
20
240.5813763882
30
0.0000000000
10
157.9492771748
20
240.4459957449
30
0.0000000000
11
158.6997473632
21
240.7500739235
31
0.0000000000
11
157.9492771748
21
240.4459957449
31
0.0000000000
0
SPLINE
5
49C
100
AcDbEntity
8
0
100
AcDbSpline
62
7
6
BYLAYER
70
0
71
3
72
8
73
4
74
2
42
0.0000001000
43
0.0000001000
44
0.0000000001
40
0.0000000000
40
0.0000000000
40
0.0000000000
40
0.0000000000
40
1.0000000000
40
1.0000000000
40
1.0000000000
40
1.0000000000
10
168.1773677816
20
242.0055148105
30
0.0000000000
10
167.7714564145
20
241.7346492702
30
0.0000000000
10
167.3266186302
20
241.5218871531
30
0.0000000000
10
166.8683250660
20
241.3500784835
30
0.0000000000
11
168.1773677816
21
242.0055148105
31
0.0000000000
11
166.8683250660
21
241.3500784835
31
0.0000000000
0
SPLINE
5
49D
100
AcDbEntity
8
0
100
AcDbSpline
62
7
6
BYLAYER
70
0
71
3
72
9
73
5
74
3
42
0.0000001000
43
0.0000001000
44
0.0000000001
40
0.0000000000
40
0.0000000000
40
0.0000000000
40
0.0000000000
40
0.4803993508
40
1.0000000000
40
1.0000000000
40
1.0000000000
40
1.0000000000
10
166.8683250660
20
241.3500784835
30
0.0000000000
10
166.3429552660
20
241.1531237509
30
0.0000000000
10
165.2125361245
20
240.8551715621
30
0.0000000000
10
164.0503820262
20
240.7329973041
30
0.0000000000
10
163.4449600373
20
240.7114391298
30
0.0000000000
11
166.8683250660
21
241.3500784835
31
0.0000000000
11
165.2495261170
21
240.9074183272
31
0.0000000000
11
163.4449600373
21
240.7114391298
31
0.0000000000
0
SPLINE
5
49E
100
AcDbEntity
8
0
100
AcDbSpline
62
7
6
BYLAYER
70
0
71
3
72
8
73
4
74
2
42
0.0000001000
43
0.0000001000
44
0.0000000001
40
0.0000000000
40
0.0000000000
40
0.0000000000
40
0.0000000000
40
1.0000000000
40
1.0000000000
40
1.0000000000
40
1.0000000000
10
163.4449600373
20
240.7114391298
30
0.0000000000
10
162.8268290194
20
240.6894284059
30
0.0000000000
10
162.2070656010
20
240.7111199296
30
0.0000000000
10
161.5928444410
20
240.7771515784
30
0.0000000000
11
163.4449600373
21
240.7114391298
31
0.0000000000
11
161.5928444410
21
240.7771515784
31
0.0000000000
0
SPLINE
5
49F
100
AcDbEntity
8
0
100
AcDbSpline
62
7
6
BYLAYER
70
0
71
3
72
10
73
6
74
4
42
0.0000001000
43
0.0000001000
44
0.0000000001
40
0.0000000000
40
0.0000000000
40
0.0000000000
40
0.0000000000
40
0.3059391324
40
0.6491328501
40
1.0000000000
40
1.0000000000
40
1.0000000000
40
1.0000000000
10
59.6897186155
20
208.0065544503
30
0.0000000000
10
59.2349087032
20
207.7808254001
30
0.0000000000
10
58.3653288914
20
207.1086550761
30
0.0000000000
10
57.3522105080
20
205.7767340424
30
0.0000000000
10
56.8756325659
20
204.7177265679
30
0.0000000000
10
56.7042243337
20
204.1584292037
30
0.0000000000
11
59.6897186155
21
208.0065544503
31
0.0000000000
11
58.4623110666
21
207.1044892346
31
0.0000000000
11
57.4153859371
21
205.7540509449
31
0.0000000000
11
56.7042243337
21
204.1584292037
31
0.0000000000
0
SPLINE
5
4A0
100
AcDbEntity
8
0
100
AcDbSpline
62
7
6
BYLAYER
70
0
71
3
72
8
73
4
74
2
42
0.0000001000
43
0.0000001000
44
0.0000000001
40
0.0000000000
40
0.0000000000
40
0.0000000000
40
0.0000000000
40
1.0000000000
40
1.0000000000
40
1.0000000000
40
1.0000000000
10
56.7042243337
20
204.1584292037
30
0.0000000000
10
56.5447627157
20
203.6381131054
30
0.0000000000
10
56.4454640195
20
203.0970782213
30
0.0000000000
10
56.4367098405
20
202.5554245643
30
0.0000000000
11
56.7042243337
21
204.1584292037
31
0.0000000000
11
56.4367098405
21
202.5554245643
31
0.0000000000
0
SPLINE
5
4A1
100
AcDbEntity
8
0
100
AcDbSpline
62
7
6
BYLAYER
70
0
71
3
72
8
73
4
74
2
42
0.0000001000
43
0.0000001000
44
0.0000000001
40
0.0000000000
40
0.0000000000
40
0.0000000000
40
0.0000000000
40
1.0000000000
40
1.0000000000
40
1.0000000000
40
1.0000000000
10
187.1707877832
20
245.1037275628
30
0.0000000000
10
187.1701330394
20
245.0632161260
30
0.0000000000
10
187.1690963459
20
245.0227090684
30
0.0000000000
10
187.1676872440
20
244.9822109128
30
0.0000000000
11
187.1707877832
21
245.1037275628
31
0.0000000000
11
187.1676872440
21
244.9822109128
31
0.0000000000
0
SPLINE
5
4A2
100
AcDbEntity
8
0
100
AcDbSpline
62
7
6
BYLAYER
70
0
71
3
72
11
73
7
74
5
42
0.0000001000
43
0.0000001000
44
0.0000000001
40
0.0000000000
40
0.0000000000
40
0.0000000000
40
0.0000000000
40
0.2462242074
40
0.5303462485
40
0.7998398499
40
1.0000000000
40
1.0000000000
40
1.0000000000
40
1.0000000000
10
187.1676872440
20
244.9822109128
30
0.0000000000
10
187.1500774147
20
244.4760973109
30
0.0000000000
10
186.9868696709
20
243.3889657701
30
0.0000000000
10
186.4640774725
20
241.8209060328
30
0.0000000000
10
185.7200379195
20
240.4535297429
30
0.0000000000
10
185.0856930079
20
239.7053547628
30
0.0000000000
10
184.7712074642
20
239.4398329748
30
0.0000000000
11
187.1676872440
21
244.9822109128
31
0.0000000000
11
186.9589927744
21
243.4768687865
31
0.0000000000
11
186.4058922922
21
241.8135793047
31
0.0000000000
11
185.5953761030
21
240.3619316933
31
0.0000000000
11
184.7712074642
21
239.4398329748
31
0.0000000000
0
SPLINE
5
4A3
100
AcDbEntity
8
0
100
AcDbSpline
62
7
6
BYLAYER
70
0
71
3
72
8
73
4
74
2
42
0.0000001000
43
0.0000001000
44
0.0000000001
40
0.0000000000
40
0.0000000000
40
0.0000000000
40
0.0000000000
40
1.0000000000
40
1.0000000000
40
1.0000000000
40
1.0000000000
10
184.7712074642
20
239.4398329748
30
0.0000000000
10
184.7307679616
20
239.4056896915
30
0.0000000000
10
184.6895986565
20
239.3724284037
30
0.0000000000
10
184.6476716509
20
239.3401224414
30
0.0000000000
11
184.7712074642
21
239.4398329748
31
0.0000000000
11
184.6476716509
21
239.3401224414
31
0.0000000000
0
SPLINE
5
4A4
100
AcDbEntity
8
0
100
AcDbSpline
62
7
6
BYLAYER
70
0
71
3
72
10
73
6
74
4
42
0.0000001000
43
0.0000001000
44
0.0000000001
40
0.0000000000
40
0.0000000000
40
0.0000000000
40
0.0000000000
40
0.0408021363
40
0.5838220967
40
1.0000000000
40
1.0000000000
40
1.0000000000
40
1.0000000000
10
172.0496314412
20
245.7875241670
30
0.0000000000
10
172.0317395604
20
245.7494572573
30
0.0000000000
10
171.7718389551
20
245.2066059477
30
0.0000000000
10
171.2320675357
20
244.3228543211
30
0.0000000000
10
170.5325816044
20
243.6020885957
30
0.0000000000
10
170.1861493454
20
243.3497022268
30
0.0000000000
11
172.0496314412
21
245.7875241670
31
0.0000000000
11
171.9951419526
21
245.6737110909
31
0.0000000000
11
171.1053564045
21
244.2514363294
31
0.0000000000
11
170.1861493454
21
243.3497022268
31
0.0000000000
0
SPLINE
5
4A5
100
AcDbEntity
8
0
100
AcDbSpline
62
7
6
BYLAYER
70
0
71
3
72
8
73
4
74
2
42
0.0000001000
43
0.0000001000
44
0.0000000001
40
0.0000000000
40
0.0000000000
40
0.0000000000
40
0.0000000000
40
1.0000000000
40
1.0000000000
40
1.0000000000
40
1.0000000000
10
170.1861493454
20
243.3497022268
30
0.0000000000
10
170.1459702776
20
243.3204305618
30
0.0000000000
10
170.1052136330
20
243.2919705502
30
0.0000000000
10
170.0638657989
20
243.2643790504
30
0.0000000000
11
170.1861493454
21
243.3497022268
31
0.0000000000
11
170.0638657989
21
243.2643790504
31
0.0000000000
0
SPLINE
5
4A6
100
AcDbEntity
8
0
100
AcDbSpline
62
7
6
BYLAYER
70
0
71
3
72
8
73
4
74
2
42
0.0000001000
43
0.0000001000
44
0.0000000001
40
0.0000000000
40
0.0000000000
40
0.0000000000
40
0.0000000000
40
1.0000000000
40
1.0000000000
40
1.0000000000
40
1.0000000000
10
56.4304589864
20
202.1686609361
30
0.0000000000
10
56.4298393842
20
202.1303238418
30
0.0000000000
10
56.4287661986
20
202.0919898473
30
0.0000000000
10
56.4272502017
20
202.0536660792
30
0.0000000000
11
56.4304589864
21
202.1686609361
31
0.0000000000
11
56.4272502017
21
202.0536660792
31
0.0000000000
0
SPLINE
5
4A7
100
AcDbEntity
8
0
100
AcDbSpline
62
7
6
BYLAYER
70
0
71
3
72
11
73
7
74
5
42
0.0000001000
43
0.0000001000
44
0.0000000001
40
0.0000000000
40
0.0000000000
40
0.0000000000
40
0.0000000000
40
0.2374350533
40
0.5120984603
40
0.7807550040
40
1.0000000000
40
1.0000000000
40
1.0000000000
40
1.0000000000
10
56.4272502017
20
202.0536660792
30
0.0000000000
10
56.4073471196
20
201.5505244723
30
0.0000000000
10
56.1998045364
20
200.4691534532
30
0.0000000000
10
55.5149583190
20
198.9473514579
30
0.0000000000
10
54.5280451593
20
197.6498817672
30
0.0000000000
10
53.7012236729
20
196.9971333767
30
0.0000000000
10
53.2918414998
20
196.7767081152
30
0.0000000000
11
56.4272502017
21
202.0536660792
31
0.0000000000
11
56.1629444933
21
200.5656562967
31
0.0000000000
11
55.4517828898
21
198.9700345555
31
0.0000000000
11
54.4048577603
21
197.6195962658
31
0.0000000000
11
53.2918414998
21
196.7767081152
31
0.0000000000
0
SPLINE
5
4A8
100
AcDbEntity
8
0
100
AcDbSpline
62
7
6
BYLAYER
70
0
71
3
72
8
73
4
74
2
42
0.0000001000
43
0.0000001000
44
0.0000000001
40
0.0000000000
40
0.0000000000
40
0.0000000000
40
0.0000000000
40
1.0000000000
40
1.0000000000
40
1.0000000000
40
1.0000000000
10
53.2918414998
20
196.7767081152
30
0.0000000000
10
53.2540333863
20
196.7563509432
30
0.0000000000
10
53.2159025332
20
196.7366155200
30
0.0000000000
10
53.1774502114
20
196.7175310500
30
0.0000000000
11
53.2918414998
21
196.7767081152
31
0.0000000000
11
53.1774502114
21
196.7175310500
31
0.0000000000
0
SPLINE
5
4A9
100
AcDbEntity
8
0
100
AcDbSpline
62
7
6
BYLAYER
70
0
71
3
72
8
73
4
74
2
42
0.0000001000
43
0.0000001000
44
0.0000000001
40
0.0000000000
40
0.0000000000
40
0.0000000000
40
0.0000000000
40
1.0000000000
40
1.0000000000
40
1.0000000000
40
1.0000000000
10
49.2117109675
20
201.4100339732
30
0.0000000000
10
49.0966048362
20
201.3500710626
30
0.0000000000
10
48.9814544509
20
201.2901952363
30
0.0000000000
10
48.8662446122
20
201.2304364785
30
0.0000000000
11
49.2117109675
21
201.4100339732
31
0.0000000000
11
48.8662446122
21
201.2304364785
31
0.0000000000
0
SPLINE
5
4AA
100
AcDbEntity
8
0
100
AcDbSpline
62
7
6
BYLAYER
70
0
71
3
72
9
73
5
74
3
42
0.0000001000
43
0.0000001000
44
0.0000000001
40
0.0000000000
40
0.0000000000
40
0.0000000000
40
0.0000000000
40
0.9229131286
40
1.0000000000
40
1.0000000000
40
1.0000000000
40
1.0000000000
10
48.8662446122
20
201.2304364785
30
0.0000000000
10
48.3788743728
20
200.9776400122
30
0.0000000000
10
47.8496434416
20
200.7059985280
30
0.0000000000
10
47.3178125623
20
200.4394814732
30
0.0000000000
10
47.2767994406
20
200.4189681857
30
0.0000000000
11
48.8662446122
21
201.2304364785
31
0.0000000000
11
47.3997914696
21
200.4806018564
31
0.0000000000
11
47.2767994406
21
200.4189681857
31
0.0000000000
0
SPLINE
5
4AB
100
AcDbEntity
8
0
100
AcDbSpline
62
7
6
BYLAYER
70
0
71
3
72
8
73
4
74
2
42
0.0000001000
43
0.0000001000
44
0.0000000001
40
0.0000000000
40
0.0000000000
40
0.0000000000
40
0.0000000000
40
1.0000000000
40
1.0000000000
40
1.0000000000
40
1.0000000000
10
47.2767994406
20
200.4189681857
30
0.0000000000
10
47.1519844792
20
200.3565402342
30
0.0000000000
10
47.0270218579
20
200.2944056774
30
0.0000000000
10
46.9018976729
20
200.2325991041
30
0.0000000000
11
47.2767994406
21
200.4189681857
31
0.0000000000
11
46.9018976729
21
200.2325991041
31
0.0000000000
0
SPLINE
5
4AC
100
AcDbEntity
8
0
100
AcDbSpline
62
7
6
BYLAYER
70
0
71
3
72
8
73
4
74
2
42
0.0000001000
43
0.0000001000
44
0.0000000001
40
0.0000000000
40
0.0000000000
40
0.0000000000
40
0.0000000000
40
1.0000000000
40
1.0000000000
40
1.0000000000
40
1.0000000000
10
184.8860375553
20
254.0887087947
30
0.0000000000
10
185.1586755986
20
254.2987842396
30
0.0000000000
10
185.4767219518
20
254.4922140639
30
0.0000000000
10
185.8241982924
20
254.5200128502
30
0.0000000000
11
184.8860375553
21
254.0887087947
31
0.0000000000
11
185.8241982924
21
254.5200128502
31
0.0000000000
0
SPLINE
5
4AD
100
AcDbEntity
8
0
100
AcDbSpline
62
7
6
BYLAYER
70
0
71
3
72
8
73
4
74
2
42
0.0000001000
43
0.0000001000
44
0.0000000001
40
0.0000000000
40
0.0000000000
40
0.0000000000
40
0.0000000000
40
1.0000000000
40
1.0000000000
40
1.0000000000
40
1.0000000000
10
185.8241982924
20
254.5200128502
30
0.0000000000
10
185.9795301689
20
254.5324397039
30
0.0000000000
10
186.1407431753
20
254.5117677443
30
0.0000000000
10
186.2907414691
20
254.4616475650
30
0.0000000000
11
185.8241982924
21
254.5200128502
31
0.0000000000
11
186.2907414691
21
254.4616475650
31
0.0000000000
0
SPLINE
5
4AE
100
AcDbEntity
8
0
100
AcDbSpline
62
7
6
BYLAYER
70
0
71
3
72
11
73
7
74
5
42
0.0000001000
43
0.0000001000
44
0.0000000001
40
0.0000000000
40
0.0000000000
40
0.0000000000
40
0.0000000000
40
0.1825772152
40
0.5040030947
40
0.8531473282
40
1.0000000000
40
1.0000000000
40
1.0000000000
40
1.0000000000
10
59.2866495452
20
195.2962276251
30
0.0000000000
10
59.1406766192
20
195.3818887408
30
0.0000000000
10
58.7591203235
20
195.6550569603
30
0.0000000000
10
58.2303505289
20
196.2507970064
30
0.0000000000
10
57.8648759999
20
196.9167456390
30
0.0000000000
10
57.6987661915
20
197.3460674746
30
0.0000000000
10
57.6542837568
20
197.4749304940
30
0.0000000000
11
59.2866495452
21
195.2962276251
31
0.0000000000
11
58.8733144840
21
195.5901381712
31
0.0000000000
11
58.2741349855
21
196.2493766403
31
0.0000000000
11
57.8020069930
21
197.0940561420
31
0.0000000000
11
57.6542837568
21
197.4749304940
31
0.0000000000
0
SPLINE
5
4AF
100
AcDbEntity
8
0
100
AcDbSpline
62
7
6
BYLAYER
70
0
71
3
72
8
73
4
74
2
42
0.0000001000
43
0.0000001000
44
0.0000000001
40
0.0000000000
40
0.0000000000
40
0.0000000000
40
0.0000000000
40
1.0000000000
40
1.0000000000
40
1.0000000000
40
1.0000000000
10
57.6542837568
20
197.4749304940
30
0.0000000000
10
57.4665261819
20
198.0188532399
30
0.0000000000
10
57.3624813468
20
198.5939762885
30
0.0000000000
10
57.3286158483
20
199.1656284851
30
0.0000000000
11
57.6542837568
21
197.4749304940
31
0.0000000000
11
57.3286158483
21
199.1656284851
31
0.0000000000
0
SPLINE
5
4B0
100
AcDbEntity
8
0
100
AcDbSpline
62
7
6
BYLAYER
70
0
71
3
72
8
73
4
74
2
42
0.0000001000
43
0.0000001000
44
0.0000000001
40
0.0000000000
40
0.0000000000
40
0.0000000000
40
0.0000000000
40
1.0000000000
40
1.0000000000
40
1.0000000000
40
1.0000000000
10
57.2571780884
20
200.3715033193
30
0.0000000000
10
57.2298248519
20
200.8332280378
30
0.0000000000
10
57.1383693291
20
201.2967867748
30
0.0000000000
10
56.9801172544
20
201.7342538304
30
0.0000000000
11
57.2571780884
21
200.3715033193
31
0.0000000000
11
56.9801172544
21
201.7342538304
31
0.0000000000
0
SPLINE
5
4B1
100
AcDbEntity
8
0
100
AcDbSpline
62
7
6
BYLAYER
70
0
71
3
72
9
73
5
74
3
42
0.0000001000
43
0.0000001000
44
0.0000000001
40
0.0000000000
40
0.0000000000
40
0.0000000000
40
0.0000000000
40
0.3026171722
40
1.0000000000
40
1.0000000000
40
1.0000000000
40
1.0000000000
10
56.9801172544
20
201.7342538304
30
0.0000000000
10
56.9424230421
20
201.8384545246
30
0.0000000000
10
56.8053392488
20
202.1778945628
30
0.0000000000
10
56.6264753044
20
202.4970490770
30
0.0000000000
10
56.4785846800
20
202.7039768292
30
0.0000000000
11
56.9801172544
21
201.7342538304
31
0.0000000000
11
56.8556291151
21
202.0420376030
31
0.0000000000
11
56.4785846800
21
202.7039768292
31
0.0000000000
0
SPLINE
5
4B2
100
AcDbEntity
8
0
100
AcDbSpline
62
7
6
BYLAYER
70
0
71
3
72
8
73
4
74
2
42
0.0000001000
43
0.0000001000
44
0.0000000001
40
0.0000000000
40
0.0000000000
40
0.0000000000
40
0.0000000000
40
1.0000000000
40
1.0000000000
40
1.0000000000
40
1.0000000000
10
198.2054189797
20
175.4413980117
30
0.0000000000
10
195.3906335621
20
175.4413980117
30
0.0000000000
10
192.5758597024
20
175.4289485688
30
0.0000000000
10
189.7610745657
20
175.4272576388
30
0.0000000000
11
198.2054189797
21
175.4413980117
31
0.0000000000
11
189.7610745657
21
175.4272576388
31
0.0000000000
0
SPLINE
5
4B3
100
AcDbEntity
8
0
100
AcDbSpline
62
7
6
BYLAYER
70
0
71
3
72
9
73
5
74
3
42
0.0000001000
43
0.0000001000
44
0.0000000001
40
0.0000000000
40
0.0000000000
40
0.0000000000
40
0.0000000000
40
0.4999345321
40
1.0000000000
40
1.0000000000
40
1.0000000000
40
1.0000000000
10
206.8118917923
20
173.5571544159
30
0.0000000000
10
205.4703494530
20
174.1743272875
30
0.0000000000
10
202.6443604315
20
175.1182598575
30
0.0000000000
10
199.6825041482
20
175.4413980117
30
0.0000000000
10
198.2054189797
20
175.4413980117
30
0.0000000000
11
206.8118917923
21
173.5571544159
31
0.0000000000
11
202.6107725335
21
174.9629782984
31
0.0000000000
11
198.2054189797
21
175.4413980117
31
0.0000000000
0
SPLINE
5
4B4
100
AcDbEntity
8
0
100
AcDbSpline
62
7
6
BYLAYER
70
0
71
3
72
12
73
8
74
6
42
0.0000001000
43
0.0000001000
44
0.0000000001
40
0.0000000000
40
0.0000000000
40
0.0000000000
40
0.0000000000
40
0.2000299293
40
0.4000578221
40
0.6000709684
40
0.8000553042
40
1.0000000000
40
1.0000000000
40
1.0000000000
40
1.0000000000
10
214.6298769189
20
171.9716866538
30
0.0000000000
10
214.1745207936
20
171.9198282460
30
0.0000000000
10
213.2573775929
20
171.8656836945
30
0.0000000000
10
211.8816608282
20
171.9344530021
30
0.0000000000
10
210.5214583165
20
172.1523176032
30
0.0000000000
10
209.1933753078
20
172.5166143621
30
0.0000000000
10
208.3393238621
20
172.8544634840
30
0.0000000000
10
207.9231479589
20
173.0459240662
30
0.0000000000
11
214.6298769189
21
171.9716866538
31
0.0000000000
11
213.2573665729
21
171.8906816637
31
0.0000000000
11
211.8841956524
21
171.9593081093
31
0.0000000000
11
210.5267160691
21
172.1767441742
31
0.0000000000
11
209.2011054714
21
172.5403942164
31
0.0000000000
11
207.9231479589
21
173.0459240662
31
0.0000000000
0
SPLINE
5
4B5
100
AcDbEntity
8
0
100
AcDbSpline
62
7
6
BYLAYER
70
0
71
3
72
8
73
4
74
2
42
0.0000001000
43
0.0000001000
44
0.0000000001
40
0.0000000000
40
0.0000000000
40
0.0000000000
40
0.0000000000
40
1.0000000000
40
1.0000000000
40
1.0000000000
40
1.0000000000
10
205.3874497894
20
170.4789706259
30
0.0000000000
10
205.1087609388
20
170.6071806668
30
0.0000000000
10
204.8263865764
20
170.7278782945
30
0.0000000000
10
204.5408070080
20
170.8409361942
30
0.0000000000
11
205.3874497894
21
170.4789706259
31
0.0000000000
11
204.5408070080
21
170.8409361942
31
0.0000000000
0
SPLINE
5
4B6
100
AcDbEntity
8
0
100
AcDbSpline
62
7
6
BYLAYER
70
0
71
3
72
8
73
4
74
2
42
0.0000001000
43
0.0000001000
44
0.0000000001
40
0.0000000000
40
0.0000000000
40
0.0000000000
40
0.0000000000
40
1.0000000000
40
1.0000000000
40
1.0000000000
40
1.0000000000
10
204.5408070080
20
170.8409361942
30
0.0000000000
10
204.3671072008
20
170.9097020919
30
0.0000000000
10
204.1922216240
20
170.9756416632
30
0.0000000000
10
204.0162583547
20
171.0387262600
30
0.0000000000
11
204.5408070080
21
170.8409361942
31
0.0000000000
11
204.0162583547
21
171.0387262600
31
0.0000000000
0
SPLINE
5
4B7
100
AcDbEntity
8
0
100
AcDbSpline
62
7
6
BYLAYER
70
0
71
3
72
9
73
5
74
3
42
0.0000001000
43
0.0000001000
44
0.0000000001
40
0.0000000000
40
0.0000000000
40
0.0000000000
40
0.0000000000
40
0.8943868000
40
1.0000000000
40
1.0000000000
40
1.0000000000
40
1.0000000000
10
198.2054189797
20
172.0513564165
30
0.0000000000
10
195.3894986556
20
172.0513564165
30
0.0000000000
10
192.2410986453
20
172.0268898760
30
0.0000000000
10
189.0926593159
20
172.0270076928
30
0.0000000000
10
188.7601429229
20
172.0272570244
30
0.0000000000
11
198.2054189797
21
172.0513564165
31
0.0000000000
11
189.7576923823
21
172.0272570244
31
0.0000000000
11
188.7601429229
21
172.0272570244
31
0.0000000000
0
SPLINE
5
4B8
100
AcDbEntity
8
0
100
AcDbSpline
62
7
6
BYLAYER
70
0
71
3
72
8
73
4
74
2
42
0.0000001000
43
0.0000001000
44
0.0000000001
40
0.0000000000
40
0.0000000000
40
0.0000000000
40
0.0000000000
40
1.0000000000
40
1.0000000000
40
1.0000000000
40
1.0000000000
10
215.0157159672
20
168.6035445780
30
0.0000000000
10
214.9430744169
20
168.5952717670
30
0.0000000000
10
214.8703683827
20
168.5874956603
30
0.0000000000
10
214.7976059489
20
168.5802167919
30
0.0000000000
11
215.0157159672
21
168.6035445780
31
0.0000000000
11
214.7976059489
21
168.5802167919
31
0.0000000000
0
SPLINE
5
4B9
100
AcDbEntity
8
0
100
AcDbSpline
62
7
6
BYLAYER
70
0
71
3
72
8
73
4
74
2
42
0.0000001000
43
0.0000001000
44
0.0000000001
40
0.0000000000
40
0.0000000000
40
0.0000000000
40
0.0000000000
40
1.0000000000
40
1.0000000000
40
1.0000000000
40
1.0000000000
10
214.7976059489
20
168.5802167919
30
0.0000000000
10
214.2911401820
20
168.5295519442
30
0.0000000000
10
213.7819419096
20
168.5029778546
30
0.0000000000
10
213.2727374710
20
168.5006747117
30
0.0000000000
11
214.7976059489
21
168.5802167919
31
0.0000000000
11
213.2727374710
21
168.5006747117
31
0.0000000000
0
SPLINE
5
4BA
100
AcDbEntity
8
0
100
AcDbSpline
62
7
6
BYLAYER
70
0
71
3
72
10
73
6
74
4
42
0.0000001000
43
0.0000001000
44
0.0000000001
40
0.0000000000
40
0.0000000000
40
0.0000000000
40
0.0000000000
40
0.3333657227
40
0.6667068691
40
1.0000000000
40
1.0000000000
40
1.0000000000
40
1.0000000000
10
213.2727374710
20
168.5006747117
30
0.0000000000
10
212.6903830709
20
168.4980407098
30
0.0000000000
10
211.5257010736
20
168.5562608148
30
0.0000000000
10
209.7983525438
20
168.8329314540
30
0.0000000000
10
208.6738783710
20
169.1413777589
30
0.0000000000
10
208.1216099071
20
169.3257577513
30
0.0000000000
11
213.2727374710
21
168.5006747117
31
0.0000000000
11
211.5289200979
21
168.5878248154
31
0.0000000000
11
209.8050294696
21
168.8639512479
31
0.0000000000
11
208.1216099071
21
169.3257577513
31
0.0000000000
0
SPLINE
5
4BB
100
AcDbEntity
8
0
100
AcDbSpline
62
7
6
BYLAYER
70
0
71
3
72
8
73
4
74
2
42
0.0000001000
43
0.0000001000
44
0.0000000001
40
0.0000000000
40
0.0000000000
40
0.0000000000
40
0.0000000000
40
1.0000000000
40
1.0000000000
40
1.0000000000
40
1.0000000000
10
208.1216099071
20
169.3257577513
30
0.0000000000
10
207.6413543940
20
169.4860955464
30
0.0000000000
10
207.1686066608
20
169.6692467407
30
0.0000000000
10
206.7058674046
20
169.8742139538
30
0.0000000000
11
208.1216099071
21
169.3257577513
31
0.0000000000
11
206.7058674046
21
169.8742139538
31
0.0000000000
0
SPLINE
5
4BC
100
AcDbEntity
8
0
100
AcDbSpline
62
7
6
BYLAYER
70
0
71
3
72
8
73
4
74
2
42
0.0000001000
43
0.0000001000
44
0.0000000001
40
0.0000000000
40
0.0000000000
40
0.0000000000
40
0.0000000000
40
1.0000000000
40
1.0000000000
40
1.0000000000
40
1.0000000000
10
206.7058674046
20
169.8742139538
30
0.0000000000
10
206.6365864424
20
169.9049014858
30
0.0000000000
10
206.5675298287
20
169.9360780424
30
0.0000000000
10
206.4987059560
20
169.9677402761
30
0.0000000000
11
206.7058674046
21
169.8742139538
31
0.0000000000
11
206.4987059560
21
169.9677402761
31
0.0000000000
0
SPLINE
5
4BD
100
AcDbEntity
8
0
100
AcDbSpline
62
7
6
BYLAYER
70
0
71
3
72
8
73
4
74
2
42
0.0000001000
43
0.0000001000
44
0.0000000001
40
0.0000000000
40
0.0000000000
40
0.0000000000
40
0.0000000000
40
1.0000000000
40
1.0000000000
40
1.0000000000
40
1.0000000000
10
215.0157159672
20
168.5844243883
30
0.0000000000
10
214.9531541578
20
168.5772995125
30
0.0000000000
10
214.8905445184
20
168.5705430593
30
0.0000000000
10
214.8278922135
20
168.5641553699
30
0.0000000000
11
215.0157159672
21
168.5844243883
31
0.0000000000
11
214.8278922135
21
168.5641553699
31
0.0000000000
0
SPLINE
5
4BE
100
AcDbEntity
8
0
100
AcDbSpline
62
7
6
BYLAYER
70
0
71
3
72
8
73
4
74
2
42
0.0000001000
43
0.0000001000
44
0.0000000001
40
0.0000000000
40
0.0000000000
40
0.0000000000
40
0.0000000000
40
1.0000000000
40
1.0000000000
40
1.0000000000
40
1.0000000000
10
214.8278922135
20
168.5641553699
30
0.0000000000
10
214.3114421551
20
168.5115009216
30
0.0000000000
10
213.7920930203
20
168.4839035786
30
0.0000000000
10
213.2727374710
20
168.4815545219
30
0.0000000000
11
214.8278922135
21
168.5641553699
31
0.0000000000
11
213.2727374710
21
168.4815545219
31
0.0000000000
0
SPLINE
5
4BF
100
AcDbEntity
8
0
100
AcDbSpline
62
7
6
BYLAYER
70
0
71
3
72
10
73
6
74
4
42
0.0000001000
43
0.0000001000
44
0.0000000001
40
0.0000000000
40
0.0000000000
40
0.0000000000
40
0.0000000000
40
0.3333657227
40
0.6667068691
40
1.0000000000
40
1.0000000000
40
1.0000000000
40
1.0000000000
10
213.2727374710
20
168.4815545219
30
0.0000000000
10
212.6903830709
20
168.4789205201
30
0.0000000000
10
211.5257010736
20
168.5371406251
30
0.0000000000
10
209.7983525438
20
168.8138112643
30
0.0000000000
10
208.6738783710
20
169.1222575692
30
0.0000000000
10
208.1216099071
20
169.3066375616
30
0.0000000000
11
213.2727374710
21
168.4815545219
31
0.0000000000
11
211.5289200979
21
168.5687046256
31
0.0000000000
11
209.8050294696
21
168.8448310582
31
0.0000000000
11
208.1216099071
21
169.3066375616
31
0.0000000000
0
SPLINE
5
4C0
100
AcDbEntity
8
0
100
AcDbSpline
62
7
6
BYLAYER
70
0
71
3
72
8
73
4
74
2
42
0.0000001000
43
0.0000001000
44
0.0000000001
40
0.0000000000
40
0.0000000000
40
0.0000000000
40
0.0000000000
40
1.0000000000
40
1.0000000000
40
1.0000000000
40
1.0000000000
10
208.1216099071
20
169.3066375616
30
0.0000000000
10
207.6391300601
20
169.4677179714
30
0.0000000000
10
207.1642276995
20
169.6518235932
30
0.0000000000
10
206.6994384301
20
169.8579431240
30
0.0000000000
11
208.1216099071
21
169.3066375616
31
0.0000000000
11
206.6994384301
21
169.8579431240
31
0.0000000000
0
SPLINE
5
4C1
100
AcDbEntity
8
0
100
AcDbSpline
62
7
6
BYLAYER
70
0
71
3
72
8
73
4
74
2
42
0.0000001000
43
0.0000001000
44
0.0000000001
40
0.0000000000
40
0.0000000000
40
0.0000000000
40
0.0000000000
40
1.0000000000
40
1.0000000000
40
1.0000000000
40
1.0000000000
10
206.6994384301
20
169.8579431240
30
0.0000000000
10
206.6323141330
20
169.8877106542
30
0.0000000000
10
206.5654007625
20
169.9179373237
30
0.0000000000
10
206.4987059560
20
169.9486200864
30
0.0000000000
11
206.6994384301
21
169.8579431240
31
0.0000000000
11
206.4987059560
21
169.9486200864
31
0.0000000000
0
SPLINE
5
4C2
100
AcDbEntity
8
0
100
AcDbSpline
62
7
6
BYLAYER
70
0
71
3
72
8
73
4
74
2
42
0.0000001000
43
0.0000001000
44
0.0000000001
40
0.0000000000
40
0.0000000000
40
0.0000000000
40
0.0000000000
40
1.0000000000
40
1.0000000000
40
1.0000000000
40
1.0000000000
10
205.3874497894
20
170.4598504362
30
0.0000000000
10
205.0934659050
20
170.5950969154
30
0.0000000000
10
204.7953808705
20
170.7219837595
30
0.0000000000
10
204.4937584918
20
170.8403615201
30
0.0000000000
11
205.3874497894
21
170.4598504362
31
0.0000000000
11
204.4937584918
21
170.8403615201
31
0.0000000000
0
SPLINE
5
4C3
100
AcDbEntity
8
0
100
AcDbSpline
62
7
6
BYLAYER
70
0
71
3
72
8
73
4
74
2
42
0.0000001000
43
0.0000001000
44
0.0000000001
40
0.0000000000
40
0.0000000000
40
0.0000000000
40
0.0000000000
40
1.0000000000
40
1.0000000000
40
1.0000000000
40
1.0000000000
10
204.4937584918
20
170.8403615201
30
0.0000000000
10
204.3355380168
20
170.9024583233
30
0.0000000000
10
204.1763441772
20
170.9622136974
30
0.0000000000
10
204.0162583547
20
171.0196060703
30
0.0000000000
11
204.4937584918
21
170.8403615201
31
0.0000000000
11
204.0162583547
21
171.0196060703
31
0.0000000000
0
SPLINE
5
4C4
100
AcDbEntity
8
0
100
AcDbSpline
62
7
6
BYLAYER
70
0
71
3
72
9
73
5
74
3
42
0.0000001000
43
0.0000001000
44
0.0000000001
40
0.0000000000
40
0.0000000000
40
0.0000000000
40
0.0000000000
40
0.3748007602
40
1.0000000000
40
1.0000000000
40
1.0000000000
40
1.0000000000
10
204.0162583547
20
171.0196060703
30
0.0000000000
10
203.3193873066
20
171.2694413302
30
0.0000000000
10
201.4149788692
20
171.8165518308
30
0.0000000000
10
199.4380344100
20
172.0322362268
30
0.0000000000
10
198.2054189797
20
172.0322362268
30
0.0000000000
11
204.0162583547
21
171.0196060703
31
0.0000000000
11
201.8816503047
21
171.6329989091
31
0.0000000000
11
198.2054189797
21
172.0322362268
31
0.0000000000
0
SPLINE
5
4C5
100
AcDbEntity
8
0
100
AcDbSpline
62
7
6
BYLAYER
70
0
71
3
72
9
73
5
74
3
42
0.0000001000
43
0.0000001000
44
0.0000000001
40
0.0000000000
40
0.0000000000
40
0.0000000000
40
0.0000000000
40
0.8941412335
40
1.0000000000
40
1.0000000000
40
1.0000000000
40
1.0000000000
10
198.2054189797
20
172.0322362268
30
0.0000000000
10
195.3899027250
20
172.0322362268
30
0.0000000000
10
192.2410546915
20
172.0269622766
30
0.0000000000
10
189.0922050166
20
172.0272570244
30
0.0000000000
10
188.7588716833
20
172.0272570244
30
0.0000000000
11
198.2054189797
21
172.0322362268
31
0.0000000000
11
189.7588716833
21
172.0272570244
31
0.0000000000
11
188.7588716833
21
172.0272570244
31
0.0000000000
0
ENDSEC
0
SECTION
2
OBJECTS
0
DICTIONARY
5
4C6
100
AcDbDictionary
3
ACAD_GROUP
350
4C7
3
ACAD_MLINESTYLE
350
4C8
0
DICTIONARY
5
4C7
102
{ACAD_REACTORS
330
4C6
102
}
100
AcDbDictionary
0
DICTIONARY
5
4C8
102
{ACAD_REACTORS
330
4C6
102
}
100
AcDbDictionary
3
STANDARD
350
4C9
0
MLINESTYLE
5
4C9
102
{ACAD_REACTORS
330
4C8
102
}
100
AcDbMlineStyle
2
STANDARD
70
0
3

62
256
51
90.0
52
90.0
71
2
49
0.5
62
256
6
BYLAYER
49
-0.5
62
256
6
BYLAYER
0
ENDSEC
0
EOF
