999
DXF file: td-1002-947.dxf
999
Pro/ENGINEER 2003060 by Parametric Technology Corporation
0
SECTION
2
HEADER
9
$ACADVER
1
AC1014
9
$HANDSEED
5
       4E1
9
$EXTMAX
10
420.0000000000
20
297.0000000000
9
$EXTMIN
10
0.0000000000
20
0.0000000000
9
$LIMMIN
10
0.0000000000
20
0.0000000000
9
$LIMMAX
10
420.0000000000
20
297.0000000000
9
$VIEWCTR
10
210.0000000000
20
148.5000000000
9
$VIEWSIZE
40
297.0000000000
9
$CLAYER
8
0
9
$LTSCALE
40
23.1000000000
9
$CELTYPE
6
BYLAYER
9
$DIMSCALE
40
1
9
$DIMASZ
40
5.0000000000
9
$DIMEXO
40
2.6250000000
9
$DIMDLI
40
15.9600000000
9
$DIMEXE
40
7.5600000000
9
$DIMCEN
40
3.7800000000
9
$DIMLFAC
40
1.0000000000
9
$DIMTXT
40
4.0000000000
9
$DIMTOL
70
1
9
$DIMLIM
70
0
9
$DIMTFAC
40
1.0000000000
9
$DIMTP
40
0.0100000000
9
$DIMTM
40
0.0100000000
0
ENDSEC
0
SECTION
2
CLASSES
0
ENDSEC
0
SECTION
2
TABLES
0
TABLE
2
VPORT
5
8
100
AcDbSymbolTable
70
2
0
VPORT
5
1F4
100
AcDbSymbolTableRecord
100
AcDbViewportTableRecord
2
*ACTIVE
70
0
10
0.0
20
0.0
11
1.0
21
1.0
12
210.0000000000
22
148.5000000000
13
0.0
23
0.0
14
1.0
24
1.0
15
0.0
25
0.0
16
0.0
26
0.0
36
1.0
17
0.0
27
0.0
37
0.0
40
297.0000000000
41
1.4141414141
42
50.0
43
0.0
44
0.0
50
0.0
51
0.0
71
0
72
100
73
1
74
1
75
0
76
0
77
0
78
0
0
ENDTAB
0
TABLE
2
LTYPE
5
5
100
AcDbSymbolTable
70
6
0
LTYPE
5
14
100
AcDbSymbolTableRecord
100
AcDbLinetypeTableRecord
2
BYBLOCK
70
0
3

72
65
73
0
40
0.0
0
LTYPE
5
15
100
AcDbSymbolTableRecord
100
AcDbLinetypeTableRecord
2
BYLAYER
70
0
3

72
65
73
0
40
0.0
0
LTYPE
5
16
100
AcDbSymbolTableRecord
100
AcDbLinetypeTableRecord
2
CONTINUOUS
70
64
3
Solid line
72
65
73
0
40
0
0
LTYPE
5
1F5
100
AcDbSymbolTableRecord
100
AcDbLinetypeTableRecord
2
CENTER
70
64
3
____ _ ____ _ ____ _ ____ _ ____ _ ____ _ ____
72
65
73
4
40
0.6
49
0.375
74
0
49
-0.075
74
0
49
0.075
74
0
49
-0.075
74
0
0
LTYPE
5
1F6
100
AcDbSymbolTableRecord
100
AcDbLinetypeTableRecord
2
HIDDEN
70
64
3
- - - - - - - - - - - - - - - - - - - -
72
65
73
2
40
0.2
49
0.1
74
0
49
-0.1
74
0
0
LTYPE
5
1F7
100
AcDbSymbolTableRecord
100
AcDbLinetypeTableRecord
2
PHANTOM
70
64
3
_____ _ _ _____ _ _ _____ _ _ _____
72
65
73
6
40
0.8
49
0.45
74
0
49
-0.05
74
0
49
0.1
74
0
49
-0.05
74
0
49
0.1
74
0
49
-0.05
74
0
0
LTYPE
5
1F8
100
AcDbSymbolTableRecord
100
AcDbLinetypeTableRecord
2
DOT
70
64
3
. . . . . . . . . . . . . . . . . . . .
72
65
73
2
40
0.2
49
0.1
74
0
49
-0.1
74
0
0
LTYPE
5
1F9
100
AcDbSymbolTableRecord
100
AcDbLinetypeTableRecord
2
DASHED
70
64
3
- - - - - - - - - - - - - - - - - - - -
72
65
73
2
40
0.2
49
0.1
74
0
49
-0.1
74
0
0
ENDTAB
0
TABLE
2
LAYER
5
2
100
AcDbSymbolTable
70
36
0
LAYER
5
10
100
AcDbSymbolTableRecord
100
AcDbLayerTableRecord
2
0
70
0
62
7
6
CONTINUOUS
0
LAYER
5
1FA
100
AcDbSymbolTableRecord
100
AcDbLayerTableRecord
2
DEFAULT_1
70
0
62
7
6
CENTER
0
LAYER
5
1FB
100
AcDbSymbolTableRecord
100
AcDbLayerTableRecord
2
DEFAULT_2
70
0
62
7
6
HIDDEN
0
LAYER
5
1FC
100
AcDbSymbolTableRecord
100
AcDbLayerTableRecord
2
DEFAULT_3
70
0
62
7
6
PHANTOM
0
LAYER
5
1FD
100
AcDbSymbolTableRecord
100
AcDbLayerTableRecord
2
AXIS
70
0
62
7
6
CONTINUOUS
0
LAYER
5
1FE
100
AcDbSymbolTableRecord
100
AcDbLayerTableRecord
2
CSYS
70
0
62
7
6
CONTINUOUS
0
LAYER
5
1FF
100
AcDbSymbolTableRecord
100
AcDbLayerTableRecord
2
CURVES
70
0
62
7
6
CONTINUOUS
0
LAYER
5
200
100
AcDbSymbolTableRecord
100
AcDbLayerTableRecord
2
DTMS
70
0
62
7
6
CONTINUOUS
0
LAYER
5
201
100
AcDbSymbolTableRecord
100
AcDbLayerTableRecord
2
GEOM
70
0
62
7
6
CONTINUOUS
0
LAYER
5
202
100
AcDbSymbolTableRecord
100
AcDbLayerTableRecord
2
PLANES
70
0
62
7
6
CONTINUOUS
0
LAYER
5
203
100
AcDbSymbolTableRecord
100
AcDbLayerTableRecord
2
POINTS
70
0
62
7
6
CONTINUOUS
0
LAYER
5
204
100
AcDbSymbolTableRecord
100
AcDbLayerTableRecord
2
SKELETON
70
0
62
7
6
CONTINUOUS
0
ENDTAB
0
TABLE
2
STYLE
5
3
100
AcDbSymbolTable
70
1
0
STYLE
5
11
100
AcDbSymbolTableRecord
100
AcDbTextStyleTableRecord
2
STANDARD
70
0
40
0.0
41
0.8000000000
50
0.0
71
0
42
0.2
3
txt
4

0
STYLE
5
205
100
AcDbSymbolTableRecord
100
AcDbTextStyleTableRecord
2
TEXTSTYLE_1
70
0
40
0.0
41
0.8000000000
50
0.0
71
0
42
0.2
3
txt
4

0
STYLE
5
206
100
AcDbSymbolTableRecord
100
AcDbTextStyleTableRecord
2
TEXTSTYLE_2
70
0
40
0.0
41
0.8000000000
50
0.0
71
0
42
0.2
3
cgtime.ttf
4

0
ENDTAB
0
TABLE
2
VIEW
5
6
100
AcDbSymbolTable
70
0
0
ENDTAB
0
TABLE
2
UCS
5
7
100
AcDbSymbolTable
70
0
0
ENDTAB
0
TABLE
2
APPID
5
9
100
AcDbSymbolTable
70
1
0
APPID
5
207
100
AcDbSymbolTableRecord
100
AcDbRegAppTableRecord
2
ACAD
70
0
0
ENDTAB
0
TABLE
2
DIMSTYLE
5
A
100
AcDbSymbolTable
70
1
0
DIMSTYLE
105
208
100
AcDbSymbolTableRecord
100
AcDbDimStyleTableRecord
2
STANDARD
70
0
3

4

5

6

7

40
1.0
41
5.0000000000
42
0.0625
43
0.38
44
0.18
45
0.0
46
0.0
47
0.0100000000
48
0.0100000000
140
4.0000000000
141
0.09
142
0.0
143
25.4
144
1.0000000000
145
0.0
146
1.0000000000
147
0.09
71
1
72
0
73
0
74
0
75
0
76
0
77
1
78
8
170
0
171
2
172
0
173
0
174
0
175
0
176
0
177
0
178
0
270
2
271
2
272
2
273
2
274
2
340
11
275
0
280
0
281
0
282
0
283
1
284
8
285
0
286
0
287
3
288
0
0
DIMSTYLE
105
209
100
AcDbSymbolTableRecord
100
AcDbDimStyleTableRecord
2
DIMSTYLE_1
70
0
3

4

5

6

7

40
1.0
41
5.0000000000
42
0.0625
43
0.38
44
0.18
45
0.0
46
0.0
47
0.2000000000
48
0.2000000000
140
4.0000000000
141
0.09
142
0.0
143
25.4
144
1.0000000000
145
0.0
146
1.0000000000
147
0.09
71
0
72
0
73
0
74
0
75
0
76
0
77
1
78
8
170
0
171
2
172
0
173
0
174
0
175
0
176
0
177
0
178
0
270
2
271
2
272
2
273
2
274
2
340
11
275
0
280
0
281
0
282
0
283
1
284
8
285
0
286
0
287
3
288
0
0
DIMSTYLE
105
20A
100
AcDbSymbolTableRecord
100
AcDbDimStyleTableRecord
2
DIMSTYLE_2
70
0
3

4

5

6

7

40
1.0
41
5.0000000000
42
0.0625
43
0.38
44
0.18
45
0.0
46
0.0
47
0.3000000000
48
0.3000000000
140
4.0000000000
141
0.09
142
0.0
143
25.4
144
1.0000000000
145
0.0
146
1.0000000000
147
0.09
71
0
72
0
73
0
74
0
75
0
76
0
77
1
78
8
170
0
171
2
172
0
173
0
174
0
175
0
176
0
177
0
178
0
270
2
271
2
272
2
273
2
274
2
340
11
275
0
280
0
281
0
282
0
283
1
284
8
285
0
286
0
287
3
288
0
0
DIMSTYLE
105
20B
100
AcDbSymbolTableRecord
100
AcDbDimStyleTableRecord
2
DIMSTYLE_3
70
0
3

4

5

6

7

40
1.0
41
5.0000000000
42
0.0625
43
0.38
44
0.18
45
0.0
46
0.0
47
0.5000000000
48
0.5000000000
140
4.0000000000
141
0.09
142
0.0
143
25.4
144
1.0000000000
145
0.0
146
1.0000000000
147
0.09
71
0
72
0
73
0
74
0
75
0
76
0
77
1
78
8
170
0
171
2
172
0
173
0
174
0
175
0
176
0
177
0
178
0
270
2
271
1
272
1
273
2
274
2
340
11
275
0
280
0
281
0
282
0
283
1
284
8
285
0
286
0
287
3
288
0
0
ENDTAB
0
TABLE
2
BLOCK_RECORD
5
1
100
AcDbSymbolTable
70
0
0
BLOCK_RECORD
5
1B
100
AcDbSymbolTableRecord
100
AcDbBlockTableRecord
2
*MODEL_SPACE
0
BLOCK_RECORD
5
1C
100
AcDbSymbolTableRecord
100
AcDbBlockTableRecord
2
*PAPER_SPACE
0
BLOCK_RECORD
5
20C
100
AcDbSymbolTableRecord
100
AcDbBlockTableRecord
2
COPYRIGHT_BL0
0
BLOCK_RECORD
5
20D
100
AcDbSymbolTableRecord
100
AcDbBlockTableRecord
2
MICRO_U_BL1
0
BLOCK_RECORD
5
20E
100
AcDbSymbolTableRecord
100
AcDbBlockTableRecord
2
PROJECTION_BL2
0
BLOCK_RECORD
5
20F
100
AcDbSymbolTableRecord
100
AcDbBlockTableRecord
2
SURFACE_FINISH_BL3
0
BLOCK_RECORD
5
210
100
AcDbSymbolTableRecord
100
AcDbBlockTableRecord
2
*D0
0
BLOCK_RECORD
5
211
100
AcDbSymbolTableRecord
100
AcDbBlockTableRecord
2
*D1
0
BLOCK_RECORD
5
212
100
AcDbSymbolTableRecord
100
AcDbBlockTableRecord
2
*D2
0
BLOCK_RECORD
5
213
100
AcDbSymbolTableRecord
100
AcDbBlockTableRecord
2
*D3
0
BLOCK_RECORD
5
214
100
AcDbSymbolTableRecord
100
AcDbBlockTableRecord
2
*D4
0
BLOCK_RECORD
5
215
100
AcDbSymbolTableRecord
100
AcDbBlockTableRecord
2
*D5
0
BLOCK_RECORD
5
216
100
AcDbSymbolTableRecord
100
AcDbBlockTableRecord
2
*D6
0
BLOCK_RECORD
5
217
100
AcDbSymbolTableRecord
100
AcDbBlockTableRecord
2
*D7
0
BLOCK_RECORD
5
218
100
AcDbSymbolTableRecord
100
AcDbBlockTableRecord
2
*D8
0
BLOCK_RECORD
5
219
100
AcDbSymbolTableRecord
100
AcDbBlockTableRecord
2
COPYRIGHT_BL4
0
BLOCK_RECORD
5
21A
100
AcDbSymbolTableRecord
100
AcDbBlockTableRecord
2
MICRO_U_BL5
0
BLOCK_RECORD
5
21B
100
AcDbSymbolTableRecord
100
AcDbBlockTableRecord
2
SURFACE_FINISH_BL6
0
BLOCK_RECORD
5
21C
100
AcDbSymbolTableRecord
100
AcDbBlockTableRecord
2
PROJECTION_BL7
0
ENDTAB
0
ENDSEC
0
SECTION
2
BLOCKS
0
BLOCK
5
1E
100
AcDbEntity
8
0
100
AcDbBlockBegin
2
*MODEL_SPACE
70
0
10
0.0
20
0.0
30
0.0
3
*MODEL_SPACE
1

0
ENDBLK
5
1F
100
AcDbEntity
8
0
100
AcDbBlockEnd
0
BLOCK
5
20
100
AcDbEntity
8
0
100
AcDbBlockBegin
2
*PAPER_SPACE
70
0
10
0.0
20
0.0
30
0.0
3
*PAPER_SPACE
1

0
ENDBLK
5
21
100
AcDbEntity
8
0
100
AcDbBlockEnd
0
BLOCK
5
21D
100
AcDbEntity
8
0
100
AcDbBlockBegin
62
7
6
BYLAYER
2
COPYRIGHT_BL0
70
64
10
0.0000000000
20
0.0000000000
3
COPYRIGHT_BL0
1

0
TEXT
5
21E
100
AcDbEntity
8
0
100
AcDbText
62
7
6
BYLAYER
10
409.9593803245
20
9.9568590072
7
TEXTSTYLE_1
40
0.1000000000
1
C
41
0.8000000000
72
0
100
AcDbText
0
CIRCLE
5
21F
100
AcDbEntity
8
0
100
AcDbCircle
62
7
6
BYLAYER
10
409.9943527832
20
10.0069663115
40
0.0753936874
0
ENDBLK
5
220
100
AcDbEntity
8
0
100
AcDbBlockEnd
0
BLOCK
5
221
100
AcDbEntity
8
0
100
AcDbBlockBegin
62
7
6
BYLAYER
2
MICRO_U_BL1
70
64
10
0.0000000000
20
0.0000000000
3
MICRO_U_BL1
1

0
TEXT
5
222
100
AcDbEntity
8
0
100
AcDbText
62
7
6
BYLAYER
10
409.9173172813
20
9.9658183152
7
STANDARD
40
0.1000000000
1
um
41
0.8000000000
72
0
100
AcDbText
0
ARC
5
223
100
AcDbEntity
8
0
100
AcDbCircle
62
7
6
BYLAYER
10
409.8795565990
20
9.9804558390
40
0.0627552936
100
AcDbArc
50
303.7730668774
51
1.5957171757
0
ENDBLK
5
224
100
AcDbEntity
8
0
100
AcDbBlockEnd
0
BLOCK
5
225
100
AcDbEntity
8
0
100
AcDbBlockBegin
62
7
6
BYLAYER
2
PROJECTION_BL2
70
64
10
0.0000000000
20
0.0000000000
3
PROJECTION_BL2
1

0
LINE
5
226
100
AcDbEntity
8
0
100
AcDbLine
62
7
6
BYLAYER
10
409.6178469936
20
9.9332236616
11
409.6178469936
21
10.0582236616
0
LINE
5
227
100
AcDbEntity
8
0
100
AcDbLine
62
7
6
BYLAYER
10
409.6178469936
20
10.0582236616
11
409.7928469936
21
10.1207236616
0
LINE
5
228
100
AcDbEntity
8
0
100
AcDbLine
62
7
6
BYLAYER
10
409.7928469936
20
10.1207236616
11
409.7928469936
21
9.8707236616
0
LINE
5
229
100
AcDbEntity
8
0
100
AcDbLine
62
7
6
BYLAYER
10
409.7928469936
20
9.8707236616
11
409.6178469936
21
9.9332236616
0
ARC
5
22A
100
AcDbEntity
8
0
100
AcDbCircle
62
7
6
BYLAYER
10
409.2678469936
20
9.9957236616
40
0.0625000000
100
AcDbArc
50
180.0000000000
51
360.0000000000
0
ARC
5
22B
100
AcDbEntity
8
0
100
AcDbCircle
62
7
6
BYLAYER
10
409.2678469936
20
9.9957236616
40
0.0625000000
100
AcDbArc
50
0.0000000000
51
180.0000000000
0
ARC
5
22C
100
AcDbEntity
8
0
100
AcDbCircle
62
7
6
BYLAYER
10
409.2678469936
20
9.9957236616
40
0.1250000000
100
AcDbArc
50
180.0000000000
51
360.0000000000
0
ARC
5
22D
100
AcDbEntity
8
0
100
AcDbCircle
62
7
6
BYLAYER
10
409.2678469936
20
9.9957236616
40
0.1250000000
100
AcDbArc
50
0.0000000000
51
180.0000000000
0
LINE
5
22E
100
AcDbEntity
8
0
100
AcDbLine
62
7
6
BYLAYER
10
409.0671219936
20
9.9957236616
11
409.4456219936
21
9.9957236616
0
LINE
5
22F
100
AcDbEntity
8
0
100
AcDbLine
62
7
6
BYLAYER
10
409.5241469936
20
9.9957236616
11
409.8669219936
21
9.9957236616
0
LINE
5
230
100
AcDbEntity
8
0
100
AcDbLine
62
7
6
BYLAYER
10
409.2678469936
20
10.1398736616
11
409.2678469936
21
9.8515736616
0
TEXT
5
231
100
AcDbEntity
8
0
100
AcDbText
62
7
6
BYLAYER
10
409.2283663134
20
9.9568432128
7
STANDARD
40
0.1000000000
1
l
41
0.8000000000
72
0
100
AcDbText
0
ENDBLK
5
232
100
AcDbEntity
8
0
100
AcDbBlockEnd
0
BLOCK
5
233
100
AcDbEntity
8
0
100
AcDbBlockBegin
62
7
6
BYLAYER
2
SURFACE_FINISH_BL3
70
64
10
0.0000000000
20
0.0000000000
3
SURFACE_FINISH_BL3
1

0
LINE
5
234
100
AcDbEntity
8
0
100
AcDbLine
62
7
6
BYLAYER
10
409.9768652881
20
9.9666906703
11
410.0571314064
21
10.1057156653
0
LINE
5
235
100
AcDbEntity
8
0
100
AcDbLine
62
7
6
BYLAYER
10
409.9768652881
20
9.9666906703
11
409.9405459599
21
10.0295975921
0
LINE
5
236
100
AcDbEntity
8
0
100
AcDbLine
62
7
6
BYLAYER
10
409.9405459599
20
10.0295975921
11
410.0131846164
21
10.0295975921
0
TEXT
5
237
100
AcDbEntity
8
0
100
AcDbText
62
7
6
BYLAYER
10
409.9369531437
20
9.9795701528
7
STANDARD
40
0.1000000000
1
-
41
0.8000000000
72
0
100
AcDbText
0
ENDBLK
5
238
100
AcDbEntity
8
0
100
AcDbBlockEnd
0
BLOCK
5
239
100
AcDbEntity
8
0
100
AcDbBlockBegin
62
7
6
BYLAYER
2
*D0
70
65
10
0.0000000000
20
0.0000000000
3
*D0
1

0
TEXT
5
23A
100
AcDbEntity
8
0
100
AcDbText
62
7
6
BYLAYER
10
129.3164587094
20
132.9014618191
7
STANDARD
40
4.0000000000
1
27.8
50
90.0000000000
41
0.8000000000
72
0
100
AcDbText
0
LINE
5
23B
100
AcDbEntity
8
0
100
AcDbLine
62
7
6
BYLAYER
10
143.5121322655
20
151.7957433461
11
127.3164587094
21
151.7957433461
0
LINE
5
23C
100
AcDbEntity
8
0
100
AcDbLine
62
7
6
BYLAYER
10
143.5121322655
20
123.9957433461
11
127.3164587094
21
123.9957433461
0
LINE
5
23D
100
AcDbEntity
8
0
100
AcDbLine
62
7
6
BYLAYER
10
130.3164587094
20
151.7957433461
11
130.3164587094
21
137.8957433461
0
LINE
5
23E
100
AcDbEntity
8
0
100
AcDbLine
62
7
6
BYLAYER
10
130.3164587094
20
123.9957433461
11
130.3164587094
21
137.8957433461
0
SOLID
5
23F
100
AcDbEntity
8
0
100
AcDbTrace
62
7
6
BYLAYER
10
131.1164587094
20
146.7957433461
11
130.3164587094
21
151.7957433461
12
129.5164587094
22
146.7957433461
13
129.5164587094
23
146.7957433461
0
SOLID
5
240
100
AcDbEntity
8
0
100
AcDbTrace
62
7
6
BYLAYER
10
129.5164587094
20
128.9957433461
11
130.3164587094
21
123.9957433461
12
131.1164587094
22
128.9957433461
13
131.1164587094
23
128.9957433461
0
ENDBLK
5
241
100
AcDbEntity
8
0
100
AcDbBlockEnd
0
BLOCK
5
242
100
AcDbEntity
8
0
100
AcDbBlockBegin
62
7
6
BYLAYER
2
*D1
70
65
10
0.0000000000
20
0.0000000000
3
*D1
1

0
TEXT
5
243
100
AcDbEntity
8
0
100
AcDbText
62
7
6
BYLAYER
10
161.2837527430
20
167.5304780200
7
STANDARD
40
4.0000000000
1
40
41
0.8000000000
72
0
100
AcDbText
0
LINE
5
244
100
AcDbEntity
8
0
100
AcDbLine
62
7
6
BYLAYER
10
185.5121322655
20
153.7957433461
11
185.5121322655
21
169.5304780200
0
LINE
5
245
100
AcDbEntity
8
0
100
AcDbLine
62
7
6
BYLAYER
10
145.5121322655
20
153.7957433461
11
145.5121322655
21
169.5304780200
0
LINE
5
246
100
AcDbEntity
8
0
100
AcDbLine
62
7
6
BYLAYER
10
185.5121322655
20
166.5304780200
11
165.5121322655
21
166.5304780200
0
LINE
5
247
100
AcDbEntity
8
0
100
AcDbLine
62
7
6
BYLAYER
10
145.5121322655
20
166.5304780200
11
165.5121322655
21
166.5304780200
0
SOLID
5
248
100
AcDbEntity
8
0
100
AcDbTrace
62
7
6
BYLAYER
10
180.5121322655
20
165.7304780200
11
185.5121322655
21
166.5304780200
12
180.5121322655
22
167.3304780200
13
180.5121322655
23
167.3304780200
0
SOLID
5
249
100
AcDbEntity
8
0
100
AcDbTrace
62
7
6
BYLAYER
10
150.5121322655
20
167.3304780200
11
145.5121322655
21
166.5304780200
12
150.5121322655
22
165.7304780200
13
150.5121322655
23
165.7304780200
0
ENDBLK
5
24A
100
AcDbEntity
8
0
100
AcDbBlockEnd
0
BLOCK
5
24B
100
AcDbEntity
8
0
100
AcDbBlockBegin
62
7
6
BYLAYER
2
*D2
70
65
10
0.0000000000
20
0.0000000000
3
*D2
1

0
TEXT
5
24C
100
AcDbEntity
8
0
100
AcDbText
62
7
6
BYLAYER
10
176.3892172124
20
114.8582543415
7
STANDARD
40
4.0000000000
1
5.3%%d
50
-75.0496910870
41
0.7666666667
72
0
100
AcDbText
0
LINE
5
24D
100
AcDbEntity
8
0
100
AcDbLine
62
7
6
BYLAYER
10
183.5121322655
20
123.9957433461
11
166.9950378303
21
123.9957433461
0
LINE
5
24E
100
AcDbEntity
8
0
100
AcDbLine
62
7
6
BYLAYER
10
202.2817728771
20
121.0177268549
11
167.2831451956
21
117.7710023289
0
ARC
5
24F
100
AcDbEntity
8
0
100
AcDbCircle
62
7
6
BYLAYER
10
234.3838158965
20
123.9957433461
40
64.3887780661
100
AcDbArc
50
171.1015892468
51
180.0000000000
0
ARC
5
250
100
AcDbEntity
8
0
100
AcDbCircle
62
7
6
BYLAYER
10
234.3838158965
20
123.9957433461
40
64.3887780661
100
AcDbArc
50
185.3000000000
51
194.9503089130
0
SOLID
5
251
100
AcDbEntity
8
0
100
AcDbTrace
62
7
6
BYLAYER
10
169.9950378303
20
123.9957433461
11
169.3897251926
21
129.0230285589
12
170.9885193376
22
128.9609215398
13
170.9885193376
23
128.9609215398
0
SOLID
5
252
100
AcDbEntity
8
0
100
AcDbTrace
62
7
6
BYLAYER
10
170.2703192901
20
118.0481140912
11
171.7181897906
21
113.1959320033
12
170.1319678349
22
112.9864089561
13
170.1319678349
23
112.9864089561
0
ENDBLK
5
253
100
AcDbEntity
8
0
100
AcDbBlockEnd
0
BLOCK
5
254
100
AcDbEntity
8
0
100
AcDbBlockBegin
62
7
6
BYLAYER
2
*D3
70
65
10
0.0000000000
20
0.0000000000
3
*D3
1

0
TEXT
5
255
100
AcDbEntity
8
0
100
AcDbText
62
7
6
BYLAYER
10
282.2650388425
20
152.6669390096
7
STANDARD
40
4.0000000000
1
18.2%%d
50
-80.9193882840
41
0.7733333333
72
0
100
AcDbText
0
LINE
5
256
100
AcDbEntity
8
0
100
AcDbLine
62
7
6
BYLAYER
10
230.2083860539
20
136.1957433461
11
281.1871101627
21
136.1957433461
0
LINE
5
257
100
AcDbEntity
8
0
100
AcDbLine
62
7
6
BYLAYER
10
231.5863980474
20
137.3085604007
11
278.5270353995
21
152.7721946019
0
ARC
5
258
100
AcDbEntity
8
0
100
AcDbCircle
62
7
6
BYLAYER
10
228.2083860539
20
136.1957433461
40
49.9787241088
100
AcDbArc
50
0.0000000000
51
9.1167058126
0
ARC
5
259
100
AcDbEntity
8
0
100
AcDbCircle
62
7
6
BYLAYER
10
228.2083860539
20
136.1957433461
40
49.9787241088
100
AcDbArc
50
9.1167058126
51
18.2334116253
0
SOLID
5
25A
100
AcDbEntity
8
0
100
AcDbTrace
62
7
6
BYLAYER
10
278.1871101627
20
136.1957433461
11
277.1381086676
21
141.1494889859
12
278.7361073818
22
141.2294896700
13
278.7361073818
23
141.2294896700
0
SOLID
5
25B
100
AcDbEntity
8
0
100
AcDbTrace
62
7
6
BYLAYER
10
275.6776661371
20
151.8335280975
11
277.7741010928
21
147.2243025143
12
276.2313069661
22
146.8002903888
13
276.2313069661
23
146.8002903888
0
ENDBLK
5
25C
100
AcDbEntity
8
0
100
AcDbBlockEnd
0
BLOCK
5
25D
100
AcDbEntity
8
0
100
AcDbBlockBegin
62
7
6
BYLAYER
2
*D4
70
65
10
0.0000000000
20
0.0000000000
3
*D4
1

0
TEXT
5
25E
100
AcDbEntity
8
0
100
AcDbText
62
7
6
BYLAYER
10
257.5011026297
20
169.6288266591
7
STANDARD
40
4.0000000000
1
14.3%%d
50
76.7093628514
41
0.7733333333
72
0
100
AcDbText
0
LINE
5
25F
100
AcDbEntity
8
0
100
AcDbLine
62
7
6
BYLAYER
10
296.7089208135
20
167.7055170895
11
261.2814633951
21
165.2807580124
0
LINE
5
260
100
AcDbEntity
8
0
100
AcDbLine
62
7
6
BYLAYER
10
295.0987385513
20
166.6543204435
11
263.0773168512
21
156.1055171100
0
ARC
5
261
100
AcDbEntity
8
0
100
AcDbCircle
62
7
6
BYLAYER
10
298.7042527724
20
167.8420834601
40
34.5103392790
100
AcDbArc
50
166.7093628514
51
183.9153850000
0
ARC
5
262
100
AcDbEntity
8
0
100
AcDbCircle
62
7
6
BYLAYER
10
298.7042527724
20
167.8420834601
40
34.5103392790
100
AcDbArc
50
198.2334116253
51
214.8359083582
0
SOLID
5
263
100
AcDbEntity
8
0
100
AcDbTrace
62
7
6
BYLAYER
10
264.2744613336
20
165.4856075683
11
263.4949965100
21
170.4888499759
12
265.0949830246
22
170.4822808771
13
265.0949830246
23
170.4822808771
0
SOLID
5
264
100
AcDbEntity
8
0
100
AcDbTrace
62
7
6
BYLAYER
10
265.9266861136
20
157.0441836144
11
268.5704716403
21
152.7255729479
12
267.0910281611
22
152.1162725360
13
267.0910281611
23
152.1162725360
0
ENDBLK
5
265
100
AcDbEntity
8
0
100
AcDbBlockEnd
0
BLOCK
5
266
100
AcDbEntity
8
0
100
AcDbBlockBegin
62
7
6
BYLAYER
2
*D5
70
65
10
0.0000000000
20
0.0000000000
3
*D5
1

0
TEXT
5
267
100
AcDbEntity
8
0
100
AcDbText
62
7
6
BYLAYER
10
311.6318834165
20
156.3757509873
7
STANDARD
40
4.0000000000
1
120.1%%d
50
-28.0396173509
41
0.7777777778
72
0
100
AcDbText
0
LINE
5
268
100
AcDbEntity
8
0
100
AcDbLine
62
7
6
BYLAYER
10
321.1072523131
20
161.3566945983
11
305.1314881064
21
160.2632664469
0
LINE
5
269
100
AcDbEntity
8
0
100
AcDbLine
62
7
6
BYLAYER
10
327.1822180092
20
158.3863748838
11
336.1302794165
21
145.1065848192
0
ARC
5
26A
100
AcDbEntity
8
0
100
AcDbCircle
62
7
6
BYLAYER
10
325.0012058749
20
161.6232081991
40
16.9162025941
100
AcDbArc
50
183.9153850000
51
243.9439433932
0
ARC
5
26B
100
AcDbEntity
8
0
100
AcDbCircle
62
7
6
BYLAYER
10
325.0012058749
20
161.6232081991
40
16.9162025941
100
AcDbArc
50
243.9439433932
51
303.9725017865
0
SOLID
5
26C
100
AcDbEntity
8
0
100
AcDbTrace
62
7
6
BYLAYER
10
308.1244860448
20
160.4681160028
11
309.9781003207
21
155.7559918410
12
308.4153226465
22
155.4128797006
13
308.4153226465
23
155.4128797006
0
SOLID
5
26D
100
AcDbEntity
8
0
100
AcDbTrace
62
7
6
BYLAYER
10
334.4538945501
20
147.5945023780
11
330.2856235104
21
144.7195212409
12
329.5966819282
22
146.1635986268
13
329.5966819282
23
146.1635986268
0
ENDBLK
5
26E
100
AcDbEntity
8
0
100
AcDbBlockEnd
0
BLOCK
5
26F
100
AcDbEntity
8
0
100
AcDbBlockBegin
62
7
6
BYLAYER
2
*D6
70
65
10
0.0000000000
20
0.0000000000
3
*D6
1

0
TEXT
5
270
100
AcDbEntity
8
0
100
AcDbText
62
7
6
BYLAYER
10
368.5083543486
20
119.6067501397
7
STANDARD
40
4.0000000000
1
59.9%%d
50
64.6541675646
41
0.7733333333
72
0
100
AcDbText
0
LINE
5
271
100
AcDbEntity
8
0
100
AcDbLine
62
7
6
BYLAYER
10
338.8373667023
20
141.0890050100
11
363.8328490947
21
103.9932874435
0
LINE
5
272
100
AcDbEntity
8
0
100
AcDbLine
62
7
6
BYLAYER
10
370.7804828615
20
145.0103883901
11
384.3417507406
21
145.9385613323
0
ARC
5
273
100
AcDbEntity
8
0
100
AcDbCircle
62
7
6
BYLAYER
10
337.7197767914
20
142.7476167159
40
43.7310451677
100
AcDbArc
50
303.9725017865
51
333.9439433932
0
ARC
5
274
100
AcDbEntity
8
0
100
AcDbCircle
62
7
6
BYLAYER
10
337.7197767914
20
142.7476167159
40
43.7310451677
100
AcDbArc
50
333.9439433932
51
3.9153850000
0
SOLID
5
275
100
AcDbEntity
8
0
100
AcDbTrace
62
7
6
BYLAYER
10
362.1564642283
20
106.4812050024
11
365.6523691305
21
110.1443524079
12
366.6207942853
22
108.8707148144
13
366.6207942853
23
108.8707148144
0
SOLID
5
276
100
AcDbEntity
8
0
100
AcDbTrace
62
7
6
BYLAYER
10
381.3487528022
20
145.7337117764
11
382.2045454181
21
140.7429584266
12
380.6046452095
22
140.7250888229
13
380.6046452095
23
140.7250888229
0
ENDBLK
5
277
100
AcDbEntity
8
0
100
AcDbBlockEnd
0
BLOCK
5
278
100
AcDbEntity
8
0
100
AcDbBlockBegin
62
7
6
BYLAYER
2
*D7
70
65
10
0.0000000000
20
0.0000000000
3
*D7
1

0
TEXT
5
279
100
AcDbEntity
8
0
100
AcDbText
62
7
6
BYLAYER
10
360.0695671945
20
136.2784604008
7
STANDARD
40
4.0000000000
1
57%%d
50
51.7141302124
41
0.7555555556
72
0
100
AcDbText
0
LINE
5
27A
100
AcDbEntity
8
0
100
AcDbLine
62
7
6
BYLAYER
10
342.8968382320
20
153.5305396863
11
361.2024825698
21
126.1799609118
0
LINE
5
27B
100
AcDbEntity
8
0
100
AcDbLine
62
7
6
BYLAYER
10
368.7949854535
20
158.3403173125
11
378.1577515768
21
158.4710546854
0
ARC
5
27C
100
AcDbEntity
8
0
100
AcDbCircle
62
7
6
BYLAYER
10
339.9472747486
20
157.9375011084
40
35.2142017953
100
AcDbArc
50
303.7942533901
51
332.2971266951
0
ARC
5
27D
100
AcDbEntity
8
0
100
AcDbCircle
62
7
6
BYLAYER
10
339.9472747486
20
157.9375011084
40
35.2142017953
100
AcDbArc
50
332.2971266951
51
0.8000000000
0
SOLID
5
27E
100
AcDbEntity
8
0
100
AcDbTrace
62
7
6
BYLAYER
10
359.5338457681
20
128.6730816919
11
362.9902984958
21
132.3734782302
12
363.9723153763
22
131.1102906565
13
363.9723153763
23
131.1102906565
0
SOLID
5
27F
100
AcDbEntity
8
0
100
AcDbTrace
62
7
6
BYLAYER
10
375.1580440048
20
158.4291681443
11
375.6717406309
21
153.3916969756
12
374.0743419948
22
153.4828978370
13
374.0743419948
23
153.4828978370
0
ENDBLK
5
280
100
AcDbEntity
8
0
100
AcDbBlockEnd
0
BLOCK
5
281
100
AcDbEntity
8
0
100
AcDbBlockBegin
62
7
6
BYLAYER
2
*D8
70
65
10
0.0000000000
20
0.0000000000
3
*D8
1

0
TEXT
5
282
100
AcDbEntity
8
0
100
AcDbText
62
7
6
BYLAYER
10
360.7210789339
20
189.2672365304
7
STANDARD
40
4.0000000000
1
60.1%%d
50
-69.3551143379
41
0.7733333333
72
0
100
AcDbText
0
LINE
5
283
100
AcDbEntity
8
0
100
AcDbLine
62
7
6
BYLAYER
10
340.7018275908
20
156.8101189431
11
348.9429543939
21
144.4969993578
0
LINE
5
284
100
AcDbEntity
8
0
100
AcDbLine
62
7
6
BYLAYER
10
332.2556669154
20
170.1384406339
11
362.5473524565
21
172.2116924230
0
ARC
5
285
100
AcDbEntity
8
0
100
AcDbCircle
62
7
6
BYLAYER
10
331.8020110040
20
170.1073910930
40
27.8172695922
100
AcDbArc
50
303.7942533901
51
20.6448856621
0
SOLID
5
286
100
AcDbEntity
8
0
100
AcDbTrace
62
7
6
BYLAYER
10
347.2743175922
20
146.9901201379
11
350.6603019552
21
150.7551048514
12
351.6659890739
22
149.5106799162
13
351.6659890739
23
149.5106799162
0
SOLID
5
287
100
AcDbEntity
8
0
100
AcDbTrace
62
7
6
BYLAYER
10
359.5543545181
20
172.0068428671
11
360.2464979889
21
166.9907749433
12
358.6468690095
22
167.0252296694
13
358.6468690095
23
167.0252296694
0
ENDBLK
5
288
100
AcDbEntity
8
0
100
AcDbBlockEnd
0
BLOCK
5
289
100
AcDbEntity
8
0
100
AcDbBlockBegin
62
7
6
BYLAYER
2
COPYRIGHT_BL4
70
64
10
0.0000000000
20
0.0000000000
3
COPYRIGHT_BL4
1

0
CIRCLE
5
28A
100
AcDbEntity
8
0
100
AcDbCircle
62
7
6
BYLAYER
10
368.4166666667
20
59.2552477502
40
2.6387790604
0
ENDBLK
5
28B
100
AcDbEntity
8
0
100
AcDbBlockEnd
0
BLOCK
5
28C
100
AcDbEntity
8
0
100
AcDbBlockBegin
62
7
6
BYLAYER
2
MICRO_U_BL5
70
64
10
0.0000000000
20
0.0000000000
3
MICRO_U_BL5
1

0
ARC
5
28D
100
AcDbEntity
8
0
100
AcDbCircle
62
7
6
BYLAYER
10
115.8029987548
20
24.2743672858
40
1.1407767248
100
AcDbArc
50
303.7730668774
51
1.5957171757
0
ENDBLK
5
28E
100
AcDbEntity
8
0
100
AcDbBlockEnd
0
BLOCK
5
28F
100
AcDbEntity
8
0
100
AcDbBlockBegin
62
7
6
BYLAYER
2
SURFACE_FINISH_BL6
70
64
10
0.0000000000
20
0.0000000000
3
SURFACE_FINISH_BL6
1

0
LINE
5
290
100
AcDbEntity
8
0
100
AcDbLine
62
7
6
BYLAYER
10
97.0309676193
20
12.0901401771
11
99.8402817594
21
16.9560150021
0
LINE
5
291
100
AcDbEntity
8
0
100
AcDbLine
62
7
6
BYLAYER
10
97.0309676193
20
12.0901401771
11
95.7597911309
21
14.2918824404
0
LINE
5
292
100
AcDbEntity
8
0
100
AcDbLine
62
7
6
BYLAYER
10
95.7597911309
20
14.2918824404
11
98.3021441078
21
14.2918824404
0
ENDBLK
5
293
100
AcDbEntity
8
0
100
AcDbBlockEnd
0
BLOCK
5
294
100
AcDbEntity
8
0
100
AcDbBlockBegin
62
7
6
BYLAYER
2
PROJECTION_BL7
70
64
10
0.0000000000
20
0.0000000000
3
PROJECTION_BL7
1

0
LINE
5
295
100
AcDbEntity
8
0
100
AcDbLine
62
7
6
BYLAYER
10
304.4288585399
20
278.0624994947
11
304.4288585399
21
282.4374994947
0
LINE
5
296
100
AcDbEntity
8
0
100
AcDbLine
62
7
6
BYLAYER
10
304.4288585399
20
282.4374994947
11
310.5538585399
21
284.6249994947
0
LINE
5
297
100
AcDbEntity
8
0
100
AcDbLine
62
7
6
BYLAYER
10
310.5538585399
20
284.6249994947
11
310.5538585399
21
275.8749994947
0
LINE
5
298
100
AcDbEntity
8
0
100
AcDbLine
62
7
6
BYLAYER
10
310.5538585399
20
275.8749994947
11
304.4288585399
21
278.0624994947
0
ARC
5
299
100
AcDbEntity
8
0
100
AcDbCircle
62
7
6
BYLAYER
10
292.1788585399
20
280.2499994947
40
2.1875000000
100
AcDbArc
50
180.0000000000
51
360.0000000000
0
ARC
5
29A
100
AcDbEntity
8
0
100
AcDbCircle
62
7
6
BYLAYER
10
292.1788585399
20
280.2499994947
40
2.1875000000
100
AcDbArc
50
0.0000000000
51
180.0000000000
0
ARC
5
29B
100
AcDbEntity
8
0
100
AcDbCircle
62
7
6
BYLAYER
10
292.1788585399
20
280.2499994947
40
4.3750000000
100
AcDbArc
50
180.0000000000
51
360.0000000000
0
ARC
5
29C
100
AcDbEntity
8
0
100
AcDbCircle
62
7
6
BYLAYER
10
292.1788585399
20
280.2499994947
40
4.3750000000
100
AcDbArc
50
0.0000000000
51
180.0000000000
0
LINE
5
29D
100
AcDbEntity
8
0
100
AcDbLine
62
7
6
BYLAYER
10
285.1534835399
20
280.2499994947
11
298.4009835399
21
280.2499994947
0
LINE
5
29E
100
AcDbEntity
8
0
100
AcDbLine
62
7
6
BYLAYER
10
301.1493585399
20
280.2499994947
11
313.1464835399
21
280.2499994947
0
LINE
5
29F
100
AcDbEntity
8
0
100
AcDbLine
62
7
6
BYLAYER
10
292.1788585399
20
285.2952494947
11
292.1788585399
21
275.2047494947
0
ENDBLK
5
2A0
100
AcDbEntity
8
0
100
AcDbBlockEnd
0
ENDSEC
0
SECTION
2
ENTITIES
0
INSERT
5
2A1
100
AcDbEntity
8
0
100
AcDbBlockReference
62
7
6
BYLAYER
2
COPYRIGHT_BL0
10
0.0000000000
20
0.0000000000
0
INSERT
5
2A2
100
AcDbEntity
8
0
100
AcDbBlockReference
62
7
6
BYLAYER
2
MICRO_U_BL1
10
0.0000000000
20
0.0000000000
0
INSERT
5
2A3
100
AcDbEntity
8
0
100
AcDbBlockReference
62
7
6
BYLAYER
2
PROJECTION_BL2
10
0.0000000000
20
0.0000000000
0
INSERT
5
2A4
100
AcDbEntity
8
0
100
AcDbBlockReference
62
7
6
BYLAYER
2
SURFACE_FINISH_BL3
10
0.0000000000
20
0.0000000000
0
DIMENSION
5
2A5
100
AcDbEntity
8
0
100
AcDbDimension
62
7
6
BYLAYER
2
*D0
10
130.3164587094
20
123.9957433461
11
127.3164587094
21
139.3014618191
70
160
3
DIMSTYLE_1
100
AcDbAlignedDimension
13
143.5121322655
23
151.7957433461
14
143.5121322655
24
123.9957433461
50
270.000000
100
AcDbRotatedDimension
0
DIMENSION
5
2A6
100
AcDbEntity
8
0
100
AcDbDimension
62
7
6
BYLAYER
2
*D1
10
145.5121322655
20
166.5304780200
11
164.4837527430
21
169.5304780200
70
160
3
DIMSTYLE_2
100
AcDbAlignedDimension
13
185.5121322655
23
153.7957433461
14
145.5121322655
24
153.7957433461
50
180.000000
100
AcDbRotatedDimension
0
DIMENSION
5
2A7
100
AcDbEntity
8
0
100
AcDbDimension
62
7
6
BYLAYER
2
*D2
10
202.2817728771
20
121.0177268549
11
179.9038019273
21
109.4484972250
70
162
3
DIMSTYLE_3
100
AcDb2LineAngularDimension
13
183.5121322655
23
123.9957433461
14
166.9950378303
24
123.9957433461
15
167.2831451956
25
117.7710023289
16
170.7700110746
26
133.9555915844
0
DIMENSION
5
2A8
100
AcDbEntity
8
0
100
AcDbDimension
62
7
6
BYLAYER
2
*D3
10
231.5863980474
20
137.3085604007
11
285.4604784230
21
145.3461733166
70
162
3
DIMSTYLE_3
100
AcDb2LineAngularDimension
13
230.2083860539
23
136.1957433461
14
281.1871101627
24
136.1957433461
15
278.5270353995
25
152.7721946019
16
277.5557614474
26
144.1146703765
0
DIMENSION
5
2A9
100
AcDbEntity
8
0
100
AcDbDimension
62
7
6
BYLAYER
2
*D4
10
295.0987385513
20
166.6543204435
11
257.3324911718
21
177.6148153031
70
162
3
DIMSTYLE_3
100
AcDb2LineAngularDimension
13
296.7089208135
23
167.7055170895
14
261.2814633951
24
165.2807580124
15
263.0773168512
25
156.1055171100
16
265.1182227942
26
175.7756896675
0
DIMENSION
5
2AA
100
AcDbEntity
8
0
100
AcDbDimension
62
7
6
BYLAYER
2
*D5
10
327.1822180092
20
158.3863748838
11
320.8098598172
21
153.7535648194
70
162
3
DIMSTYLE_3
100
AcDb2LineAngularDimension
13
321.1072523131
23
161.3566945983
14
305.1314881064
24
160.2632664469
15
336.1302794165
25
145.1065848192
16
317.5707589444
26
146.4262884909
0
DIMENSION
5
2AB
100
AcDbEntity
8
0
100
AcDbDimension
62
7
6
BYLAYER
2
*D6
10
370.7804828615
20
145.0103883901
11
370.0113660363
21
127.4518377945
70
162
3
DIMSTYLE_3
100
AcDb2LineAngularDimension
13
338.8373667023
23
141.0890050100
14
363.8328490947
24
103.9932874435
15
384.3417507406
25
145.9385613323
16
377.0062052006
26
123.5387423526
0
DIMENSION
5
2AC
100
AcDbEntity
8
0
100
AcDbDimension
62
7
6
BYLAYER
2
*D7
10
368.7949854535
20
158.3403173125
11
361.3084962778
21
141.0759770331
70
162
3
DIMSTYLE_3
100
AcDb2LineAngularDimension
13
342.8968382320
23
153.5305396863
14
361.2024825698
24
126.1799609118
15
378.1577515768
25
158.4710546854
16
371.1248836300
26
141.5668959723
0
DIMENSION
5
2AD
100
AcDbEntity
8
0
100
AcDbDimension
62
7
6
BYLAYER
2
*D8
10
332.2556669154
20
170.1384406339
11
365.3192250178
21
182.7356596124
70
162
3
DIMSTYLE_3
100
AcDb2LineAngularDimension
13
340.7018275908
23
156.8101189431
14
348.9429543939
24
144.4969993578
15
362.5473524565
25
172.2116924230
16
356.7730281668
26
157.8497898013
0
LINE
5
2AE
100
AcDbEntity
8
0
100
AcDbLine
62
7
6
BYLAYER
10
209.0000000000
20
82.0000000000
11
410.0000000000
21
82.0000000000
0
LINE
5
2AF
100
AcDbEntity
8
0
100
AcDbLine
62
7
6
BYLAYER
10
209.0000000000
20
82.0000000000
11
209.0000000000
21
10.0000000000
0
LINE
5
2B0
100
AcDbEntity
8
0
100
AcDbLine
62
7
6
BYLAYER
10
209.0000000000
20
73.0000000000
11
410.0000000000
21
73.0000000000
0
LINE
5
2B1
100
AcDbEntity
8
0
100
AcDbLine
62
7
6
BYLAYER
10
209.0000000000
20
64.0000000000
11
410.0000000000
21
64.0000000000
0
LINE
5
2B2
100
AcDbEntity
8
0
100
AcDbLine
62
7
6
BYLAYER
10
209.0000000000
20
55.0000000000
11
410.0000000000
21
55.0000000000
0
LINE
5
2B3
100
AcDbEntity
8
0
100
AcDbLine
62
7
6
BYLAYER
10
209.0000000000
20
46.0000000000
11
410.0000000000
21
46.0000000000
0
LINE
5
2B4
100
AcDbEntity
8
0
100
AcDbLine
62
7
6
BYLAYER
10
209.0000000000
20
21.0000000000
11
410.0000000000
21
21.0000000000
0
LINE
5
2B5
100
AcDbEntity
8
0
100
AcDbLine
62
7
6
BYLAYER
10
209.0000000000
20
10.0000000000
11
410.0000000000
21
10.0000000000
0
LINE
5
2B6
100
AcDbEntity
8
0
100
AcDbLine
62
7
6
BYLAYER
10
224.0000000000
20
82.0000000000
11
224.0000000000
21
64.0000000000
0
LINE
5
2B7
100
AcDbEntity
8
0
100
AcDbLine
62
7
6
BYLAYER
10
224.0000000000
20
21.0000000000
11
224.0000000000
21
10.0000000000
0
LINE
5
2B8
100
AcDbEntity
8
0
100
AcDbLine
62
7
6
BYLAYER
10
253.5000000000
20
82.0000000000
11
253.5000000000
21
64.0000000000
0
LINE
5
2B9
100
AcDbEntity
8
0
100
AcDbLine
62
7
6
BYLAYER
10
283.0000000000
20
82.0000000000
11
283.0000000000
21
64.0000000000
0
LINE
5
2BA
100
AcDbEntity
8
0
100
AcDbLine
62
7
6
BYLAYER
10
315.5000000000
20
82.0000000000
11
315.5000000000
21
64.0000000000
0
LINE
5
2BB
100
AcDbEntity
8
0
100
AcDbLine
62
7
6
BYLAYER
10
344.0000000000
20
21.0000000000
11
344.0000000000
21
10.0000000000
0
LINE
5
2BC
100
AcDbEntity
8
0
100
AcDbLine
62
7
6
BYLAYER
10
348.0000000000
20
82.0000000000
11
348.0000000000
21
64.0000000000
0
LINE
5
2BD
100
AcDbEntity
8
0
100
AcDbLine
62
7
6
BYLAYER
10
365.0000000000
20
64.0000000000
11
365.0000000000
21
55.0000000000
0
LINE
5
2BE
100
AcDbEntity
8
0
100
AcDbLine
62
7
6
BYLAYER
10
380.5000000000
20
82.0000000000
11
380.5000000000
21
64.0000000000
0
LINE
5
2BF
100
AcDbEntity
8
0
100
AcDbLine
62
7
6
BYLAYER
10
410.0000000000
20
82.0000000000
11
410.0000000000
21
10.0000000000
0
TEXT
5
2C0
100
AcDbEntity
8
0
100
AcDbText
62
7
6
BYLAYER
10
215.3000000000
20
76.0000000000
7
STANDARD
40
3.0000000000
1
D
41
0.8000000000
72
1
11
216.5000000000
21
76.0000000000
100
AcDbText
0
TEXT
5
2C1
100
AcDbEntity
8
0
100
AcDbText
62
7
6
BYLAYER
10
227.9500000000
20
76.0000000000
7
STANDARD
40
3.0000000000
1
29/MAY/03
41
0.8000000000
72
1
11
238.7500000000
21
76.0000000000
100
AcDbText
0
TEXT
5
2C2
100
AcDbEntity
8
0
100
AcDbText
62
7
6
BYLAYER
10
259.8500000000
20
76.0000000000
7
STANDARD
40
3.0000000000
1
------
41
0.8000000000
72
1
11
267.0500000000
21
76.0000000000
100
AcDbText
0
TEXT
5
2C3
100
AcDbEntity
8
0
100
AcDbText
62
7
6
BYLAYER
10
274.2500000000
20
76.0000000000
7
STANDARD
40
3.0000000000
1
.
41
0.8000000000
72
1
11
275.4500000000
21
76.0000000000
100
AcDbText
0
TEXT
5
2C4
100
AcDbEntity
8
0
100
AcDbText
62
7
6
BYLAYER
10
289.6500000000
20
76.0000000000
7
STANDARD
40
3.0000000000
1
J NOVISS
41
0.8000000000
72
1
11
299.2500000000
21
76.0000000000
100
AcDbText
0
TEXT
5
2C5
100
AcDbEntity
8
0
100
AcDbText
62
7
6
BYLAYER
10
329.3500000000
20
76.0000000000
7
STANDARD
40
3.0000000000
1
IW
41
0.8000000000
72
1
11
331.7500000000
21
76.0000000000
100
AcDbText
0
TEXT
5
2C6
100
AcDbEntity
8
0
100
AcDbText
62
7
6
BYLAYER
10
361.8500000000
20
76.0000000000
7
STANDARD
40
3.0000000000
1
DG
41
0.8000000000
72
1
11
364.2500000000
21
76.0000000000
100
AcDbText
0
TEXT
5
2C7
100
AcDbEntity
8
0
100
AcDbText
62
7
6
BYLAYER
10
391.6500000000
20
76.0000000000
7
STANDARD
40
3.0000000000
1
REL
41
0.8000000000
72
1
11
395.2500000000
21
76.0000000000
100
AcDbText
0
TEXT
5
2C8
100
AcDbEntity
8
0
100
AcDbText
62
7
6
BYLAYER
10
210.5000000000
20
67.0000000000
7
STANDARD
40
3.0000000000
1
ISSUE
41
0.8000000000
72
1
11
216.5000000000
21
67.0000000000
100
AcDbText
0
TEXT
5
2C9
100
AcDbEntity
8
0
100
AcDbText
62
7
6
BYLAYER
10
227.9500000000
20
67.0000000000
7
STANDARD
40
3.0000000000
1
DATE APPD
41
0.8000000000
72
1
11
238.7500000000
21
67.0000000000
100
AcDbText
0
TEXT
5
2CA
100
AcDbEntity
8
0
100
AcDbText
62
7
6
BYLAYER
10
258.6500000000
20
67.0000000000
7
STANDARD
40
3.0000000000
1
MOD. No.
41
0.8000000000
72
1
11
268.2500000000
21
67.0000000000
100
AcDbText
0
TEXT
5
2CB
100
AcDbEntity
8
0
100
AcDbText
62
7
6
BYLAYER
10
290.8500000000
20
67.0000000000
7
STANDARD
40
3.0000000000
1
DRN. BY
41
0.8000000000
72
1
11
299.2500000000
21
67.0000000000
100
AcDbText
0
TEXT
5
2CC
100
AcDbEntity
8
0
100
AcDbText
62
7
6
BYLAYER
10
322.1500000000
20
67.0000000000
7
STANDARD
40
3.0000000000
1
CHKD BY.
41
0.8000000000
72
1
11
331.7500000000
21
67.0000000000
100
AcDbText
0
TEXT
5
2CD
100
AcDbEntity
8
0
100
AcDbText
62
7
6
BYLAYER
10
354.6500000000
20
67.0000000000
7
STANDARD
40
3.0000000000
1
APPD BY.
41
0.8000000000
72
1
11
364.2500000000
21
67.0000000000
100
AcDbText
0
TEXT
5
2CE
100
AcDbEntity
8
0
100
AcDbText
62
7
6
BYLAYER
10
388.0500000000
20
67.0000000000
7
STANDARD
40
3.0000000000
1
STATUS
41
0.8000000000
72
1
11
395.2500000000
21
67.0000000000
100
AcDbText
0
TEXT
5
2CF
100
AcDbEntity
8
0
100
AcDbText
62
7
6
BYLAYER
10
210.4000000000
20
57.5000000000
7
STANDARD
40
4.0000000000
1
USED ON
41
0.8000000000
72
0
100
AcDbText
0
TEXT
5
2D0
100
AcDbEntity
8
0
100
AcDbText
62
7
6
BYLAYER
10
254.9000000000
20
57.5000000000
7
STANDARD
40
4.0000000000
1
 
41
0.8000000000
72
0
100
AcDbText
0
INSERT
5
2D1
100
AcDbEntity
8
0
100
AcDbBlockReference
62
7
6
BYLAYER
2
COPYRIGHT_BL4
10
0.0000000000
20
0.0000000000
0
TEXT
5
2D2
100
AcDbEntity
8
0
100
AcDbText
62
7
6
BYLAYER
10
371.0554457271
20
57.3835313102
7
TEXTSTYLE_1
40
5.0000000000
1
 CLRC
41
0.7800000000
72
1
11
380.8054457271
21
57.3835313102
100
AcDbText
0
TEXT
5
2D3
100
AcDbEntity
8
0
100
AcDbText
62
7
6
BYLAYER
10
390.5554457271
20
57.3835313102
7
TEXTSTYLE_1
40
5.0000000000
1
 
41
0.8000000000
72
1
11
392.5554457271
21
57.3835313102
100
AcDbText
0
TEXT
5
2D4
100
AcDbEntity
8
0
100
AcDbText
62
7
6
BYLAYER
10
394.5554457271
20
57.3835313102
7
TEXTSTYLE_1
40
5.0000000000
1
2002
41
0.7333333333
72
1
11
401.8887790604
21
57.3835313102
100
AcDbText
0
TEXT
5
2D5
100
AcDbEntity
8
0
100
AcDbText
62
7
6
BYLAYER
10
367.1926306113
20
57.5014920980
7
TEXTSTYLE_1
40
3.5000000000
1
C
41
0.8000000000
72
0
100
AcDbText
0
TEXT
5
2D6
100
AcDbEntity
8
0
100
AcDbText
62
7
6
BYLAYER
10
210.4000000000
20
48.5000000000
7
TEXTSTYLE_1
40
3.0000000000
1
CENTRAL LABORATORY OF THE RESEARCH COUNCILS
41
0.7620155039
72
0
100
AcDbText
0
TEXT
5
2D7
100
AcDbEntity
8
0
100
AcDbText
62
7
6
BYLAYER
10
308.7000000000
20
48.5000000000
7
STANDARD
40
4.0000000000
1
 
41
0.8000000000
72
0
100
AcDbText
0
TEXT
5
2D8
100
AcDbEntity
8
0
100
AcDbText
62
7
6
BYLAYER
10
311.9000000000
20
48.5000000000
7
STANDARD
40
2.0000000000
1
RUTHERFORD APPLETON LABORATORY, CHILTON, OXON OX110QX
41
0.8000000000
72
0
100
AcDbText
0
TEXT
5
2D9
100
AcDbEntity
8
0
100
AcDbText
62
7
6
BYLAYER
10
210.4000000000
20
41.5000000000
7
STANDARD
40
3.0000000000
1
TITLE
41
0.8000000000
72
0
100
AcDbText
0
TEXT
5
2DA
100
AcDbEntity
8
0
100
AcDbText
62
7
6
BYLAYER
10
272.5000000000
20
36.5000000000
7
TEXTSTYLE_1
40
6.0000000000
1
POWER TAPE W1
41
0.9487179487
72
1
11
309.5000000000
21
36.5000000000
100
AcDbText
0
TEXT
5
2DB
100
AcDbEntity
8
0
100
AcDbText
62
7
6
BYLAYER
10
270.2500000000
20
27.5000000000
7
TEXTSTYLE_1
40
6.0000000000
1
WHEELS 2,3,4,5,6
41
0.8177083333
72
1
11
309.5000000000
21
27.5000000000
100
AcDbText
0
TEXT
5
2DC
100
AcDbEntity
8
0
100
AcDbText
62
7
6
BYLAYER
10
210.4000000000
20
24.2500000000
7
STANDARD
40
4.0000000000
1
ATLAS_ID
41
0.8000000000
72
0
100
AcDbText
0
TEXT
5
2DD
100
AcDbEntity
8
0
100
AcDbText
62
7
6
BYLAYER
10
389.4000000000
20
24.2500000000
7
STANDARD
40
4.0000000000
1
------
41
0.8000000000
72
2
11
408.6000000000
21
24.2500000000
100
AcDbText
0
TEXT
5
2DE
100
AcDbEntity
8
0
100
AcDbText
62
7
6
BYLAYER
10
211.1333333333
20
12.0000000000
7
TEXTSTYLE_1
40
7.0000000000
1
A3
41
0.7666666667
72
1
11
216.5000000000
21
12.0000000000
100
AcDbText
0
TEXT
5
2DF
100
AcDbEntity
8
0
100
AcDbText
62
7
6
BYLAYER
10
225.4000000000
20
12.0000000000
7
TEXTSTYLE_1
40
5.0000000000
1
 
41
1.0000000000
72
0
100
AcDbText
0
TEXT
5
2E0
100
AcDbEntity
8
0
100
AcDbText
62
7
6
BYLAYER
10
230.4000000000
20
12.0000000000
7
TEXTSTYLE_1
40
7.0000000000
1
TD-1002-947
41
0.8068181818
72
0
100
AcDbText
0
TEXT
5
2E1
100
AcDbEntity
8
0
100
AcDbText
62
7
6
BYLAYER
10
345.4000000000
20
16.7500000000
7
STANDARD
40
2.5000000000
1
SHEET
41
0.8000000000
72
0
100
AcDbText
0
TEXT
5
2E2
100
AcDbEntity
8
0
100
AcDbText
62
7
6
BYLAYER
10
366.7666666667
20
12.0000000000
7
STANDARD
40
3.0000000000
1
 
41
0.8000000000
72
1
11
367.9666666667
21
12.0000000000
100
AcDbText
0
TEXT
5
2E3
100
AcDbEntity
8
0
100
AcDbText
62
7
6
BYLAYER
10
369.1666666667
20
12.0000000000
7
TEXTSTYLE_1
40
7.0000000000
1
1
41
0.3333333333
72
1
11
370.3333333333
21
12.0000000000
100
AcDbText
0
TEXT
5
2E4
100
AcDbEntity
8
0
100
AcDbText
62
7
6
BYLAYER
10
371.5000000000
20
12.0000000000
7
STANDARD
40
4.0000000000
1
 OF 
41
0.8000000000
72
1
11
377.9000000000
21
12.0000000000
100
AcDbText
0
TEXT
5
2E5
100
AcDbEntity
8
0
100
AcDbText
62
7
6
BYLAYER
10
384.3000000000
20
12.0000000000
7
TEXTSTYLE_1
40
7.0000000000
1
1
41
0.3333333333
72
1
11
385.4666666667
21
12.0000000000
100
AcDbText
0
TEXT
5
2E6
100
AcDbEntity
8
0
100
AcDbText
62
7
6
BYLAYER
10
386.6333333333
20
12.0000000000
7
STANDARD
40
4.0000000000
1
     
41
0.8000000000
72
1
11
394.6333333333
21
12.0000000000
100
AcDbText
0
TEXT
5
2E7
100
AcDbEntity
8
0
100
AcDbText
62
7
6
BYLAYER
10
402.6333333333
20
12.0000000000
7
TEXTSTYLE_1
40
7.0000000000
1
D
41
0.8000000000
72
1
11
405.4333333333
21
12.0000000000
100
AcDbText
0
LINE
5
2E8
100
AcDbEntity
8
0
100
AcDbLine
62
7
6
BYLAYER
10
20.0371621622
20
45.9172297297
11
209.0371621622
21
45.9172297297
0
LINE
5
2E9
100
AcDbEntity
8
0
100
AcDbLine
62
7
6
BYLAYER
10
20.0371621622
20
45.9172297297
11
20.0371621622
21
9.9172297297
0
LINE
5
2EA
100
AcDbEntity
8
0
100
AcDbLine
62
7
6
BYLAYER
10
20.0371621622
20
27.9172297297
11
209.0371621622
21
27.9172297297
0
LINE
5
2EB
100
AcDbEntity
8
0
100
AcDbLine
62
7
6
BYLAYER
10
20.0371621622
20
9.9172297297
11
209.0371621622
21
9.9172297297
0
LINE
5
2EC
100
AcDbEntity
8
0
100
AcDbLine
62
7
6
BYLAYER
10
83.0371621622
20
45.9172297297
11
83.0371621622
21
9.9172297297
0
LINE
5
2ED
100
AcDbEntity
8
0
100
AcDbLine
62
7
6
BYLAYER
10
146.0371621622
20
45.9172297297
11
146.0371621622
21
9.9172297297
0
LINE
5
2EE
100
AcDbEntity
8
0
100
AcDbLine
62
7
6
BYLAYER
10
209.0371621622
20
45.9172297297
11
209.0371621622
21
9.9172297297
0
TEXT
5
2EF
100
AcDbEntity
8
0
100
AcDbText
62
7
6
BYLAYER
10
21.4371621622
20
41.6672297297
7
STANDARD
40
2.5000000000
1
TOLERANCES UNLESS STATED
41
0.8000000000
72
0
100
AcDbText
0
TEXT
5
2F0
100
AcDbEntity
8
0
100
AcDbText
62
7
6
BYLAYER
10
84.4371621622
20
41.6672297297
7
STANDARD
40
2.5000000000
1
FINISH
41
0.8000000000
72
0
100
AcDbText
0
TEXT
5
2F1
100
AcDbEntity
8
0
100
AcDbText
62
7
6
BYLAYER
10
147.4371621622
20
41.6672297297
7
STANDARD
40
2.5000000000
1
ORIGINAL SCALE
41
0.8000000000
72
0
100
AcDbText
0
TEXT
5
2F2
100
AcDbEntity
8
0
100
AcDbText
62
7
6
BYLAYER
10
44.9871621622
20
34.1672297297
7
STANDARD
40
3.0000000000
1
%%p
41
1.1666666667
72
1
11
46.7371621622
21
34.1672297297
100
AcDbText
0
TEXT
5
2F3
100
AcDbEntity
8
0
100
AcDbText
62
7
6
BYLAYER
10
48.4871621622
20
34.1672297297
7
STANDARD
40
3.0000000000
1
 
41
0.8000000000
72
1
11
49.6871621622
21
34.1672297297
100
AcDbText
0
TEXT
5
2F4
100
AcDbEntity
8
0
100
AcDbText
62
7
6
BYLAYER
10
50.8871621622
20
34.1672297297
7
STANDARD
40
3.0000000000
1
 mm
41
0.8000000000
72
1
11
54.4871621622
21
34.1672297297
100
AcDbText
0
TEXT
5
2F5
100
AcDbEntity
8
0
100
AcDbText
62
7
6
BYLAYER
10
46.3871621622
20
29.6672297297
7
STANDARD
40
3.0000000000
1
%%p
41
1.1666666667
72
1
11
48.1371621622
21
29.6672297297
100
AcDbText
0
TEXT
5
2F6
100
AcDbEntity
8
0
100
AcDbText
62
7
6
BYLAYER
10
49.8871621622
20
29.6672297297
7
STANDARD
40
3.0000000000
1
 
41
0.8000000000
72
1
11
51.0871621622
21
29.6672297297
100
AcDbText
0
TEXT
5
2F7
100
AcDbEntity
8
0
100
AcDbText
62
7
6
BYLAYER
10
52.2871621622
20
29.6672297297
7
STANDARD
40
3.0000000000
1
 %%d
41
0.7333333333
72
1
11
54.4871621622
21
29.6672297297
100
AcDbText
0
TEXT
5
2F8
100
AcDbEntity
8
0
100
AcDbText
62
7
6
BYLAYER
10
102.5371621622
20
34.1672297297
7
STANDARD
40
3.0000000000
1
SEE NOTE 3
41
0.8000000000
72
1
11
114.5371621622
21
34.1672297297
100
AcDbText
0
TEXT
5
2F9
100
AcDbEntity
8
0
100
AcDbText
62
7
6
BYLAYER
10
95.3371621622
20
29.6672297297
7
STANDARD
40
3.0000000000
1
REMOVE ALL BURRS
41
0.8000000000
72
1
11
114.5371621622
21
29.6672297297
100
AcDbText
0
TEXT
5
2FA
100
AcDbEntity
8
0
100
AcDbText
62
7
6
BYLAYER
10
173.9371621622
20
34.1672297297
7
STANDARD
40
3.0000000000
1
1:1
41
0.8000000000
72
1
11
177.5371621622
21
34.1672297297
100
AcDbText
0
TEXT
5
2FB
100
AcDbEntity
8
0
100
AcDbText
62
7
6
BYLAYER
10
163.1371621622
20
29.6672297297
7
STANDARD
40
3.0000000000
1
DO NOT SCALE
41
0.8000000000
72
1
11
177.5371621622
21
29.6672297297
100
AcDbText
0
TEXT
5
2FC
100
AcDbEntity
8
0
100
AcDbText
62
7
6
BYLAYER
10
21.4371621622
20
23.6672297297
7
STANDARD
40
2.5000000000
1
MATERIAL 
41
0.8000000000
72
0
100
AcDbText
0
TEXT
5
2FD
100
AcDbEntity
8
0
100
AcDbText
62
7
6
BYLAYER
10
39.4371621622
20
23.6672297297
7
STANDARD
40
2.5000000000
1
& SPEC.
41
0.8000000000
72
0
100
AcDbText
0
INSERT
5
2FE
100
AcDbEntity
8
0
100
AcDbBlockReference
62
7
6
BYLAYER
2
MICRO_U_BL5
10
0.0000000000
20
0.0000000000
0
TEXT
5
2FF
100
AcDbEntity
8
0
100
AcDbText
62
7
6
BYLAYER
10
84.4371621622
20
24.0083581219
7
STANDARD
40
2.5000000000
1
SURFACE TEXTURE 
41
0.8000000000
72
0
100
AcDbText
0
TEXT
5
300
100
AcDbEntity
8
0
100
AcDbText
62
7
6
BYLAYER
10
116.4894190556
20
24.0082838118
7
STANDARD
40
1.8178175258
1
um
41
0.8000000000
72
0
100
AcDbText
0
TEXT
5
301
100
AcDbEntity
8
0
100
AcDbText
62
7
6
BYLAYER
10
41.9371621622
20
16.1672297297
7
STANDARD
40
3.0000000000
1
--------
41
0.8000000000
72
1
11
51.5371621622
21
16.1672297297
100
AcDbText
0
TEXT
5
302
100
AcDbEntity
8
0
100
AcDbText
62
7
6
BYLAYER
10
39.5371621622
20
11.6672297297
7
STANDARD
40
3.0000000000
1
SEE NOTE 3
41
0.8000000000
72
1
11
51.5371621622
21
11.6672297297
100
AcDbText
0
INSERT
5
303
100
AcDbEntity
8
0
100
AcDbBlockReference
62
7
6
BYLAYER
2
SURFACE_FINISH_BL6
10
0.0000000000
20
0.0000000000
0
TEXT
5
304
100
AcDbEntity
8
0
100
AcDbText
62
7
6
BYLAYER
10
102.5371621622
20
18.5810150021
7
STANDARD
40
3.0000000000
1
SEE NOTE 3
41
0.8000000000
72
1
11
114.5371621622
21
18.5810150021
100
AcDbText
0
TEXT
5
305
100
AcDbEntity
8
0
100
AcDbText
62
7
6
BYLAYER
10
99.8402817594
20
11.6672297297
7
STANDARD
40
3.0000000000
1
 UNLESS STATED
41
0.8000000000
72
1
11
116.6402817594
21
11.6672297297
100
AcDbText
0
TEXT
5
306
100
AcDbEntity
8
0
100
AcDbText
62
7
6
BYLAYER
10
95.6340425649
20
12.5409220665
7
STANDARD
40
3.5000000000
1
-
41
0.8000000000
72
0
100
AcDbText
0
LINE
5
307
100
AcDbEntity
8
0
100
AcDbLine
62
7
6
BYLAYER
10
10.0000000000
20
10.0000000000
11
10.0000000000
21
116.2000000000
0
LINE
5
308
100
AcDbEntity
8
0
100
AcDbLine
62
7
6
BYLAYER
10
10.0000000000
20
10.0000000000
11
20.0000000000
21
10.0000000000
0
LINE
5
309
100
AcDbEntity
8
0
100
AcDbLine
62
7
6
BYLAYER
10
20.0000000000
20
10.0000000000
11
20.0000000000
21
116.2000000000
0
LINE
5
30A
100
AcDbEntity
8
0
100
AcDbLine
62
7
6
BYLAYER
10
10.0000000000
20
25.0000000000
11
20.0000000000
21
25.0000000000
0
LINE
5
30B
100
AcDbEntity
8
0
100
AcDbLine
62
7
6
BYLAYER
10
10.0000000000
20
78.2000000000
11
20.0000000000
21
78.2000000000
0
LINE
5
30C
100
AcDbEntity
8
0
100
AcDbLine
62
7
6
BYLAYER
10
10.0000000000
20
106.2000000000
11
20.0000000000
21
106.2000000000
0
LINE
5
30D
100
AcDbEntity
8
0
100
AcDbLine
62
7
6
BYLAYER
10
10.0000000000
20
116.2000000000
11
20.0000000000
21
116.2000000000
0
TEXT
5
30E
100
AcDbEntity
8
0
100
AcDbText
62
7
6
BYLAYER
10
17.5000000000
20
12.5000000000
7
STANDARD
40
5.0000000000
1
A3
50
90.0000000000
41
1.0000000000
72
1
11
17.5000000000
21
17.5000000000
100
AcDbText
0
TEXT
5
30F
100
AcDbEntity
8
0
100
AcDbText
62
7
6
BYLAYER
10
17.5000000000
20
26.4000000000
7
TEXTSTYLE_1
40
5.0000000000
1
 
50
90.0000000000
41
1.0000000000
72
0
100
AcDbText
0
TEXT
5
310
100
AcDbEntity
8
0
100
AcDbText
62
7
6
BYLAYER
10
17.5000000000
20
31.4000000000
7
TEXTSTYLE_1
40
5.0000000000
1
TD-1002-947
50
90.0000000000
41
0.8068181818
72
0
100
AcDbText
0
TEXT
5
311
100
AcDbEntity
8
0
100
AcDbText
62
7
6
BYLAYER
10
16.5000000000
20
79.6000000000
7
TEXTSTYLE_1
40
3.0000000000
1
Sheet 
50
90.0000000000
41
0.6666666667
72
0
100
AcDbText
0
TEXT
5
312
100
AcDbEntity
8
0
100
AcDbText
62
7
6
BYLAYER
10
16.5000000000
20
91.6000000000
7
TEXTSTYLE_1
40
3.0000000000
1
1
50
90.0000000000
41
0.3333333333
72
0
100
AcDbText
0
TEXT
5
313
100
AcDbEntity
8
0
100
AcDbText
62
7
6
BYLAYER
10
16.5000000000
20
92.6000000000
7
TEXTSTYLE_1
40
3.0000000000
1
 OF 
50
90.0000000000
41
0.7833333333
72
0
100
AcDbText
0
TEXT
5
314
100
AcDbEntity
8
0
100
AcDbText
62
7
6
BYLAYER
10
16.5000000000
20
102.0000000000
7
TEXTSTYLE_1
40
3.0000000000
1
1
50
90.0000000000
41
0.3333333333
72
0
100
AcDbText
0
TEXT
5
315
100
AcDbEntity
8
0
100
AcDbText
62
7
6
BYLAYER
10
17.5000000000
20
109.2000000000
7
TEXTSTYLE_1
40
5.0000000000
1
D
50
90.0000000000
41
0.8000000000
72
1
11
17.5000000000
21
111.2000000000
100
AcDbText
0
LINE
5
316
100
AcDbEntity
8
0
100
AcDbLine
62
7
6
BYLAYER
10
10.0000000000
20
287.0000000000
11
116.2000000000
21
287.0000000000
0
LINE
5
317
100
AcDbEntity
8
0
100
AcDbLine
62
7
6
BYLAYER
10
10.0000000000
20
287.0000000000
11
10.0000000000
21
277.0000000000
0
LINE
5
318
100
AcDbEntity
8
0
100
AcDbLine
62
7
6
BYLAYER
10
10.0000000000
20
277.0000000000
11
116.2000000000
21
277.0000000000
0
LINE
5
319
100
AcDbEntity
8
0
100
AcDbLine
62
7
6
BYLAYER
10
25.0000000000
20
287.0000000000
11
25.0000000000
21
277.0000000000
0
LINE
5
31A
100
AcDbEntity
8
0
100
AcDbLine
62
7
6
BYLAYER
10
78.2000000000
20
287.0000000000
11
78.2000000000
21
277.0000000000
0
LINE
5
31B
100
AcDbEntity
8
0
100
AcDbLine
62
7
6
BYLAYER
10
106.2000000000
20
287.0000000000
11
106.2000000000
21
277.0000000000
0
LINE
5
31C
100
AcDbEntity
8
0
100
AcDbLine
62
7
6
BYLAYER
10
116.2000000000
20
287.0000000000
11
116.2000000000
21
277.0000000000
0
TEXT
5
31D
100
AcDbEntity
8
0
100
AcDbText
62
7
6
BYLAYER
10
12.5000000000
20
279.5000000000
7
STANDARD
40
5.0000000000
1
A3
41
1.0000000000
72
1
11
17.5000000000
21
279.5000000000
100
AcDbText
0
TEXT
5
31E
100
AcDbEntity
8
0
100
AcDbText
62
7
6
BYLAYER
10
26.4000000000
20
279.5000000000
7
TEXTSTYLE_1
40
5.0000000000
1
 
41
1.0000000000
72
0
100
AcDbText
0
TEXT
5
31F
100
AcDbEntity
8
0
100
AcDbText
62
7
6
BYLAYER
10
31.4000000000
20
279.5000000000
7
TEXTSTYLE_1
40
5.0000000000
1
TD-1002-947
41
0.8068181818
72
0
100
AcDbText
0
TEXT
5
320
100
AcDbEntity
8
0
100
AcDbText
62
7
6
BYLAYER
10
79.6000000000
20
280.5000000000
7
TEXTSTYLE_1
40
3.0000000000
1
Sheet 
41
0.6666666667
72
0
100
AcDbText
0
TEXT
5
321
100
AcDbEntity
8
0
100
AcDbText
62
7
6
BYLAYER
10
91.6000000000
20
280.5000000000
7
TEXTSTYLE_1
40
3.0000000000
1
1
41
0.3333333333
72
0
100
AcDbText
0
TEXT
5
322
100
AcDbEntity
8
0
100
AcDbText
62
7
6
BYLAYER
10
92.6000000000
20
280.5000000000
7
TEXTSTYLE_1
40
3.0000000000
1
 OF 
41
0.7833333333
72
0
100
AcDbText
0
TEXT
5
323
100
AcDbEntity
8
0
100
AcDbText
62
7
6
BYLAYER
10
102.0000000000
20
280.5000000000
7
TEXTSTYLE_1
40
3.0000000000
1
1
41
0.3333333333
72
0
100
AcDbText
0
TEXT
5
324
100
AcDbEntity
8
0
100
AcDbText
62
7
6
BYLAYER
10
109.2000000000
20
279.5000000000
7
TEXTSTYLE_1
40
5.0000000000
1
D
41
0.8000000000
72
1
11
111.2000000000
21
279.5000000000
100
AcDbText
0
LINE
5
325
100
AcDbEntity
8
0
100
AcDbLine
62
7
6
BYLAYER
10
331.0000000000
20
287.0000000000
11
410.0000000000
21
287.0000000000
0
LINE
5
326
100
AcDbEntity
8
0
100
AcDbLine
62
7
6
BYLAYER
10
331.0000000000
20
287.0000000000
11
331.0000000000
21
277.0000000000
0
LINE
5
327
100
AcDbEntity
8
0
100
AcDbLine
62
7
6
BYLAYER
10
331.0000000000
20
277.0000000000
11
410.0000000000
21
277.0000000000
0
LINE
5
328
100
AcDbEntity
8
0
100
AcDbLine
62
7
6
BYLAYER
10
410.0000000000
20
287.0000000000
11
410.0000000000
21
277.0000000000
0
TEXT
5
329
100
AcDbEntity
8
0
100
AcDbText
62
7
6
BYLAYER
10
336.5000000000
20
280.7500000000
7
STANDARD
40
2.5000000000
1
THIS DRAWING CONFORMS TO B.S. 8888
41
0.8000000000
72
1
11
370.5000000000
21
280.7500000000
100
AcDbText
0
LINE
5
32A
100
AcDbEntity
8
0
100
AcDbLine
62
7
6
BYLAYER
10
236.4999835399
20
286.9999994947
11
330.9999835399
21
286.9999994947
0
LINE
5
32B
100
AcDbEntity
8
0
100
AcDbLine
62
7
6
BYLAYER
10
236.4999835399
20
286.9999994947
11
236.4999835399
21
273.4999994947
0
LINE
5
32C
100
AcDbEntity
8
0
100
AcDbLine
62
7
6
BYLAYER
10
236.4999835399
20
273.4999994947
11
330.9999835399
21
273.4999994947
0
LINE
5
32D
100
AcDbEntity
8
0
100
AcDbLine
62
7
6
BYLAYER
10
330.9999835399
20
286.9999994947
11
330.9999835399
21
273.4999994947
0
INSERT
5
32E
100
AcDbEntity
8
0
100
AcDbBlockReference
62
7
6
BYLAYER
2
PROJECTION_BL7
10
0.0000000000
20
0.0000000000
0
TEXT
5
32F
100
AcDbEntity
8
0
100
AcDbText
62
7
6
BYLAYER
10
254.3534835399
20
278.9781218886
7
STANDARD
40
3.5000000000
1
PROJECTION 
41
0.8000000000
72
1
11
269.7534835399
21
278.9781218886
100
AcDbText
0
TEXT
5
330
100
AcDbEntity
8
0
100
AcDbText
62
7
6
BYLAYER
10
290.7970347322
20
278.8891837883
7
STANDARD
40
3.5000000000
1
l
41
0.8000000000
72
0
100
AcDbText
0
LINE
5
331
100
AcDbEntity
8
0
100
AcDbLine
62
7
6
BYLAYER
10
159.0509538372
20
70.9185125895
11
209.0509538372
21
70.9185125895
0
LINE
5
332
100
AcDbEntity
8
0
100
AcDbLine
62
7
6
BYLAYER
10
159.0509538372
20
70.9185125895
11
159.0509538372
21
45.9185125895
0
LINE
5
333
100
AcDbEntity
8
0
100
AcDbLine
62
7
6
BYLAYER
10
159.0509538372
20
45.9185125895
11
209.0509538372
21
45.9185125895
0
LINE
5
334
100
AcDbEntity
8
0
100
AcDbLine
62
7
6
BYLAYER
10
209.0509538372
20
70.9185125895
11
209.0509538372
21
45.9185125895
0
SOLID
5
335
100
AcDbEntity
8
0
100
AcDbTrace
62
7
6
BYLAYER
10
236.8197204824
20
158.3475264442
11
234.3260907320
21
162.7545447864
12
235.8256224332
22
163.3125812343
13
235.8256224332
23
163.3125812343
0
POLYLINE
5
336
100
AcDbEntity
8
0
100
AcDb2dPolyline
62
7
6
BYLAYER
66
1
70
0
0
VERTEX
5
337
100
AcDbEntity
8
0
100
AcDbVertex
62
7
6
BYLAYER
100
AcDb2dVertex
10
223.6263903809
20
169.4908740234
0
VERTEX
5
338
100
AcDbEntity
8
0
100
AcDbVertex
62
7
6
BYLAYER
100
AcDb2dVertex
10
222.6264038086
20
169.8242028809
0
VERTEX
5
339
100
AcDbEntity
8
0
100
AcDbVertex
62
7
6
BYLAYER
100
AcDb2dVertex
10
221.6263916016
20
169.4908740234
0
VERTEX
5
33A
100
AcDbEntity
8
0
100
AcDbVertex
62
7
6
BYLAYER
100
AcDb2dVertex
10
220.9597338867
20
168.8242034912
0
VERTEX
5
33B
100
AcDbEntity
8
0
100
AcDbVertex
62
7
6
BYLAYER
100
AcDb2dVertex
10
220.6264050293
20
167.8242041016
0
VERTEX
5
33C
100
AcDbEntity
8
0
100
AcDbVertex
62
7
6
BYLAYER
100
AcDb2dVertex
10
220.9597338867
20
166.8242047119
0
VERTEX
5
33D
100
AcDbEntity
8
0
100
AcDbVertex
62
7
6
BYLAYER
100
AcDb2dVertex
10
221.6263916016
20
166.1575341797
0
VERTEX
5
33E
100
AcDbEntity
8
0
100
AcDbVertex
62
7
6
BYLAYER
100
AcDb2dVertex
10
222.6264038086
20
165.8242053223
0
VERTEX
5
33F
100
AcDbEntity
8
0
100
AcDbVertex
62
7
6
BYLAYER
100
AcDb2dVertex
10
223.6263903809
20
166.1575341797
0
SEQEND
5
340
100
AcDbEntity
8
0
0
POLYLINE
5
341
100
AcDbEntity
8
0
100
AcDb2dPolyline
62
7
6
BYLAYER
66
1
70
0
0
VERTEX
5
342
100
AcDbEntity
8
0
100
AcDbVertex
62
7
6
BYLAYER
100
AcDb2dVertex
10
222.2930749512
20
170.9908666992
0
VERTEX
5
343
100
AcDbEntity
8
0
100
AcDbVertex
62
7
6
BYLAYER
100
AcDb2dVertex
10
222.2930749512
20
164.8242059326
0
VERTEX
5
344
100
AcDbEntity
8
0
100
AcDbVertex
62
7
6
BYLAYER
100
AcDb2dVertex
10
224.9597314453
20
164.8242059326
0
SEQEND
5
345
100
AcDbEntity
8
0
0
TEXT
5
346
100
AcDbEntity
8
0
100
AcDbText
62
7
6
BYLAYER
10
204.6263976483
20
165.8242062233
7
STANDARD
40
4.0000000000
1
PIPE 
41
0.8000000000
72
0
100
AcDbText
0
TEXT
5
347
100
AcDbEntity
8
0
100
AcDbText
62
7
6
BYLAYER
10
199.4252349922
20
263.0458677930
7
STANDARD
40
3.5000000000
1
NOTES -
41
0.8000000000
72
0
100
AcDbText
0
TEXT
5
348
100
AcDbEntity
8
0
100
AcDbText
62
7
6
BYLAYER
10
199.4252349922
20
257.7958677930
7
STANDARD
40
3.5000000000
1
 
41
0.8000000000
72
0
100
AcDbText
0
TEXT
5
349
100
AcDbEntity
8
0
100
AcDbText
62
7
6
BYLAYER
10
199.4252349922
20
252.5458677930
7
STANDARD
40
3.5000000000
1
1 - ALL OUTER MODULE TAPE ENDS SET FOR HIGH MODULES
41
0.8000000000
72
0
100
AcDbText
0
TEXT
5
34A
100
AcDbEntity
8
0
100
AcDbText
62
7
6
BYLAYER
10
199.4252349922
20
247.2958677930
7
STANDARD
40
3.5000000000
1
2 - TAPE DESIGN SET TO ZERO MODULE ROTATION
41
0.8000000000
72
0
100
AcDbText
0
TEXT
5
34B
100
AcDbEntity
8
0
100
AcDbText
62
7
6
BYLAYER
10
199.4252349922
20
242.0458677930
7
STANDARD
40
3.5000000000
1
3 - FOR TAPE SPECIFICATIONS REFER TO DOCUMENT ATL-IS-ER-0034
41
0.8000000000
72
0
100
AcDbText
0
TEXT
5
34C
100
AcDbEntity
8
0
100
AcDbText
62
7
6
BYLAYER
10
199.4252349922
20
236.7958677930
7
STANDARD
40
3.5000000000
1
4 - ALL TWISTED PAIR WIRES TO LIE ONE WIRE DEEP 4mm EITHER SIDE
41
0.8000000000
72
0
100
AcDbText
0
TEXT
5
34D
100
AcDbEntity
8
0
100
AcDbText
62
7
6
BYLAYER
10
199.4252349922
20
231.5458677930
7
STANDARD
40
3.5000000000
1
    OF PIPE CENTER LINES 
41
0.8000000000
72
0
100
AcDbText
0
TEXT
5
34E
100
AcDbEntity
8
0
100
AcDbText
62
7
6
BYLAYER
10
199.4252349922
20
226.2958677930
7
STANDARD
40
3.5000000000
1
5 - ANY CUTS  BETWEEN TAPE LEGS MUST NOT BE SHORTENED
41
0.8000000000
72
0
100
AcDbText
0
TEXT
5
34F
100
AcDbEntity
8
0
100
AcDbText
62
7
6
BYLAYER
10
199.4252349922
20
221.0458677930
7
STANDARD
40
3.5000000000
1
6 - TAPE ENDS TO INCLUDE TEXT AS SHOWN ON 3D-VIEW
41
0.8000000000
72
0
100
AcDbText
0
TEXT
5
350
100
AcDbEntity
8
0
100
AcDbText
62
7
6
BYLAYER
10
199.4252349922
20
215.7958677930
7
STANDARD
40
3.5000000000
1
7 - TEXT 'TD-1002-947 (W1)' TO BE LOCATED VISIBLY ON TAPE
41
0.8000000000
72
0
100
AcDbText
0
TEXT
5
351
100
AcDbEntity
8
0
100
AcDbText
62
7
6
BYLAYER
10
199.4252349922
20
210.5458677930
7
STANDARD
40
3.5000000000
1
8 - FOR CONNECTOR POSITIONS REFER TO DRAWING TD-1010-345
41
0.8000000000
72
0
100
AcDbText
0
CIRCLE
5
352
100
AcDbEntity
8
0
100
AcDbCircle
62
7
6
BYLAYER
10
90.8941786459
20
171.2303461171
40
0.8000000000
0
TEXT
5
353
100
AcDbEntity
8
0
100
AcDbText
62
7
6
BYLAYER
10
106.3538147259
20
172.2624987635
7
TEXTSTYLE_2
40
4.0000000000
1
M1
41
1.0233463035
72
0
100
AcDbText
0
CIRCLE
5
354
100
AcDbEntity
8
0
100
AcDbCircle
62
7
6
BYLAYER
10
164.4672129675
20
253.0671216445
40
0.8000000000
0
TEXT
5
355
100
AcDbEntity
8
0
100
AcDbText
62
7
6
BYLAYER
10
176.5161911776
20
259.4873426653
7
TEXTSTYLE_2
40
4.0000000000
1
I1
41
0.6070038911
72
0
100
AcDbText
0
CIRCLE
5
356
100
AcDbEntity
8
0
100
AcDbCircle
62
7
6
BYLAYER
10
148.0708836814
20
240.1487532941
40
0.8000000000
0
TEXT
5
357
100
AcDbEntity
8
0
100
AcDbText
62
7
6
BYLAYER
10
125.5100999568
20
244.2079964793
7
TEXTSTYLE_2
40
4.0000000000
1
O1
41
0.8891050584
72
0
100
AcDbText
0
TEXT
5
358
100
AcDbEntity
8
0
100
AcDbText
62
7
6
BYLAYER
10
107.5967002834
20
193.7793035906
7
STANDARD
40
4.0000000000
1
3D-VIEW
41
0.8000000000
72
0
100
AcDbText
0
SOLID
5
359
100
AcDbEntity
8
0
100
AcDbTrace
62
7
6
BYLAYER
10
330.9048639567
20
141.4866918153
11
330.9829455424
21
136.4236983069
12
329.3993303904
22
136.6520906238
13
329.3993303904
23
136.6520906238
0
POLYLINE
5
35A
100
AcDbEntity
8
0
100
AcDb2dPolyline
62
7
6
BYLAYER
66
1
70
0
0
VERTEX
5
35B
100
AcDbEntity
8
0
100
AcDbVertex
62
7
6
BYLAYER
100
AcDb2dVertex
10
318.6788708496
20
125.4075622559
0
VERTEX
5
35C
100
AcDbEntity
8
0
100
AcDbVertex
62
7
6
BYLAYER
100
AcDb2dVertex
10
317.6788586426
20
125.7408911133
0
VERTEX
5
35D
100
AcDbEntity
8
0
100
AcDbVertex
62
7
6
BYLAYER
100
AcDb2dVertex
10
316.6788720703
20
125.4075622559
0
VERTEX
5
35E
100
AcDbEntity
8
0
100
AcDbVertex
62
7
6
BYLAYER
100
AcDb2dVertex
10
316.0121887207
20
124.7408917236
0
VERTEX
5
35F
100
AcDbEntity
8
0
100
AcDbVertex
62
7
6
BYLAYER
100
AcDb2dVertex
10
315.6788598633
20
123.7408923340
0
VERTEX
5
360
100
AcDbEntity
8
0
100
AcDbVertex
62
7
6
BYLAYER
100
AcDb2dVertex
10
316.0121887207
20
122.7408929443
0
VERTEX
5
361
100
AcDbEntity
8
0
100
AcDbVertex
62
7
6
BYLAYER
100
AcDb2dVertex
10
316.6788720703
20
122.0742224121
0
VERTEX
5
362
100
AcDbEntity
8
0
100
AcDbVertex
62
7
6
BYLAYER
100
AcDb2dVertex
10
317.6788586426
20
121.7408935547
0
VERTEX
5
363
100
AcDbEntity
8
0
100
AcDbVertex
62
7
6
BYLAYER
100
AcDb2dVertex
10
318.6788708496
20
122.0742224121
0
SEQEND
5
364
100
AcDbEntity
8
0
0
POLYLINE
5
365
100
AcDbEntity
8
0
100
AcDb2dPolyline
62
7
6
BYLAYER
66
1
70
0
0
VERTEX
5
366
100
AcDbEntity
8
0
100
AcDbVertex
62
7
6
BYLAYER
100
AcDb2dVertex
10
317.3455297852
20
126.9075549316
0
VERTEX
5
367
100
AcDbEntity
8
0
100
AcDbVertex
62
7
6
BYLAYER
100
AcDb2dVertex
10
317.3455297852
20
120.7408941650
0
VERTEX
5
368
100
AcDbEntity
8
0
100
AcDbVertex
62
7
6
BYLAYER
100
AcDb2dVertex
10
320.0121862793
20
120.7408941650
0
SEQEND
5
369
100
AcDbEntity
8
0
0
TEXT
5
36A
100
AcDbEntity
8
0
100
AcDbText
62
7
6
BYLAYER
10
299.6788602851
20
121.7408897004
7
STANDARD
40
4.0000000000
1
PIPE 
41
0.8000000000
72
0
100
AcDbText
0
TEXT
5
36B
100
AcDbEntity
8
0
100
AcDbText
62
7
6
BYLAYER
10
234.2286420177
20
101.3588630496
7
STANDARD
40
4.0000000000
1
DEVELOPED VIEW
41
0.8000000000
72
0
100
AcDbText
0
LINE
5
36C
100
AcDbEntity
8
0
100
AcDbLine
62
7
6
BYLAYER
10
0.0000000000
20
297.0000000000
11
0.0000000000
21
0.0000000000
0
LINE
5
36D
100
AcDbEntity
8
0
100
AcDbLine
62
7
6
BYLAYER
10
10.0000000000
20
10.0000000000
11
10.0000000000
21
287.0000000000
0
LINE
5
36E
100
AcDbEntity
8
0
100
AcDbLine
62
7
6
BYLAYER
10
10.0010000000
20
106.2230000000
11
10.0010000000
21
276.9990000000
0
LINE
5
36F
100
AcDbEntity
8
0
100
AcDbLine
62
7
6
BYLAYER
10
0.0000000000
20
0.0000000000
11
420.0000000000
21
0.0000000000
0
LINE
5
370
100
AcDbEntity
8
0
100
AcDbLine
62
7
6
BYLAYER
10
160.0381492713
20
3.8460928114
11
260.0381492713
21
3.8460928114
0
LINE
5
371
100
AcDbEntity
8
0
100
AcDbLine
62
7
6
BYLAYER
10
160.0381492713
20
3.8460928114
11
160.0381492713
21
8.8460928114
0
LINE
5
372
100
AcDbEntity
8
DEFAULT_1
100
AcDbLine
62
7
6
BYLAYER
10
224.9437331495
20
131.6601168422
11
224.0615032896
21
141.6211243452
0
LINE
5
373
100
AcDbEntity
8
0
100
AcDbLine
62
7
6
BYLAYER
10
233.2930643149
20
167.8242062233
11
226.2930643149
21
167.8242062233
0
LINE
5
374
100
AcDbEntity
8
0
100
AcDbLine
62
7
6
BYLAYER
10
236.8197204824
20
158.3475264442
11
233.2930643149
21
167.8242062233
0
LINE
5
375
100
AcDbEntity
8
DEFAULT_1
100
AcDbLine
62
7
6
BYLAYER
10
253.1142376156
20
150.7912226114
11
257.2690675107
21
143.5872383983
0
LINE
5
376
100
AcDbEntity
8
0
100
AcDbLine
62
7
6
BYLAYER
10
260.0381492713
20
3.8460928114
11
260.0381492713
21
8.8460928114
0
LINE
5
377
100
AcDbEntity
8
0
100
AcDbLine
62
7
6
BYLAYER
10
106.2230000000
20
286.9990000000
11
237.9920000000
21
286.9990000000
0
LINE
5
378
100
AcDbEntity
8
0
100
AcDbLine
62
7
6
BYLAYER
10
10.0000000000
20
287.0000000000
11
410.0000000000
21
287.0000000000
0
LINE
5
379
100
AcDbEntity
8
0
100
AcDbLine
62
7
6
BYLAYER
10
0.0000000000
20
297.0000000000
11
420.0000000000
21
297.0000000000
0
LINE
5
37A
100
AcDbEntity
8
0
100
AcDbLine
62
7
6
BYLAYER
10
401.4430414976
20
21.0017763982
11
401.4430414976
21
10.0350776605
0
LINE
5
37B
100
AcDbEntity
8
0
100
AcDbLine
62
7
6
BYLAYER
10
410.0000000000
20
287.0000000000
11
410.0000000000
21
10.0000000000
0
LINE
5
37C
100
AcDbEntity
8
0
100
AcDbLine
62
7
6
BYLAYER
10
420.0000000000
20
297.0000000000
11
420.0000000000
21
0.0000000000
0
LINE
5
37D
100
AcDbEntity
8
0
100
AcDbLine
62
7
6
BYLAYER
10
39.7057049860
20
132.3717731510
11
57.4939483550
21
123.7085675364
0
LINE
5
37E
100
AcDbEntity
8
0
100
AcDbLine
62
7
6
BYLAYER
10
93.4234905322
20
166.3302329869
11
85.2357108554
21
165.8823761727
0
LINE
5
37F
100
AcDbEntity
8
0
100
AcDbLine
62
7
6
BYLAYER
10
93.4085685692
20
166.5530275900
11
85.2207888924
21
166.1051707758
0
LINE
5
380
100
AcDbEntity
8
0
100
AcDbLine
62
7
6
BYLAYER
10
37.3181909037
20
168.0189096526
11
42.1811639111
21
165.6505512831
0
LINE
5
381
100
AcDbEntity
8
0
100
AcDbLine
62
7
6
BYLAYER
10
42.1811639111
20
165.6505512831
11
50.2434612654
21
161.7240624075
0
LINE
5
382
100
AcDbEntity
8
0
100
AcDbLine
62
7
6
BYLAYER
10
50.2434612654
20
161.7240624075
11
55.1064342727
21
159.3557040380
0
LINE
5
383
100
AcDbEntity
8
0
100
AcDbLine
62
7
6
BYLAYER
10
37.5097323988
20
168.1013301484
11
42.2503300792
21
165.7925708410
0
LINE
5
384
100
AcDbEntity
8
0
100
AcDbLine
62
7
6
BYLAYER
10
50.4350027604
20
161.8064829033
11
55.2979757678
21
159.4381245338
0
LINE
5
385
100
AcDbEntity
8
0
100
AcDbLine
62
7
6
BYLAYER
10
45.8901740839
20
172.0600683608
11
53.9524714382
21
168.1335794851
0
LINE
5
386
100
AcDbEntity
8
0
100
AcDbLine
62
7
6
BYLAYER
10
99.3538147259
20
174.2624987635
11
106.3538147259
21
174.2624987635
0
LINE
5
387
100
AcDbEntity
8
0
100
AcDbLine
62
7
6
BYLAYER
10
83.3525926712
20
165.5499968697
11
80.9457311221
21
166.5014558860
0
LINE
5
388
100
AcDbEntity
8
0
100
AcDbLine
62
7
6
BYLAYER
10
82.5694497025
20
166.8034879628
11
84.8332779928
21
165.9085715772
0
LINE
5
389
100
AcDbEntity
8
0
100
AcDbLine
62
7
6
BYLAYER
10
80.1610137660
20
170.6877640261
11
82.5678753151
21
169.7363050098
0
LINE
5
38A
100
AcDbEntity
8
0
100
AcDbLine
62
7
6
BYLAYER
10
80.2819481331
20
170.9771367821
11
82.6888096822
21
170.0256777658
0
LINE
5
38B
100
AcDbEntity
8
0
100
AcDbLine
62
7
6
BYLAYER
10
77.9867015293
20
175.2504594210
11
80.3935630785
21
174.2990004047
0
LINE
5
38C
100
AcDbEntity
8
0
100
AcDbLine
62
7
6
BYLAYER
10
79.5891379057
20
175.3959381043
11
80.7489456912
21
174.9374532466
0
LINE
5
38D
100
AcDbEntity
8
0
100
AcDbLine
62
7
6
BYLAYER
10
82.5678753151
20
169.7363050098
11
82.7158336836
21
169.6697761818
0
LINE
5
38E
100
AcDbEntity
8
0
100
AcDbLine
62
7
6
BYLAYER
10
82.6888096822
20
170.0256777658
11
82.8367680507
21
169.9591489378
0
LINE
5
38F
100
AcDbEntity
8
0
100
AcDbLine
62
7
6
BYLAYER
10
70.2921491219
20
172.8723776838
11
69.4814458232
21
173.2551163942
0
LINE
5
390
100
AcDbEntity
8
0
100
AcDbLine
62
7
6
BYLAYER
10
70.2772271589
20
173.0951722869
11
69.4665238602
21
173.4779109973
0
LINE
5
391
100
AcDbEntity
8
0
100
AcDbLine
62
7
6
BYLAYER
10
72.8519233393
20
174.2306046715
11
72.0412200406
21
174.6133433819
0
LINE
5
392
100
AcDbEntity
8
0
100
AcDbLine
62
7
6
BYLAYER
10
56.6164978069
20
176.6756161255
11
61.7354167620
21
174.1826073156
0
LINE
5
393
100
AcDbEntity
8
0
100
AcDbLine
62
7
6
BYLAYER
10
61.7354167620
20
174.1826073156
11
62.5032546053
21
173.8086559941
0
LINE
5
394
100
AcDbEntity
8
0
100
AcDbLine
62
7
6
BYLAYER
10
59.6190298516
20
181.8642728074
11
64.7379488067
21
179.3712639975
0
LINE
5
395
100
AcDbEntity
8
0
100
AcDbLine
62
7
6
BYLAYER
10
59.5921703182
20
182.2653030930
11
64.7110892733
21
179.7722942831
0
LINE
5
396
100
AcDbEntity
8
0
100
AcDbLine
62
7
6
BYLAYER
10
102.9096754589
20
171.3733049099
11
92.2911686245
21
175.5709182171
0
LINE
5
397
100
AcDbEntity
8
0
100
AcDbLine
62
7
6
BYLAYER
10
62.9479414269
20
188.0643899728
11
68.0668603820
21
185.5713811629
0
LINE
5
398
100
AcDbEntity
8
0
100
AcDbLine
62
7
6
BYLAYER
10
148.8948759333
20
225.8490116660
11
132.6016222893
21
227.1101037549
0
LINE
5
399
100
AcDbEntity
8
0
100
AcDbLine
62
7
6
BYLAYER
10
148.8799539703
20
226.0718062692
11
132.5867003263
21
227.3328983580
0
LINE
5
39A
100
AcDbEntity
8
0
100
AcDbLine
62
7
6
BYLAYER
10
149.8245850501
20
227.5934500608
11
133.5313314062
21
228.8545421496
0
LINE
5
39B
100
AcDbEntity
8
0
100
AcDbLine
62
7
6
BYLAYER
10
141.9152378072
20
229.6448372556
11
133.3185246192
21
230.3233155171
0
LINE
5
39C
100
AcDbEntity
8
0
100
AcDbLine
62
7
6
BYLAYER
10
141.9003158442
20
229.8676318587
11
133.3036026561
21
230.5461101203
0
LINE
5
39D
100
AcDbEntity
8
0
100
AcDbLine
62
7
6
BYLAYER
10
142.8550837356
20
231.3884833473
11
134.2583705475
21
232.0669616088
0
LINE
5
39E
100
AcDbEntity
8
0
100
AcDbLine
62
7
6
BYLAYER
10
37.3181909037
20
168.0189096526
11
39.7057049860
21
132.3717731510
0
LINE
5
39F
100
AcDbEntity
8
0
100
AcDbLine
62
7
6
BYLAYER
10
155.9042153990
20
245.0800725544
11
147.7182497549
21
244.7216076265
0
LINE
5
3A0
100
AcDbEntity
8
0
100
AcDbLine
62
7
6
BYLAYER
10
157.7458448946
20
250.3307626538
11
165.9102568532
21
250.4874101039
0
LINE
5
3A1
100
AcDbEntity
8
0
100
AcDbLine
62
7
6
BYLAYER
10
157.7309229316
20
250.5535572569
11
165.8953348902
21
250.7102047071
0
LINE
5
3A2
100
AcDbEntity
8
0
100
AcDbLine
62
7
6
BYLAYER
10
139.6229404237
20
246.2079964793
11
132.6229404237
21
246.2079964793
0
LINE
5
3A3
100
AcDbEntity
8
0
100
AcDbLine
62
7
6
BYLAYER
10
126.2134199581
20
228.1342662819
11
127.0422451564
21
227.7882018536
0
LINE
5
3A4
100
AcDbEntity
8
0
100
AcDbLine
62
7
6
BYLAYER
10
53.9673934012
20
167.9107848820
11
53.9524714382
21
168.1335794851
0
LINE
5
3A5
100
AcDbEntity
8
0
100
AcDbLine
62
7
6
BYLAYER
10
55.1064342727
20
159.3557040380
11
57.4939483550
21
123.7085675364
0
LINE
5
3A6
100
AcDbEntity
8
0
100
AcDbLine
62
7
6
BYLAYER
10
55.2979757678
20
159.4381245338
11
57.6854898501
21
123.7909880322
0
LINE
5
3A7
100
AcDbEntity
8
0
100
AcDbLine
62
7
6
BYLAYER
10
169.5161911776
20
261.4873426653
11
176.5161911776
21
261.4873426653
0
LINE
5
3A8
100
AcDbEntity
8
0
100
AcDbLine
62
7
6
BYLAYER
10
157.0684844074
20
230.0855367325
11
159.4168224693
21
229.1050208523
0
LINE
5
3A9
100
AcDbEntity
8
0
100
AcDbLine
62
7
6
BYLAYER
10
138.0039144757
20
239.7712301831
11
148.3642294544
21
235.4454248295
0
LINE
5
3AA
100
AcDbEntity
8
0
100
AcDbLine
62
7
6
BYLAYER
10
137.9889925127
20
239.9940247863
11
148.3493074914
21
235.6682194326
0
LINE
5
3AB
100
AcDbEntity
8
0
100
AcDbLine
62
7
6
BYLAYER
10
159.8777253532
20
235.3613581021
11
162.2260634150
21
234.3808422220
0
LINE
5
3AC
100
AcDbEntity
8
0
100
AcDbLine
62
7
6
BYLAYER
10
148.6427508316
20
233.0488866842
11
150.8544503063
21
232.0051116882
0
LINE
5
3AD
100
AcDbEntity
8
0
100
AcDbLine
62
7
6
BYLAYER
10
152.8961030091
20
237.6475258859
11
153.8186958372
21
237.2121234560
0
LINE
5
3AE
100
AcDbEntity
8
0
100
AcDbLine
62
7
6
BYLAYER
10
59.5921703182
20
182.2653030930
11
59.6190298516
21
181.8642728074
0
LINE
5
3AF
100
AcDbEntity
8
0
100
AcDbLine
62
7
6
BYLAYER
10
64.6937171242
20
172.5263326467
11
64.6787951612
21
172.7491272498
0
LINE
5
3B0
100
AcDbEntity
8
0
100
AcDbLine
62
7
6
BYLAYER
10
64.7110892733
20
179.7722942831
11
64.7379488067
21
179.3712639975
0
LINE
5
3B1
100
AcDbEntity
8
0
100
AcDbLine
62
7
6
BYLAYER
10
64.9026307683
20
179.8547147789
11
64.9294903017
21
179.4536844933
0
LINE
5
3B2
100
AcDbEntity
8
0
100
AcDbLine
62
7
6
BYLAYER
10
66.2680503839
20
173.2037698139
11
66.2531284209
21
173.4265644171
0
LINE
5
3B3
100
AcDbEntity
8
0
100
AcDbLine
62
7
6
BYLAYER
10
68.0817823450
20
185.3485865597
11
68.0668603820
21
185.5713811629
0
LINE
5
3B4
100
AcDbEntity
8
0
100
AcDbLine
62
7
6
BYLAYER
10
69.4814458232
20
173.2551163942
11
69.4665238602
21
173.4779109973
0
LINE
5
3B5
100
AcDbEntity
8
0
100
AcDbLine
62
7
6
BYLAYER
10
70.2921491219
20
172.8723776838
11
70.2772271589
21
173.0951722869
0
LINE
5
3B6
100
AcDbEntity
8
0
100
AcDbLine
62
7
6
BYLAYER
10
71.6951858967
20
186.9034377013
11
71.6802639337
21
187.1262323045
0
LINE
5
3B7
100
AcDbEntity
8
0
100
AcDbLine
62
7
6
BYLAYER
10
73.7088768782
20
188.0558038583
11
73.6939549152
21
188.2785984615
0
LINE
5
3B8
100
AcDbEntity
8
0
100
AcDbLine
62
7
6
BYLAYER
10
159.3906724804
20
242.6333739485
11
161.7390105422
21
241.6528580683
0
LINE
5
3B9
100
AcDbEntity
8
0
100
AcDbLine
62
7
6
BYLAYER
10
156.0591628291
20
245.1553636885
11
158.4075008910
21
244.1748478084
0
LINE
5
3BA
100
AcDbEntity
8
0
100
AcDbLine
62
7
6
BYLAYER
10
160.4099412251
20
244.3171081985
11
158.0616031633
21
245.2976240786
0
LINE
5
3BB
100
AcDbEntity
8
0
100
AcDbLine
62
7
6
BYLAYER
10
151.1348654527
20
245.3051196952
11
151.9762033416
21
244.9080641903
0
LINE
5
3BC
100
AcDbEntity
8
0
100
AcDbLine
62
7
6
BYLAYER
10
154.4478457518
20
251.1247210828
11
156.6595452266
21
250.0809460868
0
LINE
5
3BD
100
AcDbEntity
8
0
100
AcDbLine
62
7
6
BYLAYER
10
147.4208079686
20
240.6150167043
11
139.6229404237
21
246.2079964793
0
LINE
5
3BE
100
AcDbEntity
8
0
100
AcDbLine
62
7
6
BYLAYER
10
78.6435841391
20
173.1808036247
11
78.6286621761
21
173.4035982278
0
LINE
5
3BF
100
AcDbEntity
8
0
100
AcDbLine
62
7
6
BYLAYER
10
80.4084850415
20
174.0762058016
11
80.3935630785
21
174.2990004047
0
LINE
5
3C0
100
AcDbEntity
8
0
100
AcDbLine
62
7
6
BYLAYER
10
84.8481999558
20
165.6857769741
11
84.8332779928
21
165.9085715772
0
LINE
5
3C1
100
AcDbEntity
8
0
100
AcDbLine
62
7
6
BYLAYER
10
85.2357108554
20
165.8823761727
11
85.2207888924
21
166.1051707758
0
LINE
5
3C2
100
AcDbEntity
8
0
100
AcDbLine
62
7
6
BYLAYER
10
82.8139273433
20
167.0566297921
11
82.7970414033
21
169.6703008342
0
LINE
5
3C3
100
AcDbEntity
8
0
100
AcDbLine
62
7
6
BYLAYER
10
172.7097513888
20
253.7162121496
11
162.9522537061
21
258.3211018377
0
LINE
5
3C4
100
AcDbEntity
8
0
100
AcDbLine
62
7
6
BYLAYER
10
93.4234905322
20
166.3302329869
11
93.4085685692
21
166.5530275900
0
LINE
5
3C5
100
AcDbEntity
8
0
100
AcDbLine
62
7
6
BYLAYER
10
102.9245974219
20
171.1505103068
11
102.9096754589
21
171.3733049099
0
LINE
5
3C6
100
AcDbEntity
8
0
100
AcDbLine
62
7
6
BYLAYER
10
112.4822056997
20
218.2395108812
11
112.4672837367
21
218.4623054843
0
LINE
5
3C7
100
AcDbEntity
8
0
100
AcDbLine
62
7
6
BYLAYER
10
113.4698832387
20
218.8415486908
11
113.4549612757
21
219.0643432939
0
LINE
5
3C8
100
AcDbEntity
8
0
100
AcDbLine
62
7
6
BYLAYER
10
129.4055051813
20
226.5848913703
11
129.3905832182
21
226.8076859734
0
LINE
5
3C9
100
AcDbEntity
8
0
100
AcDbLine
62
7
6
BYLAYER
10
130.1125688410
20
229.7988721325
11
130.0976468780
21
230.0216667357
0
LINE
5
3CA
100
AcDbEntity
8
0
100
AcDbLine
62
7
6
BYLAYER
10
132.6016222893
20
227.1101037549
11
132.5867003263
21
227.3328983580
0
LINE
5
3CB
100
AcDbEntity
8
0
100
AcDbLine
62
7
6
BYLAYER
10
133.3185246192
20
230.3233155171
11
133.3036026561
21
230.5461101203
0
LINE
5
3CC
100
AcDbEntity
8
0
100
AcDbLine
62
7
6
BYLAYER
10
137.9889925127
20
239.9940247863
11
138.0039144757
21
239.7712301831
0
LINE
5
3CD
100
AcDbEntity
8
0
100
AcDbLine
62
7
6
BYLAYER
10
80.1610137660
20
170.6877640261
11
80.2819481331
21
170.9771367821
0
LINE
5
3CE
100
AcDbEntity
8
0
100
AcDbLine
62
7
6
BYLAYER
10
82.5678753151
20
169.7363050098
11
82.6888096822
21
170.0256777658
0
LINE
5
3CF
100
AcDbEntity
8
0
100
AcDbLine
62
7
6
BYLAYER
10
141.9152378072
20
229.6448372556
11
141.9003158442
21
229.8676318587
0
LINE
5
3D0
100
AcDbEntity
8
0
100
AcDbLine
62
7
6
BYLAYER
10
148.1550411463
20
230.5849585792
11
148.1401191833
21
230.8077531823
0
LINE
5
3D1
100
AcDbEntity
8
0
100
AcDbLine
62
7
6
BYLAYER
10
148.8948759333
20
225.8490116660
11
148.8799539703
21
226.0718062692
0
LINE
5
3D2
100
AcDbEntity
8
0
100
AcDbLine
62
7
6
BYLAYER
10
148.3493074914
20
235.6682194326
11
148.3642294544
21
235.4454248295
0
LINE
5
3D3
100
AcDbEntity
8
0
100
AcDbLine
62
7
6
BYLAYER
10
150.8693722693
20
231.7823170851
11
150.8544503063
21
232.0051116882
0
LINE
5
3D4
100
AcDbEntity
8
0
100
AcDbLine
62
7
6
BYLAYER
10
151.1348654527
20
245.3051196952
11
151.1638413507
21
244.8724907106
0
LINE
5
3D5
100
AcDbEntity
8
0
100
AcDbLine
62
7
6
BYLAYER
10
153.7613741626
20
238.0679733009
11
153.8186958372
21
237.2121234560
0
LINE
5
3D6
100
AcDbEntity
8
0
100
AcDbLine
62
7
6
BYLAYER
10
153.9501135722
20
238.1596844327
11
154.0079851844
21
237.2956236628
0
LINE
5
3D7
100
AcDbEntity
8
0
100
AcDbLine
62
7
6
BYLAYER
10
155.3839621830
20
226.9153519621
11
155.3690402200
21
227.1381465652
0
LINE
5
3D8
100
AcDbEntity
8
0
100
AcDbLine
62
7
6
BYLAYER
10
156.6744671896
20
249.8581514836
11
156.6595452266
21
250.0809460868
0
LINE
5
3D9
100
AcDbEntity
8
0
100
AcDbLine
62
7
6
BYLAYER
10
82.7158336836
20
169.6697761818
11
82.8367680507
21
169.9591489378
0
LINE
5
3DA
100
AcDbEntity
8
0
100
AcDbLine
62
7
6
BYLAYER
10
158.0785647337
20
240.3958022728
11
158.0934866967
21
240.1730076697
0
LINE
5
3DB
100
AcDbEntity
8
0
100
AcDbLine
62
7
6
BYLAYER
10
157.7309229316
20
250.5535572569
11
157.7458448946
21
250.3307626538
0
LINE
5
3DC
100
AcDbEntity
8
0
100
AcDbLine
62
7
6
BYLAYER
10
158.4075008910
20
244.1748478084
11
158.4224228540
21
243.9520532052
0
LINE
5
3DD
100
AcDbEntity
8
0
100
AcDbLine
62
7
6
BYLAYER
10
159.4317444323
20
228.8822262492
11
159.4168224693
21
229.1050208523
0
LINE
5
3DE
100
AcDbEntity
8
0
100
AcDbLine
62
7
6
BYLAYER
10
159.3906724804
20
242.6333739485
11
159.8777253532
21
235.3613581021
0
LINE
5
3DF
100
AcDbEntity
8
0
100
AcDbLine
62
7
6
BYLAYER
10
161.7390105422
20
241.6528580683
11
162.2260634150
21
234.3808422220
0
LINE
5
3E0
100
AcDbEntity
8
0
100
AcDbLine
62
7
6
BYLAYER
10
161.9191819726
20
241.7404058987
11
162.4062348454
21
234.4683900524
0
LINE
5
3E1
100
AcDbEntity
8
0
100
AcDbLine
62
7
6
BYLAYER
10
165.8953348902
20
250.7102047071
11
165.9102568532
21
250.4874101039
0
LINE
5
3E2
100
AcDbEntity
8
0
100
AcDbLine
62
7
6
BYLAYER
10
172.7097513888
20
253.7162121496
11
172.7246733518
21
253.4934175464
0
LINE
5
3E3
100
AcDbEntity
8
0
100
AcDbLine
62
7
6
BYLAYER
10
158.0785647337
20
240.3958022728
11
158.2525534608
21
244.0995566743
0
LINE
5
3E4
100
AcDbEntity
8
0
100
AcDbLine
62
7
6
BYLAYER
10
158.0934866967
20
240.1730076697
11
158.1038968635
21
240.3946122627
0
LINE
5
3E5
100
AcDbEntity
8
0
100
AcDbLine
62
7
6
BYLAYER
10
156.1378372075
20
255.3150943952
11
155.5192234569
21
251.5973322529
0
LINE
5
3E6
100
AcDbEntity
8
0
100
AcDbLine
62
7
6
BYLAYER
10
105.6875887144
20
220.0049092163
11
66.9142598929
21
189.8212021935
0
LINE
5
3E7
100
AcDbEntity
8
0
100
AcDbLine
62
7
6
BYLAYER
10
147.7182497549
20
244.7216076265
11
137.9889925127
21
239.9940247863
0
LINE
5
3E8
100
AcDbEntity
8
0
100
AcDbLine
62
7
6
BYLAYER
10
155.9042153990
20
245.0800725544
11
156.0591628291
21
245.1553636885
0
LINE
5
3E9
100
AcDbEntity
8
0
100
AcDbLine
62
7
6
BYLAYER
10
162.9522537061
20
258.3211018377
11
156.1378372075
21
255.3150943952
0
LINE
5
3EA
100
AcDbEntity
8
0
100
AcDbLine
62
7
6
BYLAYER
10
155.5192234569
20
251.5973322529
11
154.4478457518
21
251.1247210828
0
LINE
5
3EB
100
AcDbEntity
8
0
100
AcDbLine
62
7
6
BYLAYER
10
157.7309229316
20
250.5535572569
11
156.6595452266
21
250.0809460868
0
LINE
5
3EC
100
AcDbEntity
8
0
100
AcDbLine
62
7
6
BYLAYER
10
157.7458448946
20
250.3307626538
11
156.6744671896
21
249.8581514836
0
LINE
5
3ED
100
AcDbEntity
8
0
100
AcDbLine
62
7
6
BYLAYER
10
165.8953348902
20
250.7102047071
11
172.7097513888
21
253.7162121496
0
LINE
5
3EE
100
AcDbEntity
8
0
100
AcDbLine
62
7
6
BYLAYER
10
165.9102568532
20
250.4874101039
11
172.7246733518
21
253.4934175464
0
LINE
5
3EF
100
AcDbEntity
8
0
100
AcDbLine
62
7
6
BYLAYER
10
164.8786205627
20
253.7532293552
11
169.5161911776
21
261.4873426653
0
LINE
5
3F0
100
AcDbEntity
8
0
100
AcDbLine
62
7
6
BYLAYER
10
112.4672837367
20
218.4623054843
11
73.6939549152
21
188.2785984615
0
LINE
5
3F1
100
AcDbEntity
8
0
100
AcDbLine
62
7
6
BYLAYER
10
112.4822056997
20
218.2395108812
11
73.7088768782
21
188.0558038583
0
LINE
5
3F2
100
AcDbEntity
8
0
100
AcDbLine
62
7
6
BYLAYER
10
127.7493088162
20
231.0021826158
11
107.9294599537
21
221.3714394825
0
LINE
5
3F3
100
AcDbEntity
8
0
100
AcDbLine
62
7
6
BYLAYER
10
158.2525534608
20
244.0995566743
11
158.4075008910
21
244.1748478084
0
LINE
5
3F4
100
AcDbEntity
8
0
100
AcDbLine
62
7
6
BYLAYER
10
158.3429839786
20
243.9134527392
11
158.4224228540
21
243.9520532052
0
LINE
5
3F5
100
AcDbEntity
8
0
100
AcDbLine
62
7
6
BYLAYER
10
130.0976468780
20
230.0216667357
11
126.2134199581
21
228.1342662819
0
LINE
5
3F6
100
AcDbEntity
8
0
100
AcDbLine
62
7
6
BYLAYER
10
130.1125688410
20
229.7988721325
11
126.4680498314
21
228.0279491215
0
LINE
5
3F7
100
AcDbEntity
8
0
100
AcDbLine
62
7
6
BYLAYER
10
129.3905832182
20
226.8076859734
11
113.4549612757
21
219.0643432939
0
LINE
5
3F8
100
AcDbEntity
8
0
100
AcDbLine
62
7
6
BYLAYER
10
129.4055051813
20
226.5848913703
11
113.4698832387
21
218.8415486908
0
LINE
5
3F9
100
AcDbEntity
8
0
100
AcDbLine
62
7
6
BYLAYER
10
148.3493074914
20
235.6682194326
11
158.0785647337
21
240.3958022728
0
LINE
5
3FA
100
AcDbEntity
8
0
100
AcDbLine
62
7
6
BYLAYER
10
148.3642294544
20
235.4454248295
11
158.0934866967
21
240.1730076697
0
LINE
5
3FB
100
AcDbEntity
8
0
100
AcDbLine
62
7
6
BYLAYER
10
161.9191819726
20
241.7404058987
11
161.7390105422
21
241.6528580683
0
LINE
5
3FC
100
AcDbEntity
8
0
100
AcDbLine
62
7
6
BYLAYER
10
162.4062348454
20
234.4683900524
11
162.2260634150
21
234.3808422220
0
LINE
5
3FD
100
AcDbEntity
8
0
100
AcDbLine
62
7
6
BYLAYER
10
157.0684844074
20
230.0855367325
11
153.0207021582
21
228.1186624454
0
LINE
5
3FE
100
AcDbEntity
8
0
100
AcDbLine
62
7
6
BYLAYER
10
159.4168224693
20
229.1050208523
11
155.3690402200
21
227.1381465652
0
LINE
5
3FF
100
AcDbEntity
8
0
100
AcDbLine
62
7
6
BYLAYER
10
159.4317444323
20
228.8822262492
11
155.3839621830
21
226.9153519621
0
LINE
5
400
100
AcDbEntity
8
0
100
AcDbLine
62
7
6
BYLAYER
10
154.0079851844
20
237.2956236628
11
153.8186958372
21
237.2121234560
0
LINE
5
401
100
AcDbEntity
8
0
100
AcDbLine
62
7
6
BYLAYER
10
148.6427508316
20
233.0488866842
11
145.9284197085
21
231.8515281783
0
LINE
5
402
100
AcDbEntity
8
0
100
AcDbLine
62
7
6
BYLAYER
10
150.8544503063
20
232.0051116882
11
148.1401191833
21
230.8077531823
0
LINE
5
403
100
AcDbEntity
8
0
100
AcDbLine
62
7
6
BYLAYER
10
150.8693722693
20
231.7823170851
11
148.1550411463
21
230.5849585792
0
LINE
5
404
100
AcDbEntity
8
0
100
AcDbLine
62
7
6
BYLAYER
10
66.5613449786
20
189.6192411144
11
62.9479414269
21
188.0643899728
0
LINE
5
405
100
AcDbEntity
8
0
100
AcDbLine
62
7
6
BYLAYER
10
77.9867015293
20
175.2504594210
11
76.2218006269
21
174.3550572441
0
LINE
5
406
100
AcDbEntity
8
0
100
AcDbLine
62
7
6
BYLAYER
10
80.3935630785
20
174.2990004047
11
78.6286621761
21
173.4035982278
0
LINE
5
407
100
AcDbEntity
8
0
100
AcDbLine
62
7
6
BYLAYER
10
80.4084850415
20
174.0762058016
11
78.6435841391
21
173.1808036247
0
LINE
5
408
100
AcDbEntity
8
0
100
AcDbLine
62
7
6
BYLAYER
10
83.1048522063
20
170.9103462229
11
92.2911686245
21
175.5709182171
0
LINE
5
409
100
AcDbEntity
8
0
100
AcDbLine
62
7
6
BYLAYER
10
71.6802639337
20
187.1262323045
11
68.0668603820
21
185.5713811629
0
LINE
5
40A
100
AcDbEntity
8
0
100
AcDbLine
62
7
6
BYLAYER
10
71.6951858967
20
186.9034377013
11
68.0817823450
21
185.3485865597
0
LINE
5
40B
100
AcDbEntity
8
0
100
AcDbLine
62
7
6
BYLAYER
10
56.6164978069
20
176.6756161255
11
45.8901740839
21
172.0600683608
0
LINE
5
40C
100
AcDbEntity
8
0
100
AcDbLine
62
7
6
BYLAYER
10
37.5097323988
20
168.1013301484
11
37.3181909037
21
168.0189096526
0
LINE
5
40D
100
AcDbEntity
8
0
100
AcDbLine
62
7
6
BYLAYER
10
64.9026307683
20
179.8547147789
11
64.7110892733
21
179.7722942831
0
LINE
5
40E
100
AcDbEntity
8
0
100
AcDbLine
62
7
6
BYLAYER
10
64.9294903017
20
179.4536844933
11
64.7379488067
21
179.3712639975
0
LINE
5
40F
100
AcDbEntity
8
0
100
AcDbLine
62
7
6
BYLAYER
10
64.0775878650
20
174.4860931613
11
62.5032546053
21
173.8086559941
0
LINE
5
410
100
AcDbEntity
8
0
100
AcDbLine
62
7
6
BYLAYER
10
66.2531284209
20
173.4265644171
11
53.9524714382
21
168.1335794851
0
LINE
5
411
100
AcDbEntity
8
0
100
AcDbLine
62
7
6
BYLAYER
10
66.2680503839
20
173.2037698139
11
53.9673934012
21
167.9107848820
0
LINE
5
412
100
AcDbEntity
8
0
100
AcDbLine
62
7
6
BYLAYER
10
50.4350027604
20
161.8064829033
11
50.2434612654
21
161.7240624075
0
LINE
5
413
100
AcDbEntity
8
0
100
AcDbLine
62
7
6
BYLAYER
10
82.8139273433
20
167.0566297921
11
82.5339689859
21
166.9145961389
0
LINE
5
414
100
AcDbEntity
8
0
100
AcDbLine
62
7
6
BYLAYER
10
85.2207888924
20
166.1051707758
11
84.8332779928
21
165.9085715772
0
LINE
5
415
100
AcDbEntity
8
0
100
AcDbLine
62
7
6
BYLAYER
10
85.2357108554
20
165.8823761727
11
84.8481999558
21
165.6857769741
0
LINE
5
416
100
AcDbEntity
8
0
100
AcDbLine
62
7
6
BYLAYER
10
102.9096754589
20
171.3733049099
11
93.4085685692
21
166.5530275900
0
LINE
5
417
100
AcDbEntity
8
0
100
AcDbLine
62
7
6
BYLAYER
10
102.9245974219
20
171.1505103068
11
93.4234905322
21
166.3302329869
0
LINE
5
418
100
AcDbEntity
8
0
100
AcDbLine
62
7
6
BYLAYER
10
55.2979757678
20
159.4381245338
11
55.1064342727
21
159.3557040380
0
LINE
5
419
100
AcDbEntity
8
0
100
AcDbLine
62
7
6
BYLAYER
10
91.6472656389
20
171.5002719977
11
99.3538147259
21
174.2624987635
0
LINE
5
41A
100
AcDbEntity
8
0
100
AcDbLine
62
7
6
BYLAYER
10
57.6854898501
20
123.7909880322
11
57.4939483550
21
123.7085675364
0
LINE
5
41B
100
AcDbEntity
8
0
100
AcDbLine
62
7
6
BYLAYER
10
145.5121322655
20
151.7957433461
11
145.5121322655
21
123.9957433461
0
LINE
5
41C
100
AcDbEntity
8
0
100
AcDbLine
62
7
6
BYLAYER
10
243.1178438558
20
118.9810714034
11
236.8068911991
21
124.2205252457
0
LINE
5
41D
100
AcDbEntity
8
0
100
AcDbLine
62
7
6
BYLAYER
10
220.2718288471
20
126.1012123277
11
220.5858888444
21
122.7157483539
0
LINE
5
41E
100
AcDbEntity
8
0
100
AcDbLine
62
7
6
BYLAYER
10
228.2299180598
20
126.8394619432
11
228.5439780571
21
123.4539979693
0
LINE
5
41F
100
AcDbEntity
8
0
100
AcDbLine
62
7
6
BYLAYER
10
228.5422848650
20
126.8684393355
11
228.8563448623
21
123.4829753617
0
LINE
5
420
100
AcDbEntity
8
0
100
AcDbLine
62
7
6
BYLAYER
10
185.5121322655
20
151.7957433461
11
185.5121322655
21
144.1957433461
0
LINE
5
421
100
AcDbEntity
8
0
100
AcDbLine
62
7
6
BYLAYER
10
185.5121322655
20
144.1957433461
11
185.5121322655
21
131.5957433461
0
LINE
5
422
100
AcDbEntity
8
0
100
AcDbLine
62
7
6
BYLAYER
10
185.5121322655
20
131.5957433461
11
185.5121322655
21
123.9957433461
0
LINE
5
423
100
AcDbEntity
8
0
100
AcDbLine
62
7
6
BYLAYER
10
193.4911138995
20
144.1957433461
11
193.4911138995
21
131.5957433461
0
LINE
5
424
100
AcDbEntity
8
0
100
AcDbLine
62
7
6
BYLAYER
10
207.4911138995
20
144.1957433461
11
207.4911138995
21
136.1957433461
0
LINE
5
425
100
AcDbEntity
8
0
100
AcDbLine
62
7
6
BYLAYER
10
207.4911138995
20
136.1957433461
11
207.4911138995
21
134.9957433461
0
LINE
5
426
100
AcDbEntity
8
0
100
AcDbLine
62
7
6
BYLAYER
10
328.3455269518
20
123.7408897004
11
321.3455269518
21
123.7408897004
0
LINE
5
427
100
AcDbEntity
8
0
100
AcDbLine
62
7
6
BYLAYER
10
185.5121322655
20
123.9957433461
11
145.5121322655
21
123.9957433461
0
LINE
5
428
100
AcDbEntity
8
0
100
AcDbLine
62
7
6
BYLAYER
10
209.5459340042
20
131.5957433461
11
185.5121322655
21
131.5957433461
0
LINE
5
429
100
AcDbEntity
8
0
100
AcDbLine
62
7
6
BYLAYER
10
235.9445759929
20
127.5551291216
11
236.2586359902
21
124.1696651477
0
LINE
5
42A
100
AcDbEntity
8
0
100
AcDbLine
62
7
6
BYLAYER
10
256.5601272813
20
120.2280743340
11
255.1745684696
21
135.1639448067
0
LINE
5
42B
100
AcDbEntity
8
0
100
AcDbLine
62
7
6
BYLAYER
10
211.8629155875
20
128.0810852055
11
211.8457150217
21
129.3274808877
0
LINE
5
42C
100
AcDbEntity
8
0
100
AcDbLine
62
7
6
BYLAYER
10
215.2625918742
20
128.1280015712
11
215.2453913084
21
129.3743972534
0
LINE
5
42D
100
AcDbEntity
8
0
100
AcDbLine
62
7
6
BYLAYER
10
214.2919982884
20
144.1957433461
11
214.2919982884
21
136.1957433461
0
LINE
5
42E
100
AcDbEntity
8
0
100
AcDbLine
62
7
6
BYLAYER
10
214.7419982884
20
144.1957433461
11
214.7419982884
21
136.1957433461
0
LINE
5
42F
100
AcDbEntity
8
0
100
AcDbLine
62
7
6
BYLAYER
10
221.9355817590
20
144.1957433461
11
221.9355817590
21
136.1957433461
0
LINE
5
430
100
AcDbEntity
8
0
100
AcDbLine
62
7
6
BYLAYER
10
256.5601272813
20
120.2280743340
11
243.1178438558
21
118.9810714034
0
LINE
5
431
100
AcDbEntity
8
0
100
AcDbLine
62
7
6
BYLAYER
10
236.8068911991
20
124.2205252457
11
218.0888852402
21
122.4841083331
0
LINE
5
432
100
AcDbEntity
8
0
100
AcDbLine
62
7
6
BYLAYER
10
236.4928312018
20
127.6059892196
11
217.7748252429
21
125.8695723069
0
LINE
5
433
100
AcDbEntity
8
0
100
AcDbLine
62
7
6
BYLAYER
10
241.7322850441
20
133.9169418762
11
255.1745684696
21
135.1639448067
0
LINE
5
434
100
AcDbEntity
8
0
100
AcDbLine
62
7
6
BYLAYER
10
388.7544858394
20
140.4270128736
11
375.2859951165
21
139.5051898720
0
LINE
5
435
100
AcDbEntity
8
0
100
AcDbLine
62
7
6
BYLAYER
10
369.1034899608
20
144.8956100782
11
341.5745539852
21
143.0114489712
0
LINE
5
436
100
AcDbEntity
8
0
100
AcDbLine
62
7
6
BYLAYER
10
368.8713271307
20
148.2876744084
11
341.3423911552
21
146.4035133014
0
LINE
5
437
100
AcDbEntity
8
0
100
AcDbLine
62
7
6
BYLAYER
10
374.2617473370
20
154.4701795642
11
387.7302380599
21
155.3920025657
0
LINE
5
438
100
AcDbEntity
8
0
100
AcDbLine
62
7
6
BYLAYER
10
374.5686970254
20
149.2200419068
11
383.5678197415
21
149.3457015299
0
LINE
5
439
100
AcDbEntity
8
0
100
AcDbLine
62
7
6
BYLAYER
10
368.6882817402
20
154.9384959001
11
341.7865395798
21
154.5628523084
0
LINE
5
43A
100
AcDbEntity
8
0
100
AcDbLine
62
7
6
BYLAYER
10
368.6408103270
20
158.3381644817
11
341.7390681666
21
157.9625208900
0
LINE
5
43B
100
AcDbEntity
8
0
100
AcDbLine
62
7
6
BYLAYER
10
209.5459340042
20
134.9957433461
11
207.4911138995
21
134.9957433461
0
LINE
5
43C
100
AcDbEntity
8
0
100
AcDbLine
62
7
6
BYLAYER
10
226.6517968416
20
136.1957433461
11
207.4911138995
21
136.1957433461
0
LINE
5
43D
100
AcDbEntity
8
0
100
AcDbLine
62
7
6
BYLAYER
10
226.6517968416
20
144.1957433461
11
185.5121322655
21
144.1957433461
0
LINE
5
43E
100
AcDbEntity
8
0
100
AcDbLine
62
7
6
BYLAYER
10
185.5121322655
20
151.7957433461
11
145.5121322655
21
151.7957433461
0
LINE
5
43F
100
AcDbEntity
8
0
100
AcDbLine
62
7
6
BYLAYER
10
375.2859951165
20
139.5051898720
11
369.1034899608
21
144.8956100782
0
LINE
5
440
100
AcDbEntity
8
0
100
AcDbLine
62
7
6
BYLAYER
10
335.5607074289
20
145.9518848321
11
326.0646280983
21
160.0449865897
0
LINE
5
441
100
AcDbEntity
8
0
100
AcDbLine
62
7
6
BYLAYER
10
338.3803473289
20
147.8517876806
11
328.8842679983
21
161.9448894382
0
LINE
5
442
100
AcDbEntity
8
0
100
AcDbLine
62
7
6
BYLAYER
10
323.1025842720
20
161.4932609689
11
301.0424443299
21
159.9834002997
0
LINE
5
443
100
AcDbEntity
8
0
100
AcDbLine
62
7
6
BYLAYER
10
328.1655286988
20
166.4505453448
11
322.7884816196
21
166.0825244745
0
LINE
5
444
100
AcDbEntity
8
0
100
AcDbLine
62
7
6
BYLAYER
10
327.9333658688
20
169.8426096751
11
300.4961788475
21
167.9647281355
0
LINE
5
445
100
AcDbEntity
8
0
100
AcDbLine
62
7
6
BYLAYER
10
383.3583870364
20
164.3442393900
11
374.3592643203
21
164.2185797670
0
LINE
5
446
100
AcDbEntity
8
0
100
AcDbLine
62
7
6
BYLAYER
10
368.6882817402
20
154.9384959001
11
374.5686970254
21
149.2200419068
0
LINE
5
447
100
AcDbEntity
8
0
100
AcDbLine
62
7
6
BYLAYER
10
336.1250232294
20
157.5355770288
11
331.1332960684
21
164.9937480944
0
LINE
5
448
100
AcDbEntity
8
0
100
AcDbLine
62
7
6
BYLAYER
10
338.9505601135
20
159.4266987374
11
333.9588329524
21
166.8848698030
0
LINE
5
449
100
AcDbEntity
8
0
100
AcDbLine
62
7
6
BYLAYER
10
322.7884816196
20
166.0825244745
11
322.8704214420
21
164.8853252991
0
LINE
5
44A
100
AcDbEntity
8
0
100
AcDbLine
62
7
6
BYLAYER
10
346.9458525824
20
146.7870306337
11
347.1780154124
21
143.3949663035
0
LINE
5
44B
100
AcDbEntity
8
0
100
AcDbLine
62
7
6
BYLAYER
10
353.7308635675
20
147.2514166826
11
353.9630263975
21
143.8593523524
0
LINE
5
44C
100
AcDbEntity
8
0
100
AcDbLine
62
7
6
BYLAYER
10
361.8718179600
20
147.8086074747
11
362.1039807900
21
144.4165431444
0
LINE
5
44D
100
AcDbEntity
8
0
100
AcDbLine
62
7
6
BYLAYER
10
368.6568289452
20
148.2729935236
11
368.8889917752
21
144.8809291934
0
LINE
5
44E
100
AcDbEntity
8
0
100
AcDbLine
62
7
6
BYLAYER
10
345.3236155558
20
158.0125738661
11
345.3710869689
21
154.6129052845
0
LINE
5
44F
100
AcDbEntity
8
0
100
AcDbLine
62
7
6
BYLAYER
10
352.1238370217
20
158.1075290404
11
352.1713084349
21
154.7078604588
0
LINE
5
450
100
AcDbEntity
8
0
100
AcDbLine
62
7
6
BYLAYER
10
387.7302380599
20
155.3920025657
11
388.7544858394
21
140.4270128736
0
LINE
5
451
100
AcDbEntity
8
0
100
AcDbLine
62
7
6
BYLAYER
10
360.0330659866
20
158.2179698869
11
360.0805373998
21
154.8183013052
0
LINE
5
452
100
AcDbEntity
8
0
100
AcDbLine
62
7
6
BYLAYER
10
367.2259482555
20
158.3184079966
11
367.2734196687
21
154.9187394149
0
LINE
5
453
100
AcDbEntity
8
0
100
AcDbLine
62
7
6
BYLAYER
10
383.5678197415
20
149.3457015299
11
383.3583870364
21
164.3442393900
0
LINE
5
454
100
AcDbEntity
8
0
100
AcDbLine
62
7
6
BYLAYER
10
330.9048639567
20
141.4866918153
11
328.3455269518
21
123.7408897004
0
LINE
5
455
100
AcDbEntity
8
0
100
AcDbLine
62
7
6
BYLAYER
10
236.4928312018
20
127.6059892196
11
241.7322850441
21
133.9169418762
0
LINE
5
456
100
AcDbEntity
8
0
100
AcDbLine
62
7
6
BYLAYER
10
368.8713271307
20
148.2876744084
11
374.2617473370
21
154.4701795642
0
LINE
5
457
100
AcDbEntity
8
0
100
AcDbLine
62
7
6
BYLAYER
10
374.3592643203
20
164.2185797670
11
368.6408103270
21
158.3381644817
0
LINE
5
458
100
AcDbEntity
8
0
100
AcDbLine
62
7
6
BYLAYER
10
296.9983180596
20
167.2800981131
11
227.1837078608
21
144.2811007641
0
LINE
5
459
100
AcDbEntity
8
0
100
AcDbLine
62
7
6
BYLAYER
10
299.5014287380
20
159.6817800800
11
229.6868185392
21
136.6827827310
0
ARC
5
45A
100
AcDbEntity
8
DEFAULT_1
100
AcDbCircle
62
7
6
BYLAYER
10
239.6006749942
20
142.9974029267
40
15.6000000000
100
AcDbArc
50
29.9737927950
51
185.0613850000
0
ARC
5
45B
100
AcDbEntity
8
DEFAULT_1
100
AcDbCircle
62
7
6
BYLAYER
10
270.7826301320
20
151.3810580831
40
15.6000000000
100
AcDbArc
50
209.9737927950
51
275.0613850000
0
ARC
5
45C
100
AcDbEntity
8
DEFAULT_1
100
AcDbCircle
62
7
6
BYLAYER
10
324.9076599747
20
161.1943944820
40
20.6000000000
100
AcDbArc
50
275.0613850000
51
0.1334091552
0
ARC
5
45D
100
AcDbEntity
8
0
100
AcDbCircle
62
7
6
BYLAYER
10
217.5623728917
20
128.1597391127
40
2.3000000000
100
AcDbArc
50
180.7906456062
51
275.3000000000
0
ARC
5
45E
100
AcDbEntity
8
0
100
AcDbCircle
62
7
6
BYLAYER
10
209.5459340042
20
129.2957433461
40
5.7000000000
100
AcDbArc
50
0.7906456062
51
90.0000000000
0
ARC
5
45F
100
AcDbEntity
8
0
100
AcDbCircle
62
7
6
BYLAYER
10
217.5623728917
20
128.1597391127
40
5.7000000000
100
AcDbArc
50
180.7906456062
51
275.3000000000
0
ARC
5
460
100
AcDbEntity
8
0
100
AcDbCircle
62
7
6
BYLAYER
10
209.5459340042
20
129.2957433461
40
2.3000000000
100
AcDbArc
50
0.7906456062
51
90.0000000000
0
ARC
5
461
100
AcDbEntity
8
0
100
AcDbCircle
62
7
6
BYLAYER
10
301.4726283973
20
153.6981046290
40
14.3000000000
100
AcDbArc
50
93.9153850000
51
108.2334116253
0
ARC
5
462
100
AcDbEntity
8
0
100
AcDbCircle
62
7
6
BYLAYER
10
226.6517968416
20
145.8957433461
40
1.7000000000
100
AcDbArc
50
270.0000000000
51
288.2334116253
0
ARC
5
463
100
AcDbEntity
8
0
100
AcDbCircle
62
7
6
BYLAYER
10
341.1170566437
20
149.6958110337
40
3.3000000000
100
AcDbArc
50
213.9725017865
51
273.9153850000
0
ARC
5
464
100
AcDbEntity
8
0
100
AcDbCircle
62
7
6
BYLAYER
10
323.3279187835
20
158.2009632366
40
6.7000000000
100
AcDbArc
50
33.9725017865
51
93.9153850000
0
ARC
5
465
100
AcDbEntity
8
0
100
AcDbCircle
62
7
6
BYLAYER
10
341.6929929715
20
161.2621992193
40
3.3000000000
100
AcDbArc
50
213.7942533901
51
270.8000000000
0
ARC
5
466
100
AcDbEntity
8
0
100
AcDbCircle
62
7
6
BYLAYER
10
328.3908632103
20
163.1582476126
40
6.7000000000
100
AcDbArc
50
33.7942533901
51
93.9153850000
0
ARC
5
467
100
AcDbEntity
8
0
100
AcDbCircle
62
7
6
BYLAYER
10
341.6929929715
20
161.2621992193
40
6.7000000000
100
AcDbArc
50
213.7942533901
51
270.8000000000
0
ARC
5
468
100
AcDbEntity
8
0
100
AcDbCircle
62
7
6
BYLAYER
10
328.3908632103
20
163.1582476126
40
3.3000000000
100
AcDbArc
50
33.7942533901
51
93.9153850000
0
ARC
5
469
100
AcDbEntity
8
0
100
AcDbCircle
62
7
6
BYLAYER
10
226.6517968416
20
145.8957433461
40
9.7000000000
100
AcDbArc
50
270.0000000000
51
288.2334116253
0
ARC
5
46A
100
AcDbEntity
8
0
100
AcDbCircle
62
7
6
BYLAYER
10
341.1170566437
20
149.6958110337
40
6.7000000000
100
AcDbArc
50
213.9725017865
51
273.9153850000
0
ARC
5
46B
100
AcDbEntity
8
0
100
AcDbCircle
62
7
6
BYLAYER
10
323.3279187835
20
158.2009632366
40
3.3000000000
100
AcDbArc
50
33.9725017865
51
93.9153850000
0
ARC
5
46C
100
AcDbEntity
8
0
100
AcDbCircle
62
7
6
BYLAYER
10
301.4726283973
20
153.6981046290
40
6.3000000000
100
AcDbArc
50
93.9153850000
51
108.2334116253
0
SPLINE
5
46D
100
AcDbEntity
8
0
100
AcDbSpline
62
7
6
BYLAYER
70
0
71
3
72
9
73
5
74
3
42
0.0000001000
43
0.0000001000
44
0.0000000001
40
0.0000000000
40
0.0000000000
40
0.0000000000
40
0.0000000000
40
0.3859079987
40
1.0000000000
40
1.0000000000
40
1.0000000000
40
1.0000000000
10
79.5900924723
20
175.3935443266
30
0.0000000000
10
79.3909202557
20
175.4710505827
30
0.0000000000
10
78.8321737636
20
175.5717332187
30
0.0000000000
10
78.2864942499
20
175.4025558102
30
0.0000000000
10
77.9867015293
20
175.2504594210
30
0.0000000000
11
79.5900924723
21
175.3935443266
31
0.0000000000
11
78.9616167741
21
175.5085701492
31
0.0000000000
11
77.9867015293
21
175.2504594210
31
0.0000000000
0
SPLINE
5
46E
100
AcDbEntity
8
0
100
AcDbSpline
62
7
6
BYLAYER
70
0
71
3
72
9
73
5
74
3
42
0.0000001000
43
0.0000001000
44
0.0000000001
40
0.0000000000
40
0.0000000000
40
0.0000000000
40
0.0000000000
40
0.2205814158
40
1.0000000000
40
1.0000000000
40
1.0000000000
40
1.0000000000
10
83.4436725090
20
165.7845646590
30
0.0000000000
10
83.3703075050
20
165.8131140565
30
0.0000000000
10
83.0493862215
20
165.9699748840
30
0.0000000000
10
82.8065630132
20
166.2491002557
30
0.0000000000
10
82.6692711076
20
166.4908963547
30
0.0000000000
11
83.4436725090
21
165.7845646590
31
0.0000000000
11
83.2325289154
21
165.8882641467
31
0.0000000000
11
82.6692711076
21
166.4908963547
31
0.0000000000
0
SPLINE
5
46F
100
AcDbEntity
8
0
100
AcDbSpline
62
7
6
BYLAYER
70
0
71
3
72
8
73
4
74
2
42
0.0000001000
43
0.0000001000
44
0.0000000001
40
0.0000000000
40
0.0000000000
40
0.0000000000
40
0.0000000000
40
1.0000000000
40
1.0000000000
40
1.0000000000
40
1.0000000000
10
82.6692711076
20
166.4908963547
30
0.0000000000
10
82.5086369571
20
166.7738024065
30
0.0000000000
10
82.4191455138
20
167.0898924944
30
0.0000000000
10
82.3756795268
20
167.4102809723
30
0.0000000000
11
82.6692711076
21
166.4908963547
31
0.0000000000
11
82.3756795268
21
167.4102809723
31
0.0000000000
0
SPLINE
5
470
100
AcDbEntity
8
0
100
AcDbSpline
62
7
6
BYLAYER
70
0
71
3
72
9
73
5
74
3
42
0.0000001000
43
0.0000001000
44
0.0000000001
40
0.0000000000
40
0.0000000000
40
0.0000000000
40
0.0000000000
40
0.4818666774
40
1.0000000000
40
1.0000000000
40
1.0000000000
40
1.0000000000
10
82.3756795268
20
167.4102809723
30
0.0000000000
10
82.3256705028
20
167.7788982783
30
0.0000000000
10
82.3483240883
20
168.5556840750
30
0.0000000000
10
82.5623677593
20
169.3025616463
30
0.0000000000
10
82.7158336836
20
169.6697761818
30
0.0000000000
11
82.3756795268
21
167.4102809723
31
0.0000000000
11
82.3919424344
21
168.5205681049
31
0.0000000000
11
82.7158336836
21
169.6697761818
31
0.0000000000
0
SPLINE
5
471
100
AcDbEntity
8
0
100
AcDbSpline
62
7
6
BYLAYER
70
0
71
3
72
8
73
4
74
2
42
0.0000001000
43
0.0000001000
44
0.0000000001
40
0.0000000000
40
0.0000000000
40
0.0000000000
40
0.0000000000
40
1.0000000000
40
1.0000000000
40
1.0000000000
40
1.0000000000
10
158.9956827237
20
244.0954061216
30
0.0000000000
10
159.0180532225
20
244.0544920084
30
0.0000000000
10
159.0393728165
20
244.0130411785
30
0.0000000000
10
159.0596412853
20
243.9711730868
30
0.0000000000
11
158.9956827237
21
244.0954061216
31
0.0000000000
11
159.0596412853
21
243.9711730868
31
0.0000000000
0
SPLINE
5
472
100
AcDbEntity
8
0
100
AcDbSpline
62
7
6
BYLAYER
70
0
71
3
72
8
73
4
74
2
42
0.0000001000
43
0.0000001000
44
0.0000000001
40
0.0000000000
40
0.0000000000
40
0.0000000000
40
0.0000000000
40
1.0000000000
40
1.0000000000
40
1.0000000000
40
1.0000000000
10
159.0596412853
20
243.9711730868
30
0.0000000000
10
159.2624042905
20
243.5523303919
30
0.0000000000
10
159.3599735273
20
243.0917292637
30
0.0000000000
10
159.3906724804
20
242.6333739485
30
0.0000000000
11
159.0596412853
21
243.9711730868
31
0.0000000000
11
159.3906724804
21
242.6333739485
31
0.0000000000
0
SPLINE
5
473
100
AcDbEntity
8
0
100
AcDbSpline
62
7
6
BYLAYER
70
0
71
3
72
11
73
7
74
5
42
0.0000001000
43
0.0000001000
44
0.0000000001
40
0.0000000000
40
0.0000000000
40
0.0000000000
40
0.0000000000
40
0.2304648014
40
0.4802915800
40
0.7421309766
40
1.0000000000
40
1.0000000000
40
1.0000000000
40
1.0000000000
10
45.8901740839
20
172.0600683608
30
0.0000000000
10
45.4470277034
20
171.8693820326
30
0.0000000000
10
44.5872013002
20
171.3173957777
30
0.0000000000
10
43.5241666338
20
170.1669455904
30
0.0000000000
10
42.7130072461
20
168.7596122859
30
0.0000000000
10
42.3823638195
20
167.7146974764
30
0.0000000000
10
42.2814771514
20
167.1825250392
30
0.0000000000
11
45.8901740839
21
172.0600683608
31
0.0000000000
11
44.6614325003
21
171.2953108611
31
0.0000000000
11
43.5875211667
21
170.1515823277
31
0.0000000000
11
42.7639488655
21
168.7283722303
31
0.0000000000
11
42.2814771514
21
167.1825250392
31
0.0000000000
0
SPLINE
5
474
100
AcDbEntity
8
0
100
AcDbSpline
62
7
6
BYLAYER
70
0
71
3
72
8
73
4
74
2
42
0.0000001000
43
0.0000001000
44
0.0000000001
40
0.0000000000
40
0.0000000000
40
0.0000000000
40
0.0000000000
40
1.0000000000
40
1.0000000000
40
1.0000000000
40
1.0000000000
10
42.2814771514
20
167.1825250392
30
0.0000000000
10
42.1964069190
20
166.7337835574
30
0.0000000000
10
42.1562538845
20
166.2752964147
30
0.0000000000
10
42.1724780413
20
165.8201190109
30
0.0000000000
11
42.2814771514
21
167.1825250392
31
0.0000000000
11
42.1724780413
21
165.8201190109
31
0.0000000000
0
SPLINE
5
475
100
AcDbEntity
8
0
100
AcDbSpline
62
7
6
BYLAYER
70
0
71
3
72
8
73
4
74
2
42
0.0000001000
43
0.0000001000
44
0.0000000001
40
0.0000000000
40
0.0000000000
40
0.0000000000
40
0.0000000000
40
1.0000000000
40
1.0000000000
40
1.0000000000
40
1.0000000000
10
42.1724780413
20
165.8201190109
30
0.0000000000
10
42.1744948297
20
165.7635369323
30
0.0000000000
10
42.1773827820
20
165.7070059972
30
0.0000000000
10
42.1811639111
20
165.6505512831
30
0.0000000000
11
42.1724780413
21
165.8201190109
31
0.0000000000
11
42.1811639111
21
165.6505512831
31
0.0000000000
0
SPLINE
5
476
100
AcDbEntity
8
0
100
AcDbSpline
62
7
6
BYLAYER
70
0
71
3
72
11
73
7
74
5
42
0.0000001000
43
0.0000001000
44
0.0000000001
40
0.0000000000
40
0.0000000000
40
0.0000000000
40
0.0000000000
40
0.2406524520
40
0.5109171603
40
0.7752941759
40
1.0000000000
40
1.0000000000
40
1.0000000000
40
1.0000000000
10
76.2218006269
20
174.3550572441
30
0.0000000000
10
75.9744571213
20
174.2295703609
30
0.0000000000
10
75.4083693169
20
174.0446122653
30
0.0000000000
10
74.5177494400
20
173.9318004234
30
0.0000000000
10
73.6399290774
20
173.9757786705
30
0.0000000000
10
73.0861126904
20
174.1200422371
30
0.0000000000
10
72.8519233393
20
174.2306046715
30
0.0000000000
11
76.2218006269
21
174.3550572441
31
0.0000000000
11
75.4365581390
21
174.0798734074
31
0.0000000000
11
74.5099929448
21
173.9587356371
31
0.0000000000
11
73.5974500012
21
174.0119535043
31
0.0000000000
11
72.8519233393
21
174.2306046715
31
0.0000000000
0
SPLINE
5
477
100
AcDbEntity
8
0
100
AcDbSpline
62
7
6
BYLAYER
70
0
71
3
72
12
73
8
74
6
42
0.0000001000
43
0.0000001000
44
0.0000000001
40
0.0000000000
40
0.0000000000
40
0.0000000000
40
0.0000000000
40
0.1736538529
40
0.3753977896
40
0.5912334101
40
0.8047732314
40
1.0000000000
40
1.0000000000
40
1.0000000000
40
1.0000000000
10
72.0412200406
20
174.6133433819
30
0.0000000000
10
71.6146623783
20
174.8147242444
30
0.0000000000
10
70.6308057907
20
175.1184139605
30
0.0000000000
10
69.0324431807
20
175.3195412716
30
0.0000000000
10
67.3123630009
20
175.2888337280
30
0.0000000000
10
65.6310921701
20
175.0283092720
30
0.0000000000
10
64.5647092595
20
174.6957019818
30
0.0000000000
10
64.0775878650
20
174.4860931613
30
0.0000000000
11
72.0412200406
21
174.6133433819
31
0.0000000000
11
70.6977900771
21
175.0580310840
31
0.0000000000
11
69.0683942995
21
175.2768482641
31
0.0000000000
11
67.3097618724
21
175.2487472218
31
0.0000000000
11
65.5910530426
21
174.9764309549
31
0.0000000000
11
64.0775878650
21
174.4860931613
31
0.0000000000
0
SPLINE
5
478
100
AcDbEntity
8
0
100
AcDbSpline
62
7
6
BYLAYER
70
0
71
3
72
9
73
5
74
3
42
0.0000001000
43
0.0000001000
44
0.0000000001
40
0.0000000000
40
0.0000000000
40
0.0000000000
40
0.0000000000
40
0.6339012169
40
1.0000000000
40
1.0000000000
40
1.0000000000
40
1.0000000000
10
158.4224228540
20
243.9520532052
30
0.0000000000
10
158.7899327100
20
244.1306314097
30
0.0000000000
10
159.4405054223
20
244.3142178775
30
0.0000000000
10
160.0930716329
20
244.1739693093
30
0.0000000000
10
160.3142418455
20
244.0827893286
30
0.0000000000
11
158.4224228540
21
243.9520532052
31
0.0000000000
11
159.6155314269
21
244.2332559041
31
0.0000000000
11
160.3142418455
21
244.0827893286
31
0.0000000000
0
SPLINE
5
479
100
AcDbEntity
8
0
100
AcDbSpline
62
7
6
BYLAYER
70
0
71
3
72
8
73
4
74
2
42
0.0000001000
43
0.0000001000
44
0.0000000001
40
0.0000000000
40
0.0000000000
40
0.0000000000
40
0.0000000000
40
1.0000000000
40
1.0000000000
40
1.0000000000
40
1.0000000000
10
59.6190298516
20
181.8642728074
30
0.0000000000
10
59.6539069327
20
181.3435353261
30
0.0000000000
10
59.5953637579
20
180.8148650008
30
0.0000000000
10
59.4676639484
20
180.3058942334
30
0.0000000000
11
59.6190298516
21
181.8642728074
31
0.0000000000
11
59.4676639484
21
180.3058942334
31
0.0000000000
0
SPLINE
5
47A
100
AcDbEntity
8
0
100
AcDbSpline
62
7
6
BYLAYER
70
0
71
3
72
10
73
6
74
4
42
0.0000001000
43
0.0000001000
44
0.0000000001
40
0.0000000000
40
0.0000000000
40
0.0000000000
40
0.0000000000
40
0.3476755898
40
0.6884720952
40
1.0000000000
40
1.0000000000
40
1.0000000000
40
1.0000000000
10
59.4676639484
20
180.3058942334
30
0.0000000000
10
59.3329152838
20
179.7688289750
30
0.0000000000
10
58.9136035372
20
178.7487595169
30
0.0000000000
10
57.9358799730
20
177.4786850568
30
0.0000000000
10
57.0697703575
20
176.8706597548
30
0.0000000000
10
56.6164978069
20
176.6756161255
30
0.0000000000
11
59.4676639484
21
180.3058942334
31
0.0000000000
11
58.8446835272
21
178.7757131644
31
0.0000000000
11
57.8449472212
21
177.5016876956
31
0.0000000000
11
56.6164978069
21
176.6756161255
31
0.0000000000
0
SPLINE
5
47B
100
AcDbEntity
8
0
100
AcDbSpline
62
7
6
BYLAYER
70
0
71
3
72
8
73
4
74
2
42
0.0000001000
43
0.0000001000
44
0.0000000001
40
0.0000000000
40
0.0000000000
40
0.0000000000
40
0.0000000000
40
1.0000000000
40
1.0000000000
40
1.0000000000
40
1.0000000000
10
82.8367680507
20
169.9591489378
30
0.0000000000
10
83.0138441171
20
170.3828580173
30
0.0000000000
10
83.1418092999
20
170.8293758914
30
0.0000000000
10
83.2104887228
20
171.2851582573
30
0.0000000000
11
82.8367680507
21
169.9591489378
31
0.0000000000
11
83.2104887228
21
171.2851582573
31
0.0000000000
0
SPLINE
5
47C
100
AcDbEntity
8
0
100
AcDbSpline
62
7
6
BYLAYER
70
0
71
3
72
11
73
7
74
5
42
0.0000001000
43
0.0000001000
44
0.0000000001
40
0.0000000000
40
0.0000000000
40
0.0000000000
40
0.0000000000
40
0.3543258819
40
0.6622927843
40
0.9255080642
40
1.0000000000
40
1.0000000000
40
1.0000000000
40
1.0000000000
10
83.2104887228
20
171.2851582573
30
0.0000000000
10
83.2743609423
20
171.7090382216
30
0.0000000000
10
83.2979037849
20
172.5163164201
30
0.0000000000
10
82.9875867754
20
173.6123779787
30
0.0000000000
10
82.4518997376
20
174.2281504353
30
0.0000000000
10
82.0816059490
20
174.4091436978
30
0.0000000000
10
81.9969540214
20
174.4420853103
30
0.0000000000
11
83.2104887228
21
171.2851582573
31
0.0000000000
11
83.2292536162
21
172.5662587950
31
0.0000000000
11
82.8904940999
21
173.6270871999
31
0.0000000000
11
82.2405812447
21
174.3224320553
31
0.0000000000
11
81.9969540214
21
174.4420853103
31
0.0000000000
0
SPLINE
5
47D
100
AcDbEntity
8
0
100
AcDbSpline
62
7
6
BYLAYER
70
0
71
3
72
11
73
7
74
5
42
0.0000001000
43
0.0000001000
44
0.0000000001
40
0.0000000000
40
0.0000000000
40
0.0000000000
40
0.0000000000
40
0.2333739771
40
0.4896296629
40
0.7516226349
40
1.0000000000
40
1.0000000000
40
1.0000000000
40
1.0000000000
10
154.4478457518
20
251.1247210828
30
0.0000000000
10
153.9460402750
20
250.9033622917
30
0.0000000000
10
152.9884862678
20
250.2163699020
30
0.0000000000
10
151.9107140346
20
248.7910035305
30
0.0000000000
10
151.2279123779
20
247.1022180066
30
0.0000000000
10
151.0958574251
20
245.8875348915
30
0.0000000000
10
151.1348654527
20
245.3051196952
30
0.0000000000
11
154.4478457518
21
251.1247210828
31
0.0000000000
11
153.0912707981
21
250.1936032312
31
0.0000000000
11
151.9877782066
21
248.7630478564
31
0.0000000000
11
151.3007724892
21
247.0484029879
31
0.0000000000
11
151.1348654527
21
245.3051196952
31
0.0000000000
0
SPLINE
5
47E
100
AcDbEntity
8
0
100
AcDbSpline
62
7
6
BYLAYER
70
0
71
3
72
11
73
7
74
5
42
0.0000001000
43
0.0000001000
44
0.0000000001
40
0.0000000000
40
0.0000000000
40
0.0000000000
40
0.0000000000
40
0.2505936192
40
0.5145049360
40
0.7704283705
40
1.0000000000
40
1.0000000000
40
1.0000000000
40
1.0000000000
10
159.8777253532
20
235.3613581021
30
0.0000000000
10
159.9127198532
20
234.8388674801
30
0.0000000000
10
159.8033722835
20
233.7511141584
30
0.0000000000
10
159.2287868629
20
232.2299509625
30
0.0000000000
10
158.3184156250
20
230.9353712035
30
0.0000000000
10
157.4999733007
20
230.2952032504
30
0.0000000000
10
157.0684844074
20
230.0855367325
30
0.0000000000
11
159.8777253532
21
235.3613581021
31
0.0000000000
11
159.7411151548
21
233.7963254380
31
0.0000000000
11
159.1599926809
21
232.2472685132
31
0.0000000000
11
158.2228624915
21
230.9450107945
31
0.0000000000
11
157.0684844074
21
230.0855367325
31
0.0000000000
0
SPLINE
5
47F
100
AcDbEntity
8
0
100
AcDbSpline
62
7
6
BYLAYER
70
0
71
3
72
10
73
6
74
4
42
0.0000001000
43
0.0000001000
44
0.0000000001
40
0.0000000000
40
0.0000000000
40
0.0000000000
40
0.0000000000
40
0.3474666728
40
0.6915912418
40
1.0000000000
40
1.0000000000
40
1.0000000000
40
1.0000000000
10
134.2583705475
20
232.0669616088
30
0.0000000000
10
133.4896762484
20
232.1276292571
30
0.0000000000
10
131.9469481443
20
232.1176118108
30
0.0000000000
10
129.7485459875
20
231.7680957814
30
0.0000000000
10
128.3648917816
20
231.3013030308
30
0.0000000000
10
127.7493088162
20
231.0021826158
30
0.0000000000
11
134.2583705475
21
232.0669616088
31
0.0000000000
11
131.9451301323
21
232.0590759994
31
0.0000000000
11
129.6841778317
21
231.6892201564
31
0.0000000000
11
127.7493088162
21
231.0021826158
31
0.0000000000
0
SPLINE
5
480
100
AcDbEntity
8
0
100
AcDbSpline
62
7
6
BYLAYER
70
0
71
3
72
10
73
6
74
4
42
0.0000001000
43
0.0000001000
44
0.0000000001
40
0.0000000000
40
0.0000000000
40
0.0000000000
40
0.0000000000
40
0.3123606441
40
0.6554330570
40
1.0000000000
40
1.0000000000
40
1.0000000000
40
1.0000000000
10
145.9284197085
20
231.8515281783
30
0.0000000000
10
145.6298997278
20
231.7198436410
30
0.0000000000
10
144.9718917331
20
231.5142099851
30
0.0000000000
10
143.9355155195
20
231.3617674910
30
0.0000000000
10
143.2138833312
20
231.3601658123
30
0.0000000000
10
142.8550837356
20
231.3884833473
30
0.0000000000
11
145.9284197085
21
231.8515281783
31
0.0000000000
11
144.9978939357
21
231.5478560648
31
0.0000000000
11
143.9348293830
21
231.3876892133
31
0.0000000000
11
142.8550837356
21
231.3884833473
31
0.0000000000
0
SPLINE
5
481
100
AcDbEntity
8
0
100
AcDbSpline
62
7
6
BYLAYER
70
0
71
3
72
10
73
6
74
4
42
0.0000001000
43
0.0000001000
44
0.0000000001
40
0.0000000000
40
0.0000000000
40
0.0000000000
40
0.0000000000
40
0.3475891507
40
0.6916454996
40
1.0000000000
40
1.0000000000
40
1.0000000000
40
1.0000000000
10
133.5313314062
20
228.8545421496
30
0.0000000000
10
132.7645811603
20
228.9138883484
30
0.0000000000
10
131.2264281327
20
228.9021961768
30
0.0000000000
10
129.0348900325
20
228.5521679717
30
0.0000000000
10
127.6558743220
20
228.0863728898
30
0.0000000000
10
127.0422451564
20
227.7882018536
30
0.0000000000
11
133.5313314062
21
228.8545421496
31
0.0000000000
11
131.2242252289
21
228.8439457078
31
0.0000000000
11
128.9707670336
21
228.4736388284
31
0.0000000000
11
127.0422451564
21
227.7882018536
31
0.0000000000
0
SPLINE
5
482
100
AcDbEntity
8
0
100
AcDbSpline
62
7
6
BYLAYER
70
0
71
3
72
10
73
6
74
4
42
0.0000001000
43
0.0000001000
44
0.0000000001
40
0.0000000000
40
0.0000000000
40
0.0000000000
40
0.0000000000
40
0.3083545004
40
0.6524108493
40
1.0000000000
40
1.0000000000
40
1.0000000000
40
1.0000000000
10
153.0207021582
20
228.1186624454
30
0.0000000000
10
152.7184668975
20
227.9718020843
30
0.0000000000
10
152.0392502043
20
227.7423806260
30
0.0000000000
10
150.9598359161
20
227.5699786742
30
0.0000000000
10
150.2022381563
20
227.5642198435
30
0.0000000000
10
149.8245850501
20
227.5934500608
30
0.0000000000
11
153.0207021582
21
228.1186624454
31
0.0000000000
11
152.0708331739
21
227.7810591593
31
0.0000000000
11
150.9609209284
21
227.5986692038
31
0.0000000000
11
149.8245850501
21
227.5934500608
31
0.0000000000
0
SPLINE
5
483
100
AcDbEntity
8
0
100
AcDbSpline
62
7
6
BYLAYER
70
0
71
3
72
10
73
6
74
4
42
0.0000001000
43
0.0000001000
44
0.0000000001
40
0.0000000000
40
0.0000000000
40
0.0000000000
40
0.0000000000
40
0.3085191614
40
0.6423188089
40
1.0000000000
40
1.0000000000
40
1.0000000000
40
1.0000000000
10
66.9142598929
20
189.8212021935
30
0.0000000000
10
66.8811852175
20
189.7954546928
30
0.0000000000
10
66.8093343063
20
189.7456339912
30
0.0000000000
10
66.6910925098
20
189.6784518160
30
0.0000000000
10
66.6059820015
20
189.6384484698
30
0.0000000000
10
66.5613449786
20
189.6192411144
30
0.0000000000
11
66.9142598929
21
189.8212021935
31
0.0000000000
11
66.8112167795
21
189.7491332799
31
0.0000000000
11
66.6931359894
21
189.6815597011
31
0.0000000000
11
66.5613449786
21
189.6192411144
31
0.0000000000
0
SPLINE
5
484
100
AcDbEntity
8
0
100
AcDbSpline
62
7
6
BYLAYER
70
0
71
3
72
10
73
6
74
4
42
0.0000001000
43
0.0000001000
44
0.0000000001
40
0.0000000000
40
0.0000000000
40
0.0000000000
40
0.0000000000
40
0.3533466902
40
0.6869192496
40
1.0000000000
40
1.0000000000
40
1.0000000000
40
1.0000000000
10
107.9294599537
20
221.3714394825
30
0.0000000000
10
107.6508730186
20
221.2360701752
30
0.0000000000
10
107.1165457386
20
220.9574893094
30
0.0000000000
10
106.3665918274
20
220.5024980997
30
0.0000000000
10
105.9041451569
20
220.1734909815
30
0.0000000000
10
105.6875887144
20
220.0049092163
30
0.0000000000
11
107.9294599537
21
221.3714394825
31
0.0000000000
11
107.1062364855
21
220.9404836969
31
0.0000000000
11
106.3572146596
21
220.4839182273
31
0.0000000000
11
105.6875887144
21
220.0049092163
31
0.0000000000
0
SPLINE
5
485
100
AcDbEntity
8
0
100
AcDbSpline
62
7
6
BYLAYER
70
0
71
3
72
10
73
6
74
4
42
0.0000001000
43
0.0000001000
44
0.0000000001
40
0.0000000000
40
0.0000000000
40
0.0000000000
40
0.0000000000
40
0.0821257563
40
0.5971375448
40
1.0000000000
40
1.0000000000
40
1.0000000000
40
1.0000000000
10
151.5161407033
20
236.9548482201
30
0.0000000000
10
151.4989548372
20
236.8681485896
30
0.0000000000
10
151.3591041902
20
236.2407621740
30
0.0000000000
10
150.9537088048
20
235.2380905319
30
0.0000000000
10
150.3771114105
20
234.4331337275
30
0.0000000000
10
150.0841239148
20
234.1145619129
30
0.0000000000
11
151.5161407033
21
236.9548482201
31
0.0000000000
11
151.4585532244
21
236.6961186638
31
0.0000000000
11
150.8438638983
21
235.1619627288
31
0.0000000000
11
150.0841239148
21
234.1145619129
31
0.0000000000
0
SPLINE
5
486
100
AcDbEntity
8
0
100
AcDbSpline
62
7
6
BYLAYER
70
0
71
3
72
9
73
5
74
3
42
0.0000001000
43
0.0000001000
44
0.0000000001
40
0.0000000000
40
0.0000000000
40
0.0000000000
40
0.0000000000
40
0.1802478700
40
1.0000000000
40
1.0000000000
40
1.0000000000
40
1.0000000000
10
150.0841239148
20
234.1145619129
30
0.0000000000
10
150.0107638284
20
234.0347958608
30
0.0000000000
10
149.5898853868
20
233.6043403129
30
0.0000000000
10
149.0917346793
20
233.2469445499
30
0.0000000000
10
148.6427508316
20
233.0488866842
30
0.0000000000
11
150.0841239148
21
234.1145619129
31
0.0000000000
11
149.8565284217
21
233.8819921304
31
0.0000000000
11
148.6427508316
21
233.0488866842
31
0.0000000000
0
SPLINE
5
487
100
AcDbEntity
8
0
100
AcDbSpline
62
7
6
BYLAYER
70
0
71
3
72
11
73
7
74
5
42
0.0000001000
43
0.0000001000
44
0.0000000001
40
0.0000000000
40
0.0000000000
40
0.0000000000
40
0.0000000000
40
0.2343216619
40
0.4906582606
40
0.7521690940
40
1.0000000000
40
1.0000000000
40
1.0000000000
40
1.0000000000
10
62.9479414269
20
188.0643899728
30
0.0000000000
10
62.4413426938
20
187.8464000342
30
0.0000000000
10
61.4733378295
20
187.1668423438
30
0.0000000000
10
60.3805879636
20
185.7473473589
30
0.0000000000
10
59.6876629452
20
184.0616525178
30
0.0000000000
10
59.5531900511
20
182.8473038074
30
0.0000000000
10
59.5921703182
20
182.2653030930
30
0.0000000000
11
62.9479414269
21
188.0643899728
31
0.0000000000
11
61.5749685521
21
187.1411335121
31
0.0000000000
11
60.4576162101
21
185.7172226940
31
0.0000000000
11
59.7613439747
21
184.0070203228
31
0.0000000000
11
59.5921703182
21
182.2653030930
31
0.0000000000
0
SPLINE
5
488
100
AcDbEntity
8
0
100
AcDbSpline
62
7
6
BYLAYER
70
0
71
3
72
8
73
4
74
2
42
0.0000001000
43
0.0000001000
44
0.0000000001
40
0.0000000000
40
0.0000000000
40
0.0000000000
40
0.0000000000
40
1.0000000000
40
1.0000000000
40
1.0000000000
40
1.0000000000
10
78.6286621761
20
173.4035982278
30
0.0000000000
10
78.1465467923
20
173.1590025321
30
0.0000000000
10
77.6338976768
20
172.9743137514
30
0.0000000000
10
77.1115280952
20
172.8303052320
30
0.0000000000
11
78.6286621761
21
173.4035982278
31
0.0000000000
11
77.1115280952
21
172.8303052320
31
0.0000000000
0
SPLINE
5
489
100
AcDbEntity
8
0
100
AcDbSpline
62
7
6
BYLAYER
70
0
71
3
72
10
73
6
74
4
42
0.0000001000
43
0.0000001000
44
0.0000000001
40
0.0000000000
40
0.0000000000
40
0.0000000000
40
0.0000000000
40
0.3342855876
40
0.6773839906
40
1.0000000000
40
1.0000000000
40
1.0000000000
40
1.0000000000
10
77.1115280952
20
172.8303052320
30
0.0000000000
10
76.5251366817
20
172.6686469689
30
0.0000000000
10
75.3120734807
20
172.4449458770
30
0.0000000000
10
73.4908498992
20
172.3754647509
30
0.0000000000
10
72.2857942676
20
172.5094283337
30
0.0000000000
10
71.7109132848
20
172.6308557121
30
0.0000000000
11
77.1115280952
21
172.8303052320
31
0.0000000000
11
75.3228375588
21
172.4908736197
31
0.0000000000
11
73.4555016230
21
172.4219112388
31
0.0000000000
11
71.7109132848
21
172.6308557121
31
0.0000000000
0
SPLINE
5
48A
100
AcDbEntity
8
0
100
AcDbSpline
62
7
6
BYLAYER
70
0
71
3
72
8
73
4
74
2
42
0.0000001000
43
0.0000001000
44
0.0000000001
40
0.0000000000
40
0.0000000000
40
0.0000000000
40
0.0000000000
40
1.0000000000
40
1.0000000000
40
1.0000000000
40
1.0000000000
10
71.7109132848
20
172.6308557121
30
0.0000000000
10
71.2178470638
20
172.7350020318
30
0.0000000000
10
70.7314812805
20
172.8807157318
30
0.0000000000
10
70.2772271589
20
173.0951722869
30
0.0000000000
11
71.7109132848
21
172.6308557121
31
0.0000000000
11
70.2772271589
21
173.0951722869
31
0.0000000000
0
SPLINE
5
48B
100
AcDbEntity
8
0
100
AcDbSpline
62
7
6
BYLAYER
70
0
71
3
72
9
73
5
74
3
42
0.0000001000
43
0.0000001000
44
0.0000000001
40
0.0000000000
40
0.0000000000
40
0.0000000000
40
0.0000000000
40
0.5143933444
40
1.0000000000
40
1.0000000000
40
1.0000000000
40
1.0000000000
10
113.4549612757
20
219.0643432939
30
0.0000000000
10
113.3322271714
20
219.0047050676
30
0.0000000000
10
113.0968242439
20
218.8819736372
30
0.0000000000
10
112.8698666214
20
218.7442802114
30
0.0000000000
10
112.7622937685
20
218.6733374262
30
0.0000000000
11
113.4549612757
21
219.0643432939
31
0.0000000000
11
113.0922824051
21
218.8744816541
31
0.0000000000
11
112.7622937685
21
218.6733374262
31
0.0000000000
0
SPLINE
5
48C
100
AcDbEntity
8
0
100
AcDbSpline
62
7
6
BYLAYER
70
0
71
3
72
8
73
4
74
2
42
0.0000001000
43
0.0000001000
44
0.0000000001
40
0.0000000000
40
0.0000000000
40
0.0000000000
40
0.0000000000
40
1.0000000000
40
1.0000000000
40
1.0000000000
40
1.0000000000
10
112.7622937685
20
218.6733374262
30
0.0000000000
10
112.6613292600
20
218.6067527513
30
0.0000000000
10
112.5626897218
20
218.5365757725
30
0.0000000000
10
112.4672837367
20
218.4623054843
30
0.0000000000
11
112.7622937685
21
218.6733374262
31
0.0000000000
11
112.4672837367
21
218.4623054843
31
0.0000000000
0
SPLINE
5
48D
100
AcDbEntity
8
0
100
AcDbSpline
62
7
6
BYLAYER
70
0
71
3
72
8
73
4
74
2
42
0.0000001000
43
0.0000001000
44
0.0000000001
40
0.0000000000
40
0.0000000000
40
0.0000000000
40
0.0000000000
40
1.0000000000
40
1.0000000000
40
1.0000000000
40
1.0000000000
10
132.5867003263
20
227.3328983580
30
0.0000000000
10
132.2090472202
20
227.3621285753
30
0.0000000000
10
131.8283135031
20
227.3592344524
30
0.0000000000
10
131.4503644480
20
227.3276792150
30
0.0000000000
11
132.5867003263
21
227.3328983580
31
0.0000000000
11
131.4503644480
21
227.3276792150
31
0.0000000000
0
SPLINE
5
48E
100
AcDbEntity
8
0
100
AcDbSpline
62
7
6
BYLAYER
70
0
71
3
72
9
73
5
74
3
42
0.0000001000
43
0.0000001000
44
0.0000000001
40
0.0000000000
40
0.0000000000
40
0.0000000000
40
0.0000000000
40
0.5273614766
40
1.0000000000
40
1.0000000000
40
1.0000000000
40
1.0000000000
10
131.4503644480
20
227.3276792150
30
0.0000000000
10
131.0762567646
20
227.2964446965
30
0.0000000000
10
130.3720351721
20
227.1839677927
30
0.0000000000
10
129.6928184789
20
226.9545463345
30
0.0000000000
10
129.3905832182
20
226.8076859734
30
0.0000000000
11
131.4503644480
21
227.3276792150
31
0.0000000000
11
130.3404522025
21
227.1452892595
31
0.0000000000
11
129.3905832182
21
226.8076859734
31
0.0000000000
0
SPLINE
5
48F
100
AcDbEntity
8
0
100
AcDbSpline
62
7
6
BYLAYER
70
0
71
3
72
8
73
4
74
2
42
0.0000001000
43
0.0000001000
44
0.0000000001
40
0.0000000000
40
0.0000000000
40
0.0000000000
40
0.0000000000
40
1.0000000000
40
1.0000000000
40
1.0000000000
40
1.0000000000
10
155.3690402200
20
227.1381465652
30
0.0000000000
10
154.7554110544
20
226.8399755290
30
0.0000000000
10
154.1036351053
20
226.6198228293
30
0.0000000000
10
153.4405183428
20
226.4527095904
30
0.0000000000
11
155.3690402200
21
227.1381465652
31
0.0000000000
11
153.4405183428
21
226.4527095904
31
0.0000000000
0
SPLINE
5
490
100
AcDbEntity
8
0
100
AcDbSpline
62
7
6
BYLAYER
70
0
71
3
72
9
73
5
74
3
42
0.0000001000
43
0.0000001000
44
0.0000000001
40
0.0000000000
40
0.0000000000
40
0.0000000000
40
0.0000000000
40
0.4974460892
40
1.0000000000
40
1.0000000000
40
1.0000000000
40
1.0000000000
10
153.4405183428
20
226.4527095904
30
0.0000000000
10
152.7006247079
20
226.2662476748
30
0.0000000000
10
151.1848572437
20
226.0241522420
30
0.0000000000
10
149.6467042161
20
226.0124600704
30
0.0000000000
10
148.8799539703
20
226.0718062692
30
0.0000000000
11
153.4405183428
21
226.4527095904
31
0.0000000000
11
151.1870601475
21
226.0824027110
31
0.0000000000
11
148.8799539703
21
226.0718062692
31
0.0000000000
0
SPLINE
5
491
100
AcDbEntity
8
0
100
AcDbSpline
62
7
6
BYLAYER
70
0
71
3
72
8
73
4
74
2
42
0.0000001000
43
0.0000001000
44
0.0000000001
40
0.0000000000
40
0.0000000000
40
0.0000000000
40
0.0000000000
40
1.0000000000
40
1.0000000000
40
1.0000000000
40
1.0000000000
10
69.4665238602
20
173.4779109973
30
0.0000000000
10
69.2467737654
20
173.5816565575
30
0.0000000000
10
69.0089628283
20
173.6461594656
30
0.0000000000
10
68.7685623906
20
173.6884555192
30
0.0000000000
11
69.4665238602
21
173.4779109973
31
0.0000000000
11
68.7685623906
21
173.6884555192
31
0.0000000000
0
SPLINE
5
492
100
AcDbEntity
8
0
100
AcDbSpline
62
7
6
BYLAYER
70
0
71
3
72
8
73
4
74
2
42
0.0000001000
43
0.0000001000
44
0.0000000001
40
0.0000000000
40
0.0000000000
40
0.0000000000
40
0.0000000000
40
1.0000000000
40
1.0000000000
40
1.0000000000
40
1.0000000000
10
68.7685623906
20
173.6884555192
30
0.0000000000
10
68.4861195412
20
173.7381485147
30
0.0000000000
10
68.2001022627
20
173.7571881769
30
0.0000000000
10
67.9144446578
20
173.7525855292
30
0.0000000000
11
68.7685623906
21
173.6884555192
31
0.0000000000
11
67.9144446578
21
173.7525855292
31
0.0000000000
0
SPLINE
5
493
100
AcDbEntity
8
0
100
AcDbSpline
62
7
6
BYLAYER
70
0
71
3
72
9
73
5
74
3
42
0.0000001000
43
0.0000001000
44
0.0000000001
40
0.0000000000
40
0.0000000000
40
0.0000000000
40
0.0000000000
40
0.5217568030
40
1.0000000000
40
1.0000000000
40
1.0000000000
40
1.0000000000
10
67.9144446578
20
173.7525855292
30
0.0000000000
10
67.6185362349
20
173.7478177155
30
0.0000000000
10
67.0521373479
20
173.6900563678
30
0.0000000000
10
66.5021409122
20
173.5337147397
30
0.0000000000
10
66.2531284209
20
173.4265644171
30
0.0000000000
11
67.9144446578
21
173.7525855292
31
0.0000000000
11
67.0319565319
21
173.6607064376
31
0.0000000000
11
66.2531284209
21
173.4265644171
31
0.0000000000
0
SPLINE
5
494
100
AcDbEntity
8
0
100
AcDbSpline
62
7
6
BYLAYER
70
0
71
3
72
8
73
4
74
2
42
0.0000001000
43
0.0000001000
44
0.0000000001
40
0.0000000000
40
0.0000000000
40
0.0000000000
40
0.0000000000
40
1.0000000000
40
1.0000000000
40
1.0000000000
40
1.0000000000
10
133.3036026561
20
230.5461101203
30
0.0000000000
10
132.9249920312
20
230.5759912008
30
0.0000000000
10
132.5432304689
20
230.5735122961
30
0.0000000000
10
132.1642454367
20
230.5422261634
30
0.0000000000
11
133.3036026561
21
230.5461101203
31
0.0000000000
11
132.1642454367
21
230.5422261634
31
0.0000000000
0
SPLINE
5
495
100
AcDbEntity
8
0
100
AcDbSpline
62
7
6
BYLAYER
70
0
71
3
72
9
73
5
74
3
42
0.0000001000
43
0.0000001000
44
0.0000000001
40
0.0000000000
40
0.0000000000
40
0.0000000000
40
0.0000000000
40
0.5273670395
40
1.0000000000
40
1.0000000000
40
1.0000000000
40
1.0000000000
10
132.1642454367
20
230.5422261634
30
0.0000000000
10
131.7889056674
20
230.5112409560
30
0.0000000000
10
131.0823457833
20
230.3989075485
30
0.0000000000
10
130.4008444580
20
230.1689947013
30
0.0000000000
10
130.0976468780
20
230.0216667357
30
0.0000000000
11
132.1642454367
21
230.5422261634
31
0.0000000000
11
131.0506420648
21
230.3600583601
31
0.0000000000
11
130.0976468780
21
230.0216667357
31
0.0000000000
0
SPLINE
5
496
100
AcDbEntity
8
0
100
AcDbSpline
62
7
6
BYLAYER
70
0
71
3
72
8
73
4
74
2
42
0.0000001000
43
0.0000001000
44
0.0000000001
40
0.0000000000
40
0.0000000000
40
0.0000000000
40
0.0000000000
40
1.0000000000
40
1.0000000000
40
1.0000000000
40
1.0000000000
10
148.1401191833
20
230.8077531823
30
0.0000000000
10
147.5340331618
20
230.5403936671
30
0.0000000000
10
146.8973549302
20
230.3414257618
30
0.0000000000
10
146.2508698870
20
230.1912067700
30
0.0000000000
11
148.1401191833
21
230.8077531823
31
0.0000000000
11
146.2508698870
21
230.1912067700
31
0.0000000000
0
SPLINE
5
497
100
AcDbEntity
8
0
100
AcDbSpline
62
7
6
BYLAYER
70
0
71
3
72
9
73
5
74
3
42
0.0000001000
43
0.0000001000
44
0.0000000001
40
0.0000000000
40
0.0000000000
40
0.0000000000
40
0.0000000000
40
0.4989132893
40
1.0000000000
40
1.0000000000
40
1.0000000000
40
1.0000000000
10
146.2508698870
20
230.1912067700
30
0.0000000000
10
145.5408214609
20
230.0262180207
30
0.0000000000
10
144.0939197693
20
229.8133905747
30
0.0000000000
10
142.6287877506
20
229.8101386817
30
0.0000000000
10
141.9003158442
20
229.8676318587
30
0.0000000000
11
146.2508698870
21
230.1912067700
31
0.0000000000
11
144.0925267042
21
229.8660195262
31
0.0000000000
11
141.9003158442
21
229.8676318587
31
0.0000000000
0
SPLINE
5
498
100
AcDbEntity
8
0
100
AcDbSpline
62
7
6
BYLAYER
70
0
71
3
72
8
73
4
74
2
42
0.0000001000
43
0.0000001000
44
0.0000000001
40
0.0000000000
40
0.0000000000
40
0.0000000000
40
0.0000000000
40
1.0000000000
40
1.0000000000
40
1.0000000000
40
1.0000000000
10
68.0668603820
20
185.5713811629
30
0.0000000000
10
68.0330151847
20
185.5568175408
30
0.0000000000
10
67.9993677723
20
185.5417783717
30
0.0000000000
10
67.9659222855
20
185.5262786679
30
0.0000000000
11
68.0668603820
21
185.5713811629
31
0.0000000000
11
67.9659222855
21
185.5262786679
31
0.0000000000
0
SPLINE
5
499
100
AcDbEntity
8
0
100
AcDbSpline
62
7
6
BYLAYER
70
0
71
3
72
11
73
7
74
5
42
0.0000001000
43
0.0000001000
44
0.0000000001
40
0.0000000000
40
0.0000000000
40
0.0000000000
40
0.0000000000
40
0.2253711105
40
0.4895668056
40
0.7590953738
40
1.0000000000
40
1.0000000000
40
1.0000000000
40
1.0000000000
10
67.9659222855
20
185.5262786679
30
0.0000000000
10
67.4987519497
20
185.3097770564
30
0.0000000000
10
66.5695136320
20
184.6442899098
30
0.0000000000
10
65.4995069187
20
183.2543385489
30
0.0000000000
10
64.8193353854
20
181.5996694082
30
0.0000000000
10
64.6798001545
20
180.4214213097
30
0.0000000000
10
64.7054474489
20
179.8716583894
30
0.0000000000
11
67.9659222855
21
185.5262786679
31
0.0000000000
11
66.6938875072
21
184.6481247021
31
0.0000000000
11
65.5765351652
21
183.2242138841
31
0.0000000000
11
64.8802629298
21
181.5140115129
31
0.0000000000
11
64.7054474489
21
179.8716583894
31
0.0000000000
0
SPLINE
5
49A
100
AcDbEntity
8
0
100
AcDbSpline
62
7
6
BYLAYER
70
0
71
3
72
8
73
4
74
2
42
0.0000001000
43
0.0000001000
44
0.0000000001
40
0.0000000000
40
0.0000000000
40
0.0000000000
40
0.0000000000
40
1.0000000000
40
1.0000000000
40
1.0000000000
40
1.0000000000
10
64.7054474489
20
179.8716583894
30
0.0000000000
10
64.7069937731
20
179.8385121380
30
0.0000000000
10
64.7088727191
20
179.8053888764
30
0.0000000000
10
64.7110892733
20
179.7722942831
30
0.0000000000
11
64.7054474489
21
179.8716583894
31
0.0000000000
11
64.7110892733
21
179.7722942831
31
0.0000000000
0
SPLINE
5
49B
100
AcDbEntity
8
0
100
AcDbSpline
62
7
6
BYLAYER
70
0
71
3
72
8
73
4
74
2
42
0.0000001000
43
0.0000001000
44
0.0000000001
40
0.0000000000
40
0.0000000000
40
0.0000000000
40
0.0000000000
40
1.0000000000
40
1.0000000000
40
1.0000000000
40
1.0000000000
10
160.3142418455
20
244.0827893286
30
0.0000000000
10
160.4368045832
20
244.0322614211
30
0.0000000000
10
160.5539215712
20
243.9695005946
30
0.0000000000
10
160.6625295480
20
243.8951140188
30
0.0000000000
11
160.3142418455
21
244.0827893286
31
0.0000000000
11
160.6625295480
21
243.8951140188
31
0.0000000000
0
SPLINE
5
49C
100
AcDbEntity
8
0
100
AcDbSpline
62
7
6
BYLAYER
70
0
71
3
72
9
73
5
74
3
42
0.0000001000
43
0.0000001000
44
0.0000000001
40
0.0000000000
40
0.0000000000
40
0.0000000000
40
0.0000000000
40
0.4595952923
40
1.0000000000
40
1.0000000000
40
1.0000000000
40
1.0000000000
10
160.6625295480
20
243.8951140188
30
0.0000000000
10
160.9870079898
20
243.6728758282
30
0.0000000000
10
161.5277631309
20
242.9635396524
30
0.0000000000
10
161.7083115892
20
242.1112133836
30
0.0000000000
10
161.7390105422
20
241.6528580683
30
0.0000000000
11
160.6625295480
21
243.8951140188
31
0.0000000000
11
161.4079793471
21
242.9906572066
31
0.0000000000
11
161.7390105422
21
241.6528580683
31
0.0000000000
0
SPLINE
5
49D
100
AcDbEntity
8
0
100
AcDbSpline
62
7
6
BYLAYER
70
0
71
3
72
11
73
7
74
5
42
0.0000001000
43
0.0000001000
44
0.0000000001
40
0.0000000000
40
0.0000000000
40
0.0000000000
40
0.0000000000
40
0.2505936192
40
0.5145049360
40
0.7704283705
40
1.0000000000
40
1.0000000000
40
1.0000000000
40
1.0000000000
10
162.2260634150
20
234.3808422220
30
0.0000000000
10
162.2610579150
20
233.8583515999
30
0.0000000000
10
162.1517103453
20
232.7705982782
30
0.0000000000
10
161.5771249248
20
231.2494350823
30
0.0000000000
10
160.6667536868
20
229.9548553234
30
0.0000000000
10
159.8483113626
20
229.3146873702
30
0.0000000000
10
159.4168224693
20
229.1050208523
30
0.0000000000
11
162.2260634150
21
234.3808422220
31
0.0000000000
11
162.0894532166
21
232.8158095578
31
0.0000000000
11
161.5083307428
21
231.2667526330
31
0.0000000000
11
160.5712005533
21
229.9644949144
31
0.0000000000
11
159.4168224693
21
229.1050208523
31
0.0000000000
0
SPLINE
5
49E
100
AcDbEntity
8
0
100
AcDbSpline
62
7
6
BYLAYER
70
0
71
3
72
11
73
7
74
5
42
0.0000001000
43
0.0000001000
44
0.0000000001
40
0.0000000000
40
0.0000000000
40
0.0000000000
40
0.0000000000
40
0.2483773651
40
0.5103703371
40
0.7666260229
40
1.0000000000
40
1.0000000000
40
1.0000000000
40
1.0000000000
10
153.8186958372
20
237.2121234560
30
0.0000000000
10
153.8535977566
20
236.6910151225
30
0.0000000000
10
153.7354433251
20
235.6041933880
30
0.0000000000
10
153.1245155270
20
234.0931747613
30
0.0000000000
10
152.1601930025
20
232.8178469552
30
0.0000000000
10
151.3034341540
20
232.2031695539
30
0.0000000000
10
150.8544503063
20
232.0051116882
30
0.0000000000
11
153.8186958372
21
237.2121234560
31
0.0000000000
11
153.6702526992
21
235.6523436678
31
0.0000000000
11
153.0555633731
21
234.1181877328
31
0.0000000000
11
152.0682278965
21
232.8382171344
31
0.0000000000
11
150.8544503063
21
232.0051116882
31
0.0000000000
0
SPLINE
5
49F
100
AcDbEntity
8
0
100
AcDbSpline
62
7
6
BYLAYER
70
0
71
3
72
8
73
4
74
2
42
0.0000001000
43
0.0000001000
44
0.0000000001
40
0.0000000000
40
0.0000000000
40
0.0000000000
40
0.0000000000
40
1.0000000000
40
1.0000000000
40
1.0000000000
40
1.0000000000
10
156.6595452266
20
250.0809460868
30
0.0000000000
10
156.6252788891
20
250.0658303589
30
0.0000000000
10
156.5912242655
20
250.0502199581
30
0.0000000000
10
156.5573853781
20
250.0341311915
30
0.0000000000
11
156.6595452266
21
250.0809460868
31
0.0000000000
11
156.5573853781
21
250.0341311915
31
0.0000000000
0
SPLINE
5
4A0
100
AcDbEntity
8
0
100
AcDbSpline
62
7
6
BYLAYER
70
0
71
3
72
11
73
7
74
5
42
0.0000001000
43
0.0000001000
44
0.0000000001
40
0.0000000000
40
0.0000000000
40
0.0000000000
40
0.0000000000
40
0.2462884699
40
0.5365453933
40
0.8333008535
40
1.0000000000
40
1.0000000000
40
1.0000000000
40
1.0000000000
10
156.5573853781
20
250.0341311915
30
0.0000000000
10
156.0956784821
20
249.8146117257
30
0.0000000000
10
155.1773343928
20
249.1423737289
30
0.0000000000
10
154.1224135093
20
247.7472285345
30
0.0000000000
10
153.5297514976
20
246.2813870032
30
0.0000000000
10
153.3726113478
20
245.3219448864
30
0.0000000000
10
153.3485018666
20
244.9755968588
30
0.0000000000
11
156.5573853781
21
250.0341311915
31
0.0000000000
11
155.3029702729
21
249.1498282352
31
0.0000000000
11
154.1994776814
21
247.7192728604
31
0.0000000000
11
153.5124719640
21
246.0046279919
31
0.0000000000
11
153.3485018666
21
244.9755968588
31
0.0000000000
0
SPLINE
5
4A1
100
AcDbEntity
8
0
100
AcDbSpline
62
7
6
BYLAYER
70
0
71
3
72
8
73
4
74
2
42
0.0000001000
43
0.0000001000
44
0.0000000001
40
0.0000000000
40
0.0000000000
40
0.0000000000
40
0.0000000000
40
1.0000000000
40
1.0000000000
40
1.0000000000
40
1.0000000000
10
53.9524714382
20
168.1335794851
30
0.0000000000
10
53.9205654950
20
168.1198503260
30
0.0000000000
10
53.8888179910
20
168.1057366285
30
0.0000000000
10
53.8572322870
20
168.0912495312
30
0.0000000000
11
53.9524714382
21
168.1335794851
31
0.0000000000
11
53.8572322870
21
168.0912495312
31
0.0000000000
0
SPLINE
5
4A2
100
AcDbEntity
8
0
100
AcDbSpline
62
7
6
BYLAYER
70
0
71
3
72
12
73
8
74
6
42
0.0000001000
43
0.0000001000
44
0.0000000001
40
0.0000000000
40
0.0000000000
40
0.0000000000
40
0.0000000000
40
0.1741798350
40
0.3776419954
40
0.5908873873
40
0.8008992558
40
1.0000000000
40
1.0000000000
40
1.0000000000
40
1.0000000000
10
53.8572322870
20
168.0912495312
30
0.0000000000
10
53.4501194600
20
167.9045231827
30
0.0000000000
10
52.6257304785
20
167.3651842202
30
0.0000000000
10
51.5864639881
20
166.2404567147
30
0.0000000000
10
50.7753046004
20
164.8331234102
30
0.0000000000
10
50.2891260928
20
163.2966793686
30
0.0000000000
10
50.2092626513
20
162.2346699354
30
0.0000000000
10
50.2434612654
20
161.7240624075
30
0.0000000000
11
53.8572322870
21
168.0912495312
31
0.0000000000
11
52.7237298546
21
167.3688219855
31
0.0000000000
11
51.6498185210
21
166.2250934521
31
0.0000000000
11
50.8262462198
21
164.8018833546
31
0.0000000000
11
50.3437745057
21
163.2560361635
31
0.0000000000
11
50.2434612654
21
161.7240624075
31
0.0000000000
0
SPLINE
5
4A3
100
AcDbEntity
8
0
100
AcDbSpline
62
7
6
BYLAYER
70
0
71
3
72
10
73
6
74
4
42
0.0000001000
43
0.0000001000
44
0.0000000001
40
0.0000000000
40
0.0000000000
40
0.0000000000
40
0.0000000000
40
0.3430887461
40
0.7051155222
40
1.0000000000
40
1.0000000000
40
1.0000000000
40
1.0000000000
10
64.7379488067
20
179.3712639975
30
0.0000000000
10
64.7728258878
20
178.8505265162
30
0.0000000000
10
64.6525080351
20
177.7640039858
30
0.0000000000
10
64.0676045707
20
176.3410956965
30
0.0000000000
10
63.4702472461
20
175.5286761583
30
0.0000000000
10
63.1590795178
20
175.2026800580
30
0.0000000000
11
64.7379488067
21
179.3712639975
31
0.0000000000
11
64.5865829035
21
177.8128854234
31
0.0000000000
11
63.9636024823
21
176.2827043545
31
0.0000000000
11
63.1590795178
21
175.2026800580
31
0.0000000000
0
SPLINE
5
4A4
100
AcDbEntity
8
0
100
AcDbSpline
62
7
6
BYLAYER
70
0
71
3
72
8
73
4
74
2
42
0.0000001000
43
0.0000001000
44
0.0000000001
40
0.0000000000
40
0.0000000000
40
0.0000000000
40
0.0000000000
40
1.0000000000
40
1.0000000000
40
1.0000000000
40
1.0000000000
10
63.1590795178
20
175.2026800580
30
0.0000000000
10
63.0957882556
20
175.1363727171
30
0.0000000000
10
63.0307173381
20
175.0716662499
30
0.0000000000
10
62.9638661763
20
175.0086788857
30
0.0000000000
11
63.1590795178
21
175.2026800580
31
0.0000000000
11
62.9638661763
21
175.0086788857
31
0.0000000000
0
SPLINE
5
4A5
100
AcDbEntity
8
0
100
AcDbSpline
62
7
6
BYLAYER
70
0
71
3
72
8
73
4
74
2
42
0.0000001000
43
0.0000001000
44
0.0000000001
40
0.0000000000
40
0.0000000000
40
0.0000000000
40
0.0000000000
40
1.0000000000
40
1.0000000000
40
1.0000000000
40
1.0000000000
10
62.9638661763
20
175.0086788857
30
0.0000000000
10
62.6023137449
20
174.6680231054
30
0.0000000000
10
62.1886893127
20
174.3776509449
30
0.0000000000
10
61.7354167620
20
174.1826073156
30
0.0000000000
11
62.9638661763
21
175.0086788857
31
0.0000000000
11
61.7354167620
21
174.1826073156
31
0.0000000000
0
SPLINE
5
4A6
100
AcDbEntity
8
0
100
AcDbSpline
62
7
6
BYLAYER
70
0
71
3
72
8
73
4
74
2
42
0.0000001000
43
0.0000001000
44
0.0000000001
40
0.0000000000
40
0.0000000000
40
0.0000000000
40
0.0000000000
40
1.0000000000
40
1.0000000000
40
1.0000000000
40
1.0000000000
10
84.8332779928
20
165.9085715772
30
0.0000000000
10
84.5734576350
20
165.7767547065
30
0.0000000000
10
84.2830398670
20
165.6867162789
30
0.0000000000
10
83.9883514473
20
165.6848756128
30
0.0000000000
11
84.8332779928
21
165.9085715772
31
0.0000000000
11
83.9883514473
21
165.6848756128
31
0.0000000000
0
SPLINE
5
4A7
100
AcDbEntity
8
0
100
AcDbSpline
62
7
6
BYLAYER
70
0
71
3
72
8
73
4
74
2
42
0.0000001000
43
0.0000001000
44
0.0000000001
40
0.0000000000
40
0.0000000000
40
0.0000000000
40
0.0000000000
40
1.0000000000
40
1.0000000000
40
1.0000000000
40
1.0000000000
10
83.9883514473
20
165.6848756128
30
0.0000000000
10
83.8031632051
20
165.6837189004
30
0.0000000000
10
83.6162884300
20
165.7173925704
30
0.0000000000
10
83.4436725090
20
165.7845646590
30
0.0000000000
11
83.9883514473
21
165.6848756128
31
0.0000000000
11
83.4436725090
21
165.7845646590
31
0.0000000000
0
SPLINE
5
4A8
100
AcDbEntity
8
0
100
AcDbSpline
62
7
6
BYLAYER
70
0
71
3
72
8
73
4
74
2
42
0.0000001000
43
0.0000001000
44
0.0000000001
40
0.0000000000
40
0.0000000000
40
0.0000000000
40
0.0000000000
40
1.0000000000
40
1.0000000000
40
1.0000000000
40
1.0000000000
10
73.6939549152
20
188.2785984615
30
0.0000000000
10
73.5052347085
20
188.1316862514
30
0.0000000000
10
73.3083161739
20
187.9951449135
30
0.0000000000
10
73.1060030329
20
187.8673817193
30
0.0000000000
11
73.6939549152
21
188.2785984615
31
0.0000000000
11
73.1060030329
21
187.8673817193
31
0.0000000000
0
SPLINE
5
4A9
100
AcDbEntity
8
0
100
AcDbSpline
62
7
6
BYLAYER
70
0
71
3
72
8
73
4
74
2
42
0.0000001000
43
0.0000001000
44
0.0000000001
40
0.0000000000
40
0.0000000000
40
0.0000000000
40
0.0000000000
40
1.0000000000
40
1.0000000000
40
1.0000000000
40
1.0000000000
10
73.1060030329
20
187.8673817193
30
0.0000000000
10
72.8871120738
20
187.7291494326
30
0.0000000000
10
72.6619062037
20
187.6011928160
30
0.0000000000
10
72.4322479369
20
187.4818148285
30
0.0000000000
11
73.1060030329
21
187.8673817193
31
0.0000000000
11
72.4322479369
21
187.4818148285
31
0.0000000000
0
SPLINE
5
4AA
100
AcDbEntity
8
0
100
AcDbSpline
62
7
6
BYLAYER
70
0
71
3
72
8
73
4
74
2
42
0.0000001000
43
0.0000001000
44
0.0000000001
40
0.0000000000
40
0.0000000000
40
0.0000000000
40
0.0000000000
40
1.0000000000
40
1.0000000000
40
1.0000000000
40
1.0000000000
10
72.4322479369
20
187.4818148285
30
0.0000000000
10
72.1861588740
20
187.3538959974
30
0.0000000000
10
71.9349575348
20
187.2358272143
30
0.0000000000
10
71.6802639337
20
187.1262323045
30
0.0000000000
11
72.4322479369
21
187.4818148285
31
0.0000000000
11
71.6802639337
21
187.1262323045
31
0.0000000000
0
SPLINE
5
4AB
100
AcDbEntity
8
0
100
AcDbSpline
62
7
6
BYLAYER
70
0
71
3
72
9
73
5
74
3
42
0.0000001000
43
0.0000001000
44
0.0000000001
40
0.0000000000
40
0.0000000000
40
0.0000000000
40
0.0000000000
40
0.3859079987
40
1.0000000000
40
1.0000000000
40
1.0000000000
40
1.0000000000
10
81.9969540214
20
174.4420853103
30
0.0000000000
10
81.7977818048
20
174.5195915664
30
0.0000000000
10
81.2390353127
20
174.6202742024
30
0.0000000000
10
80.6933557991
20
174.4510967939
30
0.0000000000
10
80.3935630785
20
174.2990004047
30
0.0000000000
11
81.9969540214
21
174.4420853103
31
0.0000000000
11
81.3684783233
21
174.5571111329
31
0.0000000000
11
80.3935630785
21
174.2990004047
31
0.0000000000
0
SPLINE
5
4AC
100
AcDbEntity
8
0
100
AcDbSpline
62
7
6
BYLAYER
70
0
71
3
72
11
73
7
74
5
42
0.0000001000
43
0.0000001000
44
0.0000000001
40
0.0000000000
40
0.0000000000
40
0.0000000000
40
0.0000000000
40
0.0744919358
40
0.3377072157
40
0.6456741181
40
1.0000000000
40
1.0000000000
40
1.0000000000
40
1.0000000000
10
80.9448401933
20
166.5036900785
30
0.0000000000
10
80.8658317275
20
166.5344355835
30
0.0000000000
10
80.5202241915
20
166.7033626284
30
0.0000000000
10
80.0202496229
20
167.2780835879
30
0.0000000000
10
79.7306204140
20
168.3010743760
30
0.0000000000
10
79.7525937338
20
169.0545340279
30
0.0000000000
10
79.8122078053
20
169.4501553279
30
0.0000000000
11
80.9448401933
21
166.5036900785
31
0.0000000000
11
80.7174547848
21
166.6153664498
31
0.0000000000
11
80.1108694534
21
167.2643549815
31
0.0000000000
11
79.7946939048
21
168.2544614927
31
0.0000000000
11
79.8122078053
21
169.4501553279
31
0.0000000000
0
SPLINE
5
4AD
100
AcDbEntity
8
0
100
AcDbSpline
62
7
6
BYLAYER
70
0
71
3
72
8
73
4
74
2
42
0.0000001000
43
0.0000001000
44
0.0000000001
40
0.0000000000
40
0.0000000000
40
0.0000000000
40
0.0000000000
40
1.0000000000
40
1.0000000000
40
1.0000000000
40
1.0000000000
10
79.8122078053
20
169.4501553279
30
0.0000000000
10
79.8763086000
20
169.8755522028
30
0.0000000000
10
79.9957427706
20
170.2923022186
30
0.0000000000
10
80.1610137660
20
170.6877640261
30
0.0000000000
11
79.8122078053
21
169.4501553279
31
0.0000000000
11
80.1610137660
21
170.6877640261
31
0.0000000000
0
SPLINE
5
4AE
100
AcDbEntity
8
0
100
AcDbSpline
62
7
6
BYLAYER
70
0
71
3
72
8
73
4
74
2
42
0.0000001000
43
0.0000001000
44
0.0000000001
40
0.0000000000
40
0.0000000000
40
0.0000000000
40
0.0000000000
40
1.0000000000
40
1.0000000000
40
1.0000000000
40
1.0000000000
10
81.9049832549
20
174.2097517135
30
0.0000000000
10
81.7190891861
20
174.2820908858
30
0.0000000000
10
81.5178394282
20
174.3183548381
30
0.0000000000
10
81.3184059366
20
174.3171091479
30
0.0000000000
11
81.9049832549
21
174.2097517135
31
0.0000000000
11
81.3184059366
21
174.3171091479
31
0.0000000000
0
SPLINE
5
4AF
100
AcDbEntity
8
0
100
AcDbSpline
62
7
6
BYLAYER
70
0
71
3
72
8
73
4
74
2
42
0.0000001000
43
0.0000001000
44
0.0000000001
40
0.0000000000
40
0.0000000000
40
0.0000000000
40
0.0000000000
40
1.0000000000
40
1.0000000000
40
1.0000000000
40
1.0000000000
10
81.3184059366
20
174.3171091479
30
0.0000000000
10
81.0010491770
20
174.3151268920
30
0.0000000000
10
80.6882915807
20
174.2181624315
30
0.0000000000
10
80.4084850415
20
174.0762058016
30
0.0000000000
11
81.3184059366
21
174.3171091479
31
0.0000000000
11
80.4084850415
21
174.0762058016
31
0.0000000000
0
SPLINE
5
4B0
100
AcDbEntity
8
0
100
AcDbSpline
62
7
6
BYLAYER
70
0
71
3
72
9
73
5
74
3
42
0.0000001000
43
0.0000001000
44
0.0000000001
40
0.0000000000
40
0.0000000000
40
0.0000000000
40
0.0000000000
40
0.2507766858
40
1.0000000000
40
1.0000000000
40
1.0000000000
40
1.0000000000
10
160.4106033526
20
244.3132742920
30
0.0000000000
10
160.5403756631
20
244.2597741546
30
0.0000000000
10
161.0348643042
20
243.9947868430
30
0.0000000000
10
161.3860918176
20
243.5340637499
30
0.0000000000
10
161.5686783543
20
243.1568991040
30
0.0000000000
11
160.4106033526
21
244.3132742920
31
0.0000000000
11
160.7793785669
21
244.1145592580
31
0.0000000000
11
161.5686783543
21
243.1568991040
31
0.0000000000
0
SPLINE
5
4B1
100
AcDbEntity
8
0
100
AcDbSpline
62
7
6
BYLAYER
70
0
71
3
72
8
73
4
74
2
42
0.0000001000
43
0.0000001000
44
0.0000000001
40
0.0000000000
40
0.0000000000
40
0.0000000000
40
0.0000000000
40
1.0000000000
40
1.0000000000
40
1.0000000000
40
1.0000000000
10
161.5686783543
20
243.1568991040
30
0.0000000000
10
161.7833685951
20
242.7134186035
30
0.0000000000
10
161.8866771988
20
242.2257232913
30
0.0000000000
10
161.9191819726
20
241.7404058987
30
0.0000000000
11
161.5686783543
21
243.1568991040
31
0.0000000000
11
161.9191819726
21
241.7404058987
31
0.0000000000
0
SPLINE
5
4B2
100
AcDbEntity
8
0
100
AcDbSpline
62
7
6
BYLAYER
70
0
71
3
72
9
73
5
74
3
42
0.0000001000
43
0.0000001000
44
0.0000000001
40
0.0000000000
40
0.0000000000
40
0.0000000000
40
0.0000000000
40
0.6339012169
40
1.0000000000
40
1.0000000000
40
1.0000000000
40
1.0000000000
10
156.0591628291
20
245.1553636885
30
0.0000000000
10
156.4482909120
20
245.3444464933
30
0.0000000000
10
157.1371326073
20
245.5388321651
30
0.0000000000
10
157.8280850656
20
245.3903336810
30
0.0000000000
10
158.0622652907
20
245.2937901721
30
0.0000000000
11
156.0591628291
21
245.1553636885
31
0.0000000000
11
157.3224542593
21
245.4531077226
31
0.0000000000
11
158.0622652907
21
245.2937901721
31
0.0000000000
0
SPLINE
5
4B3
100
AcDbEntity
8
0
100
AcDbSpline
62
7
6
BYLAYER
70
0
71
3
72
10
73
6
74
4
42
0.0000001000
43
0.0000001000
44
0.0000000001
40
0.0000000000
40
0.0000000000
40
0.0000000000
40
0.0000000000
40
0.3115279048
40
0.6523244102
40
1.0000000000
40
1.0000000000
40
1.0000000000
40
1.0000000000
10
53.9673934012
20
167.9107848820
30
0.0000000000
10
53.4341315769
20
167.6813217887
30
0.0000000000
10
52.4151790882
20
166.9659979040
30
0.0000000000
10
51.2649160714
20
165.4717926568
30
0.0000000000
10
50.7716081343
20
164.2717109414
30
0.0000000000
10
50.6130802936
20
163.6398694609
30
0.0000000000
11
53.9673934012
21
167.9107848820
31
0.0000000000
11
52.5221587962
21
166.9389359759
31
0.0000000000
11
51.3459984362
21
165.4400824833
31
0.0000000000
11
50.6130802936
21
163.6398694609
31
0.0000000000
0
SPLINE
5
4B4
100
AcDbEntity
8
0
100
AcDbSpline
62
7
6
BYLAYER
70
0
71
3
72
8
73
4
74
2
42
0.0000001000
43
0.0000001000
44
0.0000000001
40
0.0000000000
40
0.0000000000
40
0.0000000000
40
0.0000000000
40
1.0000000000
40
1.0000000000
40
1.0000000000
40
1.0000000000
10
50.6130802936
20
163.6398694609
30
0.0000000000
10
50.4628452235
20
163.0410803228
30
0.0000000000
10
50.3939709004
20
162.4191152342
30
0.0000000000
10
50.4350027604
20
161.8064829033
30
0.0000000000
11
50.6130802936
21
163.6398694609
31
0.0000000000
11
50.4350027604
21
161.8064829033
31
0.0000000000
0
SPLINE
5
4B5
100
AcDbEntity
8
0
100
AcDbSpline
62
7
6
BYLAYER
70
0
71
3
72
8
73
4
74
2
42
0.0000001000
43
0.0000001000
44
0.0000000001
40
0.0000000000
40
0.0000000000
40
0.0000000000
40
0.0000000000
40
1.0000000000
40
1.0000000000
40
1.0000000000
40
1.0000000000
10
64.9294903017
20
179.4536844933
30
0.0000000000
10
64.9317072036
20
179.4205847081
30
0.0000000000
10
64.9335676296
20
179.3874546525
30
0.0000000000
10
64.9350771378
20
179.3543006563
30
0.0000000000
11
64.9294903017
21
179.4536844933
31
0.0000000000
11
64.9350771378
21
179.3543006563
31
0.0000000000
0
SPLINE
5
4B6
100
AcDbEntity
8
0
100
AcDbSpline
62
7
6
BYLAYER
70
0
71
3
72
10
73
6
74
4
42
0.0000001000
43
0.0000001000
44
0.0000000001
40
0.0000000000
40
0.0000000000
40
0.0000000000
40
0.0000000000
40
0.3339926776
40
0.7089294989
40
1.0000000000
40
1.0000000000
40
1.0000000000
40
1.0000000000
10
64.9350771378
20
179.3543006563
30
0.0000000000
10
64.9587126928
20
178.8351825200
30
0.0000000000
10
64.8262681166
20
177.7208492075
30
0.0000000000
10
64.2282829968
20
176.2661168703
30
0.0000000000
10
63.6137620235
20
175.4213560734
30
0.0000000000
10
63.3038229988
20
175.0887463436
30
0.0000000000
11
64.9350771378
21
179.3543006563
31
0.0000000000
11
64.7692205219
21
177.8036365913
31
0.0000000000
11
64.1095941936
21
176.1834448713
31
0.0000000000
11
63.3038229988
21
175.0887463436
31
0.0000000000
0
SPLINE
5
4B7
100
AcDbEntity
8
0
100
AcDbSpline
62
7
6
BYLAYER
70
0
71
3
72
8
73
4
74
2
42
0.0000001000
43
0.0000001000
44
0.0000000001
40
0.0000000000
40
0.0000000000
40
0.0000000000
40
0.0000000000
40
1.0000000000
40
1.0000000000
40
1.0000000000
40
1.0000000000
10
63.3038229988
20
175.0887463436
30
0.0000000000
10
63.2224194520
20
175.0013884780
30
0.0000000000
10
63.1381621297
20
174.9165541595
30
0.0000000000
10
63.0510498696
20
174.8344767279
30
0.0000000000
11
63.3038229988
21
175.0887463436
31
0.0000000000
11
63.0510498696
21
174.8344767279
31
0.0000000000
0
SPLINE
5
4B8
100
AcDbEntity
8
0
100
AcDbSpline
62
7
6
BYLAYER
70
0
71
3
72
8
73
4
74
2
42
0.0000001000
43
0.0000001000
44
0.0000000001
40
0.0000000000
40
0.0000000000
40
0.0000000000
40
0.0000000000
40
1.0000000000
40
1.0000000000
40
1.0000000000
40
1.0000000000
10
63.0510498696
20
174.8344767279
30
0.0000000000
10
62.7224929447
20
174.5249094123
30
0.0000000000
10
62.3533235540
20
174.2545597523
30
0.0000000000
10
61.9518579597
20
174.0535797798
30
0.0000000000
11
63.0510498696
21
174.8344767279
31
0.0000000000
11
61.9518579597
21
174.0535797798
31
0.0000000000
0
SPLINE
5
4B9
100
AcDbEntity
8
0
100
AcDbSpline
62
7
6
BYLAYER
70
0
71
3
72
8
73
4
74
2
42
0.0000001000
43
0.0000001000
44
0.0000000001
40
0.0000000000
40
0.0000000000
40
0.0000000000
40
0.0000000000
40
1.0000000000
40
1.0000000000
40
1.0000000000
40
1.0000000000
10
78.6435841391
20
173.1808036247
30
0.0000000000
10
78.1614687553
20
172.9362079290
30
0.0000000000
10
77.6488196399
20
172.7515191483
30
0.0000000000
10
77.1264500582
20
172.6075106289
30
0.0000000000
11
78.6435841391
21
173.1808036247
31
0.0000000000
11
77.1264500582
21
172.6075106289
31
0.0000000000
0
SPLINE
5
4BA
100
AcDbEntity
8
0
100
AcDbSpline
62
7
6
BYLAYER
70
0
71
3
72
10
73
6
74
4
42
0.0000001000
43
0.0000001000
44
0.0000000001
40
0.0000000000
40
0.0000000000
40
0.0000000000
40
0.0000000000
40
0.3342855876
40
0.6773839906
40
1.0000000000
40
1.0000000000
40
1.0000000000
40
1.0000000000
10
77.1264500582
20
172.6075106289
30
0.0000000000
10
76.5400586447
20
172.4458523658
30
0.0000000000
10
75.3269954437
20
172.2221512739
30
0.0000000000
10
73.5057718622
20
172.1526701478
30
0.0000000000
10
72.3007162306
20
172.2866337306
30
0.0000000000
10
71.7258352478
20
172.4080611090
30
0.0000000000
11
77.1264500582
21
172.6075106289
31
0.0000000000
11
75.3377595218
21
172.2680790166
31
0.0000000000
11
73.4704235860
21
172.1991166357
31
0.0000000000
11
71.7258352478
21
172.4080611090
31
0.0000000000
0
SPLINE
5
4BB
100
AcDbEntity
8
0
100
AcDbSpline
62
7
6
BYLAYER
70
0
71
3
72
8
73
4
74
2
42
0.0000001000
43
0.0000001000
44
0.0000000001
40
0.0000000000
40
0.0000000000
40
0.0000000000
40
0.0000000000
40
1.0000000000
40
1.0000000000
40
1.0000000000
40
1.0000000000
10
71.7258352478
20
172.4080611090
30
0.0000000000
10
71.2327690268
20
172.5122074286
30
0.0000000000
10
70.7464032435
20
172.6579211286
30
0.0000000000
10
70.2921491219
20
172.8723776838
30
0.0000000000
11
71.7258352478
21
172.4080611090
31
0.0000000000
11
70.2921491219
21
172.8723776838
31
0.0000000000
0
SPLINE
5
4BC
100
AcDbEntity
8
0
100
AcDbSpline
62
7
6
BYLAYER
70
0
71
3
72
8
73
4
74
2
42
0.0000001000
43
0.0000001000
44
0.0000000001
40
0.0000000000
40
0.0000000000
40
0.0000000000
40
0.0000000000
40
1.0000000000
40
1.0000000000
40
1.0000000000
40
1.0000000000
10
69.4814458232
20
173.2551163942
30
0.0000000000
10
69.2616957284
20
173.3588619544
30
0.0000000000
10
69.0238847913
20
173.4233648625
30
0.0000000000
10
68.7834843536
20
173.4656609160
30
0.0000000000
11
69.4814458232
21
173.2551163942
31
0.0000000000
11
68.7834843536
21
173.4656609160
31
0.0000000000
0
SPLINE
5
4BD
100
AcDbEntity
8
0
100
AcDbSpline
62
7
6
BYLAYER
70
0
71
3
72
8
73
4
74
2
42
0.0000001000
43
0.0000001000
44
0.0000000001
40
0.0000000000
40
0.0000000000
40
0.0000000000
40
0.0000000000
40
1.0000000000
40
1.0000000000
40
1.0000000000
40
1.0000000000
10
68.7834843536
20
173.4656609160
30
0.0000000000
10
68.5010415042
20
173.5153539116
30
0.0000000000
10
68.2150242257
20
173.5343935737
30
0.0000000000
10
67.9293666209
20
173.5297909260
30
0.0000000000
11
68.7834843536
21
173.4656609160
31
0.0000000000
11
67.9293666209
21
173.5297909260
31
0.0000000000
0
SPLINE
5
4BE
100
AcDbEntity
8
0
100
AcDbSpline
62
7
6
BYLAYER
70
0
71
3
72
9
73
5
74
3
42
0.0000001000
43
0.0000001000
44
0.0000000001
40
0.0000000000
40
0.0000000000
40
0.0000000000
40
0.0000000000
40
0.5217568030
40
1.0000000000
40
1.0000000000
40
1.0000000000
40
1.0000000000
10
67.9293666209
20
173.5297909260
30
0.0000000000
10
67.6334581979
20
173.5250231124
30
0.0000000000
10
67.0670593109
20
173.4672617647
30
0.0000000000
10
66.5170628752
20
173.3109201366
30
0.0000000000
10
66.2680503839
20
173.2037698139
30
0.0000000000
11
67.9293666209
21
173.5297909260
31
0.0000000000
11
67.0468784949
21
173.4379118345
31
0.0000000000
11
66.2680503839
21
173.2037698139
31
0.0000000000
0
SPLINE
5
4BF
100
AcDbEntity
8
0
100
AcDbSpline
62
7
6
BYLAYER
70
0
71
3
72
10
73
6
74
4
42
0.0000001000
43
0.0000001000
44
0.0000000001
40
0.0000000000
40
0.0000000000
40
0.0000000000
40
0.0000000000
40
0.3104935459
40
0.6514301728
40
1.0000000000
40
1.0000000000
40
1.0000000000
40
1.0000000000
10
156.6744671896
20
249.8581514836
30
0.0000000000
10
156.1990725273
20
249.6484431553
30
0.0000000000
10
155.2919160995
20
248.9976082598
30
0.0000000000
10
154.2708687206
20
247.6472611710
30
0.0000000000
10
153.8335801774
20
246.5657076124
30
0.0000000000
10
153.6930293619
20
245.9963764464
30
0.0000000000
11
156.6744671896
21
249.8581514836
31
0.0000000000
11
155.3892909177
21
248.9760398348
31
0.0000000000
11
154.3438768836
21
247.6207768482
31
0.0000000000
11
153.6930293619
21
245.9963764464
31
0.0000000000
0
SPLINE
5
4C0
100
AcDbEntity
8
0
100
AcDbSpline
62
7
6
BYLAYER
70
0
71
3
72
8
73
4
74
2
42
0.0000001000
43
0.0000001000
44
0.0000000001
40
0.0000000000
40
0.0000000000
40
0.0000000000
40
0.0000000000
40
1.0000000000
40
1.0000000000
40
1.0000000000
40
1.0000000000
10
153.6930293619
20
245.9963764464
30
0.0000000000
10
153.6109727548
20
245.6639885936
30
0.0000000000
10
153.5563591472
20
245.3239085912
30
0.0000000000
10
153.5351382905
20
244.9828036363
30
0.0000000000
11
153.6930293619
21
245.9963764464
31
0.0000000000
11
153.5351382905
21
244.9828036363
31
0.0000000000
0
SPLINE
5
4C1
100
AcDbEntity
8
0
100
AcDbSpline
62
7
6
BYLAYER
70
0
71
3
72
8
73
4
74
2
42
0.0000001000
43
0.0000001000
44
0.0000000001
40
0.0000000000
40
0.0000000000
40
0.0000000000
40
0.0000000000
40
1.0000000000
40
1.0000000000
40
1.0000000000
40
1.0000000000
10
73.7088768782
20
188.0558038583
30
0.0000000000
10
73.5201566715
20
187.9088916483
30
0.0000000000
10
73.3232381369
20
187.7723503104
30
0.0000000000
10
73.1209249959
20
187.6445871162
30
0.0000000000
11
73.7088768782
21
188.0558038583
31
0.0000000000
11
73.1209249959
21
187.6445871162
31
0.0000000000
0
SPLINE
5
4C2
100
AcDbEntity
8
0
100
AcDbSpline
62
7
6
BYLAYER
70
0
71
3
72
8
73
4
74
2
42
0.0000001000
43
0.0000001000
44
0.0000000001
40
0.0000000000
40
0.0000000000
40
0.0000000000
40
0.0000000000
40
1.0000000000
40
1.0000000000
40
1.0000000000
40
1.0000000000
10
73.1209249959
20
187.6445871162
30
0.0000000000
10
72.9020340368
20
187.5063548295
30
0.0000000000
10
72.6768281667
20
187.3783982129
30
0.0000000000
10
72.4471698999
20
187.2590202254
30
0.0000000000
11
73.1209249959
21
187.6445871162
31
0.0000000000
11
72.4471698999
21
187.2590202254
31
0.0000000000
0
SPLINE
5
4C3
100
AcDbEntity
8
0
100
AcDbSpline
62
7
6
BYLAYER
70
0
71
3
72
8
73
4
74
2
42
0.0000001000
43
0.0000001000
44
0.0000000001
40
0.0000000000
40
0.0000000000
40
0.0000000000
40
0.0000000000
40
1.0000000000
40
1.0000000000
40
1.0000000000
40
1.0000000000
10
72.4471698999
20
187.2590202254
30
0.0000000000
10
72.2010808370
20
187.1311013942
30
0.0000000000
10
71.9498794978
20
187.0130326112
30
0.0000000000
10
71.6951858967
20
186.9034377013
30
0.0000000000
11
72.4471698999
21
187.2590202254
31
0.0000000000
11
71.6951858967
21
186.9034377013
31
0.0000000000
0
SPLINE
5
4C4
100
AcDbEntity
8
0
100
AcDbSpline
62
7
6
BYLAYER
70
0
71
3
72
9
73
5
74
3
42
0.0000001000
43
0.0000001000
44
0.0000000001
40
0.0000000000
40
0.0000000000
40
0.0000000000
40
0.0000000000
40
0.5143933444
40
1.0000000000
40
1.0000000000
40
1.0000000000
40
1.0000000000
10
113.4698832387
20
218.8415486908
30
0.0000000000
10
113.3471491345
20
218.7819104645
30
0.0000000000
10
113.1117462069
20
218.6591790341
30
0.0000000000
10
112.8847885844
20
218.5214856083
30
0.0000000000
10
112.7772157315
20
218.4505428230
30
0.0000000000
11
113.4698832387
21
218.8415486908
31
0.0000000000
11
113.1072043681
21
218.6516870509
31
0.0000000000
11
112.7772157315
21
218.4505428230
31
0.0000000000
0
SPLINE
5
4C5
100
AcDbEntity
8
0
100
AcDbSpline
62
7
6
BYLAYER
70
0
71
3
72
8
73
4
74
2
42
0.0000001000
43
0.0000001000
44
0.0000000001
40
0.0000000000
40
0.0000000000
40
0.0000000000
40
0.0000000000
40
1.0000000000
40
1.0000000000
40
1.0000000000
40
1.0000000000
10
112.7772157315
20
218.4505428230
30
0.0000000000
10
112.7089516549
20
218.4055236235
30
0.0000000000
10
112.6417504097
20
218.3588622468
30
0.0000000000
10
112.5758928203
20
218.3104038421
30
0.0000000000
11
112.7772157315
21
218.4505428230
31
0.0000000000
11
112.5758928203
21
218.3104038421
31
0.0000000000
0
SPLINE
5
4C6
100
AcDbEntity
8
0
100
AcDbSpline
62
7
6
BYLAYER
70
0
71
3
72
8
73
4
74
2
42
0.0000001000
43
0.0000001000
44
0.0000000001
40
0.0000000000
40
0.0000000000
40
0.0000000000
40
0.0000000000
40
1.0000000000
40
1.0000000000
40
1.0000000000
40
1.0000000000
10
112.5758928203
20
218.3104038421
30
0.0000000000
10
112.5443451642
20
218.2871908897
30
0.0000000000
10
112.5131058344
20
218.2635655766
30
0.0000000000
10
112.4822056997
20
218.2395108812
30
0.0000000000
11
112.5758928203
21
218.3104038421
31
0.0000000000
11
112.4822056997
21
218.2395108812
31
0.0000000000
0
SPLINE
5
4C7
100
AcDbEntity
8
0
100
AcDbSpline
62
7
6
BYLAYER
70
0
71
3
72
8
73
4
74
2
42
0.0000001000
43
0.0000001000
44
0.0000000001
40
0.0000000000
40
0.0000000000
40
0.0000000000
40
0.0000000000
40
1.0000000000
40
1.0000000000
40
1.0000000000
40
1.0000000000
10
132.6016222893
20
227.1101037549
30
0.0000000000
10
132.2239691832
20
227.1393339722
30
0.0000000000
10
131.8432354661
20
227.1364398492
30
0.0000000000
10
131.4652864110
20
227.1048846119
30
0.0000000000
11
132.6016222893
21
227.1101037549
31
0.0000000000
11
131.4652864110
21
227.1048846119
31
0.0000000000
0
SPLINE
5
4C8
100
AcDbEntity
8
0
100
AcDbSpline
62
7
6
BYLAYER
70
0
71
3
72
9
73
5
74
3
42
0.0000001000
43
0.0000001000
44
0.0000000001
40
0.0000000000
40
0.0000000000
40
0.0000000000
40
0.0000000000
40
0.5273614766
40
1.0000000000
40
1.0000000000
40
1.0000000000
40
1.0000000000
10
131.4652864110
20
227.1048846119
30
0.0000000000
10
131.0911787276
20
227.0736500934
30
0.0000000000
10
130.3869571352
20
226.9611731896
30
0.0000000000
10
129.7077404419
20
226.7317517314
30
0.0000000000
10
129.4055051813
20
226.5848913703
30
0.0000000000
11
131.4652864110
21
227.1048846119
31
0.0000000000
11
130.3553741656
21
226.9224946564
31
0.0000000000
11
129.4055051813
21
226.5848913703
31
0.0000000000
0
SPLINE
5
4C9
100
AcDbEntity
8
0
100
AcDbSpline
62
7
6
BYLAYER
70
0
71
3
72
8
73
4
74
2
42
0.0000001000
43
0.0000001000
44
0.0000000001
40
0.0000000000
40
0.0000000000
40
0.0000000000
40
0.0000000000
40
1.0000000000
40
1.0000000000
40
1.0000000000
40
1.0000000000
10
155.3839621830
20
226.9153519621
30
0.0000000000
10
154.7703330174
20
226.6171809259
30
0.0000000000
10
154.1185570683
20
226.3970282262
30
0.0000000000
10
153.4554403058
20
226.2299149872
30
0.0000000000
11
155.3839621830
21
226.9153519621
31
0.0000000000
11
153.4554403058
21
226.2299149872
31
0.0000000000
0
SPLINE
5
4CA
100
AcDbEntity
8
0
100
AcDbSpline
62
7
6
BYLAYER
70
0
71
3
72
9
73
5
74
3
42
0.0000001000
43
0.0000001000
44
0.0000000001
40
0.0000000000
40
0.0000000000
40
0.0000000000
40
0.0000000000
40
0.4974460892
40
1.0000000000
40
1.0000000000
40
1.0000000000
40
1.0000000000
10
153.4554403058
20
226.2299149872
30
0.0000000000
10
152.7155466709
20
226.0434530717
30
0.0000000000
10
151.1997792067
20
225.8013576389
30
0.0000000000
10
149.6616261791
20
225.7896654673
30
0.0000000000
10
148.8948759333
20
225.8490116660
30
0.0000000000
11
153.4554403058
21
226.2299149872
31
0.0000000000
11
151.2019821105
21
225.8596081079
31
0.0000000000
11
148.8948759333
21
225.8490116660
31
0.0000000000
0
SPLINE
5
4CB
100
AcDbEntity
8
0
100
AcDbSpline
62
7
6
BYLAYER
70
0
71
3
72
8
73
4
74
2
42
0.0000001000
43
0.0000001000
44
0.0000000001
40
0.0000000000
40
0.0000000000
40
0.0000000000
40
0.0000000000
40
1.0000000000
40
1.0000000000
40
1.0000000000
40
1.0000000000
10
133.3185246192
20
230.3233155171
30
0.0000000000
10
132.9399139942
20
230.3531965976
30
0.0000000000
10
132.5581524319
20
230.3507176929
30
0.0000000000
10
132.1791673997
20
230.3194315603
30
0.0000000000
11
133.3185246192
21
230.3233155171
31
0.0000000000
11
132.1791673997
21
230.3194315603
31
0.0000000000
0
SPLINE
5
4CC
100
AcDbEntity
8
0
100
AcDbSpline
62
7
6
BYLAYER
70
0
71
3
72
9
73
5
74
3
42
0.0000001000
43
0.0000001000
44
0.0000000001
40
0.0000000000
40
0.0000000000
40
0.0000000000
40
0.0000000000
40
0.5273670395
40
1.0000000000
40
1.0000000000
40
1.0000000000
40
1.0000000000
10
132.1791673997
20
230.3194315603
30
0.0000000000
10
131.8038276304
20
230.2884463529
30
0.0000000000
10
131.0972677463
20
230.1761129454
30
0.0000000000
10
130.4157664210
20
229.9462000981
30
0.0000000000
10
130.1125688410
20
229.7988721325
30
0.0000000000
11
132.1791673997
21
230.3194315603
31
0.0000000000
11
131.0655640278
21
230.1372637570
31
0.0000000000
11
130.1125688410
21
229.7988721325
31
0.0000000000
0
SPLINE
5
4CD
100
AcDbEntity
8
0
100
AcDbSpline
62
7
6
BYLAYER
70
0
71
3
72
8
73
4
74
2
42
0.0000001000
43
0.0000001000
44
0.0000000001
40
0.0000000000
40
0.0000000000
40
0.0000000000
40
0.0000000000
40
1.0000000000
40
1.0000000000
40
1.0000000000
40
1.0000000000
10
148.1550411463
20
230.5849585792
30
0.0000000000
10
147.5489551248
20
230.3175990640
30
0.0000000000
10
146.9122768932
20
230.1186311587
30
0.0000000000
10
146.2657918500
20
229.9684121669
30
0.0000000000
11
148.1550411463
21
230.5849585792
31
0.0000000000
11
146.2657918500
21
229.9684121669
31
0.0000000000
0
SPLINE
5
4CE
100
AcDbEntity
8
0
100
AcDbSpline
62
7
6
BYLAYER
70
0
71
3
72
9
73
5
74
3
42
0.0000001000
43
0.0000001000
44
0.0000000001
40
0.0000000000
40
0.0000000000
40
0.0000000000
40
0.0000000000
40
0.4989132893
40
1.0000000000
40
1.0000000000
40
1.0000000000
40
1.0000000000
10
146.2657918500
20
229.9684121669
30
0.0000000000
10
145.5557434239
20
229.8034234176
30
0.0000000000
10
144.1088417323
20
229.5905959716
30
0.0000000000
10
142.6437097136
20
229.5873440786
30
0.0000000000
10
141.9152378072
20
229.6448372556
30
0.0000000000
11
146.2657918500
21
229.9684121669
31
0.0000000000
11
144.1074486672
21
229.6432249231
31
0.0000000000
11
141.9152378072
21
229.6448372556
31
0.0000000000
0
SPLINE
5
4CF
100
AcDbEntity
8
0
100
AcDbSpline
62
7
6
BYLAYER
70
0
71
3
72
10
73
6
74
4
42
0.0000001000
43
0.0000001000
44
0.0000000001
40
0.0000000000
40
0.0000000000
40
0.0000000000
40
0.0000000000
40
0.3115279048
40
0.6523244102
40
1.0000000000
40
1.0000000000
40
1.0000000000
40
1.0000000000
10
68.0817823450
20
185.3485865597
30
0.0000000000
10
67.6018467032
20
185.1420697758
30
0.0000000000
10
66.6847894633
20
184.4982782796
30
0.0000000000
10
65.6495527482
20
183.1534935570
30
0.0000000000
10
65.2055756048
20
182.0734200132
30
0.0000000000
10
65.0629005482
20
181.5047626808
30
0.0000000000
11
68.0817823450
21
185.3485865597
31
0.0000000000
11
66.7810712005
21
184.4739225443
31
0.0000000000
11
65.7225268765
21
183.1249544009
31
0.0000000000
11
65.0629005482
21
181.5047626808
31
0.0000000000
0
SPLINE
5
4D0
100
AcDbEntity
8
0
100
AcDbSpline
62
7
6
BYLAYER
70
0
71
3
72
8
73
4
74
2
42
0.0000001000
43
0.0000001000
44
0.0000000001
40
0.0000000000
40
0.0000000000
40
0.0000000000
40
0.0000000000
40
1.0000000000
40
1.0000000000
40
1.0000000000
40
1.0000000000
10
65.0629005482
20
181.5047626808
30
0.0000000000
10
64.9276889851
20
180.9658524565
30
0.0000000000
10
64.8657020942
20
180.4060838767
30
0.0000000000
10
64.9026307683
20
179.8547147789
30
0.0000000000
11
65.0629005482
21
181.5047626808
31
0.0000000000
11
64.9026307683
21
179.8547147789
31
0.0000000000
0
SPLINE
5
4D1
100
AcDbEntity
8
0
100
AcDbSpline
62
7
6
BYLAYER
70
0
71
3
72
8
73
4
74
2
42
0.0000001000
43
0.0000001000
44
0.0000000001
40
0.0000000000
40
0.0000000000
40
0.0000000000
40
0.0000000000
40
1.0000000000
40
1.0000000000
40
1.0000000000
40
1.0000000000
10
162.4062348454
20
234.4683900524
30
0.0000000000
10
162.4085060228
20
234.4344798988
30
0.0000000000
10
162.4104261179
20
234.4005406729
30
0.0000000000
10
162.4120007796
20
234.3665783153
30
0.0000000000
11
162.4062348454
21
234.4683900524
31
0.0000000000
11
162.4120007796
21
234.3665783153
31
0.0000000000
0
SPLINE
5
4D2
100
AcDbEntity
8
0
100
AcDbSpline
62
7
6
BYLAYER
70
0
71
3
72
11
73
7
74
5
42
0.0000001000
43
0.0000001000
44
0.0000000001
40
0.0000000000
40
0.0000000000
40
0.0000000000
40
0.0000000000
40
0.2433577454
40
0.5163838787
40
0.7811462488
40
1.0000000000
40
1.0000000000
40
1.0000000000
40
1.0000000000
10
162.4120007796
20
234.3665783153
30
0.0000000000
10
162.4361158504
20
233.8464636275
30
0.0000000000
10
162.3153785462
20
232.7313140650
30
0.0000000000
10
161.7191235028
20
231.1527824927
30
0.0000000000
10
160.7783845839
20
229.8150188288
30
0.0000000000
10
159.9526259578
20
229.1548447876
30
0.0000000000
10
159.5384798958
20
228.9363122548
30
0.0000000000
11
162.4120007796
21
234.3665783153
31
0.0000000000
11
162.2615887530
21
232.8112966432
31
0.0000000000
11
161.6462826042
21
231.1711187229
31
0.0000000000
11
160.6540271095
21
229.7922576090
31
0.0000000000
11
159.5384798958
21
228.9363122548
31
0.0000000000
0
SPLINE
5
4D3
100
AcDbEntity
8
0
100
AcDbSpline
62
7
6
BYLAYER
70
0
71
3
72
8
73
4
74
2
42
0.0000001000
43
0.0000001000
44
0.0000000001
40
0.0000000000
40
0.0000000000
40
0.0000000000
40
0.0000000000
40
1.0000000000
40
1.0000000000
40
1.0000000000
40
1.0000000000
10
159.5384798958
20
228.9363122548
30
0.0000000000
10
159.5031939873
20
228.9176929327
30
0.0000000000
10
159.4676143636
20
228.8996559530
30
0.0000000000
10
159.4317444323
20
228.8822262492
30
0.0000000000
11
159.5384798958
21
228.9363122548
31
0.0000000000
11
159.4317444323
21
228.8822262492
31
0.0000000000
0
SPLINE
5
4D4
100
AcDbEntity
8
0
100
AcDbSpline
62
7
6
BYLAYER
70
0
71
3
72
8
73
4
74
2
42
0.0000001000
43
0.0000001000
44
0.0000000001
40
0.0000000000
40
0.0000000000
40
0.0000000000
40
0.0000000000
40
1.0000000000
40
1.0000000000
40
1.0000000000
40
1.0000000000
10
154.0079851844
20
237.2956236628
30
0.0000000000
10
154.0102138289
20
237.2623485515
30
0.0000000000
10
154.0120866408
20
237.2290433824
30
0.0000000000
10
154.0136092076
20
237.1957144168
30
0.0000000000
11
154.0079851844
21
237.2956236628
31
0.0000000000
11
154.0136092076
21
237.1957144168
31
0.0000000000
0
SPLINE
5
4D5
100
AcDbEntity
8
0
100
AcDbSpline
62
7
6
BYLAYER
70
0
71
3
72
11
73
7
74
5
42
0.0000001000
43
0.0000001000
44
0.0000000001
40
0.0000000000
40
0.0000000000
40
0.0000000000
40
0.0000000000
40
0.2410654608
40
0.5116647408
40
0.7763382684
40
1.0000000000
40
1.0000000000
40
1.0000000000
40
1.0000000000
10
154.0136092076
20
237.1957144168
30
0.0000000000
10
154.0373335630
20
236.6763886140
30
0.0000000000
10
153.9071965492
20
235.5618494155
30
0.0000000000
10
153.2729707383
20
233.9932073977
30
0.0000000000
10
152.2747803877
20
232.6730889959
30
0.0000000000
10
151.4068285121
20
232.0370264451
30
0.0000000000
10
150.9715215814
20
231.8292245973
30
0.0000000000
11
154.0136092076
21
237.1957144168
31
0.0000000000
11
153.8508100970
21
235.6440921223
31
0.0000000000
11
153.1999625753
21
234.0196917206
31
0.0000000000
11
152.1545485413
21
232.6644287340
31
0.0000000000
11
150.9715215814
21
231.8292245973
31
0.0000000000
0
SPLINE
5
4D6
100
AcDbEntity
8
0
100
AcDbSpline
62
7
6
BYLAYER
70
0
71
3
72
8
73
4
74
2
42
0.0000001000
43
0.0000001000
44
0.0000000001
40
0.0000000000
40
0.0000000000
40
0.0000000000
40
0.0000000000
40
1.0000000000
40
1.0000000000
40
1.0000000000
40
1.0000000000
10
150.9715215814
20
231.8292245973
30
0.0000000000
10
150.9376983876
20
231.8130784676
30
0.0000000000
10
150.9036471218
20
231.7974365692
30
0.0000000000
10
150.8693722693
20
231.7823170851
30
0.0000000000
11
150.9715215814
21
231.8292245973
31
0.0000000000
11
150.8693722693
21
231.7823170851
31
0.0000000000
0
SPLINE
5
4D7
100
AcDbEntity
8
0
100
AcDbSpline
62
7
6
BYLAYER
70
0
71
3
72
10
73
6
74
4
42
0.0000001000
43
0.0000001000
44
0.0000000001
40
0.0000000000
40
0.0000000000
40
0.0000000000
40
0.0000000000
40
0.4031449260
40
0.7780717981
40
1.0000000000
40
1.0000000000
40
1.0000000000
40
1.0000000000
10
80.2819481331
20
170.9771367821
30
0.0000000000
10
80.4472191284
20
171.3725985896
30
0.0000000000
10
80.6777276972
20
172.1769282817
30
0.0000000000
10
80.7090823473
20
173.2520714142
30
0.0000000000
10
80.5615222432
20
173.8782474303
30
0.0000000000
10
80.4751226856
20
174.0991054326
30
0.0000000000
11
80.2819481331
21
170.9771367821
31
0.0000000000
11
80.6307540937
21
172.2147454803
31
0.0000000000
11
80.6482679943
21
173.4104393155
31
0.0000000000
11
80.4751226856
21
174.0991054326
31
0.0000000000
0
SPLINE
5
4D8
100
AcDbEntity
8
0
100
AcDbSpline
62
7
6
BYLAYER
70
0
71
3
72
8
73
4
74
2
42
0.0000001000
43
0.0000001000
44
0.0000000001
40
0.0000000000
40
0.0000000000
40
0.0000000000
40
0.0000000000
40
1.0000000000
40
1.0000000000
40
1.0000000000
40
1.0000000000
10
84.8481999558
20
165.6857769741
30
0.0000000000
10
84.5683934166
20
165.5438203441
30
0.0000000000
10
84.2556358203
20
165.4468558836
30
0.0000000000
10
83.9382790607
20
165.4448736277
30
0.0000000000
11
84.8481999558
21
165.6857769741
31
0.0000000000
11
83.9382790607
21
165.4448736277
31
0.0000000000
0
SPLINE
5
4D9
100
AcDbEntity
8
0
100
AcDbSpline
62
7
6
BYLAYER
70
0
71
3
72
8
73
4
74
2
42
0.0000001000
43
0.0000001000
44
0.0000000001
40
0.0000000000
40
0.0000000000
40
0.0000000000
40
0.0000000000
40
1.0000000000
40
1.0000000000
40
1.0000000000
40
1.0000000000
10
83.9382790607
20
165.4448736277
30
0.0000000000
10
83.7388455691
20
165.4436279375
30
0.0000000000
10
83.5375958112
20
165.4798918898
30
0.0000000000
10
83.3517017424
20
165.5522310621
30
0.0000000000
11
83.9382790607
21
165.4448736277
31
0.0000000000
11
83.3517017424
21
165.5522310621
31
0.0000000000
0
SPLINE
5
4DA
100
AcDbEntity
8
0
100
AcDbSpline
62
7
6
BYLAYER
70
0
71
3
72
9
73
5
74
3
42
0.0000001000
43
0.0000001000
44
0.0000000001
40
0.0000000000
40
0.0000000000
40
0.0000000000
40
0.0000000000
40
0.6339012169
40
1.0000000000
40
1.0000000000
40
1.0000000000
40
1.0000000000
10
158.4075008910
20
244.1748478084
30
0.0000000000
10
158.7966289738
20
244.3639306131
30
0.0000000000
10
159.4854706692
20
244.5583162849
30
0.0000000000
10
160.1764231274
20
244.4098178009
30
0.0000000000
10
160.4106033526
20
244.3132742920
30
0.0000000000
11
158.4075008910
21
244.1748478084
31
0.0000000000
11
159.6707923211
21
244.4725918425
31
0.0000000000
11
160.4106033526
21
244.3132742920
31
0.0000000000
0
SPLINE
5
4DB
100
AcDbEntity
8
0
100
AcDbSpline
62
7
6
BYLAYER
70
0
71
3
72
12
73
8
74
6
42
0.0000001000
43
0.0000001000
44
0.0000000001
40
0.0000000000
40
0.0000000000
40
0.0000000000
40
0.0000000000
40
0.0539408322
40
0.2445393325
40
0.4675432165
40
0.7241163976
40
1.0000000000
40
1.0000000000
40
1.0000000000
40
1.0000000000
10
83.3517017424
20
165.5522310621
30
0.0000000000
10
83.2726932767
20
165.5829765671
30
0.0000000000
10
82.9270857406
20
165.7519036121
30
0.0000000000
10
82.4271111720
20
166.3266245716
30
0.0000000000
10
82.1374819632
20
167.3496153597
30
0.0000000000
10
82.1720957510
20
168.5365135102
30
0.0000000000
10
82.4026043197
20
169.3408432023
30
0.0000000000
10
82.5678753151
20
169.7363050098
30
0.0000000000
11
83.3517017424
21
165.5522310621
31
0.0000000000
11
83.1243163340
21
165.6639074335
31
0.0000000000
11
82.5177310025
21
166.3128959652
31
0.0000000000
11
82.2015554539
21
167.3030024764
31
0.0000000000
11
82.2190693544
21
168.4986963116
31
0.0000000000
11
82.5678753151
21
169.7363050098
31
0.0000000000
0
SPLINE
5
4DC
100
AcDbEntity
8
0
100
AcDbSpline
62
7
6
BYLAYER
70
0
71
3
72
12
73
8
74
6
42
0.0000001000
43
0.0000001000
44
0.0000000001
40
0.0000000000
40
0.0000000000
40
0.0000000000
40
0.0000000000
40
0.2758836024
40
0.5324567835
40
0.7554606675
40
0.9460591678
40
1.0000000000
40
1.0000000000
40
1.0000000000
40
1.0000000000
10
82.6888096822
20
170.0256777658
30
0.0000000000
10
82.8540806776
20
170.4211395733
30
0.0000000000
10
83.0845892463
20
171.2254692654
30
0.0000000000
10
83.1192030341
20
172.4123674159
30
0.0000000000
10
82.8295738253
20
173.4353582040
30
0.0000000000
10
82.3295992567
20
174.0100791635
30
0.0000000000
10
81.9839917206
20
174.1790062085
30
0.0000000000
10
81.9049832549
20
174.2097517135
30
0.0000000000
11
82.6888096822
21
170.0256777658
31
0.0000000000
11
83.0376156429
21
171.2632864640
31
0.0000000000
11
83.0551295434
21
172.4589802992
31
0.0000000000
11
82.7389539948
21
173.4490868104
31
0.0000000000
11
82.1323686633
21
174.0980753421
31
0.0000000000
11
81.9049832549
21
174.2097517135
31
0.0000000000
0
ENDSEC
0
SECTION
2
OBJECTS
0
DICTIONARY
5
4DD
100
AcDbDictionary
3
ACAD_GROUP
350
4DE
3
ACAD_MLINESTYLE
350
4DF
0
DICTIONARY
5
4DE
102
{ACAD_REACTORS
330
4DD
102
}
100
AcDbDictionary
0
DICTIONARY
5
4DF
102
{ACAD_REACTORS
330
4DD
102
}
100
AcDbDictionary
3
STANDARD
350
4E0
0
MLINESTYLE
5
4E0
102
{ACAD_REACTORS
330
4DF
102
}
100
AcDbMlineStyle
2
STANDARD
70
0
3

62
256
51
90.0
52
90.0
71
2
49
0.5
62
256
6
BYLAYER
49
-0.5
62
256
6
BYLAYER
0
ENDSEC
0
EOF
